  0
SECTION
  2
HEADER
  9
$ACADVER
  1
AC1009
  9
$INSBASE
 10
0.0
 20
0.0
 30
0.0
  9
$EXTMIN
 10
13.673802
 20
20.867548
 30
0.0
  9
$EXTMAX
 10
291.91442
 20
257.702351
 30
0.0
  9
$LIMMIN
 10
0.0
 20
0.0
  9
$LIMMAX
 10
198.0
 20
285.0
  9
$ORTHOMODE
 70
     1
  9
$REGENMODE
 70
     0
  9
$FILLMODE
 70
     1
  9
$QTEXTMODE
 70
     0
  9
$MIRRTEXT
 70
     0
  9
$DRAGMODE
 70
     2
  9
$LTSCALE
 40
16.0
  9
$OSMODE
 70
     0
  9
$ATTMODE
 70
     1
  9
$TEXTSIZE
 40
5.0
  9
$TRACEWID
 40
0.05
  9
$TEXTSTYLE
  7
UT7
  9
$CLAYER
  8
1
  9
$CELTYPE
  6
BYLAYER
  9
$CECOLOR
 62
   256
  9
$DIMSCALE
 40
2.0
  9
$DIMASZ
 40
1.5
  9
$DIMEXO
 40
2.0
  9
$DIMDLI
 40
10.0
  9
$DIMRND
 40
0.0
  9
$DIMDLE
 40
0.0
  9
$DIMEXE
 40
1.5
  9
$DIMTP
 40
0.0
  9
$DIMTM
 40
0.0
  9
$DIMTXT
 40
2.2
  9
$DIMCEN
 40
0.09
  9
$DIMTSZ
 40
0.0
  9
$DIMTOL
 70
     0
  9
$DIMLIM
 70
     0
  9
$DIMTIH
 70
     0
  9
$DIMTOH
 70
     0
  9
$DIMSE1
 70
     0
  9
$DIMSE2
 70
     0
  9
$DIMTAD
 70
     0
  9
$DIMZIN
 70
     0
  9
$DIMBLK
  1

  9
$DIMASO
 70
     1
  9
$DIMSHO
 70
     0
  9
$DIMPOST
  1

  9
$DIMAPOST
  1

  9
$DIMALT
 70
     0
  9
$DIMALTD
 70
     2
  9
$DIMALTF
 40
25.4
  9
$DIMLFAC
 40
1.0
  9
$DIMTOFL
 70
     1
  9
$DIMTVP
 40
1.0
  9
$DIMTIX
 70
     0
  9
$DIMSOXD
 70
     0
  9
$DIMSAH
 70
     0
  9
$DIMBLK1
  1

  9
$DIMBLK2
  1

  9
$DIMSTYLE
  2
STANDARD
  9
$DIMCLRD
 70
     0
  9
$DIMCLRE
 70
     0
  9
$DIMCLRT
 70
     0
  9
$DIMTFAC
 40
1.0
  9
$DIMGAP
 40
0.09
  9
$LUNITS
 70
     2
  9
$LUPREC
 70
     3
  9
$AXISMODE
 70
     0
  9
$AXISUNIT
 10
0.0
 20
0.0
  9
$SKETCHINC
 40
0.1
  9
$FILLETRAD
 40
0.0
  9
$AUNITS
 70
     0
  9
$AUPREC
 70
     0
  9
$MENU
  1
AMECEX
  9
$ELEVATION
 40
0.0
  9
$PELEVATION
 40
0.0
  9
$THICKNESS
 40
0.0
  9
$LIMCHECK
 70
     0
  9
$BLIPMODE
 70
     0
  9
$CHAMFERA
 40
0.0
  9
$CHAMFERB
 40
0.0
  9
$SKPOLY
 70
     0
  9
$TDCREATE
 40
2452845.656305556
  9
$TDUPDATE
 40
2453122.562430544
  9
$TDINDWG
 40
0.0007523148
  9
$TDUSRTIMER
 40
0.0007523148
  9
$USRTIMER
 70
     1
  9
$ANGBASE
 50
0.0
  9
$ANGDIR
 70
     0
  9
$PDMODE
 70
     0
  9
$PDSIZE
 40
0.0
  9
$PLINEWID
 40
0.0
  9
$COORDS
 70
     2
  9
$SPLFRAME
 70
     0
  9
$SPLINETYPE
 70
     6
  9
$SPLINESEGS
 70
     8
  9
$ATTDIA
 70
     0
  9
$ATTREQ
 70
     1
  9
$HANDLING
 70
     1
  9
$HANDSEED
  5
733
  9
$SURFTAB1
 70
     6
  9
$SURFTAB2
 70
     6
  9
$SURFTYPE
 70
     6
  9
$SURFU
 70
     6
  9
$SURFV
 70
     6
  9
$UCSNAME
  2

  9
$UCSORG
 10
0.0
 20
0.0
 30
0.0
  9
$UCSXDIR
 10
1.0
 20
0.0
 30
0.0
  9
$UCSYDIR
 10
0.0
 20
1.0
 30
0.0
  9
$PUCSNAME
  2

  9
$PUCSORG
 10
0.0
 20
0.0
 30
0.0
  9
$PUCSXDIR
 10
1.0
 20
0.0
 30
0.0
  9
$PUCSYDIR
 10
0.0
 20
1.0
 30
0.0
  9
$USERI1
 70
     0
  9
$USERI2
 70
     0
  9
$USERI3
 70
     0
  9
$USERI4
 70
     0
  9
$USERI5
 70
     0
  9
$USERR1
 40
30.0
  9
$USERR2
 40
0.0
  9
$USERR3
 40
0.0
  9
$USERR4
 40
0.0
  9
$USERR5
 40
0.0
  9
$WORLDVIEW
 70
     1
  9
$SHADEDGE
 70
     3
  9
$SHADEDIF
 70
    70
  9
$TILEMODE
 70
     1
  9
$MAXACTVP
 70
    16
  9
$PINSBASE
 10
0.0
 20
0.0
 30
0.0
  9
$PLIMCHECK
 70
     0
  9
$PEXTMIN
 10
1.000000E+20
 20
1.000000E+20
 30
1.000000E+20
  9
$PEXTMAX
 10
-1.000000E+20
 20
-1.000000E+20
 30
-1.000000E+20
  9
$PLIMMIN
 10
0.0
 20
0.0
  9
$PLIMMAX
 10
12.0
 20
9.0
  9
$UNITMODE
 70
     0
  9
$VISRETAIN
 70
     0
  9
$PLINEGEN
 70
     0
  9
$PSLTSCALE
 70
     0
  9
$TREEDEPTH
 70
  3020
  9
$DWGCODEPAGE
  3
dos932
  0
ENDSEC
  0
SECTION
  2
TABLES
  0
TABLE
  2
VPORT
 70
     1
  0
VPORT
  2
*ACTIVE
 70
     0
 10
0.0
 20
0.0
 11
1.0
 21
1.0
 12
152.794111
 22
139.28495
 13
0.0
 23
0.0
 14
1.0
 24
1.0
 15
0.0
 25
0.0
 16
0.0
 26
0.0
 36
1.0
 17
0.0
 27
0.0
 37
0.0
 40
241.5715
 41
1.745353
 42
50.0
 43
0.0
 44
0.0
 50
0.0
 51
0.0
 71
     0
 72
   100
 73
     1
 74
     0
 75
     0
 76
     0
 77
     0
 78
     0
  0
ENDTAB
  0
TABLE
  2
LTYPE
 70
     1
  0
LTYPE
  2
CONTINUOUS
 70
    64
  3
Solid line
 72
    65
 73
     0
 40
0.0
  0
ENDTAB
  0
TABLE
  2
LAYER
 70
     7
  0
LAYER
  2
0
 70
    64
 62
     7
  6
CONTINUOUS
  0
LAYER
  2
GAWA
 70
    64
 62
     2
  6
CONTINUOUS
  0
LAYER
  2
1
 70
    64
 62
     3
  6
CONTINUOUS
  0
LAYER
  2
SCALE
 70
    64
 62
     4
  6
CONTINUOUS
  0
LAYER
  2
SILK
 70
    64
 62
     5
  6
CONTINUOUS
  0
LAYER
  2
DEFPOINTS
 70
    64
 62
    -7
  6
CONTINUOUS
  0
LAYER
  2
PEN1
 70
    64
 62
     5
  6
CONTINUOUS
  0
ENDTAB
  0
TABLE
  2
STYLE
 70
     4
  0
STYLE
  2
STANDARD
 70
    64
 40
0.0
 41
1.0
 50
0.0
 71
     0
 42
3.0
  3
SIMPLEX
  4

  0
STYLE
  2
CMP-SET
 70
    64
 40
0.0
 41
1.0
 50
0.0
 71
     0
 42
20.0
  3
COMPLEX
  4

  0
STYLE
  2
TOALOGO
 70
    64
 40
3.0
 41
1.0
 50
0.0
 71
     0
 42
3.0
  3
SIMPLEX
  4
SLFONT
  0
STYLE
  2
UT7
 70
    64
 40
0.0
 41
0.8
 50
0.0
 71
     0
 42
5.0
  3
TOAFONT
  4

  0
ENDTAB
  0
TABLE
  2
VIEW
 70
     0
  0
ENDTAB
  0
TABLE
  2
UCS
 70
     0
  0
ENDTAB
  0
TABLE
  2
APPID
 70
     1
  0
APPID
  2
ACAD
 70
    64
  0
ENDTAB
  0
TABLE
  2
DIMSTYLE
 70
     1
  0
DIMSTYLE
  2
STANDARD
 70
     0
  3

  4

  5

  6

  7

 40
1.0
 41
0.18
 42
0.0625
 43
0.38
 44
0.18
 45
0.0
 46
0.0
 47
0.0
 48
0.0
 71
     0
 72
     0
 73
     1
 74
     1
 75
     0
 76
     0
 77
     0
 78
     0
140
0.18
141
0.09
142
0.0
143
25.4
144
1.0
145
0.0
146
1.0
147
0.09
170
     0
171
     2
172
     0
173
     0
174
     0
175
     0
176
     0
177
     0
178
     0
  0
ENDTAB
  0
ENDSEC
  0
SECTION
  2
BLOCKS
  0
BLOCK
  8
0
  5
25C
  2
LOGO8911
 70
    64
 10
0.0
 20
0.0
 30
0.0
  3
LOGO8911
  0
TEXT
  8
0
  5
25A
 10
0.008136
 20
0.013361
 30
0.0
 40
11.4
  1
‡z
  7
TOALOGO
  0
TEXT
  8
1
  5
25B
 10
0.008136
 20
0.013361
 30
0.0
 40
11.4
  1
‡y
  7
TOALOGO
  0
ENDBLK
  8
0
  5
25D
  0
BLOCK
  8
0
  5
40
  2
TOA8911
 70
    64
 10
0.0
 20
0.0
 30
0.0
  3
TOA8911
  0
TEXT
  8
1
  5
3E
 10
0.051707
 20
0.1026
 30
0.0
 40
3.8475
  1
‡{
  7
TOALOGO
  0
ENDBLK
  8
0
  5
41
  0
BLOCK
  8
0
  5
5B
  2
YAZ3
 70
    64
 10
0.0
 20
0.0
 30
0.0
  3
YAZ3
  0
INSERT
  8
0
  5
49
  2
YAZ1
 10
0.0
 20
0.0
 30
0.0
  0
LINE
  8
0
  5
50
 10
-0.999365
 20
0.04706
 30
0.0
 11
-0.175629
 21
0.04706
 31
0.0
  0
LINE
  8
0
  5
51
 10
-0.999365
 20
0.09706
 30
0.0
 11
-0.362232
 21
0.09706
 31
0.0
  0
LINE
  8
0
  5
52
 10
-0.999365
 20
0.14706
 30
0.0
 11
-0.548834
 21
0.14706
 31
0.0
  0
LINE
  8
0
  5
53
 10
-0.999365
 20
0.19706
 30
0.0
 11
-0.735437
 21
0.19706
 31
0.0
  0
LINE
  8
0
  5
54
 10
-0.999365
 20
0.24706
 30
0.0
 11
-0.922039
 21
0.24706
 31
0.0
  0
LINE
  8
0
  5
55
 10
-0.999365
 20
-0.05294
 30
0.0
 11
-0.197576
 21
-0.05294
 31
0.0
  0
LINE
  8
0
  5
56
 10
-0.999365
 20
-0.10294
 30
0.0
 11
-0.384179
 21
-0.10294
 31
0.0
  0
LINE
  8
0
  5
57
 10
-0.999365
 20
-0.15294
 30
0.0
 11
-0.570781
 21
-0.15294
 31
0.0
  0
LINE
  8
0
  5
58
 10
-0.999365
 20
-0.20294
 30
0.0
 11
-0.757384
 21
-0.20294
 31
0.0
  0
LINE
  8
0
  5
59
 10
-0.999365
 20
-0.25294
 30
0.0
 11
-0.943986
 21
-0.25294
 31
0.0
  0
SOLID
  8
0
  5
5A
 10
0.0
 20
0.0
 30
0.0
 11
-1.0
 21
0.267949
 31
0.0
 12
-1.0
 22
-0.267949
 32
0.0
 13
-1.0
 23
-0.267949
 33
0.0
  0
ENDBLK
  8
0
  5
5C
  0
BLOCK
  8
0
  5
4E
  2
YAZ1
 70
    64
 10
184.0
 20
133.0
 30
0.0
  3
YAZ1
  0
LINE
  8
0
  5
4B
 10
184.0
 20
133.0
 30
0.0
 11
183.0
 21
132.732051
 31
0.0
  0
LINE
  8
0
  5
4C
 10
184.0
 20
133.0
 30
0.0
 11
183.0
 21
133.267949
 31
0.0
  0
LINE
  8
0
  5
4D
 10
183.0
 20
133.0
 30
0.0
 11
184.0
 21
133.0
 31
0.0
  0
ENDBLK
  8
0
  5
4F
  0
BLOCK
  8
0
  5
63
  2
*D4
 70
    65
 10
0.0
 20
0.0
 30
0.0
  3
*D4
  0
LINE
  8
0
  6
BYBLOCK
 62
     0
  5
44
 10
381.559406
 20
169.914304
 30
0.0
 11
381.559406
 21
182.017869
 31
0.0
  0
LINE
  8
0
  6
BYBLOCK
 62
     0
  5
45
 10
591.559406
 20
169.914304
 30
0.0
 11
591.559406
 21
182.017869
 31
0.0
  0
LINE
  8
0
  6
BYBLOCK
 62
     0
  5
46
 10
384.559406
 20
179.017869
 30
0.0
 11
588.559406
 21
179.017869
 31
0.0
  0
INSERT
  8
0
  6
BYBLOCK
 62
     0
  5
47
  2
YAZ3
 10
381.559406
 20
179.017869
 30
0.0
 41
3.0
 42
3.0
 50
180.0
 43
3.0
  0
INSERT
  8
0
  6
BYBLOCK
 62
     0
  5
5D
  2
YAZ3
 10
591.559406
 20
179.017869
 30
0.0
 41
3.0
 42
3.0
 43
3.0
  0
TEXT
  8
0
  6
CONTINUOUS
 62
     0
  5
5E
 10
481.32131
 20
181.217869
 30
0.0
 40
4.4
  1
210
  0
POINT
  8
DEFPOINTS
  6
BYBLOCK
 62
     0
  5
5F
 10
381.559406
 20
165.914304
 30
0.0
  0
POINT
  8
DEFPOINTS
  6
BYBLOCK
 62
     0
  5
61
 10
591.559406
 20
165.914304
 30
0.0
  0
POINT
  8
DEFPOINTS
  6
BYBLOCK
 62
     0
  5
62
 10
591.559406
 20
179.017869
 30
0.0
  0
ENDBLK
  8
0
  5
64
  0
BLOCK
  8
0
  5
394
  2
*D5
 70
    65
 10
0.0
 20
0.0
 30
0.0
  3
*D5
  0
LINE
  8
0
  6
BYBLOCK
 62
     0
  5
38B
 10
586.559406
 20
172.614304
 30
0.0
 11
604.154041
 21
172.614304
 31
0.0
  0
LINE
  8
0
  6
BYBLOCK
 62
     0
  5
38C
 10
586.559406
 20
128.614304
 30
0.0
 11
604.154041
 21
128.614304
 31
0.0
  0
LINE
  8
0
  6
BYBLOCK
 62
     0
  5
38D
 10
601.154041
 20
169.614304
 30
0.0
 11
601.154041
 21
131.614304
 31
0.0
  0
INSERT
  8
0
  6
BYBLOCK
 62
     0
  5
38E
  2
YAZ3
 10
601.154041
 20
172.614304
 30
0.0
 41
3.0
 42
3.0
 50
90.0
 43
3.0
  0
INSERT
  8
0
  6
BYBLOCK
 62
     0
  5
38F
  2
YAZ3
 10
601.154041
 20
128.614304
 30
0.0
 41
3.0
 42
3.0
 50
270.0
 43
3.0
  0
TEXT
  8
0
  6
CONTINUOUS
 62
     0
  5
390
 10
598.954041
 20
146.947637
 30
0.0
 40
4.4
  1
44
 50
90.0
  0
POINT
  8
DEFPOINTS
  6
BYBLOCK
 62
     0
  5
391
 10
582.559406
 20
172.614304
 30
0.0
  0
POINT
  8
DEFPOINTS
  6
BYBLOCK
 62
     0
  5
392
 10
582.559406
 20
128.614304
 30
0.0
  0
POINT
  8
DEFPOINTS
  6
BYBLOCK
 62
     0
  5
393
 10
601.154041
 20
128.614304
 30
0.0
  0
ENDBLK
  8
0
  5
395
  0
BLOCK
  8
0
  5
81
  2
*D6
 70
    65
 10
0.0
 20
0.0
 30
0.0
  3
*D6
  0
LINE
  8
0
  6
BYBLOCK
 62
     0
  5
78
 10
396.059406
 20
97.51126
 30
0.0
 11
396.059406
 21
105.512595
 31
0.0
  0
LINE
  8
0
  6
BYBLOCK
 62
     0
  5
79
 10
577.059406
 20
97.51126
 30
0.0
 11
577.059406
 21
105.512595
 31
0.0
  0
LINE
  8
0
  6
BYBLOCK
 62
     0
  5
7A
 10
399.059406
 20
102.512595
 30
0.0
 11
574.059406
 21
102.512595
 31
0.0
  0
INSERT
  8
0
  6
BYBLOCK
 62
     0
  5
7B
  2
YAZ3
 10
396.059406
 20
102.512595
 30
0.0
 41
3.0
 42
3.0
 50
180.0
 43
3.0
  0
INSERT
  8
0
  6
BYBLOCK
 62
     0
  5
7C
  2
YAZ3
 10
577.059406
 20
102.512595
 30
0.0
 41
3.0
 42
3.0
 43
3.0
  0
TEXT
  8
0
  6
CONTINUOUS
 62
     0
  5
7D
 10
482.264167
 20
104.712595
 30
0.0
 40
4.4
  1
181
  0
POINT
  8
DEFPOINTS
  6
BYBLOCK
 62
     0
  5
7E
 10
396.059406
 20
93.51126
 30
0.0
  0
POINT
  8
DEFPOINTS
  6
BYBLOCK
 62
     0
  5
7F
 10
577.059406
 20
93.51126
 30
0.0
  0
POINT
  8
DEFPOINTS
  6
BYBLOCK
 62
     0
  5
80
 10
577.059406
 20
102.512595
 30
0.0
  0
ENDBLK
  8
0
  5
82
  0
BLOCK
  8
0
  5
10D
  2
*X7
 70
    65
 10
0.0
 20
0.0
 30
0.0
  3
*X7
  0
LINE
  8
0
 62
     0
  5
109
 10
93.504368
 20
141.941183
 30
0.0
 11
93.834324
 21
142.271139
 31
0.0
  0
LINE
  8
0
 62
     0
  5
10A
 10
93.405942
 20
142.019533
 30
0.0
 11
93.755974
 21
142.369565
 31
0.0
  0
LINE
  8
0
 62
     0
  5
10B
 10
93.356855
 20
142.147223
 30
0.0
 11
93.628284
 21
142.418652
 31
0.0
  0
LINE
  8
0
 62
     0
  5
10C
 10
93.667292
 20
141.92733
 30
0.0
 11
93.848177
 21
142.108215
 31
0.0
  0
ENDBLK
  8
0
  5
10E
  0
BLOCK
  8
0
  5
103
  2
*X8
 70
    65
 10
0.0
 20
0.0
 30
0.0
  3
*X8
  0
LINE
  8
0
 62
     0
  5
FF
 10
92.045971
 20
144.018319
 30
0.0
 11
92.392396
 21
144.364744
 31
0.0
  0
LINE
  8
0
 62
     0
  5
100
 10
91.962172
 20
144.111297
 30
0.0
 11
92.299418
 21
144.448543
 31
0.0
  0
LINE
  8
0
 62
     0
  5
101
 10
91.93639
 20
144.262291
 30
0.0
 11
92.148423
 21
144.474325
 31
0.0
  0
LINE
  8
0
 62
     0
  5
102
 10
92.181292
 20
143.976863
 30
0.0
 11
92.433851
 21
144.229423
 31
0.0
  0
ENDBLK
  8
0
  5
104
  0
BLOCK
  8
0
  5
DE
  2
*X9
 70
    65
 10
0.0
 20
0.0
 30
0.0
  3
*X9
  0
LINE
  8
0
 62
     0
  5
BA
 10
99.720664
 20
149.925245
 30
0.0
 11
99.933894
 21
150.138475
 31
0.0
  0
LINE
  8
0
 62
     0
  5
BB
 10
99.570127
 20
149.951485
 30
0.0
 11
99.907654
 21
150.289012
 31
0.0
  0
LINE
  8
0
 62
     0
  5
BC
 10
99.477382
 20
150.035517
 30
0.0
 11
99.823622
 21
150.381757
 31
0.0
  0
LINE
  8
0
 62
     0
  5
BD
 10
99.436277
 20
150.171188
 30
0.0
 11
99.687951
 21
150.422862
 31
0.0
  0
LINE
  8
0
 62
     0
  5
BE
 10
97.357118
 20
150.74368
 30
0.0
 11
97.570886
 21
150.957448
 31
0.0
  0
LINE
  8
0
 62
     0
  5
BF
 10
97.206787
 20
150.770125
 30
0.0
 11
97.544441
 21
151.107779
 31
0.0
  0
LINE
  8
0
 62
     0
  5
C0
 10
97.114147
 20
150.854263
 30
0.0
 11
97.460303
 21
151.200419
 31
0.0
  0
LINE
  8
0
 62
     0
  5
C1
 10
97.073201
 20
150.990093
 30
0.0
 11
97.324473
 21
151.241365
 31
0.0
  0
LINE
  8
0
 62
     0
  5
C2
 10
92.049287
 20
146.49651
 30
0.0
 11
92.144626
 21
146.591848
 31
0.0
  0
LINE
  8
0
 62
     0
  5
C3
 10
91.851877
 20
146.475876
 30
0.0
 11
92.16526
 21
146.789259
 31
0.0
  0
LINE
  8
0
 62
     0
  5
C4
 10
91.743525
 20
146.5443
 30
0.0
 11
92.096835
 21
146.897611
 31
0.0
  0
LINE
  8
0
 62
     0
  5
C5
 10
91.682671
 20
146.660223
 30
0.0
 11
91.980912
 21
146.958465
 31
0.0
  0
LINE
  8
0
 62
     0
  5
C6
 10
94.817646
 20
150.325528
 30
0.0
 11
95.104512
 21
150.612395
 31
0.0
  0
LINE
  8
0
 62
     0
  5
C7
 10
94.696547
 20
150.381206
 30
0.0
 11
95.048835
 21
150.733494
 31
0.0
  0
LINE
  8
0
 62
     0
  5
C8
 10
92.907728
 20
148.769163
 30
0.0
 11
93.147645
 21
149.00908
 31
0.0
  0
LINE
  8
0
 62
     0
  5
C9
 10
94.623506
 20
150.484942
 30
0.0
 11
94.945099
 21
150.806535
 31
0.0
  0
LINE
  8
0
 62
     0
  5
CA
 10
92.767451
 20
148.805664
 30
0.0
 11
93.111144
 21
149.149357
 31
0.0
  0
LINE
  8
0
 62
     0
  5
CB
 10
94.624786
 20
150.662999
 30
0.0
 11
94.767042
 21
150.805254
 31
0.0
  0
LINE
  8
0
 62
     0
  5
CC
 10
92.680476
 20
148.895465
 30
0.0
 11
93.021343
 21
149.236332
 31
0.0
  0
LINE
  8
0
 62
     0
  5
CD
 10
92.648772
 20
149.040538
 30
0.0
 11
92.87627
 21
149.268036
 31
0.0
  0
LINE
  8
0
 62
     0
  5
CE
 10
101.114348
 20
148.313726
 30
0.0
 11
101.369184
 21
148.568562
 31
0.0
  0
LINE
  8
0
 62
     0
  5
CF
 10
101.156707
 20
148.179308
 30
0.0
 11
101.503602
 21
148.526203
 31
0.0
  0
LINE
  8
0
 62
     0
  5
D0
 10
101.250294
 20
148.096118
 30
0.0
 11
101.586792
 21
148.432616
 31
0.0
  0
LINE
  8
0
 62
     0
  5
D1
 10
101.402497
 20
148.071545
 30
0.0
 11
101.611365
 21
148.280413
 31
0.0
  0
LINE
  8
0
 62
     0
  5
D2
 10
101.693537
 20
145.887711
 30
0.0
 11
101.941621
 21
146.135795
 31
0.0
  0
LINE
  8
0
 62
     0
  5
D3
 10
101.733227
 20
145.750625
 30
0.0
 11
102.078707
 21
146.096104
 31
0.0
  0
LINE
  8
0
 62
     0
  5
D4
 10
101.825043
 20
145.665664
 30
0.0
 11
102.163668
 21
146.004289
 31
0.0
  0
LINE
  8
0
 62
     0
  5
D5
 10
101.973797
 20
145.637641
 30
0.0
 11
102.191691
 21
145.855534
 31
0.0
  0
LINE
  8
0
 62
     0
  5
D6
 10
99.293935
 20
141.720342
 30
0.0
 11
99.498849
 21
141.925256
 31
0.0
  0
LINE
  8
0
 62
     0
  5
D7
 10
101.031665
 20
143.458072
 30
0.0
 11
101.297375
 21
143.723782
 31
0.0
  0
LINE
  8
0
 62
     0
  5
D8
 10
99.316998
 20
141.566628
 30
0.0
 11
99.652563
 21
141.902193
 31
0.0
  0
LINE
  8
0
 62
     0
  5
D9
 10
101.0784
 20
143.32803
 30
0.0
 11
101.427417
 21
143.677047
 31
0.0
  0
LINE
  8
0
 62
     0
  5
DA
 10
99.399446
 20
141.4723
 30
0.0
 11
99.746891
 21
141.819745
 31
0.0
  0
LINE
  8
0
 62
     0
  5
DB
 10
101.175072
 20
143.247925
 30
0.0
 11
101.507522
 21
143.580375
 31
0.0
  0
LINE
  8
0
 62
     0
  5
DC
 10
99.532782
 20
141.428859
 30
0.0
 11
99.790332
 21
141.686409
 31
0.0
  0
LINE
  8
0
 62
     0
  5
DD
 10
101.333855
 20
143.229932
 30
0.0
 11
101.525515
 21
143.421592
 31
0.0
  0
ENDBLK
  8
0
  5
DF
  0
BLOCK
  8
0
  5
1BA
  2
*X10
 70
    65
 10
0.0
 20
0.0
 30
0.0
  3
*X10
  0
LINE
  8
0
 62
     0
  5
18E
 10
177.149237
 20
149.925626
 30
0.0
 11
177.433513
 21
150.209902
 31
0.0
  0
LINE
  8
0
 62
     0
  5
18F
 10
177.027002
 20
149.980168
 30
0.0
 11
177.378971
 21
150.332137
 31
0.0
  0
LINE
  8
0
 62
     0
  5
190
 10
176.953003
 20
150.082945
 30
0.0
 11
177.276194
 21
150.406136
 31
0.0
  0
LINE
  8
0
 62
     0
  5
191
 10
176.951173
 20
150.257892
 30
0.0
 11
177.101247
 21
150.407966
 31
0.0
  0
LINE
  8
0
 62
     0
  5
192
 10
169.845684
 20
144.036287
 30
0.0
 11
169.874428
 21
144.065031
 31
0.0
  0
LINE
  8
0
 62
     0
  5
193
 10
169.618238
 20
143.985618
 30
0.0
 11
169.925097
 21
144.292477
 31
0.0
  0
LINE
  8
0
 62
     0
  5
194
 10
169.506504
 20
144.05066
 30
0.0
 11
169.860055
 21
144.404211
 31
0.0
  0
LINE
  8
0
 62
     0
  5
195
 10
169.442137
 20
144.16307
 30
0.0
 11
169.747645
 21
144.468578
 31
0.0
  0
LINE
  8
0
 62
     0
  5
196
 10
174.78581
 20
150.74418
 30
0.0
 11
175.070386
 21
151.028756
 31
0.0
  0
LINE
  8
0
 62
     0
  5
197
 10
174.663706
 20
150.798852
 30
0.0
 11
175.015714
 21
151.15086
 31
0.0
  0
LINE
  8
0
 62
     0
  5
198
 10
174.589817
 20
150.90174
 30
0.0
 11
174.912827
 21
151.224749
 31
0.0
  0
LINE
  8
0
 62
     0
  5
199
 10
174.588332
 20
151.077032
 30
0.0
 11
174.737534
 21
151.226234
 31
0.0
  0
LINE
  8
0
 62
     0
  5
19A
 10
169.446132
 20
146.465161
 30
0.0
 11
169.675974
 21
146.695004
 31
0.0
  0
LINE
  8
0
 62
     0
  5
19B
 10
169.301961
 20
146.497767
 30
0.0
 11
169.643369
 21
146.839175
 31
0.0
  0
LINE
  8
0
 62
     0
  5
19C
 10
169.212673
 20
146.585256
 30
0.0
 11
169.55588
 21
146.928463
 31
0.0
  0
LINE
  8
0
 62
     0
  5
19D
 10
169.177015
 20
146.726375
 30
0.0
 11
169.414761
 21
146.96412
 31
0.0
  0
LINE
  8
0
 62
     0
  5
19E
 10
172.430065
 20
150.332978
 30
0.0
 11
172.597063
 21
150.499976
 31
0.0
  0
LINE
  8
0
 62
     0
  5
19F
 10
172.261762
 20
150.341452
 30
0.0
 11
172.588588
 21
150.668278
 31
0.0
  0
LINE
  8
0
 62
     0
  5
1A0
 10
172.161258
 20
150.417724
 30
0.0
 11
172.512316
 21
150.768783
 31
0.0
  0
LINE
  8
0
 62
     0
  5
1A1
 10
170.342033
 20
148.775276
 30
0.0
 11
170.641532
 21
149.074775
 31
0.0
  0
LINE
  8
0
 62
     0
  5
1A2
 10
172.109502
 20
150.542745
 30
0.0
 11
172.387295
 21
150.820539
 31
0.0
  0
LINE
  8
0
 62
     0
  5
1A3
 10
170.226705
 20
148.836725
 30
0.0
 11
170.580084
 21
149.190103
 31
0.0
  0
LINE
  8
0
 62
     0
  5
1A4
 10
170.158838
 20
148.945634
 30
0.0
 11
170.471174
 21
149.25797
 31
0.0
  0
LINE
  8
0
 62
     0
  5
1A5
 10
170.182654
 20
149.146228
 30
0.0
 11
170.270581
 21
149.234154
 31
0.0
  0
LINE
  8
0
 62
     0
  5
1A6
 10
170.861822
 20
142.223998
 30
0.0
 11
171.051509
 21
142.413685
 31
0.0
  0
LINE
  8
0
 62
     0
  5
1A7
 10
170.879059
 20
142.064458
 30
0.0
 11
171.211049
 21
142.396448
 31
0.0
  0
LINE
  8
0
 62
     0
  5
1A8
 10
170.958833
 20
141.967455
 30
0.0
 11
171.308052
 21
142.316674
 31
0.0
  0
LINE
  8
0
 62
     0
  5
1A9
 10
171.088424
 20
141.920269
 30
0.0
 11
171.355238
 21
142.187083
 31
0.0
  0
LINE
  8
0
 62
     0
  5
1AA
 10
178.627457
 20
148.398642
 30
0.0
 11
178.784268
 21
148.555453
 31
0.0
  0
LINE
  8
0
 62
     0
  5
1AB
 10
178.631945
 20
148.226354
 30
0.0
 11
178.956556
 21
148.550964
 31
0.0
  0
LINE
  8
0
 62
     0
  5
1AC
 10
178.706816
 20
148.124448
 30
0.0
 11
179.058462
 21
148.476094
 31
0.0
  0
LINE
  8
0
 62
     0
  5
1AD
 10
178.830104
 20
148.070959
 30
0.0
 11
179.111951
 21
148.352806
 31
0.0
  0
LINE
  8
0
 62
     0
  5
1AE
 10
179.21059
 20
145.976571
 30
0.0
 11
179.352761
 21
146.118742
 31
0.0
  0
LINE
  8
0
 62
     0
  5
1AF
 10
179.209276
 20
145.79848
 30
0.0
 11
179.530851
 21
146.120056
 31
0.0
  0
LINE
  8
0
 62
     0
  5
1B0
 10
179.282306
 20
145.694734
 30
0.0
 11
179.634598
 21
146.047026
 31
0.0
  0
LINE
  8
0
 62
     0
  5
1B1
 10
179.403394
 20
145.639045
 30
0.0
 11
179.690287
 21
145.925938
 31
0.0
  0
LINE
  8
0
 62
     0
  5
1B2
 10
178.539243
 20
143.537458
 30
0.0
 11
178.717989
 21
143.716203
 31
0.0
  0
LINE
  8
0
 62
     0
  5
1B3
 10
176.797667
 20
141.619104
 30
0.0
 11
177.100087
 21
141.921524
 31
0.0
  0
LINE
  8
0
 62
     0
  5
1B4
 10
178.552271
 20
143.373709
 30
0.0
 11
178.881738
 21
143.703175
 31
0.0
  0
LINE
  8
0
 62
     0
  5
1B5
 10
176.860517
 20
141.505178
 30
0.0
 11
177.214013
 21
141.858674
 31
0.0
  0
LINE
  8
0
 62
     0
  5
1B6
 10
178.630288
 20
143.274949
 30
0.0
 11
178.980498
 21
143.625158
 31
0.0
  0
LINE
  8
0
 62
     0
  5
1B7
 10
176.970765
 20
141.43865
 30
0.0
 11
177.280541
 21
141.748426
 31
0.0
  0
LINE
  8
0
 62
     0
  5
1B8
 10
178.757542
 20
143.225426
 30
0.0
 11
179.030021
 21
143.497905
 31
0.0
  0
LINE
  8
0
 62
     0
  5
1B9
 10
177.180639
 20
141.471747
 30
0.0
 11
177.247444
 21
141.538552
 31
0.0
  0
ENDBLK
  8
0
  5
1BB
  0
BLOCK
  8
0
  5
343
  2
*X11
 70
    65
 10
0.0
 20
0.0
 30
0.0
  3
*X11
  0
LINE
  8
0
 62
     0
  5
32E
 10
254.24059
 20
170.094883
 30
0.0
 11
254.52059
 21
170.374883
 31
0.0
  0
LINE
  8
0
 62
     0
  5
32F
 10
249.719784
 20
166.281184
 30
0.0
 11
251.638483
 21
168.199883
 31
0.0
  0
LINE
  8
0
 62
     0
  5
330
 10
253.533483
 20
170.094883
 30
0.0
 11
253.813483
 21
170.374883
 31
0.0
  0
LINE
  8
0
 62
     0
  5
331
 10
252.826377
 20
170.094883
 30
0.0
 11
253.106377
 21
170.374883
 31
0.0
  0
LINE
  8
0
 62
     0
  5
332
 10
249.719784
 20
167.695397
 30
0.0
 11
251.27927
 21
169.254883
 31
0.0
  0
LINE
  8
0
 62
     0
  5
333
 10
252.11927
 20
170.094883
 30
0.0
 11
252.39927
 21
170.374883
 31
0.0
  0
LINE
  8
0
 62
     0
  5
334
 10
249.719784
 20
168.402504
 30
0.0
 11
250.572163
 21
169.254883
 31
0.0
  0
LINE
  8
0
 62
     0
  5
335
 10
251.412163
 20
170.094883
 30
0.0
 11
251.692163
 21
170.374883
 31
0.0
  0
LINE
  8
0
 62
     0
  5
336
 10
249.719784
 20
169.109611
 30
0.0
 11
249.865056
 21
169.254883
 31
0.0
  0
LINE
  8
0
 62
     0
  5
337
 10
250.705056
 20
170.094883
 30
0.0
 11
250.985056
 21
170.374883
 31
0.0
  0
LINE
  8
0
 62
     0
  5
338
 10
249.997949
 20
170.094883
 30
0.0
 11
250.277949
 21
170.374883
 31
0.0
  0
LINE
  8
0
 62
     0
  5
339
 10
250.052697
 20
165.199883
 30
0.0
 11
251.649784
 21
166.79697
 31
0.0
  0
LINE
  8
0
 62
     0
  5
33A
 10
252.874784
 20
168.02197
 30
0.0
 11
253.052697
 21
168.199883
 31
0.0
  0
LINE
  8
0
 62
     0
  5
33B
 10
250.759804
 20
165.199883
 30
0.0
 11
251.649784
 21
166.089863
 31
0.0
  0
LINE
  8
0
 62
     0
  5
33C
 10
252.874784
 20
167.314863
 30
0.0
 11
254.719784
 21
169.159863
 31
0.0
  0
LINE
  8
0
 62
     0
  5
33D
 10
251.46691
 20
165.199883
 30
0.0
 11
251.649784
 21
165.382757
 31
0.0
  0
LINE
  8
0
 62
     0
  5
33E
 10
252.874784
 20
166.607757
 30
0.0
 11
254.719784
 21
168.452757
 31
0.0
  0
LINE
  8
0
 62
     0
  5
33F
 10
252.874784
 20
165.90065
 30
0.0
 11
254.719784
 21
167.74565
 31
0.0
  0
LINE
  8
0
 62
     0
  5
340
 10
252.881124
 20
165.199883
 30
0.0
 11
254.719784
 21
167.038543
 31
0.0
  0
LINE
  8
0
 62
     0
  5
341
 10
253.588231
 20
165.199883
 30
0.0
 11
254.719784
 21
166.331436
 31
0.0
  0
LINE
  8
0
 62
     0
  5
342
 10
254.295338
 20
165.199883
 30
0.0
 11
254.719784
 21
165.62433
 31
0.0
  0
ENDBLK
  8
0
  5
344
  0
BLOCK
  8
0
  5
30C
  2
*X12
 70
    65
 10
0.0
 20
0.0
 30
0.0
  3
*X12
  0
LINE
  8
0
 62
     0
  5
2E3
 10
260.381989
 20
165.62968
 30
0.0
 11
260.718927
 21
165.966618
 31
0.0
  0
LINE
  8
0
 62
     0
  5
2E4
 10
263.33427
 20
168.581962
 30
0.0
 11
263.655588
 21
168.903279
 31
0.0
  0
LINE
  8
0
 62
     0
  5
2E5
 10
260.168375
 20
166.123174
 30
0.0
 11
260.599453
 21
166.554251
 31
0.0
  0
LINE
  8
0
 62
     0
  5
2E6
 10
262.922554
 20
168.877352
 30
0.0
 11
263.189256
 21
169.144054
 31
0.0
  0
LINE
  8
0
 62
     0
  5
2E7
 10
258.537978
 20
165.199883
 30
0.0
 11
258.711481
 21
165.373385
 31
0.0
  0
LINE
  8
0
 62
     0
  5
2E8
 10
262.35751
 20
169.019415
 30
0.0
 11
262.619969
 21
169.281874
 31
0.0
  0
LINE
  8
0
 62
     0
  5
2E9
 10
260.126957
 20
166.788862
 30
0.0
 11
260.581747
 21
167.243652
 31
0.0
  0
LINE
  8
0
 62
     0
  5
2EA
 10
258.229382
 20
165.598393
 30
0.0
 11
258.697359
 21
166.066371
 31
0.0
  0
LINE
  8
0
 62
     0
  5
2EB
 10
261.638026
 20
169.007037
 30
0.0
 11
261.957865
 21
169.326876
 31
0.0
  0
LINE
  8
0
 62
     0
  5
2EC
 10
260.122864
 20
167.491876
 30
0.0
 11
260.605689
 21
167.974701
 31
0.0
  0
LINE
  8
0
 62
     0
  5
2ED
 10
258.239802
 20
166.315921
 30
0.0
 11
258.694569
 21
166.770687
 31
0.0
  0
LINE
  8
0
 62
     0
  5
2EE
 10
260.163147
 20
168.239265
 30
0.0
 11
261.140183
 21
169.216301
 31
0.0
  0
LINE
  8
0
 62
     0
  5
2EF
 10
258.240409
 20
167.023634
 30
0.0
 11
258.694569
 21
167.477794
 31
0.0
  0
LINE
  8
0
 62
     0
  5
2F0
 10
260.074268
 20
168.857493
 30
0.0
 11
260.219249
 21
169.002474
 31
0.0
  0
LINE
  8
0
 62
     0
  5
2F1
 10
258.240409
 20
167.730741
 30
0.0
 11
258.694569
 21
168.184901
 31
0.0
  0
LINE
  8
0
 62
     0
  5
2F2
 10
259.367161
 20
168.857493
 30
0.0
 11
259.764551
 21
169.254883
 31
0.0
  0
LINE
  8
0
 62
     0
  5
2F3
 10
258.660054
 20
168.857493
 30
0.0
 11
259.057444
 21
169.254883
 31
0.0
  0
LINE
  8
0
 62
     0
  5
2F4
 10
257.952948
 20
168.857493
 30
0.0
 11
258.350338
 21
169.254883
 31
0.0
  0
LINE
  8
0
 62
     0
  5
2F5
 10
257.245841
 20
168.857493
 30
0.0
 11
257.643231
 21
169.254883
 31
0.0
  0
LINE
  8
0
 62
     0
  5
2F6
 10
256.719784
 20
169.038543
 30
0.0
 11
256.936124
 21
169.254883
 31
0.0
  0
LINE
  8
0
 62
     0
  5
2F7
 10
260.778907
 20
165.319491
 30
0.0
 11
261.058822
 21
165.599407
 31
0.0
  0
LINE
  8
0
 62
     0
  5
2F8
 10
263.471772
 20
168.012357
 30
0.0
 11
263.897012
 21
168.437597
 31
0.0
  0
LINE
  8
0
 62
     0
  5
2F9
 10
261.330055
 20
165.163532
 30
0.0
 11
261.590161
 21
165.423638
 31
0.0
  0
LINE
  8
0
 62
     0
  5
2FA
 10
263.497594
 20
167.331071
 30
0.0
 11
263.946937
 21
167.780415
 31
0.0
  0
LINE
  8
0
 62
     0
  5
2FB
 10
261.968851
 20
165.095222
 30
0.0
 11
262.266486
 21
165.392857
 31
0.0
  0
LINE
  8
0
 62
     0
  5
2FC
 10
265.722208
 20
168.848579
 30
0.0
 11
266.093051
 21
169.219421
 31
0.0
  0
LINE
  8
0
 62
     0
  5
2FD
 10
263.483305
 20
166.609676
 30
0.0
 11
263.959619
 21
167.08599
 31
0.0
  0
LINE
  8
0
 62
     0
  5
2FE
 10
265.066878
 20
168.193249
 30
0.0
 11
265.721078
 21
168.847449
 31
0.0
  0
LINE
  8
0
 62
     0
  5
2FF
 10
262.742918
 20
165.162182
 30
0.0
 11
263.929668
 21
166.348932
 31
0.0
  0
LINE
  8
0
 62
     0
  5
300
 10
265.925039
 20
168.344303
 30
0.0
 11
266.29652
 21
168.715784
 31
0.0
  0
LINE
  8
0
 62
     0
  5
301
 10
264.542091
 20
166.961355
 30
0.0
 11
265.216002
 21
167.635266
 31
0.0
  0
LINE
  8
0
 62
     0
  5
302
 10
264.017305
 20
165.729462
 30
0.0
 11
264.712618
 21
166.424775
 31
0.0
  0
LINE
  8
0
 62
     0
  5
303
 10
266.12787
 20
167.840027
 30
0.0
 11
266.499989
 21
168.212147
 31
0.0
  0
LINE
  8
0
 62
     0
  5
304
 10
265.089451
 20
166.801608
 30
0.0
 11
265.417906
 21
167.130063
 31
0.0
  0
LINE
  8
0
 62
     0
  5
305
 10
264.194833
 20
165.199883
 30
0.0
 11
264.262981
 21
165.268032
 31
0.0
  0
LINE
  8
0
 62
     0
  5
306
 10
266.3307
 20
167.335751
 30
0.0
 11
266.703459
 21
167.70851
 31
0.0
  0
LINE
  8
0
 62
     0
  5
307
 10
265.796558
 20
166.801608
 30
0.0
 11
266.125013
 21
167.130063
 31
0.0
  0
LINE
  8
0
 62
     0
  5
308
 10
266.503664
 20
166.801608
 30
0.0
 11
266.906928
 21
167.204872
 31
0.0
  0
LINE
  8
0
 62
     0
  5
309
 10
266.736362
 20
166.327199
 30
0.0
 11
267.110398
 21
166.701235
 31
0.0
  0
LINE
  8
0
 62
     0
  5
30A
 10
266.939193
 20
165.822924
 30
0.0
 11
267.313867
 21
166.197598
 31
0.0
  0
LINE
  8
0
 62
     0
  5
30B
 10
267.142024
 20
165.318648
 30
0.0
 11
267.517337
 21
165.69396
 31
0.0
  0
ENDBLK
  8
0
  5
30D
  0
BLOCK
  8
0
  5
354
  2
*X13
 70
    65
 10
0.0
 20
0.0
 30
0.0
  3
*X13
  0
LINE
  8
0
 62
     0
  5
350
 10
243.5
 20
146.599883
 30
0.0
 11
243.5
 21
147.499883
 31
0.0
  0
LINE
  8
0
 62
     0
  5
351
 10
243.0
 20
146.599883
 30
0.0
 11
243.0
 21
147.499883
 31
0.0
  0
LINE
  8
0
 62
     0
  5
352
 10
244.0
 20
146.599883
 30
0.0
 11
244.0
 21
147.499883
 31
0.0
  0
LINE
  8
0
 62
     0
  5
353
 10
244.5
 20
146.599883
 30
0.0
 11
244.5
 21
147.499883
 31
0.0
  0
ENDBLK
  8
0
  5
355
  0
BLOCK
  8
0
  5
320
  2
*X14
 70
    65
 10
0.0
 20
0.0
 30
0.0
  3
*X14
  0
LINE
  8
0
 62
     0
  5
31C
 10
243.5
 20
142.099883
 30
0.0
 11
243.5
 21
143.999883
 31
0.0
  0
LINE
  8
0
 62
     0
  5
31D
 10
243.0
 20
142.099883
 30
0.0
 11
243.0
 21
143.999883
 31
0.0
  0
LINE
  8
0
 62
     0
  5
31E
 10
244.0
 20
142.099883
 30
0.0
 11
244.0
 21
143.999883
 31
0.0
  0
LINE
  8
0
 62
     0
  5
31F
 10
244.5
 20
142.099883
 30
0.0
 11
244.5
 21
143.999883
 31
0.0
  0
ENDBLK
  8
0
  5
321
  0
BLOCK
  8
0
  5
171
  2
*X15
 70
    65
 10
0.0
 20
0.0
 30
0.0
  3
*X15
  0
LINE
  8
0
 62
     0
  5
16B
 10
110.058027
 20
218.245364
 30
0.0
 11
111.076771
 21
219.264108
 31
0.0
  0
LINE
  8
0
 62
     0
  5
16C
 10
109.861095
 20
218.401985
 30
0.0
 11
110.92015
 21
219.461041
 31
0.0
  0
LINE
  8
0
 62
     0
  5
16D
 10
109.725134
 20
218.619578
 30
0.0
 11
110.702558
 21
219.597002
 31
0.0
  0
LINE
  8
0
 62
     0
  5
16E
 10
109.669946
 20
218.917944
 30
0.0
 11
110.404192
 21
219.652189
 31
0.0
  0
LINE
  8
0
 62
     0
  5
16F
 10
110.324628
 20
218.158412
 30
0.0
 11
111.163723
 21
218.997507
 31
0.0
  0
LINE
  8
0
 62
     0
  5
170
 10
110.747516
 20
218.227746
 30
0.0
 11
111.094389
 21
218.57462
 31
0.0
  0
ENDBLK
  8
0
  5
172
  0
ENDSEC
  0
SECTION
  2
ENTITIES
  0
LINE
  8
SILK
  6
CONTINUOUS
  5
2C
 10
178.819784
 20
243.602351
 30
0.0
 11
181.319784
 21
243.602351
 31
0.0
  0
LINE
  8
0
  6
CONTINUOUS
  5
2E
 10
174.819784
 20
225.902351
 30
0.0
 11
180.419784
 21
225.902351
 31
0.0
  0
LINE
  8
0
  6
CONTINUOUS
  5
2F
 10
180.419784
 20
228.902351
 30
0.0
 11
174.819784
 21
228.902351
 31
0.0
  0
TEXT
  8
SILK
  6
CONTINUOUS
  5
30
 10
170.476927
 20
218.352351
 30
0.0
 40
2.0
  1
SELECTOR
 72
     1
 11
177.619784
 21
218.352351
 31
0.0
  0
TEXT
  8
1
  5
31
 10
159.843594
 20
198.683944
 30
0.0
 40
5.0
  1
Rear View
 41
0.8
  7
UT7
 72
     1
 11
174.319784
 21
198.683944
 31
0.0
  0
LINE
  8
1
  5
32
 10
159.653117
 20
196.683944
 30
0.0
 11
188.986451
 21
196.683944
 31
0.0
  0
LINE
  8
0
  6
CONTINUOUS
  5
33
 10
152.319784
 20
216.702351
 30
0.0
 11
196.319784
 21
216.702351
 31
0.0
  0
LINE
  8
0
  6
CONTINUOUS
  5
34
 10
196.319784
 20
254.702351
 30
0.0
 11
152.319784
 21
254.702351
 31
0.0
  0
TEXT
  8
SILK
  6
CONTINUOUS
  5
35
 10
177.319784
 20
138.993937
 30
0.0
 40
2.0
  1
10
  0
LINE
  8
1
  5
36
 10
158.319784
 20
114.90155
 30
0.0
 11
190.319784
 21
114.90155
 31
0.0
  0
TEXT
  8
1
  5
37
 10
158.700736
 20
116.90155
 30
0.0
 40
5.0
  1
Front View
 41
0.8
  7
UT7
 72
     1
 11
174.319784
 21
116.90155
 31
0.0
  0
LINE
  8
0
  6
CONTINUOUS
  5
38
 10
196.319784
 20
134.799883
 30
0.0
 11
152.319784
 21
134.799883
 31
0.0
  0
LINE
  8
0
  6
CONTINUOUS
  5
39
 10
152.319784
 20
172.799883
 30
0.0
 11
196.319784
 21
172.799883
 31
0.0
  0
LINE
  8
1
  5
3A
 10
159.653117
 20
29.943736
 30
0.0
 11
188.986451
 21
29.943736
 31
0.0
  0
TEXT
  8
1
  5
3B
 10
160.415022
 20
31.943736
 30
0.0
 40
5.0
  1
Side View
 41
0.8
  7
UT7
 72
     1
 11
174.319784
 21
31.943736
 31
0.0
  0
DIMENSION
  8
SCALE
  5
42
  2
*D4
 10
279.319784
 20
182.203449
 30
0.0
 11
174.319784
 21
186.603449
 31
0.0
 12
-312.239622
 22
3.185579
 32
0.0
  1
210
 13
69.319784
 23
169.099883
 33
0.0
 14
279.319784
 24
169.099883
 34
0.0
  3
STANDARD
1001
ACAD
1000
DSTYLE
1002
{
1070
   140
1040
2.2
1070
   340
1005
E
1070
   145
1040
1.0
1070
    74
1070
     0
1070
   172
1070
     1
1070
    73
1070
     0
1070
   272
1070
     4
1070
    40
1040
2.0
1070
   287
1070
     3
1070
    42
1040
2.0
1070
    44
1040
1.5
1070
    43
1040
10.0
1070
   271
1070
     4
1070
     5
1000
YAZ3
1070
    41
1040
1.5
1002
}
  0
LINE
  8
0
  6
CONTINUOUS
  5
65
 10
78.319784
 20
131.799883
 30
0.0
 11
270.319784
 21
131.799883
 31
0.0
  0
LINE
  8
0
  6
CONTINUOUS
  5
66
 10
78.919784
 20
135.199883
 30
0.0
 11
269.719784
 21
135.199883
 31
0.0
  0
LINE
  8
0
  6
CONTINUOUS
  5
67
 10
269.719784
 20
172.399883
 30
0.0
 11
78.919784
 21
172.399883
 31
0.0
  0
LINE
  8
0
  6
CONTINUOUS
  5
68
 10
270.319784
 20
175.799883
 30
0.0
 11
78.319784
 21
175.799883
 31
0.0
  0
LINE
  8
0
  6
CONTINUOUS
  5
69
 10
270.319784
 20
213.702351
 30
0.0
 11
78.319784
 21
213.702351
 31
0.0
  0
LINE
  8
0
  6
CONTINUOUS
  5
6A
 10
78.319784
 20
257.702351
 30
0.0
 11
270.319784
 21
257.702351
 31
0.0
  0
LINE
  8
0
  6
CONTINUOUS
  5
6B
 10
264.819784
 20
66.516501
 30
0.0
 11
94.869784
 21
66.516501
 31
0.0
  0
LINE
  8
0
  6
CONTINUOUS
  5
6C
 10
94.869784
 20
67.524699
 30
0.0
 11
264.819784
 21
67.524699
 31
0.0
  0
LINE
  8
0
  6
CONTINUOUS
  5
6D
 10
264.819784
 20
67.016435
 30
0.0
 11
83.819784
 21
67.016435
 31
0.0
  0
LINE
  8
0
  6
CONTINUOUS
  5
6E
 10
83.819784
 20
45.016435
 30
0.0
 11
264.819784
 21
45.016435
 31
0.0
  0
LINE
  8
0
  6
CONTINUOUS
  5
6F
 10
264.819784
 20
49.716435
 30
0.0
 11
83.819784
 21
49.716435
 31
0.0
  0
LINE
  8
0
  6
CONTINUOUS
  5
70
 10
264.819784
 20
54.216435
 30
0.0
 11
83.819784
 21
54.216435
 31
0.0
  0
LINE
  8
0
  6
CONTINUOUS
  5
71
 10
264.819784
 20
54.716435
 30
0.0
 11
83.819784
 21
54.716435
 31
0.0
  0
LINE
  8
0
  6
CONTINUOUS
  5
72
 10
264.819784
 20
79.316435
 30
0.0
 11
83.819784
 21
79.316435
 31
0.0
  0
LINE
  8
0
  6
CONTINUOUS
  5
73
 10
264.819784
 20
79.816435
 30
0.0
 11
83.819784
 21
79.816435
 31
0.0
  0
LINE
  8
0
  6
CONTINUOUS
  5
74
 10
83.819784
 20
84.316435
 30
0.0
 11
264.819784
 21
84.316435
 31
0.0
  0
LINE
  8
0
  6
CONTINUOUS
  5
75
 10
83.819784
 20
89.016435
 30
0.0
 11
264.819784
 21
89.016435
 31
0.0
  0
DIMENSION
  8
SCALE
  5
76
  2
*D6
 10
264.819784
 20
98.01777
 30
0.0
 11
174.319784
 21
102.41777
 31
0.0
 12
-312.239622
 22
-4.494825
 32
0.0
  1
181
 13
83.819784
 23
89.016435
 33
0.0
 14
264.819784
 24
89.016435
 34
0.0
  3
STANDARD
1001
ACAD
1000
DSTYLE
1002
{
1070
   140
1040
2.2
1070
   340
1005
E
1070
   145
1040
1.0
1070
    74
1070
     0
1070
   172
1070
     1
1070
    73
1070
     0
1070
   272
1070
     4
1070
    40
1040
2.0
1070
   287
1070
     3
1070
    42
1040
2.0
1070
    44
1040
1.5
1070
    43
1040
10.0
1070
   271
1070
     4
1070
     5
1000
YAZ3
1070
    41
1040
1.5
1002
}
  0
TEXT
  8
1
  5
A3
 10
13.673802
 20
20.867548
 30
0.0
 40
5.0
  1
UNIT:mm
 41
0.8
  7
UT7
  0
LINE
  8
0
  6
CONTINUOUS
  5
A4
 10
94.869784
 20
54.716435
 30
0.0
 11
94.869784
 21
79.316435
 31
0.0
  0
LINE
  8
0
  6
CONTINUOUS
  5
A5
 10
92.769784
 20
54.716435
 30
0.0
 11
92.769784
 21
79.316435
 31
0.0
  0
LINE
  8
0
  6
CONTINUOUS
  5
A6
 10
83.819784
 20
45.016435
 30
0.0
 11
83.819784
 21
89.016435
 31
0.0
  0
LINE
  8
0
  6
CONTINUOUS
  5
A7
 10
92.769784
 20
66.516501
 30
0.0
 11
83.819784
 21
66.516501
 31
0.0
  0
LINE
  8
0
  6
CONTINUOUS
  5
A8
 10
83.819784
 20
67.524699
 30
0.0
 11
92.769784
 21
67.524699
 31
0.0
  0
TEXT
  8
SILK
  6
CONTINUOUS
  5
A9
 10
122.873355
 20
250.752351
 30
0.0
 40
2.5
  1
DC IN
 41
0.9
 72
     1
 11
127.319784
 21
250.752351
 31
0.0
  0
LINE
  8
0
  6
CONTINUOUS
  5
AA
 10
132.119784
 20
236.002351
 30
0.0
 11
122.519784
 21
236.002351
 31
0.0
  0
LINE
  8
0
  6
CONTINUOUS
  5
AB
 10
123.319784
 20
235.702351
 30
0.0
 11
131.319784
 21
235.702351
 31
0.0
  0
CIRCLE
  8
0
  6
CONTINUOUS
  5
AC
 10
125.419784
 20
243.402351
 30
0.0
 40
2.4
  0
LINE
  8
0
  6
CONTINUOUS
  5
AD
 10
122.519784
 20
224.402351
 30
0.0
 11
132.119784
 21
224.402351
 31
0.0
  0
LINE
  8
0
  6
CONTINUOUS
  5
AE
 10
132.119784
 20
224.702351
 30
0.0
 11
122.519784
 21
224.702351
 31
0.0
  0
TEXT
  8
SILK
  6
CONTINUOUS
  5
AF
 10
122.976927
 20
220.852351
 30
0.0
 40
2.0
  1
12-18V
 41
0.8
 72
     1
 11
127.319784
 21
220.852351
 31
0.0
  0
LINE
  8
0
  6
CONTINUOUS
  5
B0
 10
136.319784
 20
134.799883
 30
0.0
 11
78.319784
 21
134.799883
 31
0.0
  0
LINE
  8
0
  6
CONTINUOUS
  5
B1
 10
78.319784
 20
172.799883
 30
0.0
 11
136.319784
 21
172.799883
 31
0.0
  0
TEXT
  8
SILK
  6
CONTINUOUS
  5
B2
 10
115.253117
 20
166.499883
 30
0.0
 40
2.0
  1
CHANNEL
 72
     1
 11
121.919784
 21
166.499883
 31
0.0
  0
CIRCLE
  8
0
  6
CONTINUOUS
  5
B3
 10
121.919784
 20
154.799883
 30
0.0
 40
7.0
  0
CIRCLE
  8
0
  6
CONTINUOUS
  5
B4
 10
121.919784
 20
154.799883
 30
0.0
 40
2.5
  0
LINE
  8
0
  6
CONTINUOUS
  5
B5
 10
136.319784
 20
254.702351
 30
0.0
 11
78.319784
 21
254.702351
 31
0.0
  0
LINE
  8
0
  6
CONTINUOUS
  5
B6
 10
78.319784
 20
216.702351
 30
0.0
 11
136.319784
 21
216.702351
 31
0.0
  0
TEXT
  8
SILK
  6
CONTINUOUS
  5
B7
 10
119.738832
 20
217.852351
 30
0.0
 40
2.0
  1
250mA(max)
 41
0.8
 72
     1
 11
127.319784
 21
217.852351
 31
0.0
  0
INSERT
  8
SILK
  5
B8
  2
*X9
 10
0.0
 20
0.0
 30
0.0
1001
ACAD
1000
HATCH
1002
{
1070
    19
1000
ANSI31
1040
1.0
1040
0.0
1000
ASC_BOUNDS
1070
     1
1070
     2
1070
     9
1005
12C
1005
12D
1005
12E
1005
135
1005
136
1005
137
1005
12F
1005
132
1005
131
1000
ASC_SEEDPOINT
1011
0.0
1021
0.0
1031
0.0
1002
}
  0
TEXT
  8
SILK
  6
CONTINUOUS
  5
E0
 10
88.519784
 20
166.499883
 30
0.0
 40
2.0
  1
ANT A
 11
88.519784
 21
167.499883
 31
0.0
 73
     2
  0
TEXT
  8
SILK
  6
CONTINUOUS
  5
E1
 10
88.519784
 20
156.499883
 30
0.0
 40
2.0
  1
PEAK
 11
88.519784
 21
157.499883
 31
0.0
 73
     2
  0
TEXT
  8
SILK
  6
CONTINUOUS
  5
E2
 10
88.519784
 20
161.499883
 30
0.0
 40
2.0
  1
ANT B
 11
88.519784
 21
162.499883
 31
0.0
 73
     2
  0
TEXT
  8
SILK
  6
CONTINUOUS
  5
E3
 10
91.200736
 20
152.399883
 30
0.0
 40
2.0
  1
VOLUME
 72
     1
 11
96.819784
 21
152.399883
 31
0.0
  0
LINE
  8
0
  6
CONTINUOUS
  5
E4
 10
95.304395
 20
144.560631
 30
0.0
 11
95.764022
 21
144.174958
 31
0.0
  0
LINE
  8
0
  6
CONTINUOUS
  5
E5
 10
95.764022
 20
144.174958
 30
0.0
 11
95.130901
 21
143.420433
 31
0.0
  0
CIRCLE
  8
0
  6
CONTINUOUS
  5
E6
 10
96.819784
 20
145.899883
 30
0.0
 40
3.5
  0
CIRCLE
  8
0
  6
CONTINUOUS
  5
E7
 10
96.819784
 20
145.899883
 30
0.0
 40
3.5
  0
CIRCLE
  8
0
  6
CONTINUOUS
  5
E8
 10
96.819784
 20
145.899883
 30
0.0
 40
3.4
  0
CIRCLE
  8
0
  6
CONTINUOUS
  5
E9
 10
96.819784
 20
145.899883
 30
0.0
 40
3.0
  0
ARC
  8
0
  6
CONTINUOUS
  5
EA
 10
96.819784
 20
145.899883
 30
0.0
 40
2.5
 50
236.892103
 51
223.107897
  0
LINE
  8
0
  6
CONTINUOUS
  5
EB
 10
73.71152
 20
153.291619
 30
0.0
 11
73.519784
 21
141.499883
 31
0.0
  0
LINE
  8
0
  6
CONTINUOUS
  5
EC
 10
76.319784
 20
136.799883
 30
0.0
 11
76.319784
 21
170.799883
 31
0.0
  0
LINE
  8
0
  6
CONTINUOUS
  5
ED
 10
76.919784
 20
170.399883
 30
0.0
 11
76.919784
 21
137.199883
 31
0.0
  0
ARC
  8
0
  6
CONTINUOUS
  5
EE
 10
78.319784
 20
136.799883
 30
0.0
 40
5.0
 50
183.439813
 51
270.0
  0
ARC
  8
0
  6
CONTINUOUS
  5
EF
 10
70.839118
 20
141.199883
 30
0.0
 40
0.3
 50
3.814075
 51
90.0
  0
LINE
  8
0
  6
CONTINUOUS
  5
F0
 10
69.819784
 20
141.499883
 30
0.0
 11
73.519784
 21
141.499883
 31
0.0
  0
ARC
  8
0
  6
CONTINUOUS
  5
F1
 10
71.319784
 20
138.499883
 30
0.0
 40
2.0
 50
180.0
 51
270.0
  0
LINE
  8
0
  6
CONTINUOUS
  5
F2
 10
69.319784
 20
140.999883
 30
0.0
 11
69.319784
 21
138.499883
 31
0.0
  0
LINE
  8
0
  6
CONTINUOUS
  5
F3
 10
69.819784
 20
140.999883
 30
0.0
 11
69.819784
 21
141.499883
 31
0.0
  0
LINE
  8
0
  6
CONTINUOUS
  5
F4
 10
69.319784
 20
140.999883
 30
0.0
 11
69.819784
 21
140.999883
 31
0.0
  0
LINE
  8
0
  6
CONTINUOUS
  5
F5
 10
73.039118
 20
138.499883
 30
0.0
 11
71.60045
 21
138.499883
 31
0.0
  0
LINE
  8
0
  6
CONTINUOUS
  5
F6
 10
71.319784
 20
136.499883
 30
0.0
 11
73.328792
 21
136.499883
 31
0.0
  0
ARC
  8
0
  6
CONTINUOUS
  5
F7
 10
71.60045
 20
138.799883
 30
0.0
 40
0.3
 50
183.814075
 51
270.0
  0
LINE
  8
0
  6
CONTINUOUS
  5
F8
 10
71.301114
 20
138.779927
 30
0.0
 11
71.138454
 21
141.219839
 31
0.0
  0
ARC
  8
0
  6
CONTINUOUS
  5
F9
 10
73.039118
 20
138.799883
 30
0.0
 40
0.3
 50
270.0
 51
356.185925
  0
LINE
  8
0
  6
CONTINUOUS
  5
FA
 10
73.519784
 20
141.499883
 30
0.0
 11
73.338454
 21
138.779927
 31
0.0
  0
ARC
  8
0
  6
CONTINUOUS
  5
FB
 10
78.919784
 20
137.199883
 30
0.0
 40
2.0
 50
180.0
 51
270.0
  0
ARC
  8
0
  6
CONTINUOUS
  5
FC
 10
78.319784
 20
136.799883
 30
0.0
 40
2.0
 50
180.0
 51
270.0
  0
INSERT
  8
SILK
  5
FD
  2
*X8
 10
0.0
 20
0.0
 30
0.0
1001
ACAD
1000
HATCH
1002
{
1070
    19
1000
ANSI31
1040
1.0
1040
0.0
1000
ASC_BOUNDS
1070
     1
1070
     2
1070
     1
1005
105
1000
ASC_SEEDPOINT
1011
0.0
1021
0.0
1031
0.0
1002
}
  0
CIRCLE
  8
SILK
  6
CONTINUOUS
  5
105
 10
92.183865
 20
144.22685
 30
0.0
 40
0.25
1001
ACAD
1000
ASC_BOUNDS
1002
{
1070
    19
1005
FD
1002
}
  0
TEXT
  8
SILK
  6
CONTINUOUS
  5
106
 10
91.686451
 20
138.993937
 30
0.0
 40
2.0
  1
0
 72
     2
 11
93.019784
 21
138.993937
 31
0.0
  0
INSERT
  8
SILK
  5
107
  2
*X7
 10
0.0
 20
0.0
 30
0.0
1001
ACAD
1000
HATCH
1002
{
1070
    19
1000
ANSI31
1040
1.0
1040
0.0
1000
ASC_BOUNDS
1070
     1
1070
     2
1070
     1
1005
10F
1000
ASC_SEEDPOINT
1011
0.0
1021
0.0
1031
0.0
1002
}
  0
CIRCLE
  8
SILK
  6
CONTINUOUS
  5
10F
 10
93.605846
 20
142.169661
 30
0.0
 40
0.25
1001
ACAD
1000
ASC_BOUNDS
1002
{
1070
    19
1005
107
1002
}
  0
LINE
  8
0
  6
CONTINUOUS
  5
110
 10
94.854444
 20
144.024399
 30
0.0
 11
95.314071
 21
143.638727
 31
0.0
  0
LINE
  8
0
  6
CONTINUOUS
  5
111
 10
95.304395
 20
144.560631
 30
0.0
 11
94.671274
 21
143.806106
 31
0.0
  0
LINE
  8
0
  6
CONTINUOUS
  5
112
 10
81.69976
 20
158.092346
 30
0.0
 11
80.303864
 21
157.725183
 31
0.0
  0
LINE
  8
0
  6
CONTINUOUS
  5
113
 10
80.939808
 20
155.307421
 30
0.0
 11
82.335704
 21
155.674583
 31
0.0
  0
CIRCLE
  8
0
  6
CONTINUOUS
  5
114
 10
81.319784
 20
156.699883
 30
0.0
 40
2.75
  0
LINE
  8
0
  6
CONTINUOUS
  5
115
 10
71.138454
 20
166.379927
 30
0.0
 11
71.301114
 21
168.819839
 31
0.0
  0
LINE
  8
0
  6
CONTINUOUS
  5
116
 10
73.338454
 20
168.819839
 30
0.0
 11
73.519784
 21
166.099883
 31
0.0
  0
LINE
  8
0
  6
CONTINUOUS
  5
117
 10
69.319784
 20
169.099883
 30
0.0
 11
69.319784
 21
166.599883
 31
0.0
  0
LINE
  8
0
  6
CONTINUOUS
  5
118
 10
76.319784
 20
153.799883
 30
0.0
 11
74.219784
 21
153.799883
 31
0.0
  0
LINE
  8
0
  6
CONTINUOUS
  5
119
 10
73.519784
 20
166.099883
 30
0.0
 11
73.711655
 21
154.299817
 31
0.0
  0
LINE
  8
0
  6
CONTINUOUS
  5
11A
 10
73.711655
 20
154.299817
 30
0.0
 11
74.228116
 21
153.799883
 31
0.0
  0
LINE
  8
0
  6
CONTINUOUS
  5
11B
 10
74.219784
 20
153.799883
 30
0.0
 11
73.71152
 21
153.291619
 31
0.0
  0
ARC
  8
0
  6
CONTINUOUS
  5
11C
 10
70.839118
 20
166.399883
 30
0.0
 40
0.3
 50
270.0
 51
356.185925
  0
LINE
  8
0
  6
CONTINUOUS
  5
11D
 10
73.519784
 20
166.099883
 30
0.0
 11
69.819784
 21
166.099883
 31
0.0
  0
LINE
  8
0
  6
CONTINUOUS
  5
11E
 10
69.819784
 20
166.599883
 30
0.0
 11
69.319784
 21
166.599883
 31
0.0
  0
LINE
  8
0
  6
CONTINUOUS
  5
11F
 10
69.819784
 20
166.099883
 30
0.0
 11
69.819784
 21
166.599883
 31
0.0
  0
LINE
  8
0
  6
CONTINUOUS
  5
120
 10
80.303864
 20
157.725183
 30
0.0
 11
79.923888
 21
156.33272
 31
0.0
  0
LINE
  8
0
  6
CONTINUOUS
  5
121
 10
79.923888
 20
156.33272
 30
0.0
 11
80.939808
 21
155.307421
 31
0.0
  0
ARC
  8
0
  6
CONTINUOUS
  5
122
 10
78.319784
 20
170.799883
 30
0.0
 40
5.0
 50
90.0
 51
176.560187
  0
ARC
  8
0
  6
CONTINUOUS
  5
123
 10
71.319784
 20
169.099883
 30
0.0
 40
2.0
 50
90.0
 51
180.0
  0
LINE
  8
0
  6
CONTINUOUS
  5
124
 10
71.60045
 20
169.099883
 30
0.0
 11
73.039118
 21
169.099883
 31
0.0
  0
ARC
  8
0
  6
CONTINUOUS
  5
125
 10
71.60045
 20
168.799883
 30
0.0
 40
0.3
 50
90.0
 51
176.185925
  0
ARC
  8
0
  6
CONTINUOUS
  5
126
 10
73.039118
 20
168.799883
 30
0.0
 40
0.3
 50
3.814075
 51
90.0
  0
LINE
  8
0
  6
CONTINUOUS
  5
127
 10
73.328792
 20
171.099883
 30
0.0
 11
71.319784
 21
171.099883
 31
0.0
  0
ARC
  8
0
  6
CONTINUOUS
  5
128
 10
78.919784
 20
170.399883
 30
0.0
 40
2.0
 50
90.0
 51
180.0
  0
ARC
  8
0
  6
CONTINUOUS
  5
129
 10
78.319784
 20
170.799883
 30
0.0
 40
2.0
 50
90.0
 51
180.0
  0
LINE
  8
0
  6
CONTINUOUS
  5
12A
 10
82.335704
 20
155.674583
 30
0.0
 11
82.71568
 21
157.067046
 31
0.0
  0
LINE
  8
0
  6
CONTINUOUS
  5
12B
 10
82.71568
 20
157.067046
 30
0.0
 11
81.69976
 21
158.092346
 31
0.0
  0
CIRCLE
  8
SILK
  6
CONTINUOUS
  5
12C
 10
91.926729
 20
146.714407
 30
0.0
 40
0.25
1001
ACAD
1000
ASC_BOUNDS
1002
{
1070
    19
1005
B8
1002
}
  0
CIRCLE
  8
SILK
  6
CONTINUOUS
  5
12D
 10
92.89784
 20
149.018968
 30
0.0
 40
0.25
1001
ACAD
1000
ASC_BOUNDS
1002
{
1070
    19
1005
B8
1002
}
  0
CIRCLE
  8
SILK
  6
CONTINUOUS
  5
12E
 10
94.85775
 20
150.572291
 30
0.0
 40
0.25
1001
ACAD
1000
ASC_BOUNDS
1002
{
1070
    19
1005
B8
1002
}
  0
CIRCLE
  8
SILK
  6
CONTINUOUS
  5
12F
 10
101.94353
 20
145.885802
 30
0.0
 40
0.25
1001
ACAD
1000
ASC_BOUNDS
1002
{
1070
    19
1005
B8
1002
}
  0
TEXT
  8
SILK
  6
CONTINUOUS
  5
130
 10
99.819784
 20
138.993937
 30
0.0
 40
2.0
  1
10
  0
CIRCLE
  8
SILK
  6
CONTINUOUS
  5
131
 10
99.54045
 20
141.678742
 30
0.0
 40
0.25
1001
ACAD
1000
ASC_BOUNDS
1002
{
1070
    19
1005
B8
1002
}
  0
CIRCLE
  8
SILK
  6
CONTINUOUS
  5
132
 10
101.281137
 20
143.47431
 30
0.0
 40
0.25
1001
ACAD
1000
ASC_BOUNDS
1002
{
1070
    19
1005
B8
1002
}
  0
CIRCLE
  8
0
  6
CONTINUOUS
  5
133
 10
100.519784
 20
167.499883
 30
0.0
 40
1.0
  0
CIRCLE
  8
0
  6
CONTINUOUS
  5
134
 10
100.519784
 20
157.499883
 30
0.0
 40
1.0
  0
CIRCLE
  8
SILK
  6
CONTINUOUS
  5
135
 10
97.323198
 20
150.991368
 30
0.0
 40
0.25
1001
ACAD
1000
ASC_BOUNDS
1002
{
1070
    19
1005
B8
1002
}
  0
CIRCLE
  8
SILK
  6
CONTINUOUS
  5
136
 10
99.686271
 20
150.172868
 30
0.0
 40
0.25
1001
ACAD
1000
ASC_BOUNDS
1002
{
1070
    19
1005
B8
1002
}
  0
CIRCLE
  8
SILK
  6
CONTINUOUS
  5
137
 10
101.3643
 20
148.318609
 30
0.0
 40
0.25
1001
ACAD
1000
ASC_BOUNDS
1002
{
1070
    19
1005
B8
1002
}
  0
CIRCLE
  8
0
  6
CONTINUOUS
  5
138
 10
100.519784
 20
162.499883
 30
0.0
 40
1.0
  0
LINE
  8
SILK
  6
CONTINUOUS
  5
139
 10
123.419784
 20
165.799883
 30
0.0
 11
120.419784
 21
165.799883
 31
0.0
  0
LINE
  8
0
  6
CONTINUOUS
  5
13A
 10
123.419784
 20
165.799883
 30
0.0
 11
120.419784
 21
165.799883
 31
0.0
  0
LINE
  8
SILK
  6
CONTINUOUS
  5
13B
 10
120.419784
 20
165.799883
 30
0.0
 11
121.919784
 21
162.799883
 31
0.0
  0
LINE
  8
0
  6
CONTINUOUS
  5
13C
 10
120.419784
 20
165.799883
 30
0.0
 11
121.919784
 21
162.799883
 31
0.0
  0
LINE
  8
SILK
  6
CONTINUOUS
  5
13D
 10
121.919784
 20
162.799883
 30
0.0
 11
123.419784
 21
165.799883
 31
0.0
  0
LINE
  8
0
  6
CONTINUOUS
  5
13E
 10
121.919784
 20
162.799883
 30
0.0
 11
123.419784
 21
165.799883
 31
0.0
  0
LINE
  8
0
  6
CONTINUOUS
  5
13F
 10
88.309784
 20
231.702351
 30
0.0
 11
88.309784
 21
232.555944
 31
0.0
  0
LINE
  8
0
  6
CONTINUOUS
  5
140
 10
86.329784
 20
232.554135
 30
0.0
 11
86.329784
 21
231.702351
 31
0.0
  0
CIRCLE
  8
0
  6
CONTINUOUS
  5
141
 10
87.319784
 20
237.202351
 30
0.0
 40
5.75
  0
LINE
  8
0
  6
CONTINUOUS
  5
142
 10
73.519784
 20
223.402351
 30
0.0
 11
73.711655
 21
235.202418
 31
0.0
  0
CIRCLE
  8
0
  6
CONTINUOUS
  5
143
 10
87.319784
 20
237.202351
 30
0.0
 40
6.0
  0
LINE
  8
0
  6
CONTINUOUS
  5
144
 10
76.319784
 20
252.702351
 30
0.0
 11
76.319784
 21
218.702351
 31
0.0
  0
ARC
  8
0
  6
CONTINUOUS
  5
145
 10
78.319784
 20
218.702351
 30
0.0
 40
5.0
 50
183.439813
 51
270.0
  0
LINE
  8
0
  6
CONTINUOUS
  5
146
 10
69.319784
 20
220.402351
 30
0.0
 11
69.319784
 21
222.902351
 31
0.0
  0
ARC
  8
0
  6
CONTINUOUS
  5
147
 10
71.319784
 20
220.402351
 30
0.0
 40
2.0
 50
180.0
 51
270.0
  0
LINE
  8
0
  6
CONTINUOUS
  5
148
 10
73.328792
 20
218.402351
 30
0.0
 11
71.319784
 21
218.402351
 31
0.0
  0
LINE
  8
0
  6
CONTINUOUS
  5
149
 10
69.819784
 20
223.402351
 30
0.0
 11
73.519784
 21
223.402351
 31
0.0
  0
LINE
  8
0
  6
CONTINUOUS
  5
14A
 10
69.819784
 20
223.402351
 30
0.0
 11
69.819784
 21
222.902351
 31
0.0
  0
LINE
  8
0
  6
CONTINUOUS
  5
14B
 10
69.819784
 20
222.902351
 30
0.0
 11
69.319784
 21
222.902351
 31
0.0
  0
ARC
  8
0
  6
CONTINUOUS
  5
14C
 10
78.319784
 20
218.702351
 30
0.0
 40
2.0
 50
180.0
 51
270.0
  0
TEXT
  8
SILK
  6
CONTINUOUS
  5
14D
 10
86.141213
 20
225.852351
 30
0.0
 40
2.5
  1
IN
 41
0.9
 72
     1
 11
87.319784
 21
225.852351
 31
0.0
  0
LINE
  8
0
  6
CONTINUOUS
  5
14E
 10
86.329784
 20
231.702351
 30
0.0
 11
88.309784
 21
231.702351
 31
0.0
  0
ARC
  8
0
  6
CONTINUOUS
  5
14F
 10
78.319784
 20
252.702351
 30
0.0
 40
2.0
 50
90.0
 51
180.0
  0
ARC
  8
0
  6
CONTINUOUS
  5
150
 10
78.319784
 20
252.702351
 30
0.0
 40
5.0
 50
90.0
 51
176.560187
  0
LINE
  8
0
  6
CONTINUOUS
  5
151
 10
74.228116
 20
235.702351
 30
0.0
 11
76.319784
 21
235.702351
 31
0.0
  0
LINE
  8
0
  6
CONTINUOUS
  5
152
 10
73.71152
 20
236.210616
 30
0.0
 11
73.519784
 21
248.002351
 31
0.0
  0
LINE
  8
0
  6
CONTINUOUS
  5
153
 10
73.71152
 20
236.210616
 30
0.0
 11
74.219784
 21
235.702351
 31
0.0
  0
LINE
  8
0
  6
CONTINUOUS
  5
154
 10
74.228116
 20
235.702351
 30
0.0
 11
73.711655
 21
235.202418
 31
0.0
  0
LINE
  8
0
  6
CONTINUOUS
  5
155
 10
73.519784
 20
248.002351
 30
0.0
 11
69.819784
 21
248.002351
 31
0.0
  0
ARC
  8
0
  6
CONTINUOUS
  5
156
 10
71.319784
 20
251.002351
 30
0.0
 40
2.0
 50
90.0
 51
180.0
  0
LINE
  8
0
  6
CONTINUOUS
  5
157
 10
69.819784
 20
248.502351
 30
0.0
 11
69.819784
 21
248.002351
 31
0.0
  0
LINE
  8
0
  6
CONTINUOUS
  5
158
 10
69.319784
 20
248.502351
 30
0.0
 11
69.819784
 21
248.502351
 31
0.0
  0
LINE
  8
0
  6
CONTINUOUS
  5
159
 10
69.319784
 20
248.502351
 30
0.0
 11
69.319784
 21
251.002351
 31
0.0
  0
LINE
  8
0
  6
CONTINUOUS
  5
15A
 10
71.319784
 20
253.002351
 30
0.0
 11
73.328792
 21
253.002351
 31
0.0
  0
CIRCLE
  8
0
  6
CONTINUOUS
  5
15B
 10
87.319784
 20
237.202351
 30
0.0
 40
4.25
  0
ARC
  8
0
  6
CONTINUOUS
  5
15C
 10
87.319784
 20
237.202351
 30
0.0
 40
4.75
 50
14.437301
 51
165.562699
  0
CIRCLE
  8
0
  6
CONTINUOUS
  5
15D
 10
87.319784
 20
237.202351
 30
0.0
 40
2.375
  0
ARC
  8
0
  6
CONTINUOUS
  5
15E
 10
87.319784
 20
237.202351
 30
0.0
 40
4.75
 50
194.437301
 51
345.562699
  0
TEXT
  8
SILK
  6
CONTINUOUS
  5
15F
 10
82.230498
 20
250.752351
 30
0.0
 40
2.5
  1
ANT B
 41
0.9
 72
     1
 11
87.319784
 21
250.752351
 31
0.0
  0
LINE
  8
0
  6
CONTINUOUS
  5
160
 10
82.719784
 20
238.386623
 30
0.0
 11
82.719784
 21
236.01808
 31
0.0
  0
CIRCLE
  8
0
  6
CONTINUOUS
  5
161
 10
87.319784
 20
237.202351
 30
0.0
 40
1.0
  0
LINE
  8
0
  6
CONTINUOUS
  5
162
 10
88.309784
 20
241.850568
 30
0.0
 11
88.309784
 21
242.702351
 31
0.0
  0
LINE
  8
0
  6
CONTINUOUS
  5
163
 10
86.329784
 20
242.702351
 30
0.0
 11
86.329784
 21
241.848759
 31
0.0
  0
LINE
  8
0
  6
CONTINUOUS
  5
164
 10
86.329784
 20
242.702351
 30
0.0
 11
88.309784
 21
242.702351
 31
0.0
  0
LINE
  8
0
  6
CONTINUOUS
  5
165
 10
91.919784
 20
236.01808
 30
0.0
 11
91.919784
 21
238.386623
 31
0.0
  0
LINE
  8
0
  6
CONTINUOUS
  5
166
 10
122.819784
 20
224.702351
 30
0.0
 11
122.819784
 21
235.202351
 31
0.0
  0
LINE
  8
0
  6
CONTINUOUS
  5
167
 10
122.519784
 20
236.002351
 30
0.0
 11
122.519784
 21
224.402351
 31
0.0
  0
CIRCLE
  8
0
  6
CONTINUOUS
  5
168
 10
115.819784
 20
229.202351
 30
0.0
 40
3.104346
  0
INSERT
  8
SILK
  5
169
  2
*X15
 10
0.0
 20
0.0
 30
0.0
1001
ACAD
1000
HATCH
1002
{
1070
    19
1000
ANSI31
1040
2.0
1040
0.0
1000
ASC_BOUNDS
1070
     1
1070
     2
1070
     1
1005
173
1000
ASC_SEEDPOINT
1011
0.0
1021
0.0
1031
0.0
1002
}
  0
CIRCLE
  8
SILK
  6
CONTINUOUS
  5
173
 10
110.419784
 20
218.902351
 30
0.0
 40
0.75
1001
ACAD
1000
ASC_BOUNDS
1002
{
1070
    19
1005
169
1002
}
  0
ARC
  8
SILK
  6
CONTINUOUS
  5
174
 10
110.419784
 20
218.902351
 30
0.0
 40
1.5
 50
45.002127
 51
314.997873
  0
LINE
  8
SILK
  6
CONTINUOUS
  5
175
 10
103.119784
 20
218.902351
 30
0.0
 11
108.919784
 21
218.902351
 31
0.0
  0
CIRCLE
  8
SILK
  6
CONTINUOUS
  5
176
 10
104.419784
 20
218.902351
 30
0.0
 40
1.3
  0
LINE
  8
0
  6
CONTINUOUS
  5
177
 10
117.135688
 20
230.502696
 30
0.0
 11
114.50388
 21
227.902007
 31
0.0
  0
LINE
  8
0
  6
CONTINUOUS
  5
178
 10
114.519439
 20
230.518256
 30
0.0
 11
117.120129
 21
227.886447
 31
0.0
  0
CIRCLE
  8
SILK
  6
CONTINUOUS
  5
179
 10
116.419784
 20
218.902351
 30
0.0
 40
1.3
  0
LINE
  8
SILK
  6
CONTINUOUS
  5
17A
 10
111.169784
 20
218.902351
 30
0.0
 11
117.719784
 21
218.902351
 31
0.0
  0
LINE
  8
SILK
  6
CONTINUOUS
  5
17B
 10
116.419784
 20
220.202351
 30
0.0
 11
116.419784
 21
217.602351
 31
0.0
  0
LINE
  8
0
  6
CONTINUOUS
  5
17C
 10
100.502145
 20
241.846864
 30
0.0
 11
104.137423
 21
241.157838
 31
0.0
  0
CIRCLE
  8
0
  6
CONTINUOUS
  5
17D
 10
102.319784
 20
241.502351
 30
0.0
 40
3.104346
  0
LINE
  8
0
  6
CONTINUOUS
  5
17E
 10
102.664297
 20
243.31999
 30
0.0
 11
101.975271
 21
239.684713
 31
0.0
  0
ARC
  8
0
  6
CONTINUOUS
  5
17F
 10
123.319784
 20
235.202351
 30
0.0
 40
0.5
 50
90.0
 51
180.0
  0
LINE
  8
SILK
  6
CONTINUOUS
  5
180
 10
133.919784
 20
147.899883
 30
0.0
 11
155.919784
 21
147.899883
 31
0.0
  0
LINE
  8
SILK
  6
CONTINUOUS
  5
181
 10
155.919784
 20
152.899883
 30
0.0
 11
133.919784
 21
152.899883
 31
0.0
  0
LINE
  8
SILK
  6
CONTINUOUS
  5
182
 10
155.919784
 20
161.699883
 30
0.0
 11
133.919784
 21
161.699883
 31
0.0
  0
LINE
  8
SILK
  6
CONTINUOUS
  5
183
 10
133.919784
 20
156.699883
 30
0.0
 11
155.919784
 21
156.699883
 31
0.0
  0
LINE
  8
0
  6
CONTINUOUS
  5
184
 10
152.319784
 20
173.799883
 30
0.0
 11
136.319784
 21
173.799883
 31
0.0
  0
LINE
  8
0
  6
CONTINUOUS
  5
185
 10
152.319784
 20
174.099883
 30
0.0
 11
136.319784
 21
174.099883
 31
0.0
  0
LINE
  8
0
  6
CONTINUOUS
  5
186
 10
136.319784
 20
133.499883
 30
0.0
 11
152.319784
 21
133.499883
 31
0.0
  0
LINE
  8
0
  6
CONTINUOUS
  5
187
 10
136.319784
 20
134.799883
 30
0.0
 11
136.319784
 21
133.499883
 31
0.0
  0
ARC
  8
SILK
  6
CONTINUOUS
  5
188
 10
133.919784
 20
159.199883
 30
0.0
 40
2.5
 50
90.0
 51
270.0
  0
ARC
  8
SILK
  6
CONTINUOUS
  5
189
 10
133.919784
 20
150.399883
 30
0.0
 40
2.5
 50
90.0
 51
270.0
  0
LINE
  8
0
  6
CONTINUOUS
  5
18A
 10
136.319784
 20
174.099883
 30
0.0
 11
136.319784
 21
172.799883
 31
0.0
  0
TEXT
  8
SILK
  6
CONTINUOUS
  5
18B
 10
138.550736
 20
149.149883
 30
0.0
 40
2.5
  1
TUNER1
 72
     1
 11
144.919784
 21
149.149883
 31
0.0
  0
INSERT
  8
SILK
  5
18C
  2
*X10
 10
0.0
 20
0.0
 30
0.0
1001
ACAD
1000
HATCH
1002
{
1070
    19
1000
ANSI31
1040
1.0
1040
0.0
1000
ASC_BOUNDS
1070
     1
1070
     2
1070
    11
1005
1C8
1005
1C4
1005
1D3
1005
1D5
1005
1D4
1005
1D7
1005
1D8
1005
1D9
1005
1BC
1005
1C9
1005
1CA
1000
ASC_SEEDPOINT
1011
0.0
1021
0.0
1031
0.0
1002
}
  0
CIRCLE
  8
SILK
  6
CONTINUOUS
  5
1BC
 10
179.44353
 20
145.885802
 30
0.0
 40
0.25
1001
ACAD
1000
ASC_BOUNDS
1002
{
1070
    19
1005
18C
1002
}
  0
CIRCLE
  8
0
  6
CONTINUOUS
  5
1BD
 10
174.319784
 20
145.899883
 30
0.0
 40
3.0
  0
CIRCLE
  8
0
  6
CONTINUOUS
  5
1BE
 10
174.319784
 20
145.899883
 30
0.0
 40
3.4
  0
CIRCLE
  8
0
  6
CONTINUOUS
  5
1BF
 10
174.319784
 20
145.899883
 30
0.0
 40
3.5
  0
ARC
  8
0
  6
CONTINUOUS
  5
1C0
 10
174.319784
 20
145.899883
 30
0.0
 40
2.5
 50
236.892103
 51
223.107897
  0
LINE
  8
0
  6
CONTINUOUS
  5
1C1
 10
152.319784
 20
133.499883
 30
0.0
 11
152.319784
 21
134.799883
 31
0.0
  0
LINE
  8
0
  6
CONTINUOUS
  5
1C2
 10
172.804395
 20
144.560631
 30
0.0
 11
173.264022
 21
144.174958
 31
0.0
  0
LINE
  8
0
  6
CONTINUOUS
  5
1C3
 10
173.264022
 20
144.174958
 30
0.0
 11
172.630901
 21
143.420433
 31
0.0
  0
CIRCLE
  8
SILK
  6
CONTINUOUS
  5
1C4
 10
169.683865
 20
144.22685
 30
0.0
 40
0.25
1001
ACAD
1000
ASC_BOUNDS
1002
{
1070
    19
1005
18C
1002
}
  0
TEXT
  8
SILK
  6
CONTINUOUS
  5
1C5
 10
169.186451
 20
138.993937
 30
0.0
 40
2.0
  1
0
 72
     2
 11
170.519784
 21
138.993937
 31
0.0
  0
LINE
  8
0
  6
CONTINUOUS
  5
1C6
 10
172.354444
 20
144.024399
 30
0.0
 11
172.814071
 21
143.638727
 31
0.0
  0
LINE
  8
0
  6
CONTINUOUS
  5
1C7
 10
172.804395
 20
144.560631
 30
0.0
 11
172.171274
 21
143.806106
 31
0.0
  0
CIRCLE
  8
SILK
  6
CONTINUOUS
  5
1C8
 10
171.105846
 20
142.169661
 30
0.0
 40
0.25
1001
ACAD
1000
ASC_BOUNDS
1002
{
1070
    19
1005
18C
1002
}
  0
CIRCLE
  8
SILK
  6
CONTINUOUS
  5
1C9
 10
178.781137
 20
143.47431
 30
0.0
 40
0.25
1001
ACAD
1000
ASC_BOUNDS
1002
{
1070
    19
1005
18C
1002
}
  0
CIRCLE
  8
SILK
  6
CONTINUOUS
  5
1CA
 10
177.04045
 20
141.678742
 30
0.0
 40
0.25
1001
ACAD
1000
ASC_BOUNDS
1002
{
1070
    19
1005
18C
1002
}
  0
ARC
  8
SILK
  6
CONTINUOUS
  5
1CB
 10
155.919784
 20
159.199883
 30
0.0
 40
2.5
 50
270.0
 51
90.0
  0
ARC
  8
SILK
  6
CONTINUOUS
  5
1CC
 10
155.919784
 20
150.399883
 30
0.0
 40
2.5
 50
270.0
 51
90.0
  0
LINE
  8
0
  6
CONTINUOUS
  5
1CD
 10
152.319784
 20
172.799883
 30
0.0
 11
152.319784
 21
174.099883
 31
0.0
  0
CIRCLE
  8
0
  6
CONTINUOUS
  5
1CE
 10
178.019784
 20
167.499883
 30
0.0
 40
1.0
  0
TEXT
  8
SILK
  6
CONTINUOUS
  5
1CF
 10
166.019784
 20
166.499883
 30
0.0
 40
2.0
  1
ANT A
 11
166.019784
 21
167.499883
 31
0.0
 73
     2
  0
TEXT
  8
SILK
  6
CONTINUOUS
  5
1D0
 10
166.019784
 20
161.499883
 30
0.0
 40
2.0
  1
ANT B
 11
166.019784
 21
162.499883
 31
0.0
 73
     2
  0
TEXT
  8
SILK
  6
CONTINUOUS
  5
1D1
 10
166.019784
 20
156.499883
 30
0.0
 40
2.0
  1
PEAK
 11
166.019784
 21
157.499883
 31
0.0
 73
     2
  0
TEXT
  8
SILK
  6
CONTINUOUS
  5
1D2
 10
168.700736
 20
152.399883
 30
0.0
 40
2.0
  1
VOLUME
 72
     1
 11
174.319784
 21
152.399883
 31
0.0
  0
CIRCLE
  8
SILK
  6
CONTINUOUS
  5
1D3
 10
169.426729
 20
146.714407
 30
0.0
 40
0.25
1001
ACAD
1000
ASC_BOUNDS
1002
{
1070
    19
1005
18C
1002
}
  0
CIRCLE
  8
SILK
  6
CONTINUOUS
  5
1D4
 10
172.35775
 20
150.572291
 30
0.0
 40
0.25
1001
ACAD
1000
ASC_BOUNDS
1002
{
1070
    19
1005
18C
1002
}
  0
CIRCLE
  8
SILK
  6
CONTINUOUS
  5
1D5
 10
170.39784
 20
149.018968
 30
0.0
 40
0.25
1001
ACAD
1000
ASC_BOUNDS
1002
{
1070
    19
1005
18C
1002
}
  0
CIRCLE
  8
0
  6
CONTINUOUS
  5
1D6
 10
178.019784
 20
157.499883
 30
0.0
 40
1.0
  0
CIRCLE
  8
SILK
  6
CONTINUOUS
  5
1D7
 10
174.823198
 20
150.991368
 30
0.0
 40
0.25
1001
ACAD
1000
ASC_BOUNDS
1002
{
1070
    19
1005
18C
1002
}
  0
CIRCLE
  8
SILK
  6
CONTINUOUS
  5
1D8
 10
177.186271
 20
150.172868
 30
0.0
 40
0.25
1001
ACAD
1000
ASC_BOUNDS
1002
{
1070
    19
1005
18C
1002
}
  0
CIRCLE
  8
SILK
  6
CONTINUOUS
  5
1D9
 10
178.8643
 20
148.318609
 30
0.0
 40
0.25
1001
ACAD
1000
ASC_BOUNDS
1002
{
1070
    19
1005
18C
1002
}
  0
CIRCLE
  8
0
  6
CONTINUOUS
  5
1DA
 10
178.019784
 20
162.499883
 30
0.0
 40
1.0
  0
LINE
  8
0
  6
CONTINUOUS
  5
1DB
 10
136.319784
 20
255.702351
 30
0.0
 11
152.319784
 21
255.702351
 31
0.0
  0
LINE
  8
0
  6
CONTINUOUS
  5
1DC
 10
152.319784
 20
256.002351
 30
0.0
 11
136.319784
 21
256.002351
 31
0.0
  0
ARC
  8
0
  6
CONTINUOUS
  5
1DD
 10
144.319784
 20
231.202351
 30
0.0
 40
7.0
 50
300.0
 51
0.0
  0
TEXT
  8
SILK
  6
CONTINUOUS
  5
1DE
 10
147.941213
 20
218.352351
 30
0.0
 40
1.7
  1
(UNBALANCED)
 41
0.9
 72
     1
 11
156.319784
 21
218.352351
 31
0.0
  0
LINE
  8
0
  6
CONTINUOUS
  5
1DF
 10
136.319784
 20
215.402351
 30
0.0
 11
152.319784
 21
215.402351
 31
0.0
  0
ARC
  8
0
  6
CONTINUOUS
  5
1E0
 10
144.319784
 20
231.202351
 30
0.0
 40
8.0
 50
331.044976
 51
28.955024
  0
TEXT
  8
SILK
  6
CONTINUOUS
  5
1E1
 10
145.261101
 20
247.252351
 30
0.0
 40
1.9
  1
-20dBV/600%%155(+6dBV Max)
 41
0.8
  7
UT7
 72
     1
 11
161.351387
 21
247.252351
 31
0.0
  0
CIRCLE
  8
0
  6
CONTINUOUS
  5
1E2
 10
127.319784
 20
231.202351
 30
0.0
 40
1.0
  0
ARC
  8
0
  6
CONTINUOUS
  5
1E3
 10
144.319784
 20
231.202351
 30
0.0
 40
5.5
 50
285.498733
 51
74.501267
  0
LINE
  8
0
  6
CONTINUOUS
  5
1E4
 10
151.319784
 20
235.243803
 30
0.0
 11
151.319784
 21
227.1609
 31
0.0
  0
ARC
  8
0
  6
CONTINUOUS
  5
1E5
 10
144.319784
 20
231.202351
 30
0.0
 40
5.5
 50
105.498733
 51
254.501267
  0
CIRCLE
  8
0
  6
CONTINUOUS
  5
1E6
 10
144.319784
 20
231.202351
 30
0.0
 40
6.0
  0
CIRCLE
  8
0
  6
CONTINUOUS
  5
1E7
 10
144.319784
 20
231.202351
 30
0.0
 40
5.2
  0
CIRCLE
  8
0
  6
CONTINUOUS
  5
1E8
 10
144.319784
 20
231.202351
 30
0.0
 40
4.9
  0
CIRCLE
  8
0
  6
CONTINUOUS
  5
1E9
 10
144.319784
 20
231.202351
 30
0.0
 40
4.215
  0
CIRCLE
  8
0
  6
CONTINUOUS
  5
1EA
 10
144.319784
 20
231.202351
 30
0.0
 40
3.215
  0
LINE
  8
0
  6
CONTINUOUS
  5
1EB
 10
132.119784
 20
224.402351
 30
0.0
 11
132.119784
 21
236.002351
 31
0.0
  0
LINE
  8
0
  6
CONTINUOUS
  5
1EC
 10
131.819784
 20
235.202351
 30
0.0
 11
131.819784
 21
224.702351
 31
0.0
  0
LINE
  8
0
  6
CONTINUOUS
  5
1ED
 10
137.319784
 20
227.1609
 30
0.0
 11
137.319784
 21
235.243803
 31
0.0
  0
ARC
  8
0
  6
CONTINUOUS
  5
1EE
 10
144.319784
 20
231.202351
 30
0.0
 40
8.0
 50
151.044976
 51
208.955024
  0
CIRCLE
  8
0
  6
CONTINUOUS
  5
1EF
 10
127.319784
 20
231.202351
 30
0.0
 40
3.25
  0
CIRCLE
  8
0
  6
CONTINUOUS
  5
1F0
 10
127.319784
 20
231.202351
 30
0.0
 40
1.5
  0
CIRCLE
  8
0
  6
CONTINUOUS
  5
1F1
 10
144.319784
 20
231.202351
 30
0.0
 40
7.0
  0
LINE
  8
0
  6
CONTINUOUS
  5
1F2
 10
144.319784
 20
223.119448
 30
0.0
 11
137.319784
 21
227.1609
 31
0.0
  0
ARC
  8
0
  6
CONTINUOUS
  5
1F3
 10
144.319784
 20
231.202351
 30
0.0
 40
8.0
 50
211.044976
 51
268.955024
  0
LINE
  8
0
  6
CONTINUOUS
  5
1F4
 10
136.319784
 20
216.702351
 30
0.0
 11
136.319784
 21
215.402351
 31
0.0
  0
LINE
  8
0
  6
CONTINUOUS
  5
1F5
 10
147.132256
 20
225.902351
 30
0.0
 11
141.507312
 21
225.902351
 31
0.0
  0
LINE
  8
0
  6
CONTINUOUS
  5
1F6
 10
142.601034
 20
218.502351
 30
0.0
 11
146.038534
 21
218.502351
 31
0.0
  0
LINE
  8
0
  6
CONTINUOUS
  5
1F7
 10
142.319784
 20
218.102351
 30
0.0
 11
146.319784
 21
218.102351
 31
0.0
  0
LINE
  8
0
  6
CONTINUOUS
  5
1F8
 10
146.319784
 20
220.302351
 30
0.0
 11
142.319784
 21
220.302351
 31
0.0
  0
LINE
  8
0
  6
CONTINUOUS
  5
1F9
 10
142.819784
 20
219.902351
 30
0.0
 11
145.819784
 21
219.902351
 31
0.0
  0
LINE
  8
0
  6
CONTINUOUS
  5
1FA
 10
151.319784
 20
227.1609
 30
0.0
 11
144.319784
 21
223.119448
 31
0.0
  0
ARC
  8
0
  6
CONTINUOUS
  5
1FB
 10
144.319784
 20
231.202351
 30
0.0
 40
8.0
 50
271.044976
 51
328.955024
  0
LINE
  8
0
  6
CONTINUOUS
  5
1FC
 10
142.819784
 20
219.902351
 30
0.0
 11
142.538534
 21
218.102351
 31
0.0
  0
LINE
  8
0
  6
CONTINUOUS
  5
1FD
 10
142.319784
 20
220.302351
 30
0.0
 11
142.319784
 21
218.102351
 31
0.0
  0
LINE
  8
0
  6
CONTINUOUS
  5
1FE
 10
142.788534
 20
219.702351
 30
0.0
 11
142.319784
 21
219.702351
 31
0.0
  0
LINE
  8
0
  6
CONTINUOUS
  5
1FF
 10
146.101034
 20
218.102351
 30
0.0
 11
145.819784
 21
219.902351
 31
0.0
  0
LINE
  8
0
  6
CONTINUOUS
  5
200
 10
146.319784
 20
218.102351
 30
0.0
 11
146.319784
 21
220.302351
 31
0.0
  0
LINE
  8
0
  6
CONTINUOUS
  5
201
 10
146.319784
 20
219.702351
 30
0.0
 11
145.851034
 21
219.702351
 31
0.0
  0
LINE
  8
SILK
  6
CONTINUOUS
  5
202
 10
140.319784
 20
250.402351
 30
0.0
 11
137.350282
 21
247.330453
 31
0.0
  0
LINE
  8
0
  6
CONTINUOUS
  5
203
 10
137.319784
 20
235.243803
 30
0.0
 11
144.319784
 21
239.285255
 31
0.0
  0
ARC
  8
0
  6
CONTINUOUS
  5
204
 10
144.319784
 20
231.202351
 30
0.0
 40
8.0
 50
91.044976
 51
148.955024
  0
ARC
  8
0
  6
CONTINUOUS
  5
205
 10
131.319784
 20
235.202351
 30
0.0
 40
0.5
 50
0.0
 51
90.0
  0
LINE
  8
0
  6
CONTINUOUS
  5
206
 10
136.319784
 20
256.002351
 30
0.0
 11
136.319784
 21
254.702351
 31
0.0
  0
TEXT
  8
SILK
  6
CONTINUOUS
  5
207
 10
143.569784
 20
242.352351
 30
0.0
 40
2.5
  1
2
 41
0.9
 72
     1
 11
144.319784
 21
242.352351
 31
0.0
  0
LINE
  8
0
  6
CONTINUOUS
  5
208
 10
142.319784
 20
250.902351
 30
0.0
 11
146.319784
 21
250.902351
 31
0.0
  0
LINE
  8
0
  6
CONTINUOUS
  5
209
 10
146.038534
 20
252.902351
 30
0.0
 11
142.601034
 21
252.902351
 31
0.0
  0
LINE
  8
0
  6
CONTINUOUS
  5
20A
 10
146.319784
 20
253.102351
 30
0.0
 11
142.319784
 21
253.102351
 31
0.0
  0
LINE
  8
0
  6
CONTINUOUS
  5
20B
 10
145.819784
 20
251.502351
 30
0.0
 11
142.819784
 21
251.502351
 31
0.0
  0
LINE
  8
0
  6
CONTINUOUS
  5
20C
 10
144.319784
 20
239.285255
 30
0.0
 11
151.319784
 21
235.243803
 31
0.0
  0
ARC
  8
0
  6
CONTINUOUS
  5
20D
 10
144.319784
 20
231.202351
 30
0.0
 40
8.0
 50
31.044976
 51
88.955024
  0
LINE
  8
0
  6
CONTINUOUS
  5
20E
 10
141.507312
 20
236.502351
 30
0.0
 11
147.132256
 21
236.502351
 31
0.0
  0
LINE
  8
SILK
  6
CONTINUOUS
  5
20F
 10
144.319784
 20
241.502351
 30
0.0
 11
144.319784
 21
239.285255
 31
0.0
  0
LINE
  8
SILK
  6
CONTINUOUS
  5
210
 10
142.419784
 20
250.402351
 30
0.0
 11
140.319784
 21
250.402351
 31
0.0
  0
LINE
  8
0
  6
CONTINUOUS
  5
211
 10
142.319784
 20
253.102351
 30
0.0
 11
142.319784
 21
250.902351
 31
0.0
  0
LINE
  8
0
  6
CONTINUOUS
  5
212
 10
142.569784
 20
253.102351
 30
0.0
 11
142.819784
 21
251.502351
 31
0.0
  0
LINE
  8
0
  6
CONTINUOUS
  5
213
 10
142.319784
 20
251.702351
 30
0.0
 11
142.788534
 21
251.702351
 31
0.0
  0
LINE
  8
0
  6
CONTINUOUS
  5
214
 10
146.319784
 20
250.902351
 30
0.0
 11
146.319784
 21
253.102351
 31
0.0
  0
LINE
  8
0
  6
CONTINUOUS
  5
215
 10
145.819784
 20
251.502351
 30
0.0
 11
146.069784
 21
253.102351
 31
0.0
  0
LINE
  8
0
  6
CONTINUOUS
  5
216
 10
145.851034
 20
251.702351
 30
0.0
 11
146.319784
 21
251.702351
 31
0.0
  0
ARC
  8
0
  6
CONTINUOUS
  5
217
 10
164.319784
 20
231.202351
 30
0.0
 40
8.0
 50
331.044976
 51
28.955024
  0
LINE
  8
0
  6
CONTINUOUS
  5
218
 10
171.319784
 20
235.243803
 30
0.0
 11
171.319784
 21
227.1609
 31
0.0
  0
ARC
  8
0
  6
CONTINUOUS
  5
219
 10
164.319784
 20
231.202351
 30
0.0
 40
8.0
 50
151.044976
 51
208.955024
  0
LINE
  8
0
  6
CONTINUOUS
  5
21A
 10
157.319784
 20
227.1609
 30
0.0
 11
157.319784
 21
235.243803
 31
0.0
  0
ARC
  8
0
  6
CONTINUOUS
  5
21B
 10
164.319784
 20
231.202351
 30
0.0
 40
5.5
 50
105.498733
 51
254.501267
  0
CIRCLE
  8
0
  6
CONTINUOUS
  5
21C
 10
164.319784
 20
231.202351
 30
0.0
 40
3.215
  0
CIRCLE
  8
0
  6
CONTINUOUS
  5
21D
 10
164.319784
 20
231.202351
 30
0.0
 40
4.215
  0
CIRCLE
  8
0
  6
CONTINUOUS
  5
21E
 10
164.319784
 20
231.202351
 30
0.0
 40
4.9
  0
CIRCLE
  8
0
  6
CONTINUOUS
  5
21F
 10
164.319784
 20
231.202351
 30
0.0
 40
5.2
  0
CIRCLE
  8
0
  6
CONTINUOUS
  5
220
 10
164.319784
 20
231.202351
 30
0.0
 40
6.0
  0
ARC
  8
0
  6
CONTINUOUS
  5
221
 10
164.319784
 20
231.202351
 30
0.0
 40
5.5
 50
285.498733
 51
74.501267
  0
LINE
  8
SILK
  6
CONTINUOUS
  5
222
 10
154.319784
 20
246.302351
 30
0.0
 11
154.319784
 21
223.902351
 31
0.0
  0
CIRCLE
  8
0
  6
CONTINUOUS
  5
223
 10
164.319784
 20
231.202351
 30
0.0
 40
7.0
  0
LINE
  8
0
  6
CONTINUOUS
  5
224
 10
167.132256
 20
225.902351
 30
0.0
 11
161.507312
 21
225.902351
 31
0.0
  0
ARC
  8
0
  6
CONTINUOUS
  5
225
 10
164.319784
 20
231.202351
 30
0.0
 40
8.0
 50
271.044976
 51
328.955024
  0
LINE
  8
0
  6
CONTINUOUS
  5
226
 10
171.319784
 20
227.1609
 30
0.0
 11
164.319784
 21
223.119448
 31
0.0
  0
ARC
  8
0
  6
CONTINUOUS
  5
227
 10
164.319784
 20
231.202351
 30
0.0
 40
8.0
 50
211.044976
 51
268.955024
  0
LINE
  8
0
  6
CONTINUOUS
  5
228
 10
164.319784
 20
223.119448
 30
0.0
 11
157.319784
 21
227.1609
 31
0.0
  0
LINE
  8
0
  6
CONTINUOUS
  5
229
 10
152.319784
 20
215.402351
 30
0.0
 11
152.319784
 21
216.702351
 31
0.0
  0
TEXT
  8
SILK
  6
CONTINUOUS
  5
22A
 10
170.929308
 20
221.352351
 30
0.0
 40
2.0
  1
MIX
 72
     1
 11
173.119784
 21
221.352351
 31
0.0
  0
ARC
  8
0
  6
CONTINUOUS
  5
22B
 10
164.319784
 20
231.202351
 30
0.0
 40
7.0
 50
300.0
 51
0.0
  0
LINE
  8
0
  6
CONTINUOUS
  5
22C
 10
175.219784
 20
226.302351
 30
0.0
 11
177.319784
 21
226.302351
 31
0.0
  0
LINE
  8
0
  6
CONTINUOUS
  5
22D
 10
175.219784
 20
228.502351
 30
0.0
 11
177.319784
 21
228.502351
 31
0.0
  0
LINE
  8
SILK
  6
CONTINUOUS
  5
22E
 10
173.119784
 20
227.402351
 30
0.0
 11
174.819784
 21
227.402351
 31
0.0
  0
LINE
  8
SILK
  6
CONTINUOUS
  5
22F
 10
173.119784
 20
224.402351
 30
0.0
 11
173.119784
 21
227.402351
 31
0.0
  0
LINE
  8
0
  6
CONTINUOUS
  5
230
 10
174.819784
 20
228.902351
 30
0.0
 11
174.819784
 21
225.902351
 31
0.0
  0
LINE
  8
0
  6
CONTINUOUS
  5
231
 10
176.119784
 20
228.502351
 30
0.0
 11
176.119784
 21
226.302351
 31
0.0
  0
LINE
  8
0
  6
CONTINUOUS
  5
232
 10
176.319784
 20
228.502351
 30
0.0
 11
176.319784
 21
226.302351
 31
0.0
  0
LINE
  8
0
  6
CONTINUOUS
  5
233
 10
175.219784
 20
226.302351
 30
0.0
 11
175.219784
 21
228.502351
 31
0.0
  0
LINE
  8
0
  6
CONTINUOUS
  5
234
 10
177.319784
 20
228.502351
 30
0.0
 11
177.319784
 21
226.302351
 31
0.0
  0
LINE
  8
0
  6
CONTINUOUS
  5
235
 10
176.519784
 20
228.502351
 30
0.0
 11
176.519784
 21
226.302351
 31
0.0
  0
LINE
  8
SILK
  6
CONTINUOUS
  5
236
 10
166.819784
 20
243.602351
 30
0.0
 11
164.319784
 21
243.602351
 31
0.0
  0
LINE
  8
0
  6
CONTINUOUS
  5
237
 10
161.507312
 20
236.502351
 30
0.0
 11
167.132256
 21
236.502351
 31
0.0
  0
TEXT
  8
SILK
  6
CONTINUOUS
  5
238
 10
154.268053
 20
250.752351
 30
0.0
 40
2.5
  1
OUTPUT
 72
     1
 11
161.351387
 21
250.752351
 31
0.0
  0
ARC
  8
0
  6
CONTINUOUS
  5
239
 10
164.319784
 20
231.202351
 30
0.0
 40
8.0
 50
31.044976
 51
88.955024
  0
LINE
  8
0
  6
CONTINUOUS
  5
23A
 10
164.319784
 20
239.285255
 30
0.0
 11
171.319784
 21
235.243803
 31
0.0
  0
ARC
  8
0
  6
CONTINUOUS
  5
23B
 10
164.319784
 20
231.202351
 30
0.0
 40
8.0
 50
91.044976
 51
148.955024
  0
LINE
  8
0
  6
CONTINUOUS
  5
23C
 10
157.319784
 20
235.243803
 30
0.0
 11
164.319784
 21
239.285255
 31
0.0
  0
LINE
  8
SILK
  6
CONTINUOUS
  5
23D
 10
164.319784
 20
239.285255
 30
0.0
 11
164.319784
 21
243.602351
 31
0.0
  0
LINE
  8
0
  6
CONTINUOUS
  5
23E
 10
152.319784
 20
254.702351
 30
0.0
 11
152.319784
 21
256.002351
 31
0.0
  0
TEXT
  8
SILK
  6
CONTINUOUS
  5
23F
 10
168.587641
 20
242.352351
 30
0.0
 40
2.5
  1
MIX/1
 41
0.9
 72
     1
 11
172.819784
 21
242.352351
 31
0.0
  0
LINE
  8
0
  6
CONTINUOUS
  5
26B
 10
264.819784
 20
45.016435
 30
0.0
 11
264.819784
 21
89.016435
 31
0.0
  0
ARC
  8
SILK
  6
CONTINUOUS
  5
26C
 10
233.919784
 20
159.199883
 30
0.0
 40
2.5
 50
270.0
 51
90.0
  0
ARC
  8
SILK
  6
CONTINUOUS
  5
26D
 10
233.919784
 20
150.399883
 30
0.0
 40
2.5
 50
270.0
 51
90.0
  0
TEXT
  8
SILK
  6
CONTINUOUS
  5
26E
 10
208.448992
 20
136.199883
 30
0.0
 40
2.5
  1
DIVERSITY WIRELESS TUNER WT-4820
 41
0.85
 72
     2
 11
269.56804
 21
136.199883
 31
0.0
  0
LINE
  8
0
  6
CONTINUOUS
  5
26F
 10
270.319784
 20
134.799883
 30
0.0
 11
212.319784
 21
134.799883
 31
0.0
  0
LINE
  8
0
  6
CONTINUOUS
  5
270
 10
212.319784
 20
172.799883
 30
0.0
 11
270.319784
 21
172.799883
 31
0.0
  0
LINE
  8
0
  6
CONTINUOUS
  5
271
 10
212.319784
 20
216.702351
 30
0.0
 11
270.319784
 21
216.702351
 31
0.0
  0
LINE
  8
0
  6
CONTINUOUS
  5
272
 10
270.319784
 20
254.702351
 30
0.0
 11
212.319784
 21
254.702351
 31
0.0
  0
LINE
  8
0
  6
CONTINUOUS
  5
273
 10
212.319784
 20
173.799883
 30
0.0
 11
196.319784
 21
173.799883
 31
0.0
  0
LINE
  8
0
  6
CONTINUOUS
  5
274
 10
212.319784
 20
174.099883
 30
0.0
 11
196.319784
 21
174.099883
 31
0.0
  0
LINE
  8
0
  6
CONTINUOUS
  5
275
 10
196.319784
 20
133.499883
 30
0.0
 11
212.319784
 21
133.499883
 31
0.0
  0
LINE
  8
0
  6
CONTINUOUS
  5
276
 10
196.319784
 20
134.799883
 30
0.0
 11
196.319784
 21
133.499883
 31
0.0
  0
TEXT
  8
SILK
  6
CONTINUOUS
  5
277
 10
193.253117
 20
166.499883
 30
0.0
 40
2.0
  1
CHANNEL
 72
     1
 11
199.919784
 21
166.499883
 31
0.0
  0
CIRCLE
  8
0
  6
CONTINUOUS
  5
278
 10
199.919784
 20
154.799883
 30
0.0
 40
7.0
  0
LINE
  8
SILK
  6
CONTINUOUS
  5
279
 10
201.419784
 20
165.799883
 30
0.0
 11
198.419784
 21
165.799883
 31
0.0
  0
LINE
  8
SILK
  6
CONTINUOUS
  5
27A
 10
199.919784
 20
162.799883
 30
0.0
 11
201.419784
 21
165.799883
 31
0.0
  0
CIRCLE
  8
0
  6
CONTINUOUS
  5
27B
 10
199.919784
 20
154.799883
 30
0.0
 40
2.5
  0
LINE
  8
SILK
  6
CONTINUOUS
  5
27C
 10
198.419784
 20
165.799883
 30
0.0
 11
199.919784
 21
162.799883
 31
0.0
  0
LINE
  8
0
  6
CONTINUOUS
  5
27D
 10
196.319784
 20
174.099883
 30
0.0
 11
196.319784
 21
172.799883
 31
0.0
  0
LINE
  8
0
  6
CONTINUOUS
  5
27E
 10
212.319784
 20
133.499883
 30
0.0
 11
212.319784
 21
134.799883
 31
0.0
  0
LINE
  8
SILK
  6
CONTINUOUS
  5
27F
 10
233.919784
 20
161.699883
 30
0.0
 11
211.919784
 21
161.699883
 31
0.0
  0
LINE
  8
SILK
  6
CONTINUOUS
  5
280
 10
211.919784
 20
156.699883
 30
0.0
 11
233.919784
 21
156.699883
 31
0.0
  0
LINE
  8
SILK
  6
CONTINUOUS
  5
281
 10
211.919784
 20
147.899883
 30
0.0
 11
233.919784
 21
147.899883
 31
0.0
  0
LINE
  8
SILK
  6
CONTINUOUS
  5
282
 10
233.919784
 20
152.899883
 30
0.0
 11
211.919784
 21
152.899883
 31
0.0
  0
TEXT
  8
SILK
  6
CONTINUOUS
  5
283
 10
216.015022
 20
149.149883
 30
0.0
 40
2.5
  1
TUNER2
 72
     1
 11
222.919784
 21
149.149883
 31
0.0
  0
ARC
  8
SILK
  6
CONTINUOUS
  5
284
 10
211.919784
 20
159.199883
 30
0.0
 40
2.5
 50
90.0
 51
270.0
  0
ARC
  8
SILK
  6
CONTINUOUS
  5
285
 10
211.919784
 20
150.399883
 30
0.0
 40
2.5
 50
90.0
 51
270.0
  0
LINE
  8
0
  6
CONTINUOUS
  5
286
 10
212.319784
 20
172.799883
 30
0.0
 11
212.319784
 21
174.099883
 31
0.0
  0
LINE
  8
0
  6
CONTINUOUS
  5
287
 10
196.319784
 20
255.702351
 30
0.0
 11
212.319784
 21
255.702351
 31
0.0
  0
LINE
  8
0
  6
CONTINUOUS
  5
288
 10
212.319784
 20
256.002351
 30
0.0
 11
196.319784
 21
256.002351
 31
0.0
  0
LINE
  8
0
  6
CONTINUOUS
  5
289
 10
196.319784
 20
215.402351
 30
0.0
 11
212.319784
 21
215.402351
 31
0.0
  0
LINE
  8
SILK
  6
CONTINUOUS
  5
28A
 10
206.719784
 20
218.802351
 30
0.0
 11
208.719784
 21
218.802351
 31
0.0
  0
LINE
  8
SILK
  6
CONTINUOUS
  5
28B
 10
209.469784
 20
220.802351
 30
0.0
 11
207.719784
 21
220.802351
 31
0.0
  0
CIRCLE
  8
0
  6
CONTINUOUS
  5
28C
 10
193.819784
 20
233.202351
 30
0.0
 40
1.175
  0
CIRCLE
  8
0
  6
CONTINUOUS
  5
28D
 10
193.819784
 20
237.202351
 30
0.0
 40
11.0
  0
CIRCLE
  8
0
  6
CONTINUOUS
  5
28E
 10
193.819784
 20
237.202351
 30
0.0
 40
10.75
  0
CIRCLE
  8
0
  6
CONTINUOUS
  5
28F
 10
193.819784
 20
237.202351
 30
0.0
 40
8.2
  0
TEXT
  8
SILK
  6
CONTINUOUS
  5
290
 10
185.848355
 20
220.852351
 30
0.0
 40
2.0
  1
(BALANCED)
 41
0.9
 72
     1
 11
193.819784
 21
220.852351
 31
0.0
  0
LINE
  8
SILK
  6
CONTINUOUS
  5
291
 10
180.419784
 20
227.402351
 30
0.0
 11
182.119784
 21
227.402351
 31
0.0
  0
LINE
  8
0
  6
CONTINUOUS
  5
292
 10
180.419784
 20
225.902351
 30
0.0
 11
180.419784
 21
228.902351
 31
0.0
  0
LINE
  8
SILK
  6
CONTINUOUS
  5
293
 10
182.119784
 20
224.402351
 30
0.0
 11
182.119784
 21
227.402351
 31
0.0
  0
TEXT
  8
SILK
  6
CONTINUOUS
  5
294
 10
181.881689
 20
221.352351
 30
0.0
 40
2.0
  1
1
 72
     1
 11
182.119784
 21
221.352351
 31
0.0
  0
CIRCLE
  8
0
  6
CONTINUOUS
  5
295
 10
203.819784
 20
227.202351
 30
0.0
 40
3.104346
  0
LINE
  8
0
  6
CONTINUOUS
  5
296
 10
196.319784
 20
216.702351
 30
0.0
 11
196.319784
 21
215.402351
 31
0.0
  0
LINE
  8
0
  6
CONTINUOUS
  5
297
 10
206.319784
 20
220.302351
 30
0.0
 11
202.319784
 21
220.302351
 31
0.0
  0
LINE
  8
0
  6
CONTINUOUS
  5
298
 10
202.819784
 20
219.902351
 30
0.0
 11
205.819784
 21
219.902351
 31
0.0
  0
LINE
  8
0
  6
CONTINUOUS
  5
299
 10
202.601034
 20
218.502351
 30
0.0
 11
206.038534
 21
218.502351
 31
0.0
  0
LINE
  8
0
  6
CONTINUOUS
  5
29A
 10
202.319784
 20
218.102351
 30
0.0
 11
206.319784
 21
218.102351
 31
0.0
  0
LINE
  8
0
  6
CONTINUOUS
  5
29B
 10
202.819784
 20
219.902351
 30
0.0
 11
202.538534
 21
218.102351
 31
0.0
  0
LINE
  8
0
  6
CONTINUOUS
  5
29C
 10
202.319784
 20
220.302351
 30
0.0
 11
202.319784
 21
218.102351
 31
0.0
  0
LINE
  8
0
  6
CONTINUOUS
  5
29D
 10
202.788534
 20
219.702351
 30
0.0
 11
202.319784
 21
219.702351
 31
0.0
  0
LINE
  8
SILK
  6
CONTINUOUS
  5
29E
 10
207.719784
 20
218.802351
 30
0.0
 11
207.719784
 21
220.802351
 31
0.0
  0
LINE
  8
0
  6
CONTINUOUS
  5
29F
 10
206.101034
 20
218.102351
 30
0.0
 11
205.819784
 21
219.902351
 31
0.0
  0
LINE
  8
0
  6
CONTINUOUS
  5
2A0
 10
206.319784
 20
218.102351
 30
0.0
 11
206.319784
 21
220.302351
 31
0.0
  0
LINE
  8
SILK
  6
CONTINUOUS
  5
2A1
 10
207.67917
 20
217.81097
 30
0.0
 11
208.119784
 21
218.802351
 31
0.0
  0
LINE
  8
SILK
  6
CONTINUOUS
  5
2A2
 10
206.87917
 20
217.81097
 30
0.0
 11
207.319784
 21
218.802351
 31
0.0
  0
LINE
  8
SILK
  6
CONTINUOUS
  5
2A3
 10
207.27917
 20
217.81097
 30
0.0
 11
207.719784
 21
218.802351
 31
0.0
  0
LINE
  8
0
  6
CONTINUOUS
  5
2A4
 10
206.319784
 20
219.702351
 30
0.0
 11
205.851034
 21
219.702351
 31
0.0
  0
LINE
  8
0
  6
CONTINUOUS
  5
2A5
 10
202.519439
 20
228.518256
 30
0.0
 11
205.120129
 21
225.886447
 31
0.0
  0
LINE
  8
0
  6
CONTINUOUS
  5
2A6
 10
202.50388
 20
225.902007
 30
0.0
 11
205.135688
 21
228.502696
 31
0.0
  0
LINE
  8
SILK
  6
CONTINUOUS
  5
2A7
 10
181.219784
 20
250.402351
 30
0.0
 11
201.819784
 21
250.402351
 31
0.0
  0
LINE
  8
SILK
  6
CONTINUOUS
  5
2A8
 10
184.028532
 20
242.215473
 30
0.0
 11
181.319784
 21
243.602351
 31
0.0
  0
LINE
  8
0
  6
CONTINUOUS
  5
2A9
 10
182.519439
 20
248.518256
 30
0.0
 11
185.120129
 21
245.886447
 31
0.0
  0
LINE
  8
0
  6
CONTINUOUS
  5
2AA
 10
182.50388
 20
245.902007
 30
0.0
 11
185.135688
 21
248.502696
 31
0.0
  0
CIRCLE
  8
0
  6
CONTINUOUS
  5
2AB
 10
183.819784
 20
247.202351
 30
0.0
 40
3.104346
  0
CIRCLE
  8
0
  6
CONTINUOUS
  5
2AC
 10
189.819784
 20
237.202351
 30
0.0
 40
1.175
  0
CIRCLE
  8
0
  6
CONTINUOUS
  5
2AD
 10
197.819784
 20
237.202351
 30
0.0
 40
1.175
  0
LINE
  8
0
  6
CONTINUOUS
  5
2AE
 10
206.319784
 20
253.102351
 30
0.0
 11
202.319784
 21
253.102351
 31
0.0
  0
LINE
  8
0
  6
CONTINUOUS
  5
2AF
 10
206.038534
 20
252.902351
 30
0.0
 11
202.601034
 21
252.902351
 31
0.0
  0
LINE
  8
0
  6
CONTINUOUS
  5
2B0
 10
205.819784
 20
251.502351
 30
0.0
 11
202.819784
 21
251.502351
 31
0.0
  0
LINE
  8
0
  6
CONTINUOUS
  5
2B1
 10
202.319784
 20
250.902351
 30
0.0
 11
206.319784
 21
250.902351
 31
0.0
  0
LINE
  8
SILK
  6
CONTINUOUS
  5
2B2
 10
204.789286
 20
247.330453
 30
0.0
 11
201.819784
 21
250.402351
 31
0.0
  0
LINE
  8
0
  6
CONTINUOUS
  5
2B3
 10
202.319784
 20
253.102351
 30
0.0
 11
202.319784
 21
250.902351
 31
0.0
  0
LINE
  8
0
  6
CONTINUOUS
  5
2B4
 10
202.569784
 20
253.102351
 30
0.0
 11
202.819784
 21
251.502351
 31
0.0
  0
LINE
  8
0
  6
CONTINUOUS
  5
2B5
 10
202.319784
 20
251.702351
 30
0.0
 11
202.788534
 21
251.702351
 31
0.0
  0
LINE
  8
0
  6
CONTINUOUS
  5
2B6
 10
206.319784
 20
250.902351
 30
0.0
 11
206.319784
 21
253.102351
 31
0.0
  0
LINE
  8
0
  6
CONTINUOUS
  5
2B7
 10
205.819784
 20
251.502351
 30
0.0
 11
206.069784
 21
253.102351
 31
0.0
  0
LINE
  8
0
  6
CONTINUOUS
  5
2B8
 10
205.851034
 20
251.702351
 30
0.0
 11
206.319784
 21
251.702351
 31
0.0
  0
LINE
  8
0
  6
CONTINUOUS
  5
2B9
 10
196.319784
 20
256.002351
 30
0.0
 11
196.319784
 21
254.702351
 31
0.0
  0
ARC
  8
0
  6
CONTINUOUS
  5
2BA
 10
220.819784
 20
231.202351
 30
0.0
 40
5.5
 50
285.498733
 51
74.501267
  0
ARC
  8
0
  6
CONTINUOUS
  5
2BB
 10
220.819784
 20
231.202351
 30
0.0
 40
8.0
 50
331.044976
 51
28.955024
  0
LINE
  8
0
  6
CONTINUOUS
  5
2BC
 10
227.819784
 20
235.243803
 30
0.0
 11
227.819784
 21
227.1609
 31
0.0
  0
ARC
  8
0
  6
CONTINUOUS
  5
2BD
 10
220.819784
 20
231.202351
 30
0.0
 40
5.5
 50
105.498733
 51
254.501267
  0
ARC
  8
0
  6
CONTINUOUS
  5
2BE
 10
220.819784
 20
231.202351
 30
0.0
 40
8.0
 50
151.044976
 51
208.955024
  0
LINE
  8
0
  6
CONTINUOUS
  5
2BF
 10
213.819784
 20
227.1609
 30
0.0
 11
213.819784
 21
235.243803
 31
0.0
  0
CIRCLE
  8
0
  6
CONTINUOUS
  5
2C0
 10
220.819784
 20
231.202351
 30
0.0
 40
3.215
  0
CIRCLE
  8
0
  6
CONTINUOUS
  5
2C1
 10
220.819784
 20
231.202351
 30
0.0
 40
4.215
  0
CIRCLE
  8
0
  6
CONTINUOUS
  5
2C2
 10
220.819784
 20
231.202351
 30
0.0
 40
4.9
  0
CIRCLE
  8
0
  6
CONTINUOUS
  5
2C3
 10
220.819784
 20
231.202351
 30
0.0
 40
5.2
  0
CIRCLE
  8
0
  6
CONTINUOUS
  5
2C4
 10
220.819784
 20
231.202351
 30
0.0
 40
6.0
  0
CIRCLE
  8
0
  6
CONTINUOUS
  5
2C5
 10
220.819784
 20
231.202351
 30
0.0
 40
7.0
  0
ARC
  8
0
  6
CONTINUOUS
  5
2C6
 10
220.819784
 20
231.202351
 30
0.0
 40
8.0
 50
271.044976
 51
328.955024
  0
LINE
  8
0
  6
CONTINUOUS
  5
2C7
 10
227.819784
 20
227.1609
 30
0.0
 11
220.819784
 21
223.119448
 31
0.0
  0
LINE
  8
0
  6
CONTINUOUS
  5
2C8
 10
223.632256
 20
225.902351
 30
0.0
 11
218.007312
 21
225.902351
 31
0.0
  0
TEXT
  8
SILK
  6
CONTINUOUS
  5
2C9
 10
218.813539
 20
217.552351
 30
0.0
 40
1.5
  1
COLD
 11
218.813539
 21
218.302351
 31
0.0
 73
     2
  0
TEXT
  8
SILK
  6
CONTINUOUS
  5
2CA
 10
218.813539
 20
220.052351
 30
0.0
 40
1.5
  1
HOT
 11
218.813539
 21
220.802351
 31
0.0
 73
     2
  0
TEXT
  8
SILK
  6
CONTINUOUS
  5
2CB
 10
214.719784
 20
221.752351
 30
0.0
 40
1.5
  1
2
 72
     1
 11
215.219784
 21
221.752351
 31
0.0
  0
ARC
  8
0
  6
CONTINUOUS
  5
2CC
 10
220.819784
 20
231.202351
 30
0.0
 40
8.0
 50
211.044976
 51
268.955024
  0
LINE
  8
SILK
  6
CONTINUOUS
  5
2CD
 10
212.719784
 20
218.302351
 30
0.0
 11
217.719784
 21
218.302351
 31
0.0
  0
CIRCLE
  8
SILK
  6
CONTINUOUS
  5
2CE
 10
215.219784
 20
220.802351
 30
0.0
 40
0.75
  0
CIRCLE
  8
SILK
  6
CONTINUOUS
  5
2CF
 10
212.719784
 20
220.802351
 30
0.0
 40
4.0
  0
LINE
  8
0
  6
CONTINUOUS
  5
2D0
 10
220.819784
 20
223.119448
 30
0.0
 11
213.819784
 21
227.1609
 31
0.0
  0
CIRCLE
  8
SILK
  6
CONTINUOUS
  5
2D1
 10
210.219784
 20
220.802351
 30
0.0
 40
0.75
  0
CIRCLE
  8
SILK
  6
CONTINUOUS
  5
2D2
 10
212.719784
 20
218.302351
 30
0.0
 40
0.75
  0
LINE
  8
0
  6
CONTINUOUS
  5
2D3
 10
212.319784
 20
215.402351
 30
0.0
 11
212.319784
 21
216.702351
 31
0.0
  0
TEXT
  8
SILK
  6
CONTINUOUS
  5
2D4
 10
212.219784
 20
219.252351
 30
0.0
 40
1.5
  1
3
 72
     1
 11
212.719784
 21
219.252351
 31
0.0
  0
TEXT
  8
SILK
  6
CONTINUOUS
  5
2D5
 10
210.041213
 20
221.752351
 30
0.0
 40
1.5
  1
1
 72
     1
 11
210.219784
 21
221.752351
 31
0.0
  0
LINE
  8
SILK
  6
CONTINUOUS
  5
2D6
 10
215.969784
 20
220.802351
 30
0.0
 11
217.719784
 21
220.802351
 31
0.0
  0
ARC
  8
0
  6
CONTINUOUS
  5
2D7
 10
220.819784
 20
231.202351
 30
0.0
 40
7.0
 50
300.0
 51
0.0
  0
LINE
  8
0
  6
CONTINUOUS
  5
2D8
 10
220.819784
 20
239.285255
 30
0.0
 11
227.819784
 21
235.243803
 31
0.0
  0
ARC
  8
0
  6
CONTINUOUS
  5
2D9
 10
220.819784
 20
231.202351
 30
0.0
 40
8.0
 50
31.044976
 51
88.955024
  0
TEXT
  8
SILK
  6
CONTINUOUS
  5
2DA
 10
215.837641
 20
250.802351
 30
0.0
 40
2.5
  1
MIX IN
 41
0.9
 72
     1
 11
220.819784
 21
250.802351
 31
0.0
  0
TEXT
  8
SILK
  6
CONTINUOUS
  5
2DB
 10
212.320736
 20
247.302351
 30
0.0
 40
2.0
  1
-20dBV/10k%%155
 41
0.8
  7
UT7
 72
     1
 11
220.819784
 21
247.302351
 31
0.0
  0
LINE
  8
0
  6
CONTINUOUS
  5
2DC
 10
218.007312
 20
236.502351
 30
0.0
 11
223.632256
 21
236.502351
 31
0.0
  0
ARC
  8
0
  6
CONTINUOUS
  5
2DD
 10
220.819784
 20
231.202351
 30
0.0
 40
8.0
 50
91.044976
 51
148.955024
  0
LINE
  8
0
  6
CONTINUOUS
  5
2DE
 10
213.819784
 20
235.243803
 30
0.0
 11
220.819784
 21
239.285255
 31
0.0
  0
LINE
  8
SILK
  6
CONTINUOUS
  5
2DF
 10
220.819784
 20
239.285255
 30
0.0
 11
220.819784
 21
246.302351
 31
0.0
  0
LINE
  8
0
  6
CONTINUOUS
  5
2E0
 10
212.319784
 20
254.702351
 30
0.0
 11
212.319784
 21
256.002351
 31
0.0
  0
INSERT
  8
SILK
  5
2E1
  2
*X12
 10
0.0
 20
0.0
 30
0.0
1001
ACAD
1000
HATCH
1002
{
1070
    19
1000
ANSI31
1040
4.0
1040
0.0
1000
ASC_BOUNDS
1070
     1
1070
     2
1070
    38
1005
383
1005
35E
1005
35F
1005
3A9
1005
3B6
1005
3C4
1005
3B7
1005
3B8
1005
3AA
1005
380
1005
36D
1005
373
1005
360
1005
384
1005
37E
1005
381
1005
361
1005
362
1005
382
1005
363
1005
37F
1005
374
1005
385
1005
37D
1005
377
1005
378
1005
3B9
1005
375
1005
36F
1005
36E
1005
30E
1005
3AB
1005
370
1005
371
1005
372
1005
376
1005
30F
1005
3BA
1000
ASC_SEEDPOINT
1011
0.0
1021
0.0
1031
0.0
1002
}
  0
LINE
  8
SILK
  6
CONTINUOUS
  5
30E
 10
265.519134
 20
169.254883
 30
0.0
 11
263.791704
 21
165.199883
 31
0.0
1001
ACAD
1000
ASC_BOUNDS
1002
{
1070
    19
1005
2E1
1002
}
  0
ARC
  8
SILK
  6
CONTINUOUS
  5
30F
 10
302.278459
 20
151.156832
 30
0.0
 40
40.55
 50
157.702583
 51
159.737945
1001
ACAD
1000
ASC_BOUNDS
1002
{
1070
    19
1005
2E1
1002
}
  0
LINE
  8
0
  6
CONTINUOUS
  5
310
 10
262.214953
 20
140.504714
 30
0.0
 11
262.214953
 21
149.295053
 31
0.0
  0
LINE
  8
0
  6
CONTINUOUS
  5
311
 10
263.069784
 20
139.749883
 30
0.0
 11
263.069784
 21
150.249883
 31
0.0
  0
LINE
  8
0
  6
CONTINUOUS
  5
312
 10
262.819784
 20
139.899883
 30
0.0
 11
262.819784
 21
149.899883
 31
0.0
  0
LINE
  8
0
  6
CONTINUOUS
  5
313
 10
262.724546
 20
149.804645
 30
0.0
 11
262.724546
 21
139.995121
 31
0.0
  0
LINE
  8
0
  6
CONTINUOUS
  5
314
 10
253.424615
 20
149.295053
 30
0.0
 11
253.424615
 21
140.504714
 31
0.0
  0
LINE
  8
0
  6
CONTINUOUS
  5
315
 10
252.569784
 20
150.249883
 30
0.0
 11
252.569784
 21
139.749883
 31
0.0
  0
LINE
  8
0
  6
CONTINUOUS
  5
316
 10
252.915022
 20
139.995121
 30
0.0
 11
252.915022
 21
149.804645
 31
0.0
  0
LINE
  8
0
  6
CONTINUOUS
  5
317
 10
252.819784
 20
149.899883
 30
0.0
 11
252.819784
 21
139.899883
 31
0.0
  0
TEXT
  8
SILK
  6
CONTINUOUS
  5
318
 10
247.019784
 20
145.953517
 30
0.0
 40
2.0
  1
ON
 11
247.019784
 21
146.953517
 31
0.0
 73
     2
  0
TEXT
  8
SILK
  6
CONTINUOUS
  5
319
 10
247.019784
 20
141.953517
 30
0.0
 40
2.0
  1
OFF
 11
247.019784
 21
142.953517
 31
0.0
 73
     2
  0
INSERT
  8
SILK
  5
31A
  2
*X14
 10
0.0
 20
0.0
 30
0.0
1001
ACAD
1000
HATCH
1002
{
1070
    19
1000
ANSI31
1040
4.0
1040
0.785398
1000
ASC_BOUNDS
1070
     1
1070
     2
1070
     4
1005
325
1005
324
1005
322
1005
323
1000
ASC_SEEDPOINT
1011
0.0
1021
0.0
1031
0.0
1002
}
  0
LINE
  8
SILK
  6
CONTINUOUS
  5
322
 10
241.719784
 20
142.099883
 30
0.0
 11
245.719784
 21
142.099883
 31
0.0
1001
ACAD
1000
ASC_BOUNDS
1002
{
1070
    19
1005
31A
1002
}
  0
LINE
  8
SILK
  6
CONTINUOUS
  5
323
 10
244.819784
 20
143.999883
 30
0.0
 11
242.619784
 21
143.999883
 31
0.0
1001
ACAD
1000
ASC_BOUNDS
1002
{
1070
    19
1005
31A
1002
}
  0
LINE
  8
SILK
  6
CONTINUOUS
  5
324
 10
242.619784
 20
143.999883
 30
0.0
 11
242.619784
 21
142.099883
 31
0.0
1001
ACAD
1000
ASC_BOUNDS
1002
{
1070
    19
1005
31A
1002
}
  0
LINE
  8
SILK
  6
CONTINUOUS
  5
325
 10
244.819784
 20
142.099883
 30
0.0
 11
244.819784
 21
143.999883
 31
0.0
1001
ACAD
1000
ASC_BOUNDS
1002
{
1070
    19
1005
31A
1002
}
  0
LINE
  8
0
  6
CONTINUOUS
  5
326
 10
252.569784
 20
139.749883
 30
0.0
 11
263.069784
 21
139.749883
 31
0.0
  0
LINE
  8
0
  6
CONTINUOUS
  5
327
 10
253.424615
 20
140.504714
 30
0.0
 11
262.214953
 21
140.504714
 31
0.0
  0
LINE
  8
0
  6
CONTINUOUS
  5
328
 10
252.819784
 20
139.899883
 30
0.0
 11
262.819784
 21
139.899883
 31
0.0
  0
LINE
  8
0
  6
CONTINUOUS
  5
329
 10
262.724546
 20
139.995121
 30
0.0
 11
252.915022
 21
139.995121
 31
0.0
  0
LINE
  8
0
  6
CONTINUOUS
  5
32A
 10
253.424615
 20
140.504714
 30
0.0
 11
252.819784
 21
139.899883
 31
0.0
  0
LINE
  8
0
  6
CONTINUOUS
  5
32B
 10
262.214953
 20
140.504714
 30
0.0
 11
262.819784
 21
139.899883
 31
0.0
  0
INSERT
  8
SILK
  5
32C
  2
*X11
 10
0.0
 20
0.0
 30
0.0
1001
ACAD
1000
HATCH
1002
{
1070
    19
1000
ANSI31
1040
4.0
1040
0.0
1000
ASC_BOUNDS
1070
     1
1070
     2
1070
    19
1005
37A
1005
37B
1005
379
1005
37C
1005
34D
1005
35A
1005
35B
1005
345
1005
346
1005
347
1005
348
1005
349
1005
34A
1005
36A
1005
34B
1005
35C
1005
34C
1005
35D
1005
36B
1000
ASC_SEEDPOINT
1011
0.0
1021
0.0
1031
0.0
1002
}
  0
LINE
  8
SILK
  6
CONTINUOUS
  5
345
 10
249.719784
 20
167.254883
 30
0.0
 11
251.649784
 21
169.254883
 31
0.0
1001
ACAD
1000
ASC_BOUNDS
1002
{
1070
    19
1005
32C
1002
}
  0
LINE
  8
SILK
  6
CONTINUOUS
  5
346
 10
249.719784
 20
165.579883
 30
0.0
 11
252.248084
 21
168.199883
 31
0.0
1001
ACAD
1000
ASC_BOUNDS
1002
{
1070
    19
1005
32C
1002
}
  0
LINE
  8
SILK
  6
CONTINUOUS
  5
347
 10
250.998409
 20
168.199883
 30
0.0
 11
249.719784
 21
166.874883
 31
0.0
1001
ACAD
1000
ASC_BOUNDS
1002
{
1070
    19
1005
32C
1002
}
  0
LINE
  8
SILK
  6
CONTINUOUS
  5
348
 10
251.649784
 20
169.254883
 30
0.0
 11
249.719784
 21
169.254883
 31
0.0
1001
ACAD
1000
ASC_BOUNDS
1002
{
1070
    19
1005
32C
1002
}
  0
LINE
  8
SILK
  6
CONTINUOUS
  5
349
 10
249.719784
 20
170.094883
 30
0.0
 11
254.719784
 21
170.094883
 31
0.0
1001
ACAD
1000
ASC_BOUNDS
1002
{
1070
    19
1005
32C
1002
}
  0
LINE
  8
SILK
  6
CONTINUOUS
  5
34A
 10
254.719784
 20
170.374883
 30
0.0
 11
249.719784
 21
170.374883
 31
0.0
1001
ACAD
1000
ASC_BOUNDS
1002
{
1070
    19
1005
32C
1002
}
  0
LINE
  8
SILK
  6
CONTINUOUS
  5
34B
 10
249.719784
 20
165.199883
 30
0.0
 11
251.649784
 21
165.199883
 31
0.0
1001
ACAD
1000
ASC_BOUNDS
1002
{
1070
    19
1005
32C
1002
}
  0
LINE
  8
SILK
  6
CONTINUOUS
  5
34C
 10
251.649784
 20
167.199883
 30
0.0
 11
249.719784
 21
165.199883
 31
0.0
1001
ACAD
1000
ASC_BOUNDS
1002
{
1070
    19
1005
32C
1002
}
  0
LINE
  8
SILK
  6
CONTINUOUS
  5
34D
 10
249.719784
 20
169.254883
 30
0.0
 11
249.719784
 21
167.254883
 31
0.0
1001
ACAD
1000
ASC_BOUNDS
1002
{
1070
    19
1005
32C
1002
}
  0
INSERT
  8
SILK
  5
34E
  2
*X13
 10
0.0
 20
0.0
 30
0.0
1001
ACAD
1000
HATCH
1002
{
1070
    19
1000
ANSI31
1040
4.0
1040
0.785398
1000
ASC_BOUNDS
1070
     1
1070
     2
1070
     4
1005
359
1005
358
1005
356
1005
357
1000
ASC_SEEDPOINT
1011
0.0
1021
0.0
1031
0.0
1002
}
  0
LINE
  8
SILK
  6
CONTINUOUS
  5
356
 10
241.719784
 20
146.599883
 30
0.0
 11
245.719784
 21
146.599883
 31
0.0
1001
ACAD
1000
ASC_BOUNDS
1002
{
1070
    19
1005
34E
1002
}
  0
LINE
  8
SILK
  6
CONTINUOUS
  5
357
 10
244.819784
 20
147.499883
 30
0.0
 11
242.619784
 21
147.499883
 31
0.0
1001
ACAD
1000
ASC_BOUNDS
1002
{
1070
    19
1005
34E
1002
}
  0
LINE
  8
SILK
  6
CONTINUOUS
  5
358
 10
242.619784
 20
147.499883
 30
0.0
 11
242.619784
 21
146.599883
 31
0.0
1001
ACAD
1000
ASC_BOUNDS
1002
{
1070
    19
1005
34E
1002
}
  0
LINE
  8
SILK
  6
CONTINUOUS
  5
359
 10
244.819784
 20
146.599883
 30
0.0
 11
244.819784
 21
147.499883
 31
0.0
1001
ACAD
1000
ASC_BOUNDS
1002
{
1070
    19
1005
34E
1002
}
  0
LINE
  8
SILK
  6
CONTINUOUS
  5
35A
 10
249.719784
 20
166.874883
 30
0.0
 11
249.719784
 21
165.579883
 31
0.0
1001
ACAD
1000
ASC_BOUNDS
1002
{
1070
    19
1005
32C
1002
}
  0
LINE
  8
SILK
  6
CONTINUOUS
  5
35B
 10
249.719784
 20
170.374883
 30
0.0
 11
249.719784
 21
170.094883
 31
0.0
1001
ACAD
1000
ASC_BOUNDS
1002
{
1070
    19
1005
32C
1002
}
  0
LINE
  8
SILK
  6
CONTINUOUS
  5
35C
 10
254.719784
 20
165.199883
 30
0.0
 11
254.719784
 21
169.409883
 31
0.0
1001
ACAD
1000
ASC_BOUNDS
1002
{
1070
    19
1005
32C
1002
}
  0
LINE
  8
SILK
  6
CONTINUOUS
  5
35D
 10
252.874784
 20
168.199883
 30
0.0
 11
252.874784
 21
165.199883
 31
0.0
1001
ACAD
1000
ASC_BOUNDS
1002
{
1070
    19
1005
32C
1002
}
  0
ARC
  8
SILK
  6
CONTINUOUS
  5
35E
 10
251.333184
 20
167.211163
 30
0.0
 40
12.165
 50
355.411434
 51
4.588566
1001
ACAD
1000
ASC_BOUNDS
1002
{
1070
    19
1005
2E1
1002
}
  0
ARC
  8
SILK
  6
CONTINUOUS
  5
35F
 10
251.795263
 20
167.211163
 30
0.0
 40
12.165
 50
354.54868
 51
5.45132
1001
ACAD
1000
ASC_BOUNDS
1002
{
1070
    19
1005
2E1
1002
}
  0
ARC
  8
SILK
  6
CONTINUOUS
  5
360
 10
272.746704
 20
167.211163
 30
0.0
 40
12.165
 50
175.411434
 51
184.588566
1001
ACAD
1000
ASC_BOUNDS
1002
{
1070
    19
1005
2E1
1002
}
  0
LINE
  8
SILK
  6
CONTINUOUS
  5
361
 10
258.240409
 20
168.350618
 30
0.0
 11
258.240409
 21
166.606968
 31
0.0
1001
ACAD
1000
ASC_BOUNDS
1002
{
1070
    19
1005
2E1
1002
}
  0
LINE
  8
SILK
  6
CONTINUOUS
  5
362
 10
258.694569
 20
166.606968
 30
0.0
 11
258.694569
 21
168.816943
 31
0.0
1001
ACAD
1000
ASC_BOUNDS
1002
{
1070
    19
1005
2E1
1002
}
  0
ARC
  8
SILK
  6
CONTINUOUS
  5
363
 10
272.284625
 20
167.211163
 30
0.0
 40
12.165
 50
174.54868
 51
185.45132
1001
ACAD
1000
ASC_BOUNDS
1002
{
1070
    19
1005
2E1
1002
}
  0
LINE
  8
0
  6
CONTINUOUS
  5
364
 10
262.214953
 20
149.295053
 30
0.0
 11
253.424615
 21
149.295053
 31
0.0
  0
LINE
  8
0
  6
CONTINUOUS
  5
365
 10
263.069784
 20
150.249883
 30
0.0
 11
252.569784
 21
150.249883
 31
0.0
  0
LINE
  8
0
  6
CONTINUOUS
  5
366
 10
252.915022
 20
149.804645
 30
0.0
 11
262.724546
 21
149.804645
 31
0.0
  0
LINE
  8
0
  6
CONTINUOUS
  5
367
 10
262.819784
 20
149.899883
 30
0.0
 11
252.819784
 21
149.899883
 31
0.0
  0
TEXT
  8
SILK
  6
CONTINUOUS
  5
368
 10
253.057879
 20
151.699883
 30
0.0
 40
2.0
  1
POWER
 72
     1
 11
257.819784
 21
151.699883
 31
0.0
  0
LINE
  8
0
  6
CONTINUOUS
  5
369
 10
252.819784
 20
149.899883
 30
0.0
 11
253.424615
 21
149.295053
 31
0.0
  0
LINE
  8
SILK
  6
CONTINUOUS
  5
36A
 10
252.874784
 20
165.199883
 30
0.0
 11
254.719784
 21
165.199883
 31
0.0
1001
ACAD
1000
ASC_BOUNDS
1002
{
1070
    19
1005
32C
1002
}
  0
LINE
  8
SILK
  6
CONTINUOUS
  5
36B
 10
251.649784
 20
165.199883
 30
0.0
 11
251.649784
 21
167.199883
 31
0.0
1001
ACAD
1000
ASC_BOUNDS
1002
{
1070
    19
1005
32C
1002
}
  0
LINE
  8
0
  6
CONTINUOUS
  5
36C
 10
262.819784
 20
149.899883
 30
0.0
 11
262.214953
 21
149.295053
 31
0.0
  0
ARC
  8
SILK
  6
CONTINUOUS
  5
36D
 10
261.596094
 20
166.437625
 30
0.0
 40
0.995625
 50
191.568479
 51
243.242234
1001
ACAD
1000
ASC_BOUNDS
1002
{
1070
    19
1005
2E1
1002
}
  0
ARC
  8
SILK
  6
CONTINUOUS
  5
36E
 10
262.039944
 20
168.781005
 30
0.0
 40
3.686469
 50
250.531381
 51
289.468619
1001
ACAD
1000
ASC_BOUNDS
1002
{
1070
    19
1005
2E1
1002
}
  0
LINE
  8
SILK
  6
CONTINUOUS
  5
36F
 10
258.218107
 20
165.199883
 30
0.0
 11
258.716872
 21
165.199883
 31
0.0
1001
ACAD
1000
ASC_BOUNDS
1002
{
1070
    19
1005
2E1
1002
}
  0
ARC
  8
SILK
  6
CONTINUOUS
  5
370
 10
261.230318
 20
166.306157
 30
0.0
 40
1.085026
 50
193.357457
 51
247.281655
1001
ACAD
1000
ASC_BOUNDS
1002
{
1070
    19
1005
2E1
1002
}
  0
ARC
  8
SILK
  6
CONTINUOUS
  5
371
 10
217.690455
 20
166.545972
 30
0.0
 40
40.55
 50
358.097673
 51
0.086186
1001
ACAD
1000
ASC_BOUNDS
1002
{
1070
    19
1005
2E1
1002
}
  0
ARC
  8
SILK
  6
CONTINUOUS
  5
372
 10
299.244523
 20
166.545972
 30
0.0
 40
40.55
 50
179.913814
 51
181.902327
1001
ACAD
1000
ASC_BOUNDS
1002
{
1070
    19
1005
2E1
1002
}
  0
ARC
  8
SILK
  6
CONTINUOUS
  5
373
 10
262.039944
 20
167.860753
 30
0.0
 40
2.478273
 50
248.90174
 51
291.09826
1001
ACAD
1000
ASC_BOUNDS
1002
{
1070
    19
1005
2E1
1002
}
  0
ARC
  8
SILK
  6
CONTINUOUS
  5
374
 10
262.712983
 20
166.262363
 30
0.0
 40
0.74661
 50
287.062087
 51
358.1272
1001
ACAD
1000
ASC_BOUNDS
1002
{
1070
    19
1005
2E1
1002
}
  0
LINE
  8
SILK
  6
CONTINUOUS
  5
375
 10
263.791704
 20
165.199883
 30
0.0
 11
264.237754
 21
165.199883
 31
0.0
1001
ACAD
1000
ASC_BOUNDS
1002
{
1070
    19
1005
2E1
1002
}
  0
ARC
  8
SILK
  6
CONTINUOUS
  5
376
 10
263.060059
 20
166.127526
 30
0.0
 40
0.848249
 50
284.232597
 51
355.12829
1001
ACAD
1000
ASC_BOUNDS
1002
{
1070
    19
1005
2E1
1002
}
  0
LINE
  8
SILK
  6
CONTINUOUS
  5
377
 10
260.219249
 20
169.254883
 30
0.0
 11
256.719784
 21
169.254883
 31
0.0
1001
ACAD
1000
ASC_BOUNDS
1002
{
1070
    19
1005
2E1
1002
}
  0
LINE
  8
SILK
  6
CONTINUOUS
  5
378
 10
256.719784
 20
168.857493
 30
0.0
 11
260.219249
 21
168.857493
 31
0.0
1001
ACAD
1000
ASC_BOUNDS
1002
{
1070
    19
1005
2E1
1002
}
  0
LINE
  8
SILK
  6
CONTINUOUS
  5
379
 10
254.719784
 20
169.409883
 30
0.0
 11
253.552134
 21
168.199883
 31
0.0
1001
ACAD
1000
ASC_BOUNDS
1002
{
1070
    19
1005
32C
1002
}
  0
LINE
  8
SILK
  6
CONTINUOUS
  5
37A
 10
252.248084
 20
168.199883
 30
0.0
 11
250.998409
 21
168.199883
 31
0.0
1001
ACAD
1000
ASC_BOUNDS
1002
{
1070
    19
1005
32C
1002
}
  0
LINE
  8
SILK
  6
CONTINUOUS
  5
37B
 10
253.552134
 20
168.199883
 30
0.0
 11
252.874784
 21
168.199883
 31
0.0
1001
ACAD
1000
ASC_BOUNDS
1002
{
1070
    19
1005
32C
1002
}
  0
LINE
  8
SILK
  6
CONTINUOUS
  5
37C
 10
254.719784
 20
170.094883
 30
0.0
 11
254.719784
 21
170.374883
 31
0.0
1001
ACAD
1000
ASC_BOUNDS
1002
{
1070
    19
1005
32C
1002
}
  0
LINE
  8
SILK
  6
CONTINUOUS
  5
37D
 10
256.719784
 20
169.254883
 30
0.0
 11
256.719784
 21
168.857493
 31
0.0
1001
ACAD
1000
ASC_BOUNDS
1002
{
1070
    19
1005
2E1
1002
}
  0
ARC
  8
SILK
  6
CONTINUOUS
  5
37E
 10
261.554872
 20
168.016224
 30
0.0
 40
0.949188
 50
115.392481
 51
169.796806
1001
ACAD
1000
ASC_BOUNDS
1002
{
1070
    19
1005
2E1
1002
}
  0
ARC
  8
SILK
  6
CONTINUOUS
  5
37F
 10
262.039944
 20
165.641322
 30
0.0
 40
3.686469
 50
70.531381
 51
109.468619
1001
ACAD
1000
ASC_BOUNDS
1002
{
1070
    19
1005
2E1
1002
}
  0
LINE
  8
SILK
  6
CONTINUOUS
  5
380
 10
260.219249
 20
168.857493
 30
0.0
 11
260.219249
 21
169.254883
 31
0.0
1001
ACAD
1000
ASC_BOUNDS
1002
{
1070
    19
1005
2E1
1002
}
  0
LINE
  8
SILK
  6
CONTINUOUS
  5
381
 10
258.694569
 20
168.816943
 30
0.0
 11
258.240409
 21
168.350618
 31
0.0
1001
ACAD
1000
ASC_BOUNDS
1002
{
1070
    19
1005
2E1
1002
}
  0
ARC
  8
SILK
  6
CONTINUOUS
  5
382
 10
261.193464
 20
168.147445
 30
0.0
 40
1.042175
 50
111.513405
 51
167.847482
1001
ACAD
1000
ASC_BOUNDS
1002
{
1070
    19
1005
2E1
1002
}
  0
ARC
  8
SILK
  6
CONTINUOUS
  5
383
 10
263.073129
 20
168.305892
 30
0.0
 40
0.834344
 50
4.188979
 51
76.450134
1001
ACAD
1000
ASC_BOUNDS
1002
{
1070
    19
1005
2E1
1002
}
  0
ARC
  8
SILK
  6
CONTINUOUS
  5
384
 10
262.039944
 20
166.561573
 30
0.0
 40
2.478273
 50
68.90174
 51
111.09826
1001
ACAD
1000
ASC_BOUNDS
1002
{
1070
    19
1005
2E1
1002
}
  0
ARC
  8
SILK
  6
CONTINUOUS
  5
385
 10
262.731557
 20
168.174167
 30
0.0
 40
0.727708
 50
0.802802
 51
74.007911
1001
ACAD
1000
ASC_BOUNDS
1002
{
1070
    19
1005
2E1
1002
}
  0
LINE
  8
0
  6
CONTINUOUS
  5
386
 10
275.119784
 20
141.499883
 30
0.0
 11
274.927913
 21
153.299949
 31
0.0
  0
LINE
  8
0
  6
CONTINUOUS
  5
387
 10
272.319784
 20
170.799883
 30
0.0
 11
272.319784
 21
136.799883
 31
0.0
  0
LINE
  8
0
  6
CONTINUOUS
  5
388
 10
271.719784
 20
137.199883
 30
0.0
 11
271.719784
 21
170.399883
 31
0.0
  0
DIMENSION
  8
SCALE
  5
389
  2
*D5
 10
288.91442
 20
131.799883
 30
0.0
 11
284.51442
 21
153.799883
 31
0.0
 12
-312.239622
 22
3.185579
 32
0.0
  1
44
 13
270.319784
 23
175.799883
 33
0.0
 14
270.319784
 24
131.799883
 34
0.0
 50
90.0
  3
STANDARD
1001
ACAD
1000
DSTYLE
1002
{
1070
   140
1040
2.2
1070
   340
1005
E
1070
   145
1040
1.0
1070
    74
1070
     0
1070
   172
1070
     1
1070
    73
1070
     0
1070
   272
1070
     4
1070
    40
1040
2.0
1070
   287
1070
     3
1070
    42
1040
2.0
1070
    44
1040
1.5
1070
    43
1040
10.0
1070
   271
1070
     4
1070
     5
1000
YAZ3
1070
    41
1040
1.5
1002
}
  0
ARC
  8
0
  6
CONTINUOUS
  5
396
 10
277.319784
 20
138.499883
 30
0.0
 40
2.0
 50
270.0
 51
0.0
  0
LINE
  8
0
  6
CONTINUOUS
  5
397
 10
278.819784
 20
141.499883
 30
0.0
 11
275.119784
 21
141.499883
 31
0.0
  0
ARC
  8
0
  6
CONTINUOUS
  5
398
 10
269.719784
 20
137.199883
 30
0.0
 40
2.0
 50
270.0
 51
0.0
  0
ARC
  8
0
  6
CONTINUOUS
  5
399
 10
269.719784
 20
137.199883
 30
0.0
 40
2.0
 50
270.0
 51
0.0
  0
ARC
  8
0
  6
CONTINUOUS
  5
39A
 10
270.319784
 20
136.799883
 30
0.0
 40
2.0
 50
270.0
 51
0.0
  0
ARC
  8
0
  6
CONTINUOUS
  5
39B
 10
270.319784
 20
136.799883
 30
0.0
 40
5.0
 50
270.0
 51
356.560187
  0
CIRCLE
  8
0
  6
CONTINUOUS
  5
39C
 10
267.319784
 20
144.499883
 30
0.0
 40
1.0
  0
ARC
  8
0
  6
CONTINUOUS
  5
39D
 10
277.80045
 20
141.199883
 30
0.0
 40
0.3
 50
90.0
 51
176.185925
  0
LINE
  8
0
  6
CONTINUOUS
  5
39E
 10
277.501114
 20
141.219839
 30
0.0
 11
277.338454
 21
138.779927
 31
0.0
  0
ARC
  8
0
  6
CONTINUOUS
  5
39F
 10
275.60045
 20
138.799883
 30
0.0
 40
0.3
 50
183.814075
 51
270.0
  0
LINE
  8
0
  6
CONTINUOUS
  5
3A0
 10
275.301114
 20
138.779927
 30
0.0
 11
275.119784
 21
141.499883
 31
0.0
  0
LINE
  8
0
  6
CONTINUOUS
  5
3A1
 10
277.039118
 20
138.499883
 30
0.0
 11
275.60045
 21
138.499883
 31
0.0
  0
LINE
  8
0
  6
CONTINUOUS
  5
3A2
 10
275.310776
 20
136.499883
 30
0.0
 11
277.319784
 21
136.499883
 31
0.0
  0
ARC
  8
0
  6
CONTINUOUS
  5
3A3
 10
277.039118
 20
138.799883
 30
0.0
 40
0.3
 50
270.0
 51
356.185925
  0
LINE
  8
0
  6
CONTINUOUS
  5
3A4
 10
279.319784
 20
138.499883
 30
0.0
 11
279.319784
 21
140.999883
 31
0.0
  0
LINE
  8
0
  6
CONTINUOUS
  5
3A5
 10
278.819784
 20
140.999883
 30
0.0
 11
279.319784
 21
140.999883
 31
0.0
  0
LINE
  8
0
  6
CONTINUOUS
  5
3A6
 10
278.819784
 20
141.499883
 30
0.0
 11
278.819784
 21
140.999883
 31
0.0
  0
ARC
  8
0
  6
CONTINUOUS
  5
3A7
 10
277.319784
 20
169.099883
 30
0.0
 40
2.0
 50
0.0
 51
90.0
  0
LINE
  8
0
  6
CONTINUOUS
  5
3A8
 10
275.119784
 20
166.099883
 30
0.0
 11
278.819784
 21
166.099883
 31
0.0
  0
LINE
  8
SILK
  6
CONTINUOUS
  5
3A9
 10
264.760511
 20
166.542088
 30
0.0
 11
265.721884
 21
168.849383
 31
0.0
1001
ACAD
1000
ASC_BOUNDS
1002
{
1070
    19
1005
2E1
1002
}
  0
LINE
  8
SILK
  6
CONTINUOUS
  5
3AA
 10
265.721884
 20
168.849383
 30
0.0
 11
266.413433
 21
167.130063
 31
0.0
1001
ACAD
1000
ASC_BOUNDS
1002
{
1070
    19
1005
2E1
1002
}
  0
LINE
  8
SILK
  6
CONTINUOUS
  5
3AB
 10
267.716944
 20
165.199883
 30
0.0
 11
266.078724
 21
169.254883
 31
0.0
1001
ACAD
1000
ASC_BOUNDS
1002
{
1070
    19
1005
2E1
1002
}
  0
LINE
  8
0
  6
CONTINUOUS
  5
3AC
 10
275.119784
 20
166.099883
 30
0.0
 11
275.301114
 21
168.819839
 31
0.0
  0
LINE
  8
0
  6
CONTINUOUS
  5
3AD
 10
277.338454
 20
168.819839
 30
0.0
 11
277.501114
 21
166.379927
 31
0.0
  0
LINE
  8
0
  6
CONTINUOUS
  5
3AE
 10
268.716404
 20
156.335486
 30
0.0
 11
268.333671
 21
157.727193
 31
0.0
  0
LINE
  8
0
  6
CONTINUOUS
  5
3AF
 10
265.923164
 20
157.06428
 30
0.0
 11
266.305897
 21
155.672573
 31
0.0
  0
CIRCLE
  8
0
  6
CONTINUOUS
  5
3B0
 10
267.319784
 20
156.699883
 30
0.0
 40
2.75
  0
LINE
  8
0
  6
CONTINUOUS
  5
3B1
 10
267.702517
 20
155.308176
 30
0.0
 11
268.716404
 21
156.335486
 31
0.0
  0
ARC
  8
SILK
  6
CONTINUOUS
  5
3B2
 10
267.319784
 20
148.699883
 30
0.0
 40
1.870829
 50
105.50136
 51
74.49864
  0
LINE
  8
0
  6
CONTINUOUS
  5
3B3
 10
266.305897
 20
155.672573
 30
0.0
 11
267.702517
 21
155.308176
 31
0.0
  0
LINE
  8
SILK
  6
CONTINUOUS
  5
3B4
 10
267.319784
 20
151.699883
 30
0.0
 11
267.319784
 21
148.699883
 31
0.0
  0
LINE
  8
0
  6
CONTINUOUS
  5
3B5
 10
268.333671
 20
157.727193
 30
0.0
 11
266.937051
 21
158.09159
 31
0.0
  0
LINE
  8
SILK
  6
CONTINUOUS
  5
3B6
 10
265.395628
 20
167.130063
 30
0.0
 11
265.077635
 21
166.801608
 31
0.0
1001
ACAD
1000
ASC_BOUNDS
1002
{
1070
    19
1005
2E1
1002
}
  0
LINE
  8
SILK
  6
CONTINUOUS
  5
3B7
 10
265.077635
 20
166.801608
 30
0.0
 11
266.545545
 21
166.801608
 31
0.0
1001
ACAD
1000
ASC_BOUNDS
1002
{
1070
    19
1005
2E1
1002
}
  0
LINE
  8
SILK
  6
CONTINUOUS
  5
3B8
 10
266.413433
 20
167.130063
 30
0.0
 11
265.395628
 21
167.130063
 31
0.0
1001
ACAD
1000
ASC_BOUNDS
1002
{
1070
    19
1005
2E1
1002
}
  0
LINE
  8
SILK
  6
CONTINUOUS
  5
3B9
 10
267.189794
 20
165.199883
 30
0.0
 11
267.716944
 21
165.199883
 31
0.0
1001
ACAD
1000
ASC_BOUNDS
1002
{
1070
    19
1005
2E1
1002
}
  0
LINE
  8
SILK
  6
CONTINUOUS
  5
3BA
 10
266.545545
 20
166.801608
 30
0.0
 11
267.189794
 21
165.199883
 31
0.0
1001
ACAD
1000
ASC_BOUNDS
1002
{
1070
    19
1005
2E1
1002
}
  0
LINE
  8
0
  6
CONTINUOUS
  5
3BB
 10
266.937051
 20
158.09159
 30
0.0
 11
265.923164
 21
157.06428
 31
0.0
  0
LINE
  8
0
  6
CONTINUOUS
  5
3BC
 10
274.928048
 20
154.308148
 30
0.0
 11
275.119784
 21
166.099883
 31
0.0
  0
LINE
  8
0
  6
CONTINUOUS
  5
3BD
 10
274.419784
 20
153.799883
 30
0.0
 11
274.928048
 21
154.308148
 31
0.0
  0
LINE
  8
0
  6
CONTINUOUS
  5
3BE
 10
274.927913
 20
153.299949
 30
0.0
 11
274.411452
 21
153.799883
 31
0.0
  0
LINE
  8
0
  6
CONTINUOUS
  5
3BF
 10
274.411452
 20
153.799883
 30
0.0
 11
272.319784
 21
153.799883
 31
0.0
  0
ARC
  8
0
  6
CONTINUOUS
  5
3C0
 10
277.80045
 20
166.399883
 30
0.0
 40
0.3
 50
183.814075
 51
270.0
  0
ARC
  8
0
  6
CONTINUOUS
  5
3C1
 10
269.719784
 20
170.399883
 30
0.0
 40
2.0
 50
0.0
 51
90.0
  0
ARC
  8
0
  6
CONTINUOUS
  5
3C2
 10
270.319784
 20
170.799883
 30
0.0
 40
2.0
 50
0.0
 51
90.0
  0
ARC
  8
0
  6
CONTINUOUS
  5
3C3
 10
270.319784
 20
170.799883
 30
0.0
 40
5.0
 50
3.439813
 51
90.0
  0
LINE
  8
SILK
  6
CONTINUOUS
  5
3C4
 10
266.078724
 20
169.254883
 30
0.0
 11
265.519134
 21
169.254883
 31
0.0
1001
ACAD
1000
ASC_BOUNDS
1002
{
1070
    19
1005
2E1
1002
}
  0
ARC
  8
0
  6
CONTINUOUS
  5
3C5
 10
275.60045
 20
168.799883
 30
0.0
 40
0.3
 50
90.0
 51
176.185925
  0
LINE
  8
0
  6
CONTINUOUS
  5
3C6
 10
275.60045
 20
169.099883
 30
0.0
 11
277.039118
 21
169.099883
 31
0.0
  0
LINE
  8
0
  6
CONTINUOUS
  5
3C7
 10
277.319784
 20
171.099883
 30
0.0
 11
275.310776
 21
171.099883
 31
0.0
  0
ARC
  8
0
  6
CONTINUOUS
  5
3C8
 10
277.039118
 20
168.799883
 30
0.0
 40
0.3
 50
3.814075
 51
90.0
  0
LINE
  8
0
  6
CONTINUOUS
  5
3C9
 10
279.319784
 20
166.599883
 30
0.0
 11
279.319784
 21
169.099883
 31
0.0
  0
LINE
  8
0
  6
CONTINUOUS
  5
3CA
 10
279.319784
 20
166.599883
 30
0.0
 11
278.819784
 21
166.599883
 31
0.0
  0
LINE
  8
0
  6
CONTINUOUS
  5
3CB
 10
278.819784
 20
166.599883
 30
0.0
 11
278.819784
 21
166.099883
 31
0.0
  0
CIRCLE
  8
0
  6
CONTINUOUS
  5
3CC
 10
261.319784
 20
237.202351
 30
0.0
 40
4.25
  0
ARC
  8
0
  6
CONTINUOUS
  5
3CD
 10
261.319784
 20
237.202351
 30
0.0
 40
4.75
 50
194.437301
 51
345.562699
  0
ARC
  8
0
  6
CONTINUOUS
  5
3CE
 10
261.319784
 20
237.202351
 30
0.0
 40
4.75
 50
14.437301
 51
165.562699
  0
CIRCLE
  8
0
  6
CONTINUOUS
  5
3CF
 10
261.319784
 20
237.202351
 30
0.0
 40
6.0
  0
CIRCLE
  8
0
  6
CONTINUOUS
  5
3D0
 10
261.319784
 20
237.202351
 30
0.0
 40
5.75
  0
LINE
  8
0
  6
CONTINUOUS
  5
3D1
 10
262.309784
 20
231.702351
 30
0.0
 11
262.309784
 21
232.555944
 31
0.0
  0
LINE
  8
0
  6
CONTINUOUS
  5
3D2
 10
260.329784
 20
232.554135
 30
0.0
 11
260.329784
 21
231.702351
 31
0.0
  0
LINE
  8
0
  6
CONTINUOUS
  5
3D3
 10
244.809784
 20
231.702351
 30
0.0
 11
244.809784
 21
232.555944
 31
0.0
  0
LINE
  8
0
  6
CONTINUOUS
  5
3D4
 10
242.829784
 20
232.554135
 30
0.0
 11
242.829784
 21
231.702351
 31
0.0
  0
CIRCLE
  8
0
  6
CONTINUOUS
  5
3D5
 10
243.819784
 20
237.202351
 30
0.0
 40
6.0
  0
CIRCLE
  8
0
  6
CONTINUOUS
  5
3D6
 10
243.819784
 20
237.202351
 30
0.0
 40
5.75
  0
LINE
  8
0
  6
CONTINUOUS
  5
3D7
 10
242.829784
 20
231.702351
 30
0.0
 11
244.809784
 21
231.702351
 31
0.0
  0
TEXT
  8
SILK
  6
CONTINUOUS
  5
3D8
 10
240.367403
 20
225.852351
 30
0.0
 40
2.5
  1
OUT
 72
     1
 11
243.819784
 21
225.852351
 31
0.0
  0
LINE
  8
0
  6
CONTINUOUS
  5
3D9
 10
260.329784
 20
231.702351
 30
0.0
 11
262.309784
 21
231.702351
 31
0.0
  0
TEXT
  8
SILK
  6
CONTINUOUS
  5
3DA
 10
260.141213
 20
225.852351
 30
0.0
 40
2.5
  1
IN
 41
0.9
 72
     1
 11
261.319784
 21
225.852351
 31
0.0
  0
TEXT
  8
SILK
  6
CONTINUOUS
  5
3DB
 10
247.373355
 20
250.752351
 30
0.0
 40
2.5
  1
ANT A
 41
0.9
 72
     1
 11
252.569784
 21
250.752351
 31
0.0
  0
CIRCLE
  8
0
  6
CONTINUOUS
  5
3DC
 10
243.819784
 20
237.202351
 30
0.0
 40
1.0
  0
LINE
  8
0
  6
CONTINUOUS
  5
3DD
 10
242.829784
 20
242.702351
 30
0.0
 11
244.809784
 21
242.702351
 31
0.0
  0
CIRCLE
  8
0
  6
CONTINUOUS
  5
3DE
 10
243.819784
 20
237.202351
 30
0.0
 40
4.25
  0
ARC
  8
0
  6
CONTINUOUS
  5
3DF
 10
243.819784
 20
237.202351
 30
0.0
 40
4.75
 50
14.437301
 51
165.562699
  0
ARC
  8
0
  6
CONTINUOUS
  5
3E0
 10
243.819784
 20
237.202351
 30
0.0
 40
4.75
 50
194.437301
 51
345.562699
  0
CIRCLE
  8
0
  6
CONTINUOUS
  5
3E1
 10
243.819784
 20
237.202351
 30
0.0
 40
2.375
  0
LINE
  8
0
  6
CONTINUOUS
  5
3E2
 10
239.219784
 20
238.386623
 30
0.0
 11
239.219784
 21
236.01808
 31
0.0
  0
LINE
  8
0
  6
CONTINUOUS
  5
3E3
 10
242.829784
 20
242.702351
 30
0.0
 11
242.829784
 21
241.848759
 31
0.0
  0
LINE
  8
0
  6
CONTINUOUS
  5
3E4
 10
244.809784
 20
241.850568
 30
0.0
 11
244.809784
 21
242.702351
 31
0.0
  0
LINE
  8
0
  6
CONTINUOUS
  5
3E5
 10
248.419784
 20
236.01808
 30
0.0
 11
248.419784
 21
238.386623
 31
0.0
  0
LINE
  8
0
  6
CONTINUOUS
  5
3E6
 10
256.719784
 20
238.386623
 30
0.0
 11
256.719784
 21
236.01808
 31
0.0
  0
LINE
  8
0
  6
CONTINUOUS
  5
3E7
 10
260.329784
 20
242.702351
 30
0.0
 11
262.309784
 21
242.702351
 31
0.0
  0
CIRCLE
  8
0
  6
CONTINUOUS
  5
3E8
 10
261.319784
 20
237.202351
 30
0.0
 40
1.0
  0
CIRCLE
  8
0
  6
CONTINUOUS
  5
3E9
 10
261.319784
 20
237.202351
 30
0.0
 40
2.375
  0
LINE
  8
0
  6
CONTINUOUS
  5
3EA
 10
260.329784
 20
242.702351
 30
0.0
 11
260.329784
 21
241.848759
 31
0.0
  0
LINE
  8
0
  6
CONTINUOUS
  5
3EB
 10
262.309784
 20
241.850568
 30
0.0
 11
262.309784
 21
242.702351
 31
0.0
  0
LINE
  8
0
  6
CONTINUOUS
  5
3EC
 10
274.928048
 20
235.194087
 30
0.0
 11
275.119784
 21
223.402351
 31
0.0
  0
LINE
  8
0
  6
CONTINUOUS
  5
3ED
 10
272.319784
 20
218.702351
 30
0.0
 11
272.319784
 21
252.702351
 31
0.0
  0
LINE
  8
0
  6
CONTINUOUS
  5
3EE
 10
275.119784
 20
223.402351
 30
0.0
 11
278.819784
 21
223.402351
 31
0.0
  0
ARC
  8
0
  6
CONTINUOUS
  5
3EF
 10
277.319784
 20
220.402351
 30
0.0
 40
2.0
 50
270.0
 51
0.0
  0
ARC
  8
0
  6
CONTINUOUS
  5
3F0
 10
270.319784
 20
218.702351
 30
0.0
 40
5.0
 50
270.0
 51
356.560187
  0
ARC
  8
0
  6
CONTINUOUS
  5
3F1
 10
270.319784
 20
218.702351
 30
0.0
 40
2.0
 50
270.0
 51
0.0
  0
LINE
  8
0
  6
CONTINUOUS
  5
3F2
 10
277.319784
 20
218.402351
 30
0.0
 11
275.310776
 21
218.402351
 31
0.0
  0
LINE
  8
0
  6
CONTINUOUS
  5
3F3
 10
279.319784
 20
222.902351
 30
0.0
 11
279.319784
 21
220.402351
 31
0.0
  0
LINE
  8
0
  6
CONTINUOUS
  5
3F4
 10
279.319784
 20
222.902351
 30
0.0
 11
278.819784
 21
222.902351
 31
0.0
  0
LINE
  8
0
  6
CONTINUOUS
  5
3F5
 10
278.819784
 20
222.902351
 30
0.0
 11
278.819784
 21
223.402351
 31
0.0
  0
ARC
  8
0
  6
CONTINUOUS
  5
3F6
 10
277.319784
 20
251.002351
 30
0.0
 40
2.0
 50
0.0
 51
90.0
  0
LINE
  8
0
  6
CONTINUOUS
  5
3F7
 10
278.819784
 20
248.002351
 30
0.0
 11
275.119784
 21
248.002351
 31
0.0
  0
ARC
  8
0
  6
CONTINUOUS
  5
3F8
 10
270.319784
 20
252.702351
 30
0.0
 40
5.0
 50
3.439813
 51
90.0
  0
ARC
  8
0
  6
CONTINUOUS
  5
3F9
 10
270.319784
 20
252.702351
 30
0.0
 40
2.0
 50
0.0
 51
90.0
  0
LINE
  8
0
  6
CONTINUOUS
  5
3FA
 10
265.919784
 20
236.01808
 30
0.0
 11
265.919784
 21
238.386623
 31
0.0
  0
LINE
  8
0
  6
CONTINUOUS
  5
3FB
 10
275.119784
 20
248.002351
 30
0.0
 11
274.927913
 21
236.202285
 31
0.0
  0
LINE
  8
0
  6
CONTINUOUS
  5
3FC
 10
274.411452
 20
235.702351
 30
0.0
 11
274.927913
 21
236.202285
 31
0.0
  0
LINE
  8
0
  6
CONTINUOUS
  5
3FD
 10
274.928048
 20
235.194087
 30
0.0
 11
274.419784
 21
235.702351
 31
0.0
  0
LINE
  8
0
  6
CONTINUOUS
  5
3FE
 10
272.319784
 20
235.702351
 30
0.0
 11
274.419784
 21
235.702351
 31
0.0
  0
LINE
  8
0
  6
CONTINUOUS
  5
3FF
 10
275.310776
 20
253.002351
 30
0.0
 11
277.319784
 21
253.002351
 31
0.0
  0
LINE
  8
0
  6
CONTINUOUS
  5
400
 10
278.819784
 20
248.502351
 30
0.0
 11
279.319784
 21
248.502351
 31
0.0
  0
LINE
  8
0
  6
CONTINUOUS
  5
401
 10
278.819784
 20
248.002351
 30
0.0
 11
278.819784
 21
248.502351
 31
0.0
  0
LINE
  8
0
  6
CONTINUOUS
  5
402
 10
279.319784
 20
251.002351
 30
0.0
 11
279.319784
 21
248.502351
 31
0.0
  0
ENDSEC
  0
EOF
