  0
SECTION
  2
HEADER
  9
$ACADVER
  1
AC1014
  9
$ACADMAINTVER
 70
     0
  9
$DWGCODEPAGE
  3
DOS850
  9
$INSBASE
 10
0.0
 20
0.0
 30
0.0
  9
$EXTMIN
 10
34.184503
 20
52.168869
 30
0.0
  9
$EXTMAX
 10
832.216602
 20
664.011981
 30
0.0
  9
$LIMMIN
 10
0.0
 20
0.0
  9
$LIMMAX
 10
900.0
 20
1375.0
  9
$ORTHOMODE
 70
     1
  9
$REGENMODE
 70
     0
  9
$FILLMODE
 70
     1
  9
$QTEXTMODE
 70
     0
  9
$MIRRTEXT
 70
     0
  9
$DRAGMODE
 70
     2
  9
$LTSCALE
 40
50.0
  9
$OSMODE
 70
     0
  9
$ATTMODE
 70
     1
  9
$TEXTSIZE
 40
12.5
  9
$TRACEWID
 40
0.05
  9
$TEXTSTYLE
  7
UT7
  9
$CLAYER
  8
1
  9
$CELTYPE
  6
BYLAYER
  9
$CECOLOR
 62
   256
  9
$CELTSCALE
 40
1.0
  9
$DELOBJ
 70
     1
  9
$DISPSILH
 70
     0
  9
$DIMSCALE
 40
5.0
  9
$DIMASZ
 40
1.5
  9
$DIMEXO
 40
2.0
  9
$DIMDLI
 40
10.0
  9
$DIMRND
 40
0.0
  9
$DIMDLE
 40
0.0
  9
$DIMEXE
 40
1.5
  9
$DIMTP
 40
0.0
  9
$DIMTM
 40
0.0
  9
$DIMTXT
 40
2.2
  9
$DIMCEN
 40
0.09
  9
$DIMTSZ
 40
0.0
  9
$DIMTOL
 70
     0
  9
$DIMLIM
 70
     0
  9
$DIMTIH
 70
     0
  9
$DIMTOH
 70
     0
  9
$DIMSE1
 70
     0
  9
$DIMSE2
 70
     0
  9
$DIMTAD
 70
     0
  9
$DIMZIN
 70
     0
  9
$DIMBLK
  1
YAZ3
  9
$DIMASO
 70
     1
  9
$DIMSHO
 70
     0
  9
$DIMPOST
  1

  9
$DIMAPOST
  1

  9
$DIMALT
 70
     0
  9
$DIMALTD
 70
     2
  9
$DIMALTF
 40
25.4
  9
$DIMLFAC
 40
1.0
  9
$DIMTOFL
 70
     1
  9
$DIMTVP
 40
1.0
  9
$DIMTIX
 70
     0
  9
$DIMSOXD
 70
     0
  9
$DIMSAH
 70
     0
  9
$DIMBLK1
  1

  9
$DIMBLK2
  1

  9
$DIMSTYLE
  2
STANDARD
  9
$DIMCLRD
 70
     0
  9
$DIMCLRE
 70
     0
  9
$DIMCLRT
 70
     0
  9
$DIMTFAC
 40
1.0
  9
$DIMGAP
 40
0.09
  9
$DIMJUST
 70
     0
  9
$DIMSD1
 70
     0
  9
$DIMSD2
 70
     0
  9
$DIMTOLJ
 70
     1
  9
$DIMTZIN
 70
     0
  9
$DIMALTZ
 70
     0
  9
$DIMALTTZ
 70
     0
  9
$DIMFIT
 70
     3
  9
$DIMUPT
 70
     0
  9
$DIMUNIT
 70
     2
  9
$DIMDEC
 70
     4
  9
$DIMTDEC
 70
     4
  9
$DIMALTU
 70
     2
  9
$DIMALTTD
 70
     2
  9
$DIMTXSTY
  7
UT7
  9
$DIMAUNIT
 70
     0
  9
$LUNITS
 70
     2
  9
$LUPREC
 70
     1
  9
$SKETCHINC
 40
0.1
  9
$FILLETRAD
 40
0.0
  9
$AUNITS
 70
     0
  9
$AUPREC
 70
     0
  9
$MENU
  1
AMECEX
  9
$ELEVATION
 40
0.0
  9
$PELEVATION
 40
0.0
  9
$THICKNESS
 40
0.0
  9
$LIMCHECK
 70
     0
  9
$BLIPMODE
 70
     0
  9
$CHAMFERA
 40
0.0
  9
$CHAMFERB
 40
0.0
  9
$CHAMFERC
 40
0.0
  9
$CHAMFERD
 40
0.0
  9
$SKPOLY
 70
     0
  9
$TDCREATE
 40
2448082.800983796
  9
$TDUPDATE
 40
2452076.648263889
  9
$TDINDWG
 40
0.0015161921
  9
$TDUSRTIMER
 40
0.0015046296
  9
$USRTIMER
 70
     1
  9
$ANGBASE
 50
0.0
  9
$ANGDIR
 70
     0
  9
$PDMODE
 70
     0
  9
$PDSIZE
 40
0.0
  9
$PLINEWID
 40
0.0
  9
$COORDS
 70
     2
  9
$SPLFRAME
 70
     0
  9
$SPLINETYPE
 70
     6
  9
$SPLINESEGS
 70
     8
  9
$ATTDIA
 70
     0
  9
$ATTREQ
 70
     1
  9
$HANDLING
 70
     1
  9
$HANDSEED
  5
71B
  9
$SURFTAB1
 70
     6
  9
$SURFTAB2
 70
     6
  9
$SURFTYPE
 70
     6
  9
$SURFU
 70
     6
  9
$SURFV
 70
     6
  9
$UCSNAME
  2

  9
$UCSORG
 10
0.0
 20
0.0
 30
0.0
  9
$UCSXDIR
 10
1.0
 20
0.0
 30
0.0
  9
$UCSYDIR
 10
0.0
 20
1.0
 30
0.0
  9
$PUCSNAME
  2

  9
$PUCSORG
 10
0.0
 20
0.0
 30
0.0
  9
$PUCSXDIR
 10
1.0
 20
0.0
 30
0.0
  9
$PUCSYDIR
 10
0.0
 20
1.0
 30
0.0
  9
$USERI1
 70
     0
  9
$USERI2
 70
     0
  9
$USERI3
 70
     0
  9
$USERI4
 70
     0
  9
$USERI5
 70
     0
  9
$USERR1
 40
30.0
  9
$USERR2
 40
0.0
  9
$USERR3
 40
0.0
  9
$USERR4
 40
0.0
  9
$USERR5
 40
0.0
  9
$WORLDVIEW
 70
     1
  9
$SHADEDGE
 70
     3
  9
$SHADEDIF
 70
    70
  9
$TILEMODE
 70
     1
  9
$MAXACTVP
 70
    16
  9
$PINSBASE
 10
0.0
 20
0.0
 30
0.0
  9
$PLIMCHECK
 70
     0
  9
$PEXTMIN
 10
1.000000E+20
 20
1.000000E+20
 30
1.000000E+20
  9
$PEXTMAX
 10
-1.000000E+20
 20
-1.000000E+20
 30
-1.000000E+20
  9
$PLIMMIN
 10
0.0
 20
0.0
  9
$PLIMMAX
 10
12.0
 20
9.0
  9
$UNITMODE
 70
     0
  9
$VISRETAIN
 70
     0
  9
$PLINEGEN
 70
     1
  9
$PSLTSCALE
 70
     0
  9
$TREEDEPTH
 70
  3020
  9
$PICKSTYLE
 70
     1
  9
$CMLSTYLE
  2
STANDARD
  9
$CMLJUST
 70
     0
  9
$CMLSCALE
 40
1.0
  9
$PROXYGRAPHICS
 70
     0
  9
$MEASUREMENT
 70
     0
  0
ENDSEC
  0
SECTION
  2
CLASSES
  0
CLASS
  1
LWPOLYLINE
  2
AcDbPolyline
  3
"AutoCAD"
 90
        0
280
     0
281
     1
  0
CLASS
  1
IMAGE
  2
AcDbRasterImage
  3
ISM
 90
      127
280
     0
281
     1
  0
CLASS
  1
OLE2FRAME
  2
AcDbOle2Frame
  3
""
 90
        0
280
     0
281
     1
  0
CLASS
  1
HATCH
  2
AcDbHatch
  3
"ACAD_SEDONA"
 90
        0
280
     0
281
     1
  0
CLASS
  1
DICTIONARYVAR
  2
AcDbDictionaryVar
  3
"AutoCAD"
 90
        0
280
     0
281
     0
  0
CLASS
  1
RASTERVARIABLES
  2
AcDbRasterVariables
  3
ISM
 90
        0
280
     0
281
     0
  0
CLASS
  1
IMAGEDEF
  2
AcDbRasterImageDef
  3
ISM
 90
        0
280
     0
281
     0
  0
CLASS
  1
IMAGEDEF_REACTOR
  2
AcDbRasterImageDefReactor
  3
ISM
 90
        1
280
     0
281
     0
  0
CLASS
  1
IDBUFFER
  2
AcDbIdBuffer
  3
"Acad"
 90
        0
280
     0
281
     0
  0
CLASS
  1
SPATIAL_FILTER
  2
AcDbSpatialFilter
  3
"Acad"
 90
        0
280
     0
281
     0
  0
CLASS
  1
XRECORD
  2
AcDbXrecord
  3
"<Built In>"
 90
        0
280
     0
281
     0
  0
CLASS
  1
SORTENTSTABLE
  2
AcDbSortentsTable
  3
"AutoCAD"
 90
        0
280
     0
281
     0
  0
CLASS
  1
LAYER_INDEX
  2
AcDbLayerIndex
  3
"Acad"
 90
        0
280
     0
281
     0
  0
CLASS
  1
SPATIAL_INDEX
  2
AcDbSpatialIndex
  3
"Acad"
 90
        0
280
     0
281
     0
  0
CLASS
  1
OBJECT_PTR
  2
CAseDLPNTableRecord
  3
"ASE-LPNTableRecord"
 90
        1
280
     0
281
     0
  0
CLASS
  1
LAYOUT
  2
AcDbLayout
  3
"AutoCAD 2000"
 90
        1
280
     0
281
     0
  0
CLASS
  1
PLOTSETTINGS
  2
AcDbPlotSettings
  3
"AutoCAD 2000"
 90
        1
280
     0
281
     0
  0
CLASS
  1
ACDBDICTIONARYWDFLT
  2
AcDbDictionaryWithDefault
  3
"AutoCAD 2000"
 90
        1
280
     0
281
     0
  0
CLASS
  1
ACDBPLACEHOLDER
  2
AcDbPlaceHolder
  3
"AutoCAD 2000"
 90
        1
280
     0
281
     0
  0
CLASS
  1
VBA_PROJECT
  2
AcDbVbaProject
  3
"acadvba"
 90
        1
280
     0
281
     0
  0
CLASS
  1
WIPEOUT
  2
AcDbWipeout
  3
WipeOut|AutoCAD Express Tool|expresstools@autodesk.com
 90
      127
280
     0
281
     1
  0
CLASS
  1
WIPEOUTVARIABLES
  2
AcDbWipeoutVariables
  3
WipeOut|AutoCAD Express Tool|expresstools@autodesk.com
 90
        0
280
     0
281
     0
  0
CLASS
  1
RTEXT
  2
RText
  3
RText|AutoCAD Express Tool|expresstools@autodesk.com
 90
        0
280
     0
281
     1
  0
CLASS
  1
ARCALIGNEDTEXT
  2
AcDbArcAlignedText
  3
ATEXT|AutoCAD Express Tool|expresstools@autodesk.com
 90
        0
280
     0
281
     1
  0
ENDSEC
  0
SECTION
  2
TABLES
  0
TABLE
  2
VPORT
  5
6E9
100
AcDbSymbolTable
 70
     1
  0
VPORT
  5
6FB
100
AcDbSymbolTableRecord
100
AcDbViewportTableRecord
  2
*ACTIVE
 70
     0
 10
0.0
 20
0.0
 11
1.0
 21
1.0
 12
433.200553
 22
358.090425
 13
0.0
 23
0.0
 14
1.0
 24
1.0
 15
0.0
 25
0.0
 16
0.0
 26
0.0
 36
1.0
 17
0.0
 27
0.0
 37
0.0
 40
624.079974
 41
0.688564
 42
50.0
 43
0.0
 44
0.0
 50
0.0
 51
0.0
 71
     0
 72
   100
 73
     1
 74
     1
 75
     0
 76
     0
 77
     0
 78
     0
  0
ENDTAB
  0
TABLE
  2
LTYPE
  5
6E6
100
AcDbSymbolTable
 70
     5
  0
LTYPE
  5
6EF
100
AcDbSymbolTableRecord
100
AcDbLinetypeTableRecord
  2
BYBLOCK
 70
    64
  3

 72
    65
 73
     0
 40
0.0
  0
LTYPE
  5
6F0
100
AcDbSymbolTableRecord
100
AcDbLinetypeTableRecord
  2
BYLAYER
 70
    64
  3

 72
    65
 73
     0
 40
0.0
  0
LTYPE
  5
6F1
100
AcDbSymbolTableRecord
100
AcDbLinetypeTableRecord
  2
CONTINUOUS
 70
    64
  3
Solid line
 72
    65
 73
     0
 40
0.0
  0
LTYPE
  5
6F2
100
AcDbSymbolTableRecord
100
AcDbLinetypeTableRecord
  2
HIDDEN
 70
    64
  3
_ _ _ _ _ _ _ _ _ _ _ _ _ _ _ _ _ _ _ _ _ _ _
 72
    65
 73
     2
 40
0.375
 49
0.25
 74
     0
 49
-0.125
 74
     0
  0
LTYPE
  5
6F3
100
AcDbSymbolTableRecord
100
AcDbLinetypeTableRecord
  2
CENTER
 70
    64
  3
____ _ ____ _ ____ _ ____ _ ____ _ ____ _ ____
 72
    65
 73
     4
 40
2.0
 49
1.25
 74
     0
 49
-0.25
 74
     0
 49
0.25
 74
     0
 49
-0.25
 74
     0
  0
ENDTAB
  0
TABLE
  2
LAYER
  5
6E4
100
AcDbSymbolTable
 70
     7
  0
LAYER
  5
6F4
100
AcDbSymbolTableRecord
100
AcDbLayerTableRecord
  2
0
 70
    64
 62
     7
  6
CONTINUOUS
  0
LAYER
  5
6F5
100
AcDbSymbolTableRecord
100
AcDbLayerTableRecord
  2
1
 70
    64
 62
     3
  6
CONTINUOUS
  0
LAYER
  5
6F6
100
AcDbSymbolTableRecord
100
AcDbLayerTableRecord
  2
SCALE
 70
    64
 62
     4
  6
CONTINUOUS
  0
LAYER
  5
6F7
100
AcDbSymbolTableRecord
100
AcDbLayerTableRecord
  2
CENTER
 70
    64
 62
     1
  6
CENTER
  0
LAYER
  5
6F8
100
AcDbSymbolTableRecord
100
AcDbLayerTableRecord
  2
HIDDEN
 70
    64
 62
     3
  6
HIDDEN
  0
LAYER
  5
6F9
100
AcDbSymbolTableRecord
100
AcDbLayerTableRecord
  2
UL1
 70
    64
 62
     4
  6
CENTER
  0
LAYER
  5
6FA
100
AcDbSymbolTableRecord
100
AcDbLayerTableRecord
  2
DEFPOINTS
 70
    64
 62
    -7
  6
CONTINUOUS
  0
ENDTAB
  0
TABLE
  2
STYLE
  5
6E5
100
AcDbSymbolTable
 70
     3
  0
STYLE
  5
6FD
100
AcDbSymbolTableRecord
100
AcDbTextStyleTableRecord
  2
STANDARD
 70
    64
 40
0.0
 41
1.0
 50
0.0
 71
     0
 42
11.0
  3
SIMPLEX
  4
SLFONT
  0
STYLE
  5
6FE
100
AcDbSymbolTableRecord
100
AcDbTextStyleTableRecord
  2
UT7
 70
    64
 40
0.0
 41
0.8
 50
0.0
 71
     0
 42
12.5
  3
TOAFONT
  4

  0
STYLE
  5
6FF
100
AcDbSymbolTableRecord
100
AcDbTextStyleTableRecord
  2
TOALOGO
 70
    64
 40
3.0
 41
1.0
 50
0.0
 71
     0
 42
3.0
  3
SIMPLEX
  4
SLFONT
  0
ENDTAB
  0
TABLE
  2
VIEW
  5
6E7
100
AcDbSymbolTable
 70
     0
  0
ENDTAB
  0
TABLE
  2
UCS
  5
6E8
100
AcDbSymbolTable
 70
     0
  0
ENDTAB
  0
TABLE
  2
APPID
  5
6EA
100
AcDbSymbolTable
 70
     1
  0
APPID
  5
6FC
100
AcDbSymbolTableRecord
100
AcDbRegAppTableRecord
  2
ACAD
 70
     0
  0
ENDTAB
  0
TABLE
  2
DIMSTYLE
  5
6EB
100
AcDbSymbolTable
 70
     1
  0
DIMSTYLE
105
70F
100
AcDbSymbolTableRecord
100
AcDbDimStyleTableRecord
  2
STANDARD
 70
    64
  3

  4

  5

  6

  7

 40
5.0
 41
1.5
 42
2.0
 43
10.0
 44
1.5
 45
0.0
 46
0.0
 47
0.0
 48
0.0
 71
     0
 72
     0
 73
     0
 74
     0
 75
     0
 76
     0
 77
     0
 78
     0
140
2.2
141
0.09
142
0.0
143
25.4
144
1.0
145
1.0
146
1.0
147
0.09
170
     0
171
     2
172
     1
173
     0
174
     0
175
     0
176
     0
177
     0
178
     0
270
     2
271
     4
272
     4
273
     2
274
     2
275
     0
280
     0
281
     0
282
     0
283
     1
284
     0
285
     0
286
     0
287
     0
288
     0
340
6FD
  0
ENDTAB
  0
TABLE
  2
BLOCK_RECORD
  5
70A
100
AcDbSymbolTable
 70
     8
  0
BLOCK_RECORD
  5
708
100
AcDbSymbolTableRecord
100
AcDbBlockTableRecord
  2
*MODEL_SPACE
  0
BLOCK_RECORD
  5
709
100
AcDbSymbolTableRecord
100
AcDbBlockTableRecord
  2
*PAPER_SPACE
  0
BLOCK_RECORD
  5
700
100
AcDbSymbolTableRecord
100
AcDbBlockTableRecord
  2
YAZ3
  0
BLOCK_RECORD
  5
701
100
AcDbSymbolTableRecord
100
AcDbBlockTableRecord
  2
YAZ1
  0
BLOCK_RECORD
  5
702
100
AcDbSymbolTableRecord
100
AcDbBlockTableRecord
  2
BASE
  0
BLOCK_RECORD
  5
703
100
AcDbSymbolTableRecord
100
AcDbBlockTableRecord
  2
USBLN1
  0
BLOCK_RECORD
  5
704
100
AcDbSymbolTableRecord
100
AcDbBlockTableRecord
  2
*D4
  0
BLOCK_RECORD
  5
705
100
AcDbSymbolTableRecord
100
AcDbBlockTableRecord
  2
*D5
  0
BLOCK_RECORD
  5
706
100
AcDbSymbolTableRecord
100
AcDbBlockTableRecord
  2
*D6
  0
BLOCK_RECORD
  5
707
100
AcDbSymbolTableRecord
100
AcDbBlockTableRecord
  2
*D7
  0
ENDTAB
  0
ENDSEC
  0
SECTION
  2
BLOCKS
  0
BLOCK
  5
70B
100
AcDbEntity
  8
0
100
AcDbBlockBegin
  2
*MODEL_SPACE
 70
     0
 10
0.0
 20
0.0
 30
0.0
  3
*MODEL_SPACE
  1

  0
ENDBLK
  5
70C
100
AcDbEntity
  8
0
100
AcDbBlockEnd
  0
BLOCK
  5
70D
100
AcDbEntity
 67
     1
  8
0
100
AcDbBlockBegin
  2
*PAPER_SPACE
 70
     0
 10
0.0
 20
0.0
 30
0.0
  3
*PAPER_SPACE
  1

  0
ENDBLK
  5
70E
100
AcDbEntity
 67
     1
  8
0
100
AcDbBlockEnd
  0
BLOCK
  5
67C
100
AcDbEntity
  8
0
100
AcDbBlockBegin
  2
YAZ3
 70
    64
 10
0.0
 20
0.0
 30
0.0
  3

  1

  0
INSERT
  5
67D
100
AcDbEntity
  8
0
100
AcDbBlockReference
  2
YAZ1
 10
0.0
 20
0.0
 30
0.0
  0
LINE
  5
67E
100
AcDbEntity
  8
0
100
AcDbLine
 10
-0.999365
 20
0.04706
 30
0.0
 11
-0.175629
 21
0.04706
 31
0.0
  0
LINE
  5
67F
100
AcDbEntity
  8
0
100
AcDbLine
 10
-0.999365
 20
0.09706
 30
0.0
 11
-0.362232
 21
0.09706
 31
0.0
  0
LINE
  5
680
100
AcDbEntity
  8
0
100
AcDbLine
 10
-0.999365
 20
0.14706
 30
0.0
 11
-0.548834
 21
0.14706
 31
0.0
  0
LINE
  5
681
100
AcDbEntity
  8
0
100
AcDbLine
 10
-0.999365
 20
0.19706
 30
0.0
 11
-0.735437
 21
0.19706
 31
0.0
  0
LINE
  5
682
100
AcDbEntity
  8
0
100
AcDbLine
 10
-0.999365
 20
0.24706
 30
0.0
 11
-0.922039
 21
0.24706
 31
0.0
  0
LINE
  5
683
100
AcDbEntity
  8
0
100
AcDbLine
 10
-0.999365
 20
-0.05294
 30
0.0
 11
-0.197576
 21
-0.05294
 31
0.0
  0
LINE
  5
684
100
AcDbEntity
  8
0
100
AcDbLine
 10
-0.999365
 20
-0.10294
 30
0.0
 11
-0.384179
 21
-0.10294
 31
0.0
  0
LINE
  5
685
100
AcDbEntity
  8
0
100
AcDbLine
 10
-0.999365
 20
-0.15294
 30
0.0
 11
-0.570781
 21
-0.15294
 31
0.0
  0
LINE
  5
686
100
AcDbEntity
  8
0
100
AcDbLine
 10
-0.999365
 20
-0.20294
 30
0.0
 11
-0.757384
 21
-0.20294
 31
0.0
  0
LINE
  5
687
100
AcDbEntity
  8
0
100
AcDbLine
 10
-0.999365
 20
-0.25294
 30
0.0
 11
-0.943986
 21
-0.25294
 31
0.0
  0
SOLID
  5
688
100
AcDbEntity
  8
0
100
AcDbTrace
 10
0.0
 20
0.0
 30
0.0
 11
-1.0
 21
0.267949
 31
0.0
 12
-1.0
 22
-0.267949
 32
0.0
 13
-1.0
 23
-0.267949
 33
0.0
  0
ENDBLK
  5
689
100
AcDbEntity
  8
0
100
AcDbBlockEnd
  0
BLOCK
  5
68A
100
AcDbEntity
  8
0
100
AcDbBlockBegin
  2
YAZ1
 70
    64
 10
184.0
 20
133.0
 30
0.0
  3

  1

  0
LINE
  5
68B
100
AcDbEntity
  8
0
100
AcDbLine
 10
184.0
 20
133.0
 30
0.0
 11
183.0
 21
132.732051
 31
0.0
  0
LINE
  5
68C
100
AcDbEntity
  8
0
100
AcDbLine
 10
184.0
 20
133.0
 30
0.0
 11
183.0
 21
133.267949
 31
0.0
  0
LINE
  5
68D
100
AcDbEntity
  8
0
100
AcDbLine
 10
183.0
 20
133.0
 30
0.0
 11
184.0
 21
133.0
 31
0.0
  0
ENDBLK
  5
68E
100
AcDbEntity
  8
0
100
AcDbBlockEnd
  0
BLOCK
  5
68F
100
AcDbEntity
  8
0
100
AcDbBlockBegin
  2
BASE
 70
    64
 10
0.0
 20
0.0
 30
0.0
  3

  1

  0
ENDBLK
  5
690
100
AcDbEntity
  8
0
100
AcDbBlockEnd
  0
BLOCK
  5
691
100
AcDbEntity
  8
1
100
AcDbBlockBegin
  2
USBLN1
 70
    66
 10
166.182124
 20
82.82165
 30
0.0
  3

  1

  0
ATTDEF
  5
692
100
AcDbEntity
  8
0
100
AcDbText
 10
163.848791
 20
79.32165
 30
0.0
 40
7.0
  1

 72
     4
 11
166.182124
 21
82.82165
 31
0.0
100
AcDbAttributeDefinition
  3
éwé­ô³ù═
  2
X
 70
     0
  0
CIRCLE
  5
693
100
AcDbEntity
  8
0
100
AcDbCircle
 10
166.182124
 20
82.82165
 30
0.0
 40
7.5
  0
ENDBLK
  5
694
100
AcDbEntity
  8
1
100
AcDbBlockEnd
  0
BLOCK
  5
695
100
AcDbEntity
  8
1
100
AcDbBlockBegin
  2
*D4
 70
    65
 10
0.0
 20
0.0
 30
0.0
  3

  1

  0
LINE
  5
696
100
AcDbEntity
  8
0
  6
BYBLOCK
 62
     0
100
AcDbLine
 10
237.398781
 20
564.529764
 30
0.0
 11
237.398781
 21
772.037815
 31
0.0
  0
LINE
  5
697
100
AcDbEntity
  8
0
  6
BYBLOCK
 62
     0
100
AcDbLine
 10
523.398781
 20
564.529764
 30
0.0
 11
523.398781
 21
772.037815
 31
0.0
  0
LINE
  5
698
100
AcDbEntity
  8
0
  6
BYBLOCK
 62
     0
100
AcDbLine
 10
244.898781
 20
764.537815
 30
0.0
 11
515.898781
 21
764.537815
 31
0.0
  0
INSERT
  5
699
100
AcDbEntity
  8
0
  6
BYBLOCK
 62
     0
100
AcDbBlockReference
  2
YAZ3
 10
237.398781
 20
764.537815
 30
0.0
 41
7.5
 42
7.5
 43
7.5
 50
180.0
  0
INSERT
  5
69A
100
AcDbEntity
  8
0
  6
BYBLOCK
 62
     0
100
AcDbBlockReference
  2
YAZ3
 10
523.398781
 20
764.537815
 30
0.0
 41
7.5
 42
7.5
 43
7.5
  0
TEXT
  5
69B
100
AcDbEntity
  8
0
  6
BYBLOCK
 62
     0
100
AcDbText
 10
361.541639
 20
770.037815
 30
0.0
 40
11.0
  1
%%C286
100
AcDbText
  0
POINT
  5
69C
100
AcDbEntity
  8
DEFPOINTS
  6
BYBLOCK
 62
     0
100
AcDbPoint
 10
237.398781
 20
554.529764
 30
0.0
  0
POINT
  5
69D
100
AcDbEntity
  8
DEFPOINTS
  6
BYBLOCK
 62
     0
100
AcDbPoint
 10
523.398781
 20
554.529764
 30
0.0
  0
POINT
  5
69E
100
AcDbEntity
  8
DEFPOINTS
  6
BYBLOCK
 62
     0
100
AcDbPoint
 10
523.398781
 20
764.537815
 30
0.0
  0
ENDBLK
  5
69F
100
AcDbEntity
  8
1
100
AcDbBlockEnd
  0
BLOCK
  5
6A0
100
AcDbEntity
  8
1
100
AcDbBlockBegin
  2
*D5
 70
    65
 10
0.0
 20
0.0
 30
0.0
  3

  1

  0
LINE
  5
6A1
100
AcDbEntity
  8
0
  6
BYBLOCK
 62
     0
100
AcDbLine
 10
218.398781
 20
564.529764
 30
0.0
 11
218.398781
 21
802.037815
 31
0.0
  0
LINE
  5
6A2
100
AcDbEntity
  8
0
  6
BYBLOCK
 62
     0
100
AcDbLine
 10
542.398781
 20
564.529764
 30
0.0
 11
542.398781
 21
802.037815
 31
0.0
  0
LINE
  5
6A3
100
AcDbEntity
  8
0
  6
BYBLOCK
 62
     0
100
AcDbLine
 10
225.898781
 20
794.537815
 30
0.0
 11
534.898781
 21
794.537815
 31
0.0
  0
INSERT
  5
6A4
100
AcDbEntity
  8
0
  6
BYBLOCK
 62
     0
100
AcDbBlockReference
  2
YAZ3
 10
218.398781
 20
794.537815
 30
0.0
 41
7.5
 42
7.5
 43
7.5
 50
180.0
  0
INSERT
  5
6A5
100
AcDbEntity
  8
0
  6
BYBLOCK
 62
     0
100
AcDbBlockReference
  2
YAZ3
 10
542.398781
 20
794.537815
 30
0.0
 41
7.5
 42
7.5
 43
7.5
  0
TEXT
  5
6A6
100
AcDbEntity
  8
0
  6
BYBLOCK
 62
     0
100
AcDbText
 10
361.017829
 20
800.037815
 30
0.0
 40
11.0
  1
%%C324
100
AcDbText
  0
POINT
  5
6A7
100
AcDbEntity
  8
DEFPOINTS
  6
BYBLOCK
 62
     0
100
AcDbPoint
 10
218.398781
 20
554.529764
 30
0.0
  0
POINT
  5
6A8
100
AcDbEntity
  8
DEFPOINTS
  6
BYBLOCK
 62
     0
100
AcDbPoint
 10
542.398781
 20
554.529764
 30
0.0
  0
POINT
  5
6A9
100
AcDbEntity
  8
DEFPOINTS
  6
BYBLOCK
 62
     0
100
AcDbPoint
 10
542.398781
 20
794.537815
 30
0.0
  0
ENDBLK
  5
6AA
100
AcDbEntity
  8
1
100
AcDbBlockEnd
  0
BLOCK
  5
6AB
100
AcDbEntity
  8
1
100
AcDbBlockBegin
  2
*D6
 70
    65
 10
0.0
 20
0.0
 30
0.0
  3

  1

  0
LINE
  5
6AC
100
AcDbEntity
  8
0
  6
BYBLOCK
 62
     0
100
AcDbLine
 10
609.160913
 20
719.529764
 30
0.0
 11
609.160913
 21
802.037815
 31
0.0
  0
LINE
  5
6AD
100
AcDbEntity
  8
0
  6
BYBLOCK
 62
     0
100
AcDbLine
 10
679.160913
 20
597.029764
 30
0.0
 11
679.160913
 21
802.037815
 31
0.0
  0
LINE
  5
6AE
100
AcDbEntity
  8
0
  6
BYBLOCK
 62
     0
100
AcDbLine
 10
616.660913
 20
794.537815
 30
0.0
 11
671.660913
 21
794.537815
 31
0.0
  0
INSERT
  5
6AF
100
AcDbEntity
  8
0
  6
BYBLOCK
 62
     0
100
AcDbBlockReference
  2
YAZ3
 10
609.160913
 20
794.537815
 30
0.0
 41
7.5
 42
7.5
 43
7.5
 50
180.0
  0
INSERT
  5
6B0
100
AcDbEntity
  8
0
  6
BYBLOCK
 62
     0
100
AcDbBlockReference
  2
YAZ3
 10
679.160913
 20
794.537815
 30
0.0
 41
7.5
 42
7.5
 43
7.5
  0
TEXT
  5
6B1
100
AcDbEntity
  8
0
  6
BYBLOCK
 62
     0
100
AcDbText
 10
635.256151
 20
800.037815
 30
0.0
 40
11.0
  1
70
100
AcDbText
  0
POINT
  5
6B2
100
AcDbEntity
  8
DEFPOINTS
  6
BYBLOCK
 62
     0
100
AcDbPoint
 10
609.160913
 20
709.529764
 30
0.0
  0
POINT
  5
6B3
100
AcDbEntity
  8
DEFPOINTS
  6
BYBLOCK
 62
     0
100
AcDbPoint
 10
679.160913
 20
587.029764
 30
0.0
  0
POINT
  5
6B4
100
AcDbEntity
  8
DEFPOINTS
  6
BYBLOCK
 62
     0
100
AcDbPoint
 10
679.160913
 20
794.537815
 30
0.0
  0
ENDBLK
  5
6B5
100
AcDbEntity
  8
1
100
AcDbBlockEnd
  0
BLOCK
  5
6B6
100
AcDbEntity
  8
1
100
AcDbBlockBegin
  2
*D7
 70
    65
 10
0.0
 20
0.0
 30
0.0
  3

  1

  0
LINE
  5
6B7
100
AcDbEntity
  8
0
  6
BYBLOCK
 62
     0
100
AcDbLine
 10
609.160913
 20
719.529764
 30
0.0
 11
609.160913
 21
772.037815
 31
0.0
  0
LINE
  5
6B8
100
AcDbEntity
  8
0
  6
BYBLOCK
 62
     0
100
AcDbLine
 10
615.160913
 20
726.529764
 30
0.0
 11
615.160913
 21
772.037815
 31
0.0
  0
LINE
  5
6B9
100
AcDbEntity
  8
0
  6
BYBLOCK
 62
     0
100
AcDbLine
 10
622.660913
 20
764.537815
 30
0.0
 11
630.160913
 21
764.537815
 31
0.0
  0
LINE
  5
6BA
100
AcDbEntity
  8
0
  6
BYBLOCK
 62
     0
100
AcDbLine
 10
601.660913
 20
764.537815
 30
0.0
 11
594.160913
 21
764.537815
 31
0.0
  0
LINE
  5
6BB
100
AcDbEntity
  8
0
  6
BYBLOCK
 62
     0
100
AcDbLine
 10
630.160913
 20
764.537815
 30
0.0
 11
644.470437
 21
764.537815
 31
0.0
  0
INSERT
  5
6BC
100
AcDbEntity
  8
0
  6
BYBLOCK
 62
     0
100
AcDbBlockReference
  2
YAZ3
 10
615.160913
 20
764.537815
 30
0.0
 41
7.5
 42
7.5
 43
7.5
 50
180.0
  0
INSERT
  5
6BD
100
AcDbEntity
  8
0
  6
BYBLOCK
 62
     0
100
AcDbBlockReference
  2
YAZ3
 10
609.160913
 20
764.537815
 30
0.0
 41
7.5
 42
7.5
 43
7.5
  0
LINE
  5
6BE
100
AcDbEntity
  8
0
  6
BYBLOCK
 62
     0
100
AcDbLine
 10
615.160913
 20
764.537815
 30
0.0
 11
609.160913
 21
764.537815
 31
0.0
  0
TEXT
  5
6BF
100
AcDbEntity
  8
0
  6
BYBLOCK
 62
     0
100
AcDbText
 10
637.660913
 20
770.037815
 30
0.0
 40
11.0
  1
6
100
AcDbText
  0
POINT
  5
6C0
100
AcDbEntity
  8
DEFPOINTS
  6
BYBLOCK
 62
     0
100
AcDbPoint
 10
609.160913
 20
709.529764
 30
0.0
  0
POINT
  5
6C1
100
AcDbEntity
  8
DEFPOINTS
  6
BYBLOCK
 62
     0
100
AcDbPoint
 10
615.160913
 20
716.529764
 30
0.0
  0
POINT
  5
6C2
100
AcDbEntity
  8
DEFPOINTS
  6
BYBLOCK
 62
     0
100
AcDbPoint
 10
615.160913
 20
764.537815
 30
0.0
  0
ENDBLK
  5
6C3
100
AcDbEntity
  8
1
100
AcDbBlockEnd
  0
ENDSEC
  0
SECTION
  2
ENTITIES
  0
TEXT
  5
38
100
AcDbEntity
  8
1
100
AcDbText
 10
134.139208
 20
52.928869
 30
0.0
 40
12.5
  1
SCALE:1/5
 41
0.8
  7
UT7
100
AcDbText
  0
TEXT
  5
39
100
AcDbEntity
  8
1
100
AcDbText
 10
34.184503
 20
52.168869
 30
0.0
 40
12.5
  1
UNIT:mm
 41
0.8
  7
UT7
100
AcDbText
  0
TEXT
  5
3B
100
AcDbEntity
  8
0
100
AcDbText
 10
3.382929
 20
16.909274
 30
0.0
 40
12.5
  1

 41
0.8
  7
UT7
100
AcDbText
  0
INSERT
  5
4D
100
AcDbEntity
  8
0
100
AcDbBlockReference
  2
BASE
 10
925.0
 20
0.0
 30
0.0
  0
CIRCLE
  5
4E
100
AcDbEntity
  8
0
100
AcDbCircle
 10
380.398781
 20
405.503929
 30
0.0
 40
162.0
  0
CIRCLE
  5
4F
100
AcDbEntity
  8
CENTER
100
AcDbCircle
 10
380.398781
 20
405.503929
 30
0.0
 40
143.0
  0
LINE
  5
50
100
AcDbEntity
  8
CENTER
100
AcDbLine
 10
380.398781
 20
588.845314
 30
0.0
 11
380.398781
 21
218.837262
 31
0.0
  0
LINE
  5
51
100
AcDbEntity
  8
CENTER
100
AcDbLine
 10
203.712582
 20
405.503929
 30
0.0
 11
560.353816
 21
405.503929
 31
0.0
  0
CIRCLE
  5
52
100
AcDbEntity
  8
CENTER
100
AcDbCircle
 10
380.398781
 20
405.503929
 30
0.0
 40
97.5
  0
CIRCLE
  5
53
100
AcDbEntity
  8
0
100
AcDbCircle
 10
481.515051
 20
304.387659
 30
0.0
 40
2.5
  0
CIRCLE
  5
54
100
AcDbEntity
  8
0
100
AcDbCircle
 10
449.341693
 20
336.561018
 30
0.0
 40
5.0
  0
CIRCLE
  5
55
100
AcDbEntity
  8
0
100
AcDbCircle
 10
311.45587
 20
474.44684
 30
0.0
 40
5.0
  0
CIRCLE
  5
56
100
AcDbEntity
  8
0
100
AcDbCircle
 10
279.282512
 20
506.620199
 30
0.0
 40
2.5
  0
LINE
  5
57
100
AcDbEntity
  8
CENTER
100
AcDbLine
 10
270.523952
 20
515.378758
 30
0.0
 11
487.723016
 21
298.179695
 31
0.0
  0
CIRCLE
  5
58
100
AcDbEntity
  8
0
100
AcDbCircle
 10
279.282512
 20
304.387659
 30
0.0
 40
2.5
  0
CIRCLE
  5
59
100
AcDbEntity
  8
0
100
AcDbCircle
 10
311.45587
 20
336.561018
 30
0.0
 40
5.0
  0
CIRCLE
  5
5A
100
AcDbEntity
  8
0
100
AcDbCircle
 10
449.341693
 20
474.44684
 30
0.0
 40
5.0
  0
CIRCLE
  5
5B
100
AcDbEntity
  8
0
100
AcDbCircle
 10
481.515051
 20
506.620199
 30
0.0
 40
2.5
  0
LINE
  5
5C
100
AcDbEntity
  8
CENTER
100
AcDbLine
 10
270.523952
 20
295.6291
 30
0.0
 11
487.723016
 21
512.828164
 31
0.0
  0
CIRCLE
  5
5D
100
AcDbEntity
  8
0
100
AcDbCircle
 10
436.967324
 20
462.072472
 30
0.0
 40
1.25
  0
CIRCLE
  5
5E
100
AcDbEntity
  8
0
100
AcDbCircle
 10
431.82179
 20
466.787485
 30
0.0
 40
1.25
  0
CIRCLE
  5
5F
100
AcDbEntity
  8
0
100
AcDbCircle
 10
426.284896
 20
471.036093
 30
0.0
 40
1.25
  0
CIRCLE
  5
60
100
AcDbEntity
  8
0
100
AcDbCircle
 10
420.398781
 20
474.785961
 30
0.0
 40
1.25
  0
CIRCLE
  5
61
100
AcDbEntity
  8
0
100
AcDbCircle
 10
414.208242
 20
478.008552
 30
0.0
 40
1.25
  0
CIRCLE
  5
62
100
AcDbEntity
  8
0
100
AcDbCircle
 10
407.760393
 20
480.679339
 30
0.0
 40
1.25
  0
CIRCLE
  5
63
100
AcDbEntity
  8
0
100
AcDbCircle
 10
401.104305
 20
482.777995
 30
0.0
 40
1.25
  0
CIRCLE
  5
64
100
AcDbEntity
  8
0
100
AcDbCircle
 10
394.290636
 20
484.288549
 30
0.0
 40
1.25
  0
CIRCLE
  5
65
100
AcDbEntity
  8
0
100
AcDbCircle
 10
387.371241
 20
485.199505
 30
0.0
 40
1.25
  0
CIRCLE
  5
66
100
AcDbEntity
  8
0
100
AcDbCircle
 10
380.398781
 20
485.503929
 30
0.0
 40
1.25
  0
CIRCLE
  5
67
100
AcDbEntity
  8
0
100
AcDbCircle
 10
373.426322
 20
485.199505
 30
0.0
 40
1.25
  0
CIRCLE
  5
68
100
AcDbEntity
  8
0
100
AcDbCircle
 10
366.506927
 20
484.288549
 30
0.0
 40
1.25
  0
CIRCLE
  5
69
100
AcDbEntity
  8
0
100
AcDbCircle
 10
359.693258
 20
482.777995
 30
0.0
 40
1.25
  0
CIRCLE
  5
6A
100
AcDbEntity
  8
0
100
AcDbCircle
 10
353.03717
 20
480.679339
 30
0.0
 40
1.25
  0
CIRCLE
  5
6B
100
AcDbEntity
  8
0
100
AcDbCircle
 10
346.589321
 20
478.008552
 30
0.0
 40
1.25
  0
CIRCLE
  5
6C
100
AcDbEntity
  8
0
100
AcDbCircle
 10
340.398781
 20
474.785961
 30
0.0
 40
1.25
  0
CIRCLE
  5
6D
100
AcDbEntity
  8
0
100
AcDbCircle
 10
334.512667
 20
471.036093
 30
0.0
 40
1.25
  0
CIRCLE
  5
6E
100
AcDbEntity
  8
0
100
AcDbCircle
 10
328.975773
 20
466.787485
 30
0.0
 40
1.25
  0
CIRCLE
  5
6F
100
AcDbEntity
  8
0
100
AcDbCircle
 10
323.830239
 20
462.072472
 30
0.0
 40
1.25
  0
CIRCLE
  5
70
100
AcDbEntity
  8
0
100
AcDbCircle
 10
323.830239
 20
348.935387
 30
0.0
 40
1.25
  0
CIRCLE
  5
71
100
AcDbEntity
  8
0
100
AcDbCircle
 10
328.975773
 20
344.220374
 30
0.0
 40
1.25
  0
CIRCLE
  5
72
100
AcDbEntity
  8
0
100
AcDbCircle
 10
334.512667
 20
339.971766
 30
0.0
 40
1.25
  0
CIRCLE
  5
73
100
AcDbEntity
  8
0
100
AcDbCircle
 10
340.398781
 20
336.221897
 30
0.0
 40
1.25
  0
CIRCLE
  5
74
100
AcDbEntity
  8
0
100
AcDbCircle
 10
346.589321
 20
332.999306
 30
0.0
 40
1.25
  0
CIRCLE
  5
75
100
AcDbEntity
  8
0
100
AcDbCircle
 10
353.03717
 20
330.328519
 30
0.0
 40
1.25
  0
CIRCLE
  5
76
100
AcDbEntity
  8
0
100
AcDbCircle
 10
359.693258
 20
328.229863
 30
0.0
 40
1.25
  0
CIRCLE
  5
77
100
AcDbEntity
  8
0
100
AcDbCircle
 10
366.506927
 20
326.719309
 30
0.0
 40
1.25
  0
CIRCLE
  5
78
100
AcDbEntity
  8
0
100
AcDbCircle
 10
373.426322
 20
325.808353
 30
0.0
 40
1.25
  0
CIRCLE
  5
79
100
AcDbEntity
  8
0
100
AcDbCircle
 10
380.398781
 20
325.503929
 30
0.0
 40
1.25
  0
CIRCLE
  5
7A
100
AcDbEntity
  8
0
100
AcDbCircle
 10
387.371241
 20
325.808353
 30
0.0
 40
1.25
  0
CIRCLE
  5
7B
100
AcDbEntity
  8
0
100
AcDbCircle
 10
394.290636
 20
326.719309
 30
0.0
 40
1.25
  0
CIRCLE
  5
7C
100
AcDbEntity
  8
0
100
AcDbCircle
 10
401.104305
 20
328.229863
 30
0.0
 40
1.25
  0
CIRCLE
  5
7D
100
AcDbEntity
  8
0
100
AcDbCircle
 10
407.760393
 20
330.328519
 30
0.0
 40
1.25
  0
CIRCLE
  5
7E
100
AcDbEntity
  8
0
100
AcDbCircle
 10
414.208242
 20
332.999306
 30
0.0
 40
1.25
  0
CIRCLE
  5
7F
100
AcDbEntity
  8
0
100
AcDbCircle
 10
420.398781
 20
336.221897
 30
0.0
 40
1.25
  0
CIRCLE
  5
80
100
AcDbEntity
  8
0
100
AcDbCircle
 10
426.284896
 20
339.971766
 30
0.0
 40
1.25
  0
CIRCLE
  5
81
100
AcDbEntity
  8
0
100
AcDbCircle
 10
431.82179
 20
344.220374
 30
0.0
 40
1.25
  0
CIRCLE
  5
82
100
AcDbEntity
  8
0
100
AcDbCircle
 10
436.967324
 20
348.935387
 30
0.0
 40
1.25
  0
CIRCLE
  5
83
100
AcDbEntity
  8
0
100
AcDbCircle
 10
380.398781
 20
328.003929
 30
0.0
 40
1.25
  0
CIRCLE
  5
84
100
AcDbEntity
  8
0
100
AcDbCircle
 10
380.398781
 20
330.503929
 30
0.0
 40
1.25
  0
CIRCLE
  5
85
100
AcDbEntity
  8
0
100
AcDbCircle
 10
380.398781
 20
333.003929
 30
0.0
 40
1.25
  0
CIRCLE
  5
86
100
AcDbEntity
  8
0
100
AcDbCircle
 10
380.398781
 20
335.503929
 30
0.0
 40
1.25
  0
CIRCLE
  5
87
100
AcDbEntity
  8
0
100
AcDbCircle
 10
380.398781
 20
338.003929
 30
0.0
 40
1.25
  0
CIRCLE
  5
88
100
AcDbEntity
  8
0
100
AcDbCircle
 10
380.398781
 20
340.503929
 30
0.0
 40
1.25
  0
CIRCLE
  5
89
100
AcDbEntity
  8
0
100
AcDbCircle
 10
380.398781
 20
343.003929
 30
0.0
 40
1.25
  0
CIRCLE
  5
8A
100
AcDbEntity
  8
0
100
AcDbCircle
 10
380.398781
 20
345.503929
 30
0.0
 40
1.25
  0
CIRCLE
  5
8B
100
AcDbEntity
  8
0
100
AcDbCircle
 10
380.398781
 20
348.003929
 30
0.0
 40
1.25
  0
CIRCLE
  5
8C
100
AcDbEntity
  8
0
100
AcDbCircle
 10
380.398781
 20
350.503929
 30
0.0
 40
1.25
  0
CIRCLE
  5
8D
100
AcDbEntity
  8
0
100
AcDbCircle
 10
380.398781
 20
353.003929
 30
0.0
 40
1.25
  0
CIRCLE
  5
8E
100
AcDbEntity
  8
0
100
AcDbCircle
 10
380.398781
 20
355.503929
 30
0.0
 40
1.25
  0
CIRCLE
  5
8F
100
AcDbEntity
  8
0
100
AcDbCircle
 10
380.398781
 20
358.003929
 30
0.0
 40
1.25
  0
CIRCLE
  5
90
100
AcDbEntity
  8
0
100
AcDbCircle
 10
380.398781
 20
360.503929
 30
0.0
 40
1.25
  0
CIRCLE
  5
91
100
AcDbEntity
  8
0
100
AcDbCircle
 10
380.398781
 20
363.003929
 30
0.0
 40
1.25
  0
CIRCLE
  5
92
100
AcDbEntity
  8
0
100
AcDbCircle
 10
380.398781
 20
365.503929
 30
0.0
 40
1.25
  0
CIRCLE
  5
93
100
AcDbEntity
  8
0
100
AcDbCircle
 10
380.398781
 20
368.003929
 30
0.0
 40
1.25
  0
CIRCLE
  5
94
100
AcDbEntity
  8
0
100
AcDbCircle
 10
380.398781
 20
370.503929
 30
0.0
 40
1.25
  0
CIRCLE
  5
95
100
AcDbEntity
  8
0
100
AcDbCircle
 10
380.398781
 20
373.003929
 30
0.0
 40
1.25
  0
CIRCLE
  5
96
100
AcDbEntity
  8
0
100
AcDbCircle
 10
380.398781
 20
375.503929
 30
0.0
 40
1.25
  0
CIRCLE
  5
97
100
AcDbEntity
  8
0
100
AcDbCircle
 10
380.398781
 20
378.003929
 30
0.0
 40
1.25
  0
CIRCLE
  5
98
100
AcDbEntity
  8
0
100
AcDbCircle
 10
380.398781
 20
380.503929
 30
0.0
 40
1.25
  0
CIRCLE
  5
99
100
AcDbEntity
  8
0
100
AcDbCircle
 10
380.398781
 20
383.003929
 30
0.0
 40
1.25
  0
CIRCLE
  5
9A
100
AcDbEntity
  8
0
100
AcDbCircle
 10
380.398781
 20
385.503929
 30
0.0
 40
1.25
  0
CIRCLE
  5
9B
100
AcDbEntity
  8
0
100
AcDbCircle
 10
380.398781
 20
388.003929
 30
0.0
 40
1.25
  0
CIRCLE
  5
9C
100
AcDbEntity
  8
0
100
AcDbCircle
 10
380.398781
 20
390.503929
 30
0.0
 40
1.25
  0
CIRCLE
  5
9D
100
AcDbEntity
  8
0
100
AcDbCircle
 10
380.398781
 20
393.003929
 30
0.0
 40
1.25
  0
CIRCLE
  5
9E
100
AcDbEntity
  8
0
100
AcDbCircle
 10
380.398781
 20
395.503929
 30
0.0
 40
1.25
  0
CIRCLE
  5
9F
100
AcDbEntity
  8
0
100
AcDbCircle
 10
380.398781
 20
398.003929
 30
0.0
 40
1.25
  0
CIRCLE
  5
A0
100
AcDbEntity
  8
0
100
AcDbCircle
 10
380.398781
 20
405.503929
 30
0.0
 40
1.25
  0
CIRCLE
  5
A1
100
AcDbEntity
  8
0
100
AcDbCircle
 10
380.398781
 20
403.003929
 30
0.0
 40
1.25
  0
CIRCLE
  5
A2
100
AcDbEntity
  8
0
100
AcDbCircle
 10
380.398781
 20
400.503929
 30
0.0
 40
1.25
  0
CIRCLE
  5
A3
100
AcDbEntity
  8
0
100
AcDbCircle
 10
373.426322
 20
328.308353
 30
0.0
 40
1.25
  0
CIRCLE
  5
A4
100
AcDbEntity
  8
0
100
AcDbCircle
 10
373.426322
 20
330.808353
 30
0.0
 40
1.25
  0
CIRCLE
  5
A5
100
AcDbEntity
  8
0
100
AcDbCircle
 10
373.426322
 20
333.308353
 30
0.0
 40
1.25
  0
CIRCLE
  5
A6
100
AcDbEntity
  8
0
100
AcDbCircle
 10
373.426322
 20
335.808353
 30
0.0
 40
1.25
  0
CIRCLE
  5
A7
100
AcDbEntity
  8
0
100
AcDbCircle
 10
373.426322
 20
338.308353
 30
0.0
 40
1.25
  0
CIRCLE
  5
A8
100
AcDbEntity
  8
0
100
AcDbCircle
 10
373.426322
 20
340.808353
 30
0.0
 40
1.25
  0
CIRCLE
  5
A9
100
AcDbEntity
  8
0
100
AcDbCircle
 10
373.426322
 20
343.308353
 30
0.0
 40
1.25
  0
CIRCLE
  5
AA
100
AcDbEntity
  8
0
100
AcDbCircle
 10
373.426322
 20
345.808353
 30
0.0
 40
1.25
  0
CIRCLE
  5
AB
100
AcDbEntity
  8
0
100
AcDbCircle
 10
373.426322
 20
348.308353
 30
0.0
 40
1.25
  0
CIRCLE
  5
AC
100
AcDbEntity
  8
0
100
AcDbCircle
 10
373.426322
 20
350.808353
 30
0.0
 40
1.25
  0
CIRCLE
  5
AD
100
AcDbEntity
  8
0
100
AcDbCircle
 10
373.426322
 20
353.308353
 30
0.0
 40
1.25
  0
CIRCLE
  5
AE
100
AcDbEntity
  8
0
100
AcDbCircle
 10
373.426322
 20
355.808353
 30
0.0
 40
1.25
  0
CIRCLE
  5
AF
100
AcDbEntity
  8
0
100
AcDbCircle
 10
373.426322
 20
358.308353
 30
0.0
 40
1.25
  0
CIRCLE
  5
B0
100
AcDbEntity
  8
0
100
AcDbCircle
 10
373.426322
 20
360.808353
 30
0.0
 40
1.25
  0
CIRCLE
  5
B1
100
AcDbEntity
  8
0
100
AcDbCircle
 10
373.426322
 20
363.308353
 30
0.0
 40
1.25
  0
CIRCLE
  5
B2
100
AcDbEntity
  8
0
100
AcDbCircle
 10
373.426322
 20
365.808353
 30
0.0
 40
1.25
  0
CIRCLE
  5
B3
100
AcDbEntity
  8
0
100
AcDbCircle
 10
373.426322
 20
368.308353
 30
0.0
 40
1.25
  0
CIRCLE
  5
B4
100
AcDbEntity
  8
0
100
AcDbCircle
 10
373.426322
 20
370.808353
 30
0.0
 40
1.25
  0
CIRCLE
  5
B5
100
AcDbEntity
  8
0
100
AcDbCircle
 10
373.426322
 20
373.308353
 30
0.0
 40
1.25
  0
CIRCLE
  5
B6
100
AcDbEntity
  8
0
100
AcDbCircle
 10
373.426322
 20
375.808353
 30
0.0
 40
1.25
  0
CIRCLE
  5
B7
100
AcDbEntity
  8
0
100
AcDbCircle
 10
373.426322
 20
378.308353
 30
0.0
 40
1.25
  0
CIRCLE
  5
B8
100
AcDbEntity
  8
0
100
AcDbCircle
 10
373.426322
 20
380.808353
 30
0.0
 40
1.25
  0
CIRCLE
  5
B9
100
AcDbEntity
  8
0
100
AcDbCircle
 10
373.426322
 20
383.308353
 30
0.0
 40
1.25
  0
CIRCLE
  5
BA
100
AcDbEntity
  8
0
100
AcDbCircle
 10
373.426322
 20
385.808353
 30
0.0
 40
1.25
  0
CIRCLE
  5
BB
100
AcDbEntity
  8
0
100
AcDbCircle
 10
373.426322
 20
388.308353
 30
0.0
 40
1.25
  0
CIRCLE
  5
BC
100
AcDbEntity
  8
0
100
AcDbCircle
 10
373.426322
 20
390.808353
 30
0.0
 40
1.25
  0
CIRCLE
  5
BD
100
AcDbEntity
  8
0
100
AcDbCircle
 10
373.426322
 20
393.308353
 30
0.0
 40
1.25
  0
CIRCLE
  5
BE
100
AcDbEntity
  8
0
100
AcDbCircle
 10
373.426322
 20
395.808353
 30
0.0
 40
1.25
  0
CIRCLE
  5
BF
100
AcDbEntity
  8
0
100
AcDbCircle
 10
366.506927
 20
329.219309
 30
0.0
 40
1.25
  0
CIRCLE
  5
C0
100
AcDbEntity
  8
0
100
AcDbCircle
 10
366.506927
 20
331.719309
 30
0.0
 40
1.25
  0
CIRCLE
  5
C1
100
AcDbEntity
  8
0
100
AcDbCircle
 10
366.506927
 20
334.219309
 30
0.0
 40
1.25
  0
CIRCLE
  5
C2
100
AcDbEntity
  8
0
100
AcDbCircle
 10
366.506927
 20
336.719309
 30
0.0
 40
1.25
  0
CIRCLE
  5
C3
100
AcDbEntity
  8
0
100
AcDbCircle
 10
366.506927
 20
339.219309
 30
0.0
 40
1.25
  0
CIRCLE
  5
C4
100
AcDbEntity
  8
0
100
AcDbCircle
 10
366.506927
 20
341.719309
 30
0.0
 40
1.25
  0
CIRCLE
  5
C5
100
AcDbEntity
  8
0
100
AcDbCircle
 10
366.506927
 20
344.219309
 30
0.0
 40
1.25
  0
CIRCLE
  5
C6
100
AcDbEntity
  8
0
100
AcDbCircle
 10
366.506927
 20
346.719309
 30
0.0
 40
1.25
  0
CIRCLE
  5
C7
100
AcDbEntity
  8
0
100
AcDbCircle
 10
366.506927
 20
349.219309
 30
0.0
 40
1.25
  0
CIRCLE
  5
C8
100
AcDbEntity
  8
0
100
AcDbCircle
 10
366.506927
 20
351.719309
 30
0.0
 40
1.25
  0
CIRCLE
  5
C9
100
AcDbEntity
  8
0
100
AcDbCircle
 10
366.506927
 20
354.219309
 30
0.0
 40
1.25
  0
CIRCLE
  5
CA
100
AcDbEntity
  8
0
100
AcDbCircle
 10
366.506927
 20
356.719309
 30
0.0
 40
1.25
  0
CIRCLE
  5
CB
100
AcDbEntity
  8
0
100
AcDbCircle
 10
366.506927
 20
359.219309
 30
0.0
 40
1.25
  0
CIRCLE
  5
CC
100
AcDbEntity
  8
0
100
AcDbCircle
 10
366.506927
 20
361.719309
 30
0.0
 40
1.25
  0
CIRCLE
  5
CD
100
AcDbEntity
  8
0
100
AcDbCircle
 10
366.506927
 20
364.219309
 30
0.0
 40
1.25
  0
CIRCLE
  5
CE
100
AcDbEntity
  8
0
100
AcDbCircle
 10
366.506927
 20
366.719309
 30
0.0
 40
1.25
  0
CIRCLE
  5
CF
100
AcDbEntity
  8
0
100
AcDbCircle
 10
366.506927
 20
369.219309
 30
0.0
 40
1.25
  0
CIRCLE
  5
D0
100
AcDbEntity
  8
0
100
AcDbCircle
 10
366.506927
 20
371.719309
 30
0.0
 40
1.25
  0
CIRCLE
  5
D1
100
AcDbEntity
  8
0
100
AcDbCircle
 10
366.506927
 20
374.219309
 30
0.0
 40
1.25
  0
CIRCLE
  5
D2
100
AcDbEntity
  8
0
100
AcDbCircle
 10
366.506927
 20
376.719309
 30
0.0
 40
1.25
  0
CIRCLE
  5
D3
100
AcDbEntity
  8
0
100
AcDbCircle
 10
366.506927
 20
379.219309
 30
0.0
 40
1.25
  0
CIRCLE
  5
D4
100
AcDbEntity
  8
0
100
AcDbCircle
 10
366.506927
 20
381.719309
 30
0.0
 40
1.25
  0
CIRCLE
  5
D5
100
AcDbEntity
  8
0
100
AcDbCircle
 10
366.506927
 20
384.219309
 30
0.0
 40
1.25
  0
CIRCLE
  5
D6
100
AcDbEntity
  8
0
100
AcDbCircle
 10
366.506927
 20
386.719309
 30
0.0
 40
1.25
  0
CIRCLE
  5
D7
100
AcDbEntity
  8
0
100
AcDbCircle
 10
366.506927
 20
389.219309
 30
0.0
 40
1.25
  0
CIRCLE
  5
D8
100
AcDbEntity
  8
0
100
AcDbCircle
 10
359.693258
 20
330.729863
 30
0.0
 40
1.25
  0
CIRCLE
  5
D9
100
AcDbEntity
  8
0
100
AcDbCircle
 10
359.693258
 20
333.229863
 30
0.0
 40
1.25
  0
CIRCLE
  5
DA
100
AcDbEntity
  8
0
100
AcDbCircle
 10
359.693258
 20
335.729863
 30
0.0
 40
1.25
  0
CIRCLE
  5
DB
100
AcDbEntity
  8
0
100
AcDbCircle
 10
359.693258
 20
338.229863
 30
0.0
 40
1.25
  0
CIRCLE
  5
DC
100
AcDbEntity
  8
0
100
AcDbCircle
 10
359.693258
 20
340.729863
 30
0.0
 40
1.25
  0
CIRCLE
  5
DD
100
AcDbEntity
  8
0
100
AcDbCircle
 10
359.693258
 20
343.229863
 30
0.0
 40
1.25
  0
CIRCLE
  5
DE
100
AcDbEntity
  8
0
100
AcDbCircle
 10
359.693258
 20
345.729863
 30
0.0
 40
1.25
  0
CIRCLE
  5
DF
100
AcDbEntity
  8
0
100
AcDbCircle
 10
359.693258
 20
348.229863
 30
0.0
 40
1.25
  0
CIRCLE
  5
E0
100
AcDbEntity
  8
0
100
AcDbCircle
 10
359.693258
 20
350.729863
 30
0.0
 40
1.25
  0
CIRCLE
  5
E1
100
AcDbEntity
  8
0
100
AcDbCircle
 10
359.693258
 20
353.229863
 30
0.0
 40
1.25
  0
CIRCLE
  5
E2
100
AcDbEntity
  8
0
100
AcDbCircle
 10
359.693258
 20
355.729863
 30
0.0
 40
1.25
  0
CIRCLE
  5
E3
100
AcDbEntity
  8
0
100
AcDbCircle
 10
359.693258
 20
358.229863
 30
0.0
 40
1.25
  0
CIRCLE
  5
E4
100
AcDbEntity
  8
0
100
AcDbCircle
 10
359.693258
 20
360.729863
 30
0.0
 40
1.25
  0
CIRCLE
  5
E5
100
AcDbEntity
  8
0
100
AcDbCircle
 10
359.693258
 20
363.229863
 30
0.0
 40
1.25
  0
CIRCLE
  5
E6
100
AcDbEntity
  8
0
100
AcDbCircle
 10
359.693258
 20
365.729863
 30
0.0
 40
1.25
  0
CIRCLE
  5
E7
100
AcDbEntity
  8
0
100
AcDbCircle
 10
359.693258
 20
368.229863
 30
0.0
 40
1.25
  0
CIRCLE
  5
E8
100
AcDbEntity
  8
0
100
AcDbCircle
 10
359.693258
 20
370.729863
 30
0.0
 40
1.25
  0
CIRCLE
  5
E9
100
AcDbEntity
  8
0
100
AcDbCircle
 10
359.693258
 20
373.229863
 30
0.0
 40
1.25
  0
CIRCLE
  5
EA
100
AcDbEntity
  8
0
100
AcDbCircle
 10
359.693258
 20
375.729863
 30
0.0
 40
1.25
  0
CIRCLE
  5
EB
100
AcDbEntity
  8
0
100
AcDbCircle
 10
359.693258
 20
383.229863
 30
0.0
 40
1.25
  0
CIRCLE
  5
EC
100
AcDbEntity
  8
0
100
AcDbCircle
 10
359.693258
 20
380.729863
 30
0.0
 40
1.25
  0
CIRCLE
  5
ED
100
AcDbEntity
  8
0
100
AcDbCircle
 10
359.693258
 20
378.229863
 30
0.0
 40
1.25
  0
CIRCLE
  5
EE
100
AcDbEntity
  8
0
100
AcDbCircle
 10
353.03717
 20
332.828519
 30
0.0
 40
1.25
  0
CIRCLE
  5
EF
100
AcDbEntity
  8
0
100
AcDbCircle
 10
353.03717
 20
335.328519
 30
0.0
 40
1.25
  0
CIRCLE
  5
F0
100
AcDbEntity
  8
0
100
AcDbCircle
 10
353.03717
 20
337.828519
 30
0.0
 40
1.25
  0
CIRCLE
  5
F1
100
AcDbEntity
  8
0
100
AcDbCircle
 10
353.03717
 20
340.328519
 30
0.0
 40
1.25
  0
CIRCLE
  5
F2
100
AcDbEntity
  8
0
100
AcDbCircle
 10
353.03717
 20
342.828519
 30
0.0
 40
1.25
  0
CIRCLE
  5
F3
100
AcDbEntity
  8
0
100
AcDbCircle
 10
353.03717
 20
345.328519
 30
0.0
 40
1.25
  0
CIRCLE
  5
F4
100
AcDbEntity
  8
0
100
AcDbCircle
 10
353.03717
 20
347.828519
 30
0.0
 40
1.25
  0
CIRCLE
  5
F5
100
AcDbEntity
  8
0
100
AcDbCircle
 10
353.03717
 20
350.328519
 30
0.0
 40
1.25
  0
CIRCLE
  5
F6
100
AcDbEntity
  8
0
100
AcDbCircle
 10
353.03717
 20
352.828519
 30
0.0
 40
1.25
  0
CIRCLE
  5
F7
100
AcDbEntity
  8
0
100
AcDbCircle
 10
353.03717
 20
355.328519
 30
0.0
 40
1.25
  0
CIRCLE
  5
F8
100
AcDbEntity
  8
0
100
AcDbCircle
 10
353.03717
 20
357.828519
 30
0.0
 40
1.25
  0
CIRCLE
  5
F9
100
AcDbEntity
  8
0
100
AcDbCircle
 10
353.03717
 20
360.328519
 30
0.0
 40
1.25
  0
CIRCLE
  5
FA
100
AcDbEntity
  8
0
100
AcDbCircle
 10
353.03717
 20
362.828519
 30
0.0
 40
1.25
  0
CIRCLE
  5
FB
100
AcDbEntity
  8
0
100
AcDbCircle
 10
353.03717
 20
365.328519
 30
0.0
 40
1.25
  0
CIRCLE
  5
FC
100
AcDbEntity
  8
0
100
AcDbCircle
 10
353.03717
 20
367.828519
 30
0.0
 40
1.25
  0
CIRCLE
  5
FD
100
AcDbEntity
  8
0
100
AcDbCircle
 10
353.03717
 20
370.328519
 30
0.0
 40
1.25
  0
CIRCLE
  5
FE
100
AcDbEntity
  8
0
100
AcDbCircle
 10
353.03717
 20
372.828519
 30
0.0
 40
1.25
  0
CIRCLE
  5
FF
100
AcDbEntity
  8
0
100
AcDbCircle
 10
353.03717
 20
375.328519
 30
0.0
 40
1.25
  0
CIRCLE
  5
100
100
AcDbEntity
  8
0
100
AcDbCircle
 10
353.03717
 20
377.828519
 30
0.0
 40
1.25
  0
CIRCLE
  5
101
100
AcDbEntity
  8
0
100
AcDbCircle
 10
346.589321
 20
335.499306
 30
0.0
 40
1.25
  0
CIRCLE
  5
102
100
AcDbEntity
  8
0
100
AcDbCircle
 10
346.589321
 20
337.999306
 30
0.0
 40
1.25
  0
CIRCLE
  5
103
100
AcDbEntity
  8
0
100
AcDbCircle
 10
346.589321
 20
340.499306
 30
0.0
 40
1.25
  0
CIRCLE
  5
104
100
AcDbEntity
  8
0
100
AcDbCircle
 10
346.589321
 20
342.999306
 30
0.0
 40
1.25
  0
CIRCLE
  5
105
100
AcDbEntity
  8
0
100
AcDbCircle
 10
346.589321
 20
345.499306
 30
0.0
 40
1.25
  0
CIRCLE
  5
106
100
AcDbEntity
  8
0
100
AcDbCircle
 10
346.589321
 20
347.999306
 30
0.0
 40
1.25
  0
CIRCLE
  5
107
100
AcDbEntity
  8
0
100
AcDbCircle
 10
346.589321
 20
350.499306
 30
0.0
 40
1.25
  0
CIRCLE
  5
108
100
AcDbEntity
  8
0
100
AcDbCircle
 10
346.589321
 20
352.999306
 30
0.0
 40
1.25
  0
CIRCLE
  5
109
100
AcDbEntity
  8
0
100
AcDbCircle
 10
346.589321
 20
355.499306
 30
0.0
 40
1.25
  0
CIRCLE
  5
10A
100
AcDbEntity
  8
0
100
AcDbCircle
 10
346.589321
 20
357.999306
 30
0.0
 40
1.25
  0
CIRCLE
  5
10B
100
AcDbEntity
  8
0
100
AcDbCircle
 10
346.589321
 20
360.499306
 30
0.0
 40
1.25
  0
CIRCLE
  5
10C
100
AcDbEntity
  8
0
100
AcDbCircle
 10
346.589321
 20
362.999306
 30
0.0
 40
1.25
  0
CIRCLE
  5
10D
100
AcDbEntity
  8
0
100
AcDbCircle
 10
346.589321
 20
365.499306
 30
0.0
 40
1.25
  0
CIRCLE
  5
10E
100
AcDbEntity
  8
0
100
AcDbCircle
 10
346.589321
 20
367.999306
 30
0.0
 40
1.25
  0
CIRCLE
  5
10F
100
AcDbEntity
  8
0
100
AcDbCircle
 10
346.589321
 20
370.499306
 30
0.0
 40
1.25
  0
CIRCLE
  5
110
100
AcDbEntity
  8
0
100
AcDbCircle
 10
340.398781
 20
338.721897
 30
0.0
 40
1.25
  0
CIRCLE
  5
111
100
AcDbEntity
  8
0
100
AcDbCircle
 10
340.398781
 20
341.221897
 30
0.0
 40
1.25
  0
CIRCLE
  5
112
100
AcDbEntity
  8
0
100
AcDbCircle
 10
340.398781
 20
343.721897
 30
0.0
 40
1.25
  0
CIRCLE
  5
113
100
AcDbEntity
  8
0
100
AcDbCircle
 10
340.398781
 20
346.221897
 30
0.0
 40
1.25
  0
CIRCLE
  5
114
100
AcDbEntity
  8
0
100
AcDbCircle
 10
340.398781
 20
348.721897
 30
0.0
 40
1.25
  0
CIRCLE
  5
115
100
AcDbEntity
  8
0
100
AcDbCircle
 10
340.398781
 20
351.221897
 30
0.0
 40
1.25
  0
CIRCLE
  5
116
100
AcDbEntity
  8
0
100
AcDbCircle
 10
340.398781
 20
353.721897
 30
0.0
 40
1.25
  0
CIRCLE
  5
117
100
AcDbEntity
  8
0
100
AcDbCircle
 10
340.398781
 20
356.221897
 30
0.0
 40
1.25
  0
CIRCLE
  5
118
100
AcDbEntity
  8
0
100
AcDbCircle
 10
340.398781
 20
358.721897
 30
0.0
 40
1.25
  0
CIRCLE
  5
119
100
AcDbEntity
  8
0
100
AcDbCircle
 10
340.398781
 20
361.221897
 30
0.0
 40
1.25
  0
CIRCLE
  5
11A
100
AcDbEntity
  8
0
100
AcDbCircle
 10
340.398781
 20
363.721897
 30
0.0
 40
1.25
  0
CIRCLE
  5
11B
100
AcDbEntity
  8
0
100
AcDbCircle
 10
334.512667
 20
342.471766
 30
0.0
 40
1.25
  0
CIRCLE
  5
11C
100
AcDbEntity
  8
0
100
AcDbCircle
 10
334.512667
 20
344.971766
 30
0.0
 40
1.25
  0
CIRCLE
  5
11D
100
AcDbEntity
  8
0
100
AcDbCircle
 10
334.512667
 20
347.471766
 30
0.0
 40
1.25
  0
CIRCLE
  5
11E
100
AcDbEntity
  8
0
100
AcDbCircle
 10
334.512667
 20
349.971766
 30
0.0
 40
1.25
  0
CIRCLE
  5
11F
100
AcDbEntity
  8
0
100
AcDbCircle
 10
334.512667
 20
352.471766
 30
0.0
 40
1.25
  0
CIRCLE
  5
120
100
AcDbEntity
  8
0
100
AcDbCircle
 10
334.512667
 20
354.971766
 30
0.0
 40
1.25
  0
CIRCLE
  5
121
100
AcDbEntity
  8
0
100
AcDbCircle
 10
334.512667
 20
357.471766
 30
0.0
 40
1.25
  0
CIRCLE
  5
122
100
AcDbEntity
  8
0
100
AcDbCircle
 10
328.975773
 20
346.720374
 30
0.0
 40
1.25
  0
CIRCLE
  5
123
100
AcDbEntity
  8
0
100
AcDbCircle
 10
328.975773
 20
349.220374
 30
0.0
 40
1.25
  0
CIRCLE
  5
124
100
AcDbEntity
  8
0
100
AcDbCircle
 10
328.975773
 20
351.720374
 30
0.0
 40
1.25
  0
CIRCLE
  5
125
100
AcDbEntity
  8
0
100
AcDbCircle
 10
431.82179
 20
351.720374
 30
0.0
 40
1.25
  0
CIRCLE
  5
126
100
AcDbEntity
  8
0
100
AcDbCircle
 10
431.82179
 20
349.220374
 30
0.0
 40
1.25
  0
CIRCLE
  5
127
100
AcDbEntity
  8
0
100
AcDbCircle
 10
431.82179
 20
346.720374
 30
0.0
 40
1.25
  0
CIRCLE
  5
128
100
AcDbEntity
  8
0
100
AcDbCircle
 10
426.284896
 20
357.471766
 30
0.0
 40
1.25
  0
CIRCLE
  5
129
100
AcDbEntity
  8
0
100
AcDbCircle
 10
426.284896
 20
354.971766
 30
0.0
 40
1.25
  0
CIRCLE
  5
12A
100
AcDbEntity
  8
0
100
AcDbCircle
 10
426.284896
 20
352.471766
 30
0.0
 40
1.25
  0
CIRCLE
  5
12B
100
AcDbEntity
  8
0
100
AcDbCircle
 10
426.284896
 20
349.971766
 30
0.0
 40
1.25
  0
CIRCLE
  5
12C
100
AcDbEntity
  8
0
100
AcDbCircle
 10
426.284896
 20
347.471766
 30
0.0
 40
1.25
  0
CIRCLE
  5
12D
100
AcDbEntity
  8
0
100
AcDbCircle
 10
426.284896
 20
344.971766
 30
0.0
 40
1.25
  0
CIRCLE
  5
12E
100
AcDbEntity
  8
0
100
AcDbCircle
 10
426.284896
 20
342.471766
 30
0.0
 40
1.25
  0
CIRCLE
  5
12F
100
AcDbEntity
  8
0
100
AcDbCircle
 10
420.398781
 20
363.721897
 30
0.0
 40
1.25
  0
CIRCLE
  5
130
100
AcDbEntity
  8
0
100
AcDbCircle
 10
420.398781
 20
361.221897
 30
0.0
 40
1.25
  0
CIRCLE
  5
131
100
AcDbEntity
  8
0
100
AcDbCircle
 10
420.398781
 20
358.721897
 30
0.0
 40
1.25
  0
CIRCLE
  5
132
100
AcDbEntity
  8
0
100
AcDbCircle
 10
420.398781
 20
356.221897
 30
0.0
 40
1.25
  0
CIRCLE
  5
133
100
AcDbEntity
  8
0
100
AcDbCircle
 10
420.398781
 20
353.721897
 30
0.0
 40
1.25
  0
CIRCLE
  5
134
100
AcDbEntity
  8
0
100
AcDbCircle
 10
420.398781
 20
351.221897
 30
0.0
 40
1.25
  0
CIRCLE
  5
135
100
AcDbEntity
  8
0
100
AcDbCircle
 10
420.398781
 20
348.721897
 30
0.0
 40
1.25
  0
CIRCLE
  5
136
100
AcDbEntity
  8
0
100
AcDbCircle
 10
420.398781
 20
346.221897
 30
0.0
 40
1.25
  0
CIRCLE
  5
137
100
AcDbEntity
  8
0
100
AcDbCircle
 10
420.398781
 20
343.721897
 30
0.0
 40
1.25
  0
CIRCLE
  5
138
100
AcDbEntity
  8
0
100
AcDbCircle
 10
420.398781
 20
341.221897
 30
0.0
 40
1.25
  0
CIRCLE
  5
139
100
AcDbEntity
  8
0
100
AcDbCircle
 10
420.398781
 20
338.721897
 30
0.0
 40
1.25
  0
CIRCLE
  5
13A
100
AcDbEntity
  8
0
100
AcDbCircle
 10
414.208242
 20
370.499306
 30
0.0
 40
1.25
  0
CIRCLE
  5
13B
100
AcDbEntity
  8
0
100
AcDbCircle
 10
414.208242
 20
367.999306
 30
0.0
 40
1.25
  0
CIRCLE
  5
13C
100
AcDbEntity
  8
0
100
AcDbCircle
 10
414.208242
 20
365.499306
 30
0.0
 40
1.25
  0
CIRCLE
  5
13D
100
AcDbEntity
  8
0
100
AcDbCircle
 10
414.208242
 20
362.999306
 30
0.0
 40
1.25
  0
CIRCLE
  5
13E
100
AcDbEntity
  8
0
100
AcDbCircle
 10
414.208242
 20
360.499306
 30
0.0
 40
1.25
  0
CIRCLE
  5
13F
100
AcDbEntity
  8
0
100
AcDbCircle
 10
414.208242
 20
357.999306
 30
0.0
 40
1.25
  0
CIRCLE
  5
140
100
AcDbEntity
  8
0
100
AcDbCircle
 10
414.208242
 20
355.499306
 30
0.0
 40
1.25
  0
CIRCLE
  5
141
100
AcDbEntity
  8
0
100
AcDbCircle
 10
414.208242
 20
352.999306
 30
0.0
 40
1.25
  0
CIRCLE
  5
142
100
AcDbEntity
  8
0
100
AcDbCircle
 10
414.208242
 20
350.499306
 30
0.0
 40
1.25
  0
CIRCLE
  5
143
100
AcDbEntity
  8
0
100
AcDbCircle
 10
414.208242
 20
347.999306
 30
0.0
 40
1.25
  0
CIRCLE
  5
144
100
AcDbEntity
  8
0
100
AcDbCircle
 10
414.208242
 20
345.499306
 30
0.0
 40
1.25
  0
CIRCLE
  5
145
100
AcDbEntity
  8
0
100
AcDbCircle
 10
414.208242
 20
342.999306
 30
0.0
 40
1.25
  0
CIRCLE
  5
146
100
AcDbEntity
  8
0
100
AcDbCircle
 10
414.208242
 20
340.499306
 30
0.0
 40
1.25
  0
CIRCLE
  5
147
100
AcDbEntity
  8
0
100
AcDbCircle
 10
414.208242
 20
337.999306
 30
0.0
 40
1.25
  0
CIRCLE
  5
148
100
AcDbEntity
  8
0
100
AcDbCircle
 10
414.208242
 20
335.499306
 30
0.0
 40
1.25
  0
CIRCLE
  5
149
100
AcDbEntity
  8
0
100
AcDbCircle
 10
407.760393
 20
377.828519
 30
0.0
 40
1.25
  0
CIRCLE
  5
14A
100
AcDbEntity
  8
0
100
AcDbCircle
 10
407.760393
 20
375.328519
 30
0.0
 40
1.25
  0
CIRCLE
  5
14B
100
AcDbEntity
  8
0
100
AcDbCircle
 10
407.760393
 20
372.828519
 30
0.0
 40
1.25
  0
CIRCLE
  5
14C
100
AcDbEntity
  8
0
100
AcDbCircle
 10
407.760393
 20
370.328519
 30
0.0
 40
1.25
  0
CIRCLE
  5
14D
100
AcDbEntity
  8
0
100
AcDbCircle
 10
407.760393
 20
367.828519
 30
0.0
 40
1.25
  0
CIRCLE
  5
14E
100
AcDbEntity
  8
0
100
AcDbCircle
 10
407.760393
 20
365.328519
 30
0.0
 40
1.25
  0
CIRCLE
  5
14F
100
AcDbEntity
  8
0
100
AcDbCircle
 10
407.760393
 20
362.828519
 30
0.0
 40
1.25
  0
CIRCLE
  5
150
100
AcDbEntity
  8
0
100
AcDbCircle
 10
407.760393
 20
360.328519
 30
0.0
 40
1.25
  0
CIRCLE
  5
151
100
AcDbEntity
  8
0
100
AcDbCircle
 10
407.760393
 20
357.828519
 30
0.0
 40
1.25
  0
CIRCLE
  5
152
100
AcDbEntity
  8
0
100
AcDbCircle
 10
407.760393
 20
355.328519
 30
0.0
 40
1.25
  0
CIRCLE
  5
153
100
AcDbEntity
  8
0
100
AcDbCircle
 10
407.760393
 20
352.828519
 30
0.0
 40
1.25
  0
CIRCLE
  5
154
100
AcDbEntity
  8
0
100
AcDbCircle
 10
407.760393
 20
350.328519
 30
0.0
 40
1.25
  0
CIRCLE
  5
155
100
AcDbEntity
  8
0
100
AcDbCircle
 10
407.760393
 20
347.828519
 30
0.0
 40
1.25
  0
CIRCLE
  5
156
100
AcDbEntity
  8
0
100
AcDbCircle
 10
407.760393
 20
345.328519
 30
0.0
 40
1.25
  0
CIRCLE
  5
157
100
AcDbEntity
  8
0
100
AcDbCircle
 10
407.760393
 20
342.828519
 30
0.0
 40
1.25
  0
CIRCLE
  5
158
100
AcDbEntity
  8
0
100
AcDbCircle
 10
407.760393
 20
340.328519
 30
0.0
 40
1.25
  0
CIRCLE
  5
159
100
AcDbEntity
  8
0
100
AcDbCircle
 10
407.760393
 20
337.828519
 30
0.0
 40
1.25
  0
CIRCLE
  5
15A
100
AcDbEntity
  8
0
100
AcDbCircle
 10
407.760393
 20
335.328519
 30
0.0
 40
1.25
  0
CIRCLE
  5
15B
100
AcDbEntity
  8
0
100
AcDbCircle
 10
407.760393
 20
332.828519
 30
0.0
 40
1.25
  0
CIRCLE
  5
15C
100
AcDbEntity
  8
0
100
AcDbCircle
 10
401.104305
 20
378.229863
 30
0.0
 40
1.25
  0
CIRCLE
  5
15D
100
AcDbEntity
  8
0
100
AcDbCircle
 10
401.104305
 20
380.729863
 30
0.0
 40
1.25
  0
CIRCLE
  5
15E
100
AcDbEntity
  8
0
100
AcDbCircle
 10
401.104305
 20
383.229863
 30
0.0
 40
1.25
  0
CIRCLE
  5
15F
100
AcDbEntity
  8
0
100
AcDbCircle
 10
401.104305
 20
375.729863
 30
0.0
 40
1.25
  0
CIRCLE
  5
160
100
AcDbEntity
  8
0
100
AcDbCircle
 10
401.104305
 20
373.229863
 30
0.0
 40
1.25
  0
CIRCLE
  5
161
100
AcDbEntity
  8
0
100
AcDbCircle
 10
401.104305
 20
370.729863
 30
0.0
 40
1.25
  0
CIRCLE
  5
162
100
AcDbEntity
  8
0
100
AcDbCircle
 10
401.104305
 20
368.229863
 30
0.0
 40
1.25
  0
CIRCLE
  5
163
100
AcDbEntity
  8
0
100
AcDbCircle
 10
401.104305
 20
365.729863
 30
0.0
 40
1.25
  0
CIRCLE
  5
164
100
AcDbEntity
  8
0
100
AcDbCircle
 10
401.104305
 20
363.229863
 30
0.0
 40
1.25
  0
CIRCLE
  5
165
100
AcDbEntity
  8
0
100
AcDbCircle
 10
401.104305
 20
360.729863
 30
0.0
 40
1.25
  0
CIRCLE
  5
166
100
AcDbEntity
  8
0
100
AcDbCircle
 10
401.104305
 20
358.229863
 30
0.0
 40
1.25
  0
CIRCLE
  5
167
100
AcDbEntity
  8
0
100
AcDbCircle
 10
401.104305
 20
355.729863
 30
0.0
 40
1.25
  0
CIRCLE
  5
168
100
AcDbEntity
  8
0
100
AcDbCircle
 10
401.104305
 20
353.229863
 30
0.0
 40
1.25
  0
CIRCLE
  5
169
100
AcDbEntity
  8
0
100
AcDbCircle
 10
401.104305
 20
350.729863
 30
0.0
 40
1.25
  0
CIRCLE
  5
16A
100
AcDbEntity
  8
0
100
AcDbCircle
 10
401.104305
 20
348.229863
 30
0.0
 40
1.25
  0
CIRCLE
  5
16B
100
AcDbEntity
  8
0
100
AcDbCircle
 10
401.104305
 20
345.729863
 30
0.0
 40
1.25
  0
CIRCLE
  5
16C
100
AcDbEntity
  8
0
100
AcDbCircle
 10
401.104305
 20
343.229863
 30
0.0
 40
1.25
  0
CIRCLE
  5
16D
100
AcDbEntity
  8
0
100
AcDbCircle
 10
401.104305
 20
340.729863
 30
0.0
 40
1.25
  0
CIRCLE
  5
16E
100
AcDbEntity
  8
0
100
AcDbCircle
 10
401.104305
 20
338.229863
 30
0.0
 40
1.25
  0
CIRCLE
  5
16F
100
AcDbEntity
  8
0
100
AcDbCircle
 10
401.104305
 20
335.729863
 30
0.0
 40
1.25
  0
CIRCLE
  5
170
100
AcDbEntity
  8
0
100
AcDbCircle
 10
401.104305
 20
333.229863
 30
0.0
 40
1.25
  0
CIRCLE
  5
171
100
AcDbEntity
  8
0
100
AcDbCircle
 10
401.104305
 20
330.729863
 30
0.0
 40
1.25
  0
CIRCLE
  5
172
100
AcDbEntity
  8
0
100
AcDbCircle
 10
394.290636
 20
389.219309
 30
0.0
 40
1.25
  0
CIRCLE
  5
173
100
AcDbEntity
  8
0
100
AcDbCircle
 10
394.290636
 20
386.719309
 30
0.0
 40
1.25
  0
CIRCLE
  5
174
100
AcDbEntity
  8
0
100
AcDbCircle
 10
394.290636
 20
384.219309
 30
0.0
 40
1.25
  0
CIRCLE
  5
175
100
AcDbEntity
  8
0
100
AcDbCircle
 10
394.290636
 20
381.719309
 30
0.0
 40
1.25
  0
CIRCLE
  5
176
100
AcDbEntity
  8
0
100
AcDbCircle
 10
394.290636
 20
379.219309
 30
0.0
 40
1.25
  0
CIRCLE
  5
177
100
AcDbEntity
  8
0
100
AcDbCircle
 10
394.290636
 20
376.719309
 30
0.0
 40
1.25
  0
CIRCLE
  5
178
100
AcDbEntity
  8
0
100
AcDbCircle
 10
394.290636
 20
374.219309
 30
0.0
 40
1.25
  0
CIRCLE
  5
179
100
AcDbEntity
  8
0
100
AcDbCircle
 10
394.290636
 20
371.719309
 30
0.0
 40
1.25
  0
CIRCLE
  5
17A
100
AcDbEntity
  8
0
100
AcDbCircle
 10
394.290636
 20
369.219309
 30
0.0
 40
1.25
  0
CIRCLE
  5
17B
100
AcDbEntity
  8
0
100
AcDbCircle
 10
394.290636
 20
366.719309
 30
0.0
 40
1.25
  0
CIRCLE
  5
17C
100
AcDbEntity
  8
0
100
AcDbCircle
 10
394.290636
 20
364.219309
 30
0.0
 40
1.25
  0
CIRCLE
  5
17D
100
AcDbEntity
  8
0
100
AcDbCircle
 10
394.290636
 20
361.719309
 30
0.0
 40
1.25
  0
CIRCLE
  5
17E
100
AcDbEntity
  8
0
100
AcDbCircle
 10
394.290636
 20
359.219309
 30
0.0
 40
1.25
  0
CIRCLE
  5
17F
100
AcDbEntity
  8
0
100
AcDbCircle
 10
394.290636
 20
356.719309
 30
0.0
 40
1.25
  0
CIRCLE
  5
180
100
AcDbEntity
  8
0
100
AcDbCircle
 10
394.290636
 20
354.219309
 30
0.0
 40
1.25
  0
CIRCLE
  5
181
100
AcDbEntity
  8
0
100
AcDbCircle
 10
394.290636
 20
351.719309
 30
0.0
 40
1.25
  0
CIRCLE
  5
182
100
AcDbEntity
  8
0
100
AcDbCircle
 10
394.290636
 20
349.219309
 30
0.0
 40
1.25
  0
CIRCLE
  5
183
100
AcDbEntity
  8
0
100
AcDbCircle
 10
394.290636
 20
346.719309
 30
0.0
 40
1.25
  0
CIRCLE
  5
184
100
AcDbEntity
  8
0
100
AcDbCircle
 10
394.290636
 20
344.219309
 30
0.0
 40
1.25
  0
CIRCLE
  5
185
100
AcDbEntity
  8
0
100
AcDbCircle
 10
394.290636
 20
341.719309
 30
0.0
 40
1.25
  0
CIRCLE
  5
186
100
AcDbEntity
  8
0
100
AcDbCircle
 10
394.290636
 20
339.219309
 30
0.0
 40
1.25
  0
CIRCLE
  5
187
100
AcDbEntity
  8
0
100
AcDbCircle
 10
394.290636
 20
336.719309
 30
0.0
 40
1.25
  0
CIRCLE
  5
188
100
AcDbEntity
  8
0
100
AcDbCircle
 10
394.290636
 20
334.219309
 30
0.0
 40
1.25
  0
CIRCLE
  5
189
100
AcDbEntity
  8
0
100
AcDbCircle
 10
394.290636
 20
331.719309
 30
0.0
 40
1.25
  0
CIRCLE
  5
18A
100
AcDbEntity
  8
0
100
AcDbCircle
 10
394.290636
 20
329.219309
 30
0.0
 40
1.25
  0
CIRCLE
  5
18B
100
AcDbEntity
  8
0
100
AcDbCircle
 10
387.371241
 20
395.808353
 30
0.0
 40
1.25
  0
CIRCLE
  5
18C
100
AcDbEntity
  8
0
100
AcDbCircle
 10
387.371241
 20
393.308353
 30
0.0
 40
1.25
  0
CIRCLE
  5
18D
100
AcDbEntity
  8
0
100
AcDbCircle
 10
387.371241
 20
390.808353
 30
0.0
 40
1.25
  0
CIRCLE
  5
18E
100
AcDbEntity
  8
0
100
AcDbCircle
 10
387.371241
 20
388.308353
 30
0.0
 40
1.25
  0
CIRCLE
  5
18F
100
AcDbEntity
  8
0
100
AcDbCircle
 10
387.371241
 20
385.808353
 30
0.0
 40
1.25
  0
CIRCLE
  5
190
100
AcDbEntity
  8
0
100
AcDbCircle
 10
387.371241
 20
383.308353
 30
0.0
 40
1.25
  0
CIRCLE
  5
191
100
AcDbEntity
  8
0
100
AcDbCircle
 10
387.371241
 20
380.808353
 30
0.0
 40
1.25
  0
CIRCLE
  5
192
100
AcDbEntity
  8
0
100
AcDbCircle
 10
387.371241
 20
378.308353
 30
0.0
 40
1.25
  0
CIRCLE
  5
193
100
AcDbEntity
  8
0
100
AcDbCircle
 10
387.371241
 20
375.808353
 30
0.0
 40
1.25
  0
CIRCLE
  5
194
100
AcDbEntity
  8
0
100
AcDbCircle
 10
387.371241
 20
373.308353
 30
0.0
 40
1.25
  0
CIRCLE
  5
195
100
AcDbEntity
  8
0
100
AcDbCircle
 10
387.371241
 20
370.808353
 30
0.0
 40
1.25
  0
CIRCLE
  5
196
100
AcDbEntity
  8
0
100
AcDbCircle
 10
387.371241
 20
368.308353
 30
0.0
 40
1.25
  0
CIRCLE
  5
197
100
AcDbEntity
  8
0
100
AcDbCircle
 10
387.371241
 20
365.808353
 30
0.0
 40
1.25
  0
CIRCLE
  5
198
100
AcDbEntity
  8
0
100
AcDbCircle
 10
387.371241
 20
363.308353
 30
0.0
 40
1.25
  0
CIRCLE
  5
199
100
AcDbEntity
  8
0
100
AcDbCircle
 10
387.371241
 20
360.808353
 30
0.0
 40
1.25
  0
CIRCLE
  5
19A
100
AcDbEntity
  8
0
100
AcDbCircle
 10
387.371241
 20
358.308353
 30
0.0
 40
1.25
  0
CIRCLE
  5
19B
100
AcDbEntity
  8
0
100
AcDbCircle
 10
387.371241
 20
355.808353
 30
0.0
 40
1.25
  0
CIRCLE
  5
19C
100
AcDbEntity
  8
0
100
AcDbCircle
 10
387.371241
 20
353.308353
 30
0.0
 40
1.25
  0
CIRCLE
  5
19D
100
AcDbEntity
  8
0
100
AcDbCircle
 10
387.371241
 20
350.808353
 30
0.0
 40
1.25
  0
CIRCLE
  5
19E
100
AcDbEntity
  8
0
100
AcDbCircle
 10
387.371241
 20
348.308353
 30
0.0
 40
1.25
  0
CIRCLE
  5
19F
100
AcDbEntity
  8
0
100
AcDbCircle
 10
387.371241
 20
345.808353
 30
0.0
 40
1.25
  0
CIRCLE
  5
1A0
100
AcDbEntity
  8
0
100
AcDbCircle
 10
387.371241
 20
343.308353
 30
0.0
 40
1.25
  0
CIRCLE
  5
1A1
100
AcDbEntity
  8
0
100
AcDbCircle
 10
387.371241
 20
340.808353
 30
0.0
 40
1.25
  0
CIRCLE
  5
1A2
100
AcDbEntity
  8
0
100
AcDbCircle
 10
387.371241
 20
338.308353
 30
0.0
 40
1.25
  0
CIRCLE
  5
1A3
100
AcDbEntity
  8
0
100
AcDbCircle
 10
387.371241
 20
335.808353
 30
0.0
 40
1.25
  0
CIRCLE
  5
1A4
100
AcDbEntity
  8
0
100
AcDbCircle
 10
387.371241
 20
333.308353
 30
0.0
 40
1.25
  0
CIRCLE
  5
1A5
100
AcDbEntity
  8
0
100
AcDbCircle
 10
387.371241
 20
330.808353
 30
0.0
 40
1.25
  0
CIRCLE
  5
1A6
100
AcDbEntity
  8
0
100
AcDbCircle
 10
387.371241
 20
328.308353
 30
0.0
 40
1.25
  0
CIRCLE
  5
1A7
100
AcDbEntity
  8
0
100
AcDbCircle
 10
387.371241
 20
482.699505
 30
0.0
 40
1.25
  0
CIRCLE
  5
1A8
100
AcDbEntity
  8
0
100
AcDbCircle
 10
387.371241
 20
480.199505
 30
0.0
 40
1.25
  0
CIRCLE
  5
1A9
100
AcDbEntity
  8
0
100
AcDbCircle
 10
387.371241
 20
477.699505
 30
0.0
 40
1.25
  0
CIRCLE
  5
1AA
100
AcDbEntity
  8
0
100
AcDbCircle
 10
387.371241
 20
475.199505
 30
0.0
 40
1.25
  0
CIRCLE
  5
1AB
100
AcDbEntity
  8
0
100
AcDbCircle
 10
387.371241
 20
472.699505
 30
0.0
 40
1.25
  0
CIRCLE
  5
1AC
100
AcDbEntity
  8
0
100
AcDbCircle
 10
387.371241
 20
470.199505
 30
0.0
 40
1.25
  0
CIRCLE
  5
1AD
100
AcDbEntity
  8
0
100
AcDbCircle
 10
387.371241
 20
467.699505
 30
0.0
 40
1.25
  0
CIRCLE
  5
1AE
100
AcDbEntity
  8
0
100
AcDbCircle
 10
387.371241
 20
465.199505
 30
0.0
 40
1.25
  0
CIRCLE
  5
1AF
100
AcDbEntity
  8
0
100
AcDbCircle
 10
387.371241
 20
462.699505
 30
0.0
 40
1.25
  0
CIRCLE
  5
1B0
100
AcDbEntity
  8
0
100
AcDbCircle
 10
387.371241
 20
460.199505
 30
0.0
 40
1.25
  0
CIRCLE
  5
1B1
100
AcDbEntity
  8
0
100
AcDbCircle
 10
387.371241
 20
457.699505
 30
0.0
 40
1.25
  0
CIRCLE
  5
1B2
100
AcDbEntity
  8
0
100
AcDbCircle
 10
387.371241
 20
455.199505
 30
0.0
 40
1.25
  0
CIRCLE
  5
1B3
100
AcDbEntity
  8
0
100
AcDbCircle
 10
387.371241
 20
452.699505
 30
0.0
 40
1.25
  0
CIRCLE
  5
1B4
100
AcDbEntity
  8
0
100
AcDbCircle
 10
387.371241
 20
450.199505
 30
0.0
 40
1.25
  0
CIRCLE
  5
1B5
100
AcDbEntity
  8
0
100
AcDbCircle
 10
387.371241
 20
447.699505
 30
0.0
 40
1.25
  0
CIRCLE
  5
1B6
100
AcDbEntity
  8
0
100
AcDbCircle
 10
387.371241
 20
445.199505
 30
0.0
 40
1.25
  0
CIRCLE
  5
1B7
100
AcDbEntity
  8
0
100
AcDbCircle
 10
387.371241
 20
442.699505
 30
0.0
 40
1.25
  0
CIRCLE
  5
1B8
100
AcDbEntity
  8
0
100
AcDbCircle
 10
387.371241
 20
440.199505
 30
0.0
 40
1.25
  0
CIRCLE
  5
1B9
100
AcDbEntity
  8
0
100
AcDbCircle
 10
387.371241
 20
437.699505
 30
0.0
 40
1.25
  0
CIRCLE
  5
1BA
100
AcDbEntity
  8
0
100
AcDbCircle
 10
387.371241
 20
435.199505
 30
0.0
 40
1.25
  0
CIRCLE
  5
1BB
100
AcDbEntity
  8
0
100
AcDbCircle
 10
387.371241
 20
432.699505
 30
0.0
 40
1.25
  0
CIRCLE
  5
1BC
100
AcDbEntity
  8
0
100
AcDbCircle
 10
387.371241
 20
430.199505
 30
0.0
 40
1.25
  0
CIRCLE
  5
1BD
100
AcDbEntity
  8
0
100
AcDbCircle
 10
387.371241
 20
427.699505
 30
0.0
 40
1.25
  0
CIRCLE
  5
1BE
100
AcDbEntity
  8
0
100
AcDbCircle
 10
387.371241
 20
425.199505
 30
0.0
 40
1.25
  0
CIRCLE
  5
1BF
100
AcDbEntity
  8
0
100
AcDbCircle
 10
387.371241
 20
422.699505
 30
0.0
 40
1.25
  0
CIRCLE
  5
1C0
100
AcDbEntity
  8
0
100
AcDbCircle
 10
387.371241
 20
420.199505
 30
0.0
 40
1.25
  0
CIRCLE
  5
1C1
100
AcDbEntity
  8
0
100
AcDbCircle
 10
387.371241
 20
417.699505
 30
0.0
 40
1.25
  0
CIRCLE
  5
1C2
100
AcDbEntity
  8
0
100
AcDbCircle
 10
387.371241
 20
415.199505
 30
0.0
 40
1.25
  0
CIRCLE
  5
1C3
100
AcDbEntity
  8
0
100
AcDbCircle
 10
394.290636
 20
481.788549
 30
0.0
 40
1.25
  0
CIRCLE
  5
1C4
100
AcDbEntity
  8
0
100
AcDbCircle
 10
394.290636
 20
479.288549
 30
0.0
 40
1.25
  0
CIRCLE
  5
1C5
100
AcDbEntity
  8
0
100
AcDbCircle
 10
394.290636
 20
476.788549
 30
0.0
 40
1.25
  0
CIRCLE
  5
1C6
100
AcDbEntity
  8
0
100
AcDbCircle
 10
394.290636
 20
474.288549
 30
0.0
 40
1.25
  0
CIRCLE
  5
1C7
100
AcDbEntity
  8
0
100
AcDbCircle
 10
394.290636
 20
471.788549
 30
0.0
 40
1.25
  0
CIRCLE
  5
1C8
100
AcDbEntity
  8
0
100
AcDbCircle
 10
394.290636
 20
469.288549
 30
0.0
 40
1.25
  0
CIRCLE
  5
1C9
100
AcDbEntity
  8
0
100
AcDbCircle
 10
394.290636
 20
466.788549
 30
0.0
 40
1.25
  0
CIRCLE
  5
1CA
100
AcDbEntity
  8
0
100
AcDbCircle
 10
394.290636
 20
464.288549
 30
0.0
 40
1.25
  0
CIRCLE
  5
1CB
100
AcDbEntity
  8
0
100
AcDbCircle
 10
394.290636
 20
461.788549
 30
0.0
 40
1.25
  0
CIRCLE
  5
1CC
100
AcDbEntity
  8
0
100
AcDbCircle
 10
394.290636
 20
459.288549
 30
0.0
 40
1.25
  0
CIRCLE
  5
1CD
100
AcDbEntity
  8
0
100
AcDbCircle
 10
394.290636
 20
456.788549
 30
0.0
 40
1.25
  0
CIRCLE
  5
1CE
100
AcDbEntity
  8
0
100
AcDbCircle
 10
394.290636
 20
454.288549
 30
0.0
 40
1.25
  0
CIRCLE
  5
1CF
100
AcDbEntity
  8
0
100
AcDbCircle
 10
394.290636
 20
451.788549
 30
0.0
 40
1.25
  0
CIRCLE
  5
1D0
100
AcDbEntity
  8
0
100
AcDbCircle
 10
394.290636
 20
449.288549
 30
0.0
 40
1.25
  0
CIRCLE
  5
1D1
100
AcDbEntity
  8
0
100
AcDbCircle
 10
394.290636
 20
446.788549
 30
0.0
 40
1.25
  0
CIRCLE
  5
1D2
100
AcDbEntity
  8
0
100
AcDbCircle
 10
394.290636
 20
444.288549
 30
0.0
 40
1.25
  0
CIRCLE
  5
1D3
100
AcDbEntity
  8
0
100
AcDbCircle
 10
394.290636
 20
441.788549
 30
0.0
 40
1.25
  0
CIRCLE
  5
1D4
100
AcDbEntity
  8
0
100
AcDbCircle
 10
394.290636
 20
439.288549
 30
0.0
 40
1.25
  0
CIRCLE
  5
1D5
100
AcDbEntity
  8
0
100
AcDbCircle
 10
394.290636
 20
436.788549
 30
0.0
 40
1.25
  0
CIRCLE
  5
1D6
100
AcDbEntity
  8
0
100
AcDbCircle
 10
394.290636
 20
434.288549
 30
0.0
 40
1.25
  0
CIRCLE
  5
1D7
100
AcDbEntity
  8
0
100
AcDbCircle
 10
394.290636
 20
431.788549
 30
0.0
 40
1.25
  0
CIRCLE
  5
1D8
100
AcDbEntity
  8
0
100
AcDbCircle
 10
394.290636
 20
429.288549
 30
0.0
 40
1.25
  0
CIRCLE
  5
1D9
100
AcDbEntity
  8
0
100
AcDbCircle
 10
394.290636
 20
426.788549
 30
0.0
 40
1.25
  0
CIRCLE
  5
1DA
100
AcDbEntity
  8
0
100
AcDbCircle
 10
394.290636
 20
424.288549
 30
0.0
 40
1.25
  0
CIRCLE
  5
1DB
100
AcDbEntity
  8
0
100
AcDbCircle
 10
394.290636
 20
421.788549
 30
0.0
 40
1.25
  0
CIRCLE
  5
1DC
100
AcDbEntity
  8
0
100
AcDbCircle
 10
401.104305
 20
480.277995
 30
0.0
 40
1.25
  0
CIRCLE
  5
1DD
100
AcDbEntity
  8
0
100
AcDbCircle
 10
401.104305
 20
477.777995
 30
0.0
 40
1.25
  0
CIRCLE
  5
1DE
100
AcDbEntity
  8
0
100
AcDbCircle
 10
401.104305
 20
475.277995
 30
0.0
 40
1.25
  0
CIRCLE
  5
1DF
100
AcDbEntity
  8
0
100
AcDbCircle
 10
401.104305
 20
472.777995
 30
0.0
 40
1.25
  0
CIRCLE
  5
1E0
100
AcDbEntity
  8
0
100
AcDbCircle
 10
401.104305
 20
470.277995
 30
0.0
 40
1.25
  0
CIRCLE
  5
1E1
100
AcDbEntity
  8
0
100
AcDbCircle
 10
401.104305
 20
467.777995
 30
0.0
 40
1.25
  0
CIRCLE
  5
1E2
100
AcDbEntity
  8
0
100
AcDbCircle
 10
401.104305
 20
465.277995
 30
0.0
 40
1.25
  0
CIRCLE
  5
1E3
100
AcDbEntity
  8
0
100
AcDbCircle
 10
401.104305
 20
462.777995
 30
0.0
 40
1.25
  0
CIRCLE
  5
1E4
100
AcDbEntity
  8
0
100
AcDbCircle
 10
401.104305
 20
460.277995
 30
0.0
 40
1.25
  0
CIRCLE
  5
1E5
100
AcDbEntity
  8
0
100
AcDbCircle
 10
401.104305
 20
457.777995
 30
0.0
 40
1.25
  0
CIRCLE
  5
1E6
100
AcDbEntity
  8
0
100
AcDbCircle
 10
401.104305
 20
455.277995
 30
0.0
 40
1.25
  0
CIRCLE
  5
1E7
100
AcDbEntity
  8
0
100
AcDbCircle
 10
401.104305
 20
452.777995
 30
0.0
 40
1.25
  0
CIRCLE
  5
1E8
100
AcDbEntity
  8
0
100
AcDbCircle
 10
401.104305
 20
450.277995
 30
0.0
 40
1.25
  0
CIRCLE
  5
1E9
100
AcDbEntity
  8
0
100
AcDbCircle
 10
401.104305
 20
447.777995
 30
0.0
 40
1.25
  0
CIRCLE
  5
1EA
100
AcDbEntity
  8
0
100
AcDbCircle
 10
401.104305
 20
445.277995
 30
0.0
 40
1.25
  0
CIRCLE
  5
1EB
100
AcDbEntity
  8
0
100
AcDbCircle
 10
401.104305
 20
442.777995
 30
0.0
 40
1.25
  0
CIRCLE
  5
1EC
100
AcDbEntity
  8
0
100
AcDbCircle
 10
401.104305
 20
440.277995
 30
0.0
 40
1.25
  0
CIRCLE
  5
1ED
100
AcDbEntity
  8
0
100
AcDbCircle
 10
401.104305
 20
437.777995
 30
0.0
 40
1.25
  0
CIRCLE
  5
1EE
100
AcDbEntity
  8
0
100
AcDbCircle
 10
401.104305
 20
435.277995
 30
0.0
 40
1.25
  0
CIRCLE
  5
1EF
100
AcDbEntity
  8
0
100
AcDbCircle
 10
401.104305
 20
427.777995
 30
0.0
 40
1.25
  0
CIRCLE
  5
1F0
100
AcDbEntity
  8
0
100
AcDbCircle
 10
401.104305
 20
430.277995
 30
0.0
 40
1.25
  0
CIRCLE
  5
1F1
100
AcDbEntity
  8
0
100
AcDbCircle
 10
401.104305
 20
432.777995
 30
0.0
 40
1.25
  0
CIRCLE
  5
1F2
100
AcDbEntity
  8
0
100
AcDbCircle
 10
407.760393
 20
478.179339
 30
0.0
 40
1.25
  0
CIRCLE
  5
1F3
100
AcDbEntity
  8
0
100
AcDbCircle
 10
407.760393
 20
475.679339
 30
0.0
 40
1.25
  0
CIRCLE
  5
1F4
100
AcDbEntity
  8
0
100
AcDbCircle
 10
407.760393
 20
473.179339
 30
0.0
 40
1.25
  0
CIRCLE
  5
1F5
100
AcDbEntity
  8
0
100
AcDbCircle
 10
407.760393
 20
470.679339
 30
0.0
 40
1.25
  0
CIRCLE
  5
1F6
100
AcDbEntity
  8
0
100
AcDbCircle
 10
407.760393
 20
468.179339
 30
0.0
 40
1.25
  0
CIRCLE
  5
1F7
100
AcDbEntity
  8
0
100
AcDbCircle
 10
407.760393
 20
465.679339
 30
0.0
 40
1.25
  0
CIRCLE
  5
1F8
100
AcDbEntity
  8
0
100
AcDbCircle
 10
407.760393
 20
463.179339
 30
0.0
 40
1.25
  0
CIRCLE
  5
1F9
100
AcDbEntity
  8
0
100
AcDbCircle
 10
407.760393
 20
460.679339
 30
0.0
 40
1.25
  0
CIRCLE
  5
1FA
100
AcDbEntity
  8
0
100
AcDbCircle
 10
407.760393
 20
458.179339
 30
0.0
 40
1.25
  0
CIRCLE
  5
1FB
100
AcDbEntity
  8
0
100
AcDbCircle
 10
407.760393
 20
455.679339
 30
0.0
 40
1.25
  0
CIRCLE
  5
1FC
100
AcDbEntity
  8
0
100
AcDbCircle
 10
407.760393
 20
453.179339
 30
0.0
 40
1.25
  0
CIRCLE
  5
1FD
100
AcDbEntity
  8
0
100
AcDbCircle
 10
407.760393
 20
450.679339
 30
0.0
 40
1.25
  0
CIRCLE
  5
1FE
100
AcDbEntity
  8
0
100
AcDbCircle
 10
407.760393
 20
448.179339
 30
0.0
 40
1.25
  0
CIRCLE
  5
1FF
100
AcDbEntity
  8
0
100
AcDbCircle
 10
407.760393
 20
445.679339
 30
0.0
 40
1.25
  0
CIRCLE
  5
200
100
AcDbEntity
  8
0
100
AcDbCircle
 10
407.760393
 20
443.179339
 30
0.0
 40
1.25
  0
CIRCLE
  5
201
100
AcDbEntity
  8
0
100
AcDbCircle
 10
407.760393
 20
440.679339
 30
0.0
 40
1.25
  0
CIRCLE
  5
202
100
AcDbEntity
  8
0
100
AcDbCircle
 10
407.760393
 20
438.179339
 30
0.0
 40
1.25
  0
CIRCLE
  5
203
100
AcDbEntity
  8
0
100
AcDbCircle
 10
407.760393
 20
435.679339
 30
0.0
 40
1.25
  0
CIRCLE
  5
204
100
AcDbEntity
  8
0
100
AcDbCircle
 10
407.760393
 20
433.179339
 30
0.0
 40
1.25
  0
CIRCLE
  5
205
100
AcDbEntity
  8
0
100
AcDbCircle
 10
414.208242
 20
475.508552
 30
0.0
 40
1.25
  0
CIRCLE
  5
206
100
AcDbEntity
  8
0
100
AcDbCircle
 10
414.208242
 20
473.008552
 30
0.0
 40
1.25
  0
CIRCLE
  5
207
100
AcDbEntity
  8
0
100
AcDbCircle
 10
414.208242
 20
470.508552
 30
0.0
 40
1.25
  0
CIRCLE
  5
208
100
AcDbEntity
  8
0
100
AcDbCircle
 10
414.208242
 20
468.008552
 30
0.0
 40
1.25
  0
CIRCLE
  5
209
100
AcDbEntity
  8
0
100
AcDbCircle
 10
414.208242
 20
465.508552
 30
0.0
 40
1.25
  0
CIRCLE
  5
20A
100
AcDbEntity
  8
0
100
AcDbCircle
 10
414.208242
 20
463.008552
 30
0.0
 40
1.25
  0
CIRCLE
  5
20B
100
AcDbEntity
  8
0
100
AcDbCircle
 10
414.208242
 20
460.508552
 30
0.0
 40
1.25
  0
CIRCLE
  5
20C
100
AcDbEntity
  8
0
100
AcDbCircle
 10
414.208242
 20
458.008552
 30
0.0
 40
1.25
  0
CIRCLE
  5
20D
100
AcDbEntity
  8
0
100
AcDbCircle
 10
414.208242
 20
455.508552
 30
0.0
 40
1.25
  0
CIRCLE
  5
20E
100
AcDbEntity
  8
0
100
AcDbCircle
 10
414.208242
 20
453.008552
 30
0.0
 40
1.25
  0
CIRCLE
  5
20F
100
AcDbEntity
  8
0
100
AcDbCircle
 10
414.208242
 20
450.508552
 30
0.0
 40
1.25
  0
CIRCLE
  5
210
100
AcDbEntity
  8
0
100
AcDbCircle
 10
414.208242
 20
448.008552
 30
0.0
 40
1.25
  0
CIRCLE
  5
211
100
AcDbEntity
  8
0
100
AcDbCircle
 10
414.208242
 20
445.508552
 30
0.0
 40
1.25
  0
CIRCLE
  5
212
100
AcDbEntity
  8
0
100
AcDbCircle
 10
414.208242
 20
443.008552
 30
0.0
 40
1.25
  0
CIRCLE
  5
213
100
AcDbEntity
  8
0
100
AcDbCircle
 10
414.208242
 20
440.508552
 30
0.0
 40
1.25
  0
CIRCLE
  5
214
100
AcDbEntity
  8
0
100
AcDbCircle
 10
420.398781
 20
472.285961
 30
0.0
 40
1.25
  0
CIRCLE
  5
215
100
AcDbEntity
  8
0
100
AcDbCircle
 10
420.398781
 20
469.785961
 30
0.0
 40
1.25
  0
CIRCLE
  5
216
100
AcDbEntity
  8
0
100
AcDbCircle
 10
420.398781
 20
467.285961
 30
0.0
 40
1.25
  0
CIRCLE
  5
217
100
AcDbEntity
  8
0
100
AcDbCircle
 10
420.398781
 20
464.785961
 30
0.0
 40
1.25
  0
CIRCLE
  5
218
100
AcDbEntity
  8
0
100
AcDbCircle
 10
420.398781
 20
462.285961
 30
0.0
 40
1.25
  0
CIRCLE
  5
219
100
AcDbEntity
  8
0
100
AcDbCircle
 10
420.398781
 20
459.785961
 30
0.0
 40
1.25
  0
CIRCLE
  5
21A
100
AcDbEntity
  8
0
100
AcDbCircle
 10
420.398781
 20
457.285961
 30
0.0
 40
1.25
  0
CIRCLE
  5
21B
100
AcDbEntity
  8
0
100
AcDbCircle
 10
420.398781
 20
454.785961
 30
0.0
 40
1.25
  0
CIRCLE
  5
21C
100
AcDbEntity
  8
0
100
AcDbCircle
 10
420.398781
 20
452.285961
 30
0.0
 40
1.25
  0
CIRCLE
  5
21D
100
AcDbEntity
  8
0
100
AcDbCircle
 10
420.398781
 20
449.785961
 30
0.0
 40
1.25
  0
CIRCLE
  5
21E
100
AcDbEntity
  8
0
100
AcDbCircle
 10
420.398781
 20
447.285961
 30
0.0
 40
1.25
  0
CIRCLE
  5
21F
100
AcDbEntity
  8
0
100
AcDbCircle
 10
334.512667
 20
453.536093
 30
0.0
 40
1.25
  0
CIRCLE
  5
220
100
AcDbEntity
  8
0
100
AcDbCircle
 10
334.512667
 20
456.036093
 30
0.0
 40
1.25
  0
CIRCLE
  5
221
100
AcDbEntity
  8
0
100
AcDbCircle
 10
334.512667
 20
458.536093
 30
0.0
 40
1.25
  0
CIRCLE
  5
222
100
AcDbEntity
  8
0
100
AcDbCircle
 10
334.512667
 20
461.036093
 30
0.0
 40
1.25
  0
CIRCLE
  5
223
100
AcDbEntity
  8
0
100
AcDbCircle
 10
334.512667
 20
463.536093
 30
0.0
 40
1.25
  0
CIRCLE
  5
224
100
AcDbEntity
  8
0
100
AcDbCircle
 10
334.512667
 20
466.036093
 30
0.0
 40
1.25
  0
CIRCLE
  5
225
100
AcDbEntity
  8
0
100
AcDbCircle
 10
334.512667
 20
468.536093
 30
0.0
 40
1.25
  0
CIRCLE
  5
226
100
AcDbEntity
  8
0
100
AcDbCircle
 10
340.398781
 20
447.285961
 30
0.0
 40
1.25
  0
CIRCLE
  5
227
100
AcDbEntity
  8
0
100
AcDbCircle
 10
340.398781
 20
449.785961
 30
0.0
 40
1.25
  0
CIRCLE
  5
228
100
AcDbEntity
  8
0
100
AcDbCircle
 10
340.398781
 20
452.285961
 30
0.0
 40
1.25
  0
CIRCLE
  5
229
100
AcDbEntity
  8
0
100
AcDbCircle
 10
340.398781
 20
454.785961
 30
0.0
 40
1.25
  0
CIRCLE
  5
22A
100
AcDbEntity
  8
0
100
AcDbCircle
 10
340.398781
 20
457.285961
 30
0.0
 40
1.25
  0
CIRCLE
  5
22B
100
AcDbEntity
  8
0
100
AcDbCircle
 10
340.398781
 20
459.785961
 30
0.0
 40
1.25
  0
CIRCLE
  5
22C
100
AcDbEntity
  8
0
100
AcDbCircle
 10
340.398781
 20
462.285961
 30
0.0
 40
1.25
  0
CIRCLE
  5
22D
100
AcDbEntity
  8
0
100
AcDbCircle
 10
340.398781
 20
464.785961
 30
0.0
 40
1.25
  0
CIRCLE
  5
22E
100
AcDbEntity
  8
0
100
AcDbCircle
 10
340.398781
 20
467.285961
 30
0.0
 40
1.25
  0
CIRCLE
  5
22F
100
AcDbEntity
  8
0
100
AcDbCircle
 10
340.398781
 20
469.785961
 30
0.0
 40
1.25
  0
CIRCLE
  5
230
100
AcDbEntity
  8
0
100
AcDbCircle
 10
340.398781
 20
472.285961
 30
0.0
 40
1.25
  0
CIRCLE
  5
231
100
AcDbEntity
  8
0
100
AcDbCircle
 10
346.589321
 20
440.508552
 30
0.0
 40
1.25
  0
CIRCLE
  5
232
100
AcDbEntity
  8
0
100
AcDbCircle
 10
346.589321
 20
443.008552
 30
0.0
 40
1.25
  0
CIRCLE
  5
233
100
AcDbEntity
  8
0
100
AcDbCircle
 10
346.589321
 20
445.508552
 30
0.0
 40
1.25
  0
CIRCLE
  5
234
100
AcDbEntity
  8
0
100
AcDbCircle
 10
346.589321
 20
448.008552
 30
0.0
 40
1.25
  0
CIRCLE
  5
235
100
AcDbEntity
  8
0
100
AcDbCircle
 10
346.589321
 20
450.508552
 30
0.0
 40
1.25
  0
CIRCLE
  5
236
100
AcDbEntity
  8
0
100
AcDbCircle
 10
346.589321
 20
453.008552
 30
0.0
 40
1.25
  0
CIRCLE
  5
237
100
AcDbEntity
  8
0
100
AcDbCircle
 10
346.589321
 20
455.508552
 30
0.0
 40
1.25
  0
CIRCLE
  5
238
100
AcDbEntity
  8
0
100
AcDbCircle
 10
346.589321
 20
458.008552
 30
0.0
 40
1.25
  0
CIRCLE
  5
239
100
AcDbEntity
  8
0
100
AcDbCircle
 10
346.589321
 20
460.508552
 30
0.0
 40
1.25
  0
CIRCLE
  5
23A
100
AcDbEntity
  8
0
100
AcDbCircle
 10
346.589321
 20
463.008552
 30
0.0
 40
1.25
  0
CIRCLE
  5
23B
100
AcDbEntity
  8
0
100
AcDbCircle
 10
346.589321
 20
465.508552
 30
0.0
 40
1.25
  0
CIRCLE
  5
23C
100
AcDbEntity
  8
0
100
AcDbCircle
 10
346.589321
 20
468.008552
 30
0.0
 40
1.25
  0
CIRCLE
  5
23D
100
AcDbEntity
  8
0
100
AcDbCircle
 10
346.589321
 20
470.508552
 30
0.0
 40
1.25
  0
CIRCLE
  5
23E
100
AcDbEntity
  8
0
100
AcDbCircle
 10
346.589321
 20
473.008552
 30
0.0
 40
1.25
  0
CIRCLE
  5
23F
100
AcDbEntity
  8
0
100
AcDbCircle
 10
346.589321
 20
475.508552
 30
0.0
 40
1.25
  0
CIRCLE
  5
240
100
AcDbEntity
  8
0
100
AcDbCircle
 10
353.03717
 20
433.179339
 30
0.0
 40
1.25
  0
CIRCLE
  5
241
100
AcDbEntity
  8
0
100
AcDbCircle
 10
353.03717
 20
435.679339
 30
0.0
 40
1.25
  0
CIRCLE
  5
242
100
AcDbEntity
  8
0
100
AcDbCircle
 10
353.03717
 20
438.179339
 30
0.0
 40
1.25
  0
CIRCLE
  5
243
100
AcDbEntity
  8
0
100
AcDbCircle
 10
353.03717
 20
440.679339
 30
0.0
 40
1.25
  0
CIRCLE
  5
244
100
AcDbEntity
  8
0
100
AcDbCircle
 10
353.03717
 20
443.179339
 30
0.0
 40
1.25
  0
CIRCLE
  5
245
100
AcDbEntity
  8
0
100
AcDbCircle
 10
353.03717
 20
445.679339
 30
0.0
 40
1.25
  0
CIRCLE
  5
246
100
AcDbEntity
  8
0
100
AcDbCircle
 10
353.03717
 20
448.179339
 30
0.0
 40
1.25
  0
CIRCLE
  5
247
100
AcDbEntity
  8
0
100
AcDbCircle
 10
353.03717
 20
450.679339
 30
0.0
 40
1.25
  0
CIRCLE
  5
248
100
AcDbEntity
  8
0
100
AcDbCircle
 10
353.03717
 20
453.179339
 30
0.0
 40
1.25
  0
CIRCLE
  5
249
100
AcDbEntity
  8
0
100
AcDbCircle
 10
353.03717
 20
455.679339
 30
0.0
 40
1.25
  0
CIRCLE
  5
24A
100
AcDbEntity
  8
0
100
AcDbCircle
 10
353.03717
 20
458.179339
 30
0.0
 40
1.25
  0
CIRCLE
  5
24B
100
AcDbEntity
  8
0
100
AcDbCircle
 10
353.03717
 20
460.679339
 30
0.0
 40
1.25
  0
CIRCLE
  5
24C
100
AcDbEntity
  8
0
100
AcDbCircle
 10
353.03717
 20
463.179339
 30
0.0
 40
1.25
  0
CIRCLE
  5
24D
100
AcDbEntity
  8
0
100
AcDbCircle
 10
353.03717
 20
465.679339
 30
0.0
 40
1.25
  0
CIRCLE
  5
24E
100
AcDbEntity
  8
0
100
AcDbCircle
 10
353.03717
 20
468.179339
 30
0.0
 40
1.25
  0
CIRCLE
  5
24F
100
AcDbEntity
  8
0
100
AcDbCircle
 10
353.03717
 20
470.679339
 30
0.0
 40
1.25
  0
CIRCLE
  5
250
100
AcDbEntity
  8
0
100
AcDbCircle
 10
353.03717
 20
473.179339
 30
0.0
 40
1.25
  0
CIRCLE
  5
251
100
AcDbEntity
  8
0
100
AcDbCircle
 10
353.03717
 20
475.679339
 30
0.0
 40
1.25
  0
CIRCLE
  5
252
100
AcDbEntity
  8
0
100
AcDbCircle
 10
353.03717
 20
478.179339
 30
0.0
 40
1.25
  0
CIRCLE
  5
253
100
AcDbEntity
  8
0
100
AcDbCircle
 10
359.693258
 20
432.777995
 30
0.0
 40
1.25
  0
CIRCLE
  5
254
100
AcDbEntity
  8
0
100
AcDbCircle
 10
359.693258
 20
430.277995
 30
0.0
 40
1.25
  0
CIRCLE
  5
255
100
AcDbEntity
  8
0
100
AcDbCircle
 10
359.693258
 20
427.777995
 30
0.0
 40
1.25
  0
CIRCLE
  5
256
100
AcDbEntity
  8
0
100
AcDbCircle
 10
359.693258
 20
435.277995
 30
0.0
 40
1.25
  0
CIRCLE
  5
257
100
AcDbEntity
  8
0
100
AcDbCircle
 10
359.693258
 20
437.777995
 30
0.0
 40
1.25
  0
CIRCLE
  5
258
100
AcDbEntity
  8
0
100
AcDbCircle
 10
359.693258
 20
440.277995
 30
0.0
 40
1.25
  0
CIRCLE
  5
259
100
AcDbEntity
  8
0
100
AcDbCircle
 10
359.693258
 20
442.777995
 30
0.0
 40
1.25
  0
CIRCLE
  5
25A
100
AcDbEntity
  8
0
100
AcDbCircle
 10
359.693258
 20
445.277995
 30
0.0
 40
1.25
  0
CIRCLE
  5
25B
100
AcDbEntity
  8
0
100
AcDbCircle
 10
359.693258
 20
447.777995
 30
0.0
 40
1.25
  0
CIRCLE
  5
25C
100
AcDbEntity
  8
0
100
AcDbCircle
 10
359.693258
 20
450.277995
 30
0.0
 40
1.25
  0
CIRCLE
  5
25D
100
AcDbEntity
  8
0
100
AcDbCircle
 10
359.693258
 20
452.777995
 30
0.0
 40
1.25
  0
CIRCLE
  5
25E
100
AcDbEntity
  8
0
100
AcDbCircle
 10
359.693258
 20
455.277995
 30
0.0
 40
1.25
  0
CIRCLE
  5
25F
100
AcDbEntity
  8
0
100
AcDbCircle
 10
359.693258
 20
457.777995
 30
0.0
 40
1.25
  0
CIRCLE
  5
260
100
AcDbEntity
  8
0
100
AcDbCircle
 10
359.693258
 20
460.277995
 30
0.0
 40
1.25
  0
CIRCLE
  5
261
100
AcDbEntity
  8
0
100
AcDbCircle
 10
359.693258
 20
462.777995
 30
0.0
 40
1.25
  0
CIRCLE
  5
262
100
AcDbEntity
  8
0
100
AcDbCircle
 10
359.693258
 20
465.277995
 30
0.0
 40
1.25
  0
CIRCLE
  5
263
100
AcDbEntity
  8
0
100
AcDbCircle
 10
359.693258
 20
467.777995
 30
0.0
 40
1.25
  0
CIRCLE
  5
264
100
AcDbEntity
  8
0
100
AcDbCircle
 10
359.693258
 20
470.277995
 30
0.0
 40
1.25
  0
CIRCLE
  5
265
100
AcDbEntity
  8
0
100
AcDbCircle
 10
359.693258
 20
472.777995
 30
0.0
 40
1.25
  0
CIRCLE
  5
266
100
AcDbEntity
  8
0
100
AcDbCircle
 10
359.693258
 20
475.277995
 30
0.0
 40
1.25
  0
CIRCLE
  5
267
100
AcDbEntity
  8
0
100
AcDbCircle
 10
359.693258
 20
477.777995
 30
0.0
 40
1.25
  0
CIRCLE
  5
268
100
AcDbEntity
  8
0
100
AcDbCircle
 10
359.693258
 20
480.277995
 30
0.0
 40
1.25
  0
CIRCLE
  5
269
100
AcDbEntity
  8
0
100
AcDbCircle
 10
366.506927
 20
421.788549
 30
0.0
 40
1.25
  0
CIRCLE
  5
26A
100
AcDbEntity
  8
0
100
AcDbCircle
 10
366.506927
 20
424.288549
 30
0.0
 40
1.25
  0
CIRCLE
  5
26B
100
AcDbEntity
  8
0
100
AcDbCircle
 10
366.506927
 20
426.788549
 30
0.0
 40
1.25
  0
CIRCLE
  5
26C
100
AcDbEntity
  8
0
100
AcDbCircle
 10
366.506927
 20
429.288549
 30
0.0
 40
1.25
  0
CIRCLE
  5
26D
100
AcDbEntity
  8
0
100
AcDbCircle
 10
366.506927
 20
431.788549
 30
0.0
 40
1.25
  0
CIRCLE
  5
26E
100
AcDbEntity
  8
0
100
AcDbCircle
 10
366.506927
 20
434.288549
 30
0.0
 40
1.25
  0
CIRCLE
  5
26F
100
AcDbEntity
  8
0
100
AcDbCircle
 10
366.506927
 20
436.788549
 30
0.0
 40
1.25
  0
CIRCLE
  5
270
100
AcDbEntity
  8
0
100
AcDbCircle
 10
366.506927
 20
439.288549
 30
0.0
 40
1.25
  0
CIRCLE
  5
271
100
AcDbEntity
  8
0
100
AcDbCircle
 10
366.506927
 20
441.788549
 30
0.0
 40
1.25
  0
CIRCLE
  5
272
100
AcDbEntity
  8
0
100
AcDbCircle
 10
366.506927
 20
444.288549
 30
0.0
 40
1.25
  0
CIRCLE
  5
273
100
AcDbEntity
  8
0
100
AcDbCircle
 10
366.506927
 20
446.788549
 30
0.0
 40
1.25
  0
CIRCLE
  5
274
100
AcDbEntity
  8
0
100
AcDbCircle
 10
366.506927
 20
449.288549
 30
0.0
 40
1.25
  0
CIRCLE
  5
275
100
AcDbEntity
  8
0
100
AcDbCircle
 10
366.506927
 20
451.788549
 30
0.0
 40
1.25
  0
CIRCLE
  5
276
100
AcDbEntity
  8
0
100
AcDbCircle
 10
366.506927
 20
454.288549
 30
0.0
 40
1.25
  0
CIRCLE
  5
277
100
AcDbEntity
  8
0
100
AcDbCircle
 10
366.506927
 20
456.788549
 30
0.0
 40
1.25
  0
CIRCLE
  5
278
100
AcDbEntity
  8
0
100
AcDbCircle
 10
366.506927
 20
459.288549
 30
0.0
 40
1.25
  0
CIRCLE
  5
279
100
AcDbEntity
  8
0
100
AcDbCircle
 10
366.506927
 20
461.788549
 30
0.0
 40
1.25
  0
CIRCLE
  5
27A
100
AcDbEntity
  8
0
100
AcDbCircle
 10
366.506927
 20
464.288549
 30
0.0
 40
1.25
  0
CIRCLE
  5
27B
100
AcDbEntity
  8
0
100
AcDbCircle
 10
366.506927
 20
466.788549
 30
0.0
 40
1.25
  0
CIRCLE
  5
27C
100
AcDbEntity
  8
0
100
AcDbCircle
 10
366.506927
 20
469.288549
 30
0.0
 40
1.25
  0
CIRCLE
  5
27D
100
AcDbEntity
  8
0
100
AcDbCircle
 10
366.506927
 20
471.788549
 30
0.0
 40
1.25
  0
CIRCLE
  5
27E
100
AcDbEntity
  8
0
100
AcDbCircle
 10
366.506927
 20
474.288549
 30
0.0
 40
1.25
  0
CIRCLE
  5
27F
100
AcDbEntity
  8
0
100
AcDbCircle
 10
366.506927
 20
476.788549
 30
0.0
 40
1.25
  0
CIRCLE
  5
280
100
AcDbEntity
  8
0
100
AcDbCircle
 10
366.506927
 20
479.288549
 30
0.0
 40
1.25
  0
CIRCLE
  5
281
100
AcDbEntity
  8
0
100
AcDbCircle
 10
366.506927
 20
481.788549
 30
0.0
 40
1.25
  0
CIRCLE
  5
282
100
AcDbEntity
  8
0
100
AcDbCircle
 10
373.426322
 20
415.199505
 30
0.0
 40
1.25
  0
CIRCLE
  5
283
100
AcDbEntity
  8
0
100
AcDbCircle
 10
373.426322
 20
417.699505
 30
0.0
 40
1.25
  0
CIRCLE
  5
284
100
AcDbEntity
  8
0
100
AcDbCircle
 10
373.426322
 20
420.199505
 30
0.0
 40
1.25
  0
CIRCLE
  5
285
100
AcDbEntity
  8
0
100
AcDbCircle
 10
373.426322
 20
422.699505
 30
0.0
 40
1.25
  0
CIRCLE
  5
286
100
AcDbEntity
  8
0
100
AcDbCircle
 10
373.426322
 20
425.199505
 30
0.0
 40
1.25
  0
CIRCLE
  5
287
100
AcDbEntity
  8
0
100
AcDbCircle
 10
373.426322
 20
427.699505
 30
0.0
 40
1.25
  0
CIRCLE
  5
288
100
AcDbEntity
  8
0
100
AcDbCircle
 10
373.426322
 20
430.199505
 30
0.0
 40
1.25
  0
CIRCLE
  5
289
100
AcDbEntity
  8
0
100
AcDbCircle
 10
373.426322
 20
432.699505
 30
0.0
 40
1.25
  0
CIRCLE
  5
28A
100
AcDbEntity
  8
0
100
AcDbCircle
 10
373.426322
 20
435.199505
 30
0.0
 40
1.25
  0
CIRCLE
  5
28B
100
AcDbEntity
  8
0
100
AcDbCircle
 10
373.426322
 20
437.699505
 30
0.0
 40
1.25
  0
CIRCLE
  5
28C
100
AcDbEntity
  8
0
100
AcDbCircle
 10
373.426322
 20
440.199505
 30
0.0
 40
1.25
  0
CIRCLE
  5
28D
100
AcDbEntity
  8
0
100
AcDbCircle
 10
373.426322
 20
442.699505
 30
0.0
 40
1.25
  0
CIRCLE
  5
28E
100
AcDbEntity
  8
0
100
AcDbCircle
 10
373.426322
 20
445.199505
 30
0.0
 40
1.25
  0
CIRCLE
  5
28F
100
AcDbEntity
  8
0
100
AcDbCircle
 10
373.426322
 20
447.699505
 30
0.0
 40
1.25
  0
CIRCLE
  5
290
100
AcDbEntity
  8
0
100
AcDbCircle
 10
373.426322
 20
450.199505
 30
0.0
 40
1.25
  0
CIRCLE
  5
291
100
AcDbEntity
  8
0
100
AcDbCircle
 10
373.426322
 20
452.699505
 30
0.0
 40
1.25
  0
CIRCLE
  5
292
100
AcDbEntity
  8
0
100
AcDbCircle
 10
373.426322
 20
455.199505
 30
0.0
 40
1.25
  0
CIRCLE
  5
293
100
AcDbEntity
  8
0
100
AcDbCircle
 10
373.426322
 20
457.699505
 30
0.0
 40
1.25
  0
CIRCLE
  5
294
100
AcDbEntity
  8
0
100
AcDbCircle
 10
373.426322
 20
460.199505
 30
0.0
 40
1.25
  0
CIRCLE
  5
295
100
AcDbEntity
  8
0
100
AcDbCircle
 10
373.426322
 20
462.699505
 30
0.0
 40
1.25
  0
CIRCLE
  5
296
100
AcDbEntity
  8
0
100
AcDbCircle
 10
373.426322
 20
465.199505
 30
0.0
 40
1.25
  0
CIRCLE
  5
297
100
AcDbEntity
  8
0
100
AcDbCircle
 10
373.426322
 20
467.699505
 30
0.0
 40
1.25
  0
CIRCLE
  5
298
100
AcDbEntity
  8
0
100
AcDbCircle
 10
373.426322
 20
470.199505
 30
0.0
 40
1.25
  0
CIRCLE
  5
299
100
AcDbEntity
  8
0
100
AcDbCircle
 10
373.426322
 20
472.699505
 30
0.0
 40
1.25
  0
CIRCLE
  5
29A
100
AcDbEntity
  8
0
100
AcDbCircle
 10
373.426322
 20
475.199505
 30
0.0
 40
1.25
  0
CIRCLE
  5
29B
100
AcDbEntity
  8
0
100
AcDbCircle
 10
373.426322
 20
477.699505
 30
0.0
 40
1.25
  0
CIRCLE
  5
29C
100
AcDbEntity
  8
0
100
AcDbCircle
 10
373.426322
 20
480.199505
 30
0.0
 40
1.25
  0
CIRCLE
  5
29D
100
AcDbEntity
  8
0
100
AcDbCircle
 10
373.426322
 20
482.699505
 30
0.0
 40
1.25
  0
CIRCLE
  5
29E
100
AcDbEntity
  8
0
100
AcDbCircle
 10
380.398781
 20
410.503929
 30
0.0
 40
1.25
  0
CIRCLE
  5
29F
100
AcDbEntity
  8
0
100
AcDbCircle
 10
380.398781
 20
408.003929
 30
0.0
 40
1.25
  0
CIRCLE
  5
2A0
100
AcDbEntity
  8
0
100
AcDbCircle
 10
380.398781
 20
413.003929
 30
0.0
 40
1.25
  0
CIRCLE
  5
2A1
100
AcDbEntity
  8
0
100
AcDbCircle
 10
380.398781
 20
415.503929
 30
0.0
 40
1.25
  0
CIRCLE
  5
2A2
100
AcDbEntity
  8
0
100
AcDbCircle
 10
380.398781
 20
418.003929
 30
0.0
 40
1.25
  0
CIRCLE
  5
2A3
100
AcDbEntity
  8
0
100
AcDbCircle
 10
380.398781
 20
420.503929
 30
0.0
 40
1.25
  0
CIRCLE
  5
2A4
100
AcDbEntity
  8
0
100
AcDbCircle
 10
380.398781
 20
423.003929
 30
0.0
 40
1.25
  0
CIRCLE
  5
2A5
100
AcDbEntity
  8
0
100
AcDbCircle
 10
380.398781
 20
425.503929
 30
0.0
 40
1.25
  0
CIRCLE
  5
2A6
100
AcDbEntity
  8
0
100
AcDbCircle
 10
380.398781
 20
428.003929
 30
0.0
 40
1.25
  0
CIRCLE
  5
2A7
100
AcDbEntity
  8
0
100
AcDbCircle
 10
380.398781
 20
430.503929
 30
0.0
 40
1.25
  0
CIRCLE
  5
2A8
100
AcDbEntity
  8
0
100
AcDbCircle
 10
380.398781
 20
433.003929
 30
0.0
 40
1.25
  0
CIRCLE
  5
2A9
100
AcDbEntity
  8
0
100
AcDbCircle
 10
380.398781
 20
435.503929
 30
0.0
 40
1.25
  0
CIRCLE
  5
2AA
100
AcDbEntity
  8
0
100
AcDbCircle
 10
380.398781
 20
438.003929
 30
0.0
 40
1.25
  0
CIRCLE
  5
2AB
100
AcDbEntity
  8
0
100
AcDbCircle
 10
380.398781
 20
440.503929
 30
0.0
 40
1.25
  0
CIRCLE
  5
2AC
100
AcDbEntity
  8
0
100
AcDbCircle
 10
380.398781
 20
443.003929
 30
0.0
 40
1.25
  0
CIRCLE
  5
2AD
100
AcDbEntity
  8
0
100
AcDbCircle
 10
380.398781
 20
445.503929
 30
0.0
 40
1.25
  0
CIRCLE
  5
2AE
100
AcDbEntity
  8
0
100
AcDbCircle
 10
380.398781
 20
448.003929
 30
0.0
 40
1.25
  0
CIRCLE
  5
2AF
100
AcDbEntity
  8
0
100
AcDbCircle
 10
380.398781
 20
450.503929
 30
0.0
 40
1.25
  0
CIRCLE
  5
2B0
100
AcDbEntity
  8
0
100
AcDbCircle
 10
380.398781
 20
453.003929
 30
0.0
 40
1.25
  0
CIRCLE
  5
2B1
100
AcDbEntity
  8
0
100
AcDbCircle
 10
380.398781
 20
455.503929
 30
0.0
 40
1.25
  0
CIRCLE
  5
2B2
100
AcDbEntity
  8
0
100
AcDbCircle
 10
380.398781
 20
458.003929
 30
0.0
 40
1.25
  0
CIRCLE
  5
2B3
100
AcDbEntity
  8
0
100
AcDbCircle
 10
380.398781
 20
460.503929
 30
0.0
 40
1.25
  0
CIRCLE
  5
2B4
100
AcDbEntity
  8
0
100
AcDbCircle
 10
380.398781
 20
463.003929
 30
0.0
 40
1.25
  0
CIRCLE
  5
2B5
100
AcDbEntity
  8
0
100
AcDbCircle
 10
380.398781
 20
465.503929
 30
0.0
 40
1.25
  0
CIRCLE
  5
2B6
100
AcDbEntity
  8
0
100
AcDbCircle
 10
380.398781
 20
468.003929
 30
0.0
 40
1.25
  0
CIRCLE
  5
2B7
100
AcDbEntity
  8
0
100
AcDbCircle
 10
380.398781
 20
470.503929
 30
0.0
 40
1.25
  0
CIRCLE
  5
2B8
100
AcDbEntity
  8
0
100
AcDbCircle
 10
380.398781
 20
473.003929
 30
0.0
 40
1.25
  0
CIRCLE
  5
2B9
100
AcDbEntity
  8
0
100
AcDbCircle
 10
380.398781
 20
475.503929
 30
0.0
 40
1.25
  0
CIRCLE
  5
2BA
100
AcDbEntity
  8
0
100
AcDbCircle
 10
380.398781
 20
478.003929
 30
0.0
 40
1.25
  0
CIRCLE
  5
2BB
100
AcDbEntity
  8
0
100
AcDbCircle
 10
380.398781
 20
480.503929
 30
0.0
 40
1.25
  0
CIRCLE
  5
2BC
100
AcDbEntity
  8
0
100
AcDbCircle
 10
380.398781
 20
483.003929
 30
0.0
 40
1.25
  0
CIRCLE
  5
2BD
100
AcDbEntity
  8
0
100
AcDbCircle
 10
328.975773
 20
459.287485
 30
0.0
 40
1.25
  0
CIRCLE
  5
2BE
100
AcDbEntity
  8
0
100
AcDbCircle
 10
328.975773
 20
461.787485
 30
0.0
 40
1.25
  0
CIRCLE
  5
2BF
100
AcDbEntity
  8
0
100
AcDbCircle
 10
328.975773
 20
464.287485
 30
0.0
 40
1.25
  0
CIRCLE
  5
2C0
100
AcDbEntity
  8
0
100
AcDbCircle
 10
426.284896
 20
468.536093
 30
0.0
 40
1.25
  0
CIRCLE
  5
2C1
100
AcDbEntity
  8
0
100
AcDbCircle
 10
426.284896
 20
466.036093
 30
0.0
 40
1.25
  0
CIRCLE
  5
2C2
100
AcDbEntity
  8
0
100
AcDbCircle
 10
426.284896
 20
463.536093
 30
0.0
 40
1.25
  0
CIRCLE
  5
2C3
100
AcDbEntity
  8
0
100
AcDbCircle
 10
426.284896
 20
461.036093
 30
0.0
 40
1.25
  0
CIRCLE
  5
2C4
100
AcDbEntity
  8
0
100
AcDbCircle
 10
426.284896
 20
458.536093
 30
0.0
 40
1.25
  0
CIRCLE
  5
2C5
100
AcDbEntity
  8
0
100
AcDbCircle
 10
426.284896
 20
456.036093
 30
0.0
 40
1.25
  0
CIRCLE
  5
2C6
100
AcDbEntity
  8
0
100
AcDbCircle
 10
426.284896
 20
453.536093
 30
0.0
 40
1.25
  0
CIRCLE
  5
2C7
100
AcDbEntity
  8
0
100
AcDbCircle
 10
431.82179
 20
464.287485
 30
0.0
 40
1.25
  0
CIRCLE
  5
2C8
100
AcDbEntity
  8
0
100
AcDbCircle
 10
431.82179
 20
461.787485
 30
0.0
 40
1.25
  0
CIRCLE
  5
2C9
100
AcDbEntity
  8
0
100
AcDbCircle
 10
431.82179
 20
459.287485
 30
0.0
 40
1.25
  0
LINE
  5
2CA
100
AcDbEntity
  8
0
100
AcDbLine
 10
615.160913
 20
567.503929
 30
0.0
 11
611.160913
 21
564.503929
 31
0.0
  0
LINE
  5
2CB
100
AcDbEntity
  8
0
100
AcDbLine
 10
609.160913
 20
560.503929
 30
0.0
 11
609.160913
 21
250.503929
 31
0.0
  0
LINE
  5
2CC
100
AcDbEntity
  8
0
100
AcDbLine
 10
611.160913
 20
246.503929
 30
0.0
 11
615.160913
 21
243.503929
 31
0.0
  0
LINE
  5
2CD
100
AcDbEntity
  8
0
100
AcDbLine
 10
615.160913
 20
243.503929
 30
0.0
 11
615.160913
 21
567.503929
 31
0.0
  0
ARC
  5
2CE
100
AcDbEntity
  8
0
100
AcDbCircle
 10
614.160913
 20
250.503929
 30
0.0
 40
5.0
100
AcDbArc
 50
180.0
 51
233.130102
  0
ARC
  5
2CF
100
AcDbEntity
  8
0
100
AcDbCircle
 10
614.160913
 20
560.503929
 30
0.0
 40
5.0
100
AcDbArc
 50
126.869898
 51
180.0
  0
LINE
  5
2D0
100
AcDbEntity
  8
0
100
AcDbLine
 10
615.160913
 20
305.503929
 30
0.0
 11
619.660913
 21
306.753929
 31
0.0
  0
LINE
  5
2D1
100
AcDbEntity
  8
0
100
AcDbLine
 10
615.160913
 20
505.503929
 30
0.0
 11
619.660913
 21
504.253929
 31
0.0
  0
LINE
  5
2D2
100
AcDbEntity
  8
0
100
AcDbLine
 10
619.660913
 20
504.253929
 30
0.0
 11
619.660913
 21
306.753929
 31
0.0
  0
LINE
  5
2D3
100
AcDbEntity
  8
0
100
AcDbLine
 10
624.660913
 20
495.503929
 30
0.0
 11
660.160913
 21
440.503929
 31
0.0
  0
LINE
  5
2D4
100
AcDbEntity
  8
0
100
AcDbLine
 10
660.160913
 20
440.503929
 30
0.0
 11
660.160913
 21
370.503929
 31
0.0
  0
LINE
  5
2D5
100
AcDbEntity
  8
0
100
AcDbLine
 10
660.160913
 20
370.503929
 30
0.0
 11
647.660913
 21
348.003929
 31
0.0
  0
LINE
  5
2D6
100
AcDbEntity
  8
0
100
AcDbLine
 10
647.660913
 20
348.003929
 30
0.0
 11
627.660913
 21
346.663349
 31
0.0
  0
LINE
  5
2D7
100
AcDbEntity
  8
0
100
AcDbLine
 10
627.660913
 20
346.663349
 30
0.0
 11
627.660913
 21
315.503929
 31
0.0
  0
LINE
  5
2D8
100
AcDbEntity
  8
0
100
AcDbLine
 10
627.660913
 20
315.503929
 30
0.0
 11
624.660913
 21
315.503929
 31
0.0
  0
LINE
  5
2D9
100
AcDbEntity
  8
0
100
AcDbLine
 10
624.660913
 20
315.503929
 30
0.0
 11
624.660913
 21
495.503929
 31
0.0
  0
LINE
  5
2DA
100
AcDbEntity
  8
0
100
AcDbLine
 10
667.160913
 20
369.253929
 30
0.0
 11
674.160913
 21
369.253929
 31
0.0
  0
LINE
  5
2DB
100
AcDbEntity
  8
0
100
AcDbLine
 10
674.160913
 20
369.253929
 30
0.0
 11
674.160913
 21
441.753929
 31
0.0
  0
LINE
  5
2DC
100
AcDbEntity
  8
0
100
AcDbLine
 10
674.160913
 20
441.753929
 30
0.0
 11
667.160913
 21
441.753929
 31
0.0
  0
LINE
  5
2DD
100
AcDbEntity
  8
0
100
AcDbLine
 10
667.160913
 20
441.753929
 30
0.0
 11
667.160913
 21
369.253929
 31
0.0
  0
LINE
  5
2DE
100
AcDbEntity
  8
0
100
AcDbLine
 10
667.160913
 20
438.003929
 30
0.0
 11
663.660913
 21
438.003929
 31
0.0
  0
LINE
  5
2DF
100
AcDbEntity
  8
0
100
AcDbLine
 10
663.660913
 20
438.003929
 30
0.0
 11
663.660913
 21
373.003929
 31
0.0
  0
LINE
  5
2E0
100
AcDbEntity
  8
0
100
AcDbLine
 10
663.660913
 20
373.003929
 30
0.0
 11
667.160913
 21
373.003929
 31
0.0
  0
LINE
  5
2E1
100
AcDbEntity
  8
0
100
AcDbLine
 10
674.160913
 20
373.003929
 30
0.0
 11
679.160913
 21
373.003929
 31
0.0
  0
LINE
  5
2E2
100
AcDbEntity
  8
0
100
AcDbLine
 10
679.160913
 20
373.003929
 30
0.0
 11
679.160913
 21
438.003929
 31
0.0
  0
LINE
  5
2E3
100
AcDbEntity
  8
0
100
AcDbLine
 10
679.160913
 20
438.003929
 30
0.0
 11
674.160913
 21
438.003929
 31
0.0
  0
LINE
  5
2E4
100
AcDbEntity
  8
0
100
AcDbLine
 10
627.660913
 20
340.503929
 30
0.0
 11
667.660913
 21
340.503929
 31
0.0
  0
LINE
  5
2E5
100
AcDbEntity
  8
0
100
AcDbLine
 10
667.660913
 20
340.503929
 30
0.0
 11
667.660913
 21
320.503929
 31
0.0
  0
LINE
  5
2E6
100
AcDbEntity
  8
0
100
AcDbLine
 10
667.660913
 20
320.503929
 30
0.0
 11
627.660913
 21
320.503929
 31
0.0
  0
LINE
  5
2E7
100
AcDbEntity
  8
0
100
AcDbLine
 10
630.660913
 20
340.503929
 30
0.0
 11
630.660913
 21
320.503929
 31
0.0
  0
ARC
  5
2E8
100
AcDbEntity
  8
0
100
AcDbCircle
 10
630.660913
 20
330.503929
 30
0.0
 40
2.469198
100
AcDbArc
 50
270.0
 51
450.0
  0
LINE
  5
2E9
100
AcDbEntity
  8
0
100
AcDbLine
 10
662.660913
 20
347.333639
 30
0.0
 11
662.660913
 21
340.503929
 31
0.0
  0
LINE
  5
2EA
100
AcDbEntity
  8
0
100
AcDbLine
 10
637.660913
 20
347.333639
 30
0.0
 11
637.660913
 21
340.503929
 31
0.0
  0
LINE
  5
2EB
100
AcDbEntity
  8
0
100
AcDbLine
 10
637.660913
 20
347.333639
 30
0.0
 11
662.660913
 21
347.333639
 31
0.0
  0
LINE
  5
2EC
100
AcDbEntity
  8
0
100
AcDbLine
 10
637.660913
 20
313.674219
 30
0.0
 11
662.660913
 21
313.674219
 31
0.0
  0
LINE
  5
2ED
100
AcDbEntity
  8
0
100
AcDbLine
 10
637.660913
 20
313.674219
 30
0.0
 11
637.660913
 21
320.503929
 31
0.0
  0
LINE
  5
2EE
100
AcDbEntity
  8
0
100
AcDbLine
 10
662.660913
 20
313.674219
 30
0.0
 11
662.660913
 21
320.503929
 31
0.0
  0
LINE
  5
2EF
100
AcDbEntity
  8
0
100
AcDbLine
 10
627.989016
 20
320.503929
 30
0.0
 11
648.069045
 21
241.240656
 31
0.0
  0
LINE
  5
2F0
100
AcDbEntity
  8
0
100
AcDbLine
 10
630.052196
 20
320.503929
 30
0.0
 11
650.0078
 21
241.731807
 31
0.0
  0
LINE
  5
2F1
100
AcDbEntity
  8
0
100
AcDbLine
 10
632.115376
 20
320.503929
 30
0.0
 11
651.946555
 21
242.222958
 31
0.0
  0
LINE
  5
2F2
100
AcDbEntity
  8
0
100
AcDbLine
 10
651.545416
 20
243.806404
 30
0.0
 11
645.729151
 21
242.33295
 31
0.0
  0
LWPOLYLINE
  5
2F3
100
AcDbEntity
  8
0
100
AcDbPolyline
 90
        2
 70
     0
 43
1.0
 10
627.13029
 20
315.749505
 10
646.13029
 20
240.749505
  0
LINE
  5
2F7
100
AcDbEntity
  8
CENTER
100
AcDbLine
 10
590.761901
 20
405.503929
 30
0.0
 11
701.338718
 21
405.503929
 31
0.0
  0
LINE
  5
2F8
100
AcDbEntity
  8
0
100
AcDbLine
 10
658.551248
 20
166.692898
 30
0.0
 11
654.551248
 21
166.692898
 31
0.0
  0
LINE
  5
2F9
100
AcDbEntity
  8
0
100
AcDbLine
 10
654.551248
 20
166.692898
 30
0.0
 11
654.551248
 21
162.692898
 31
0.0
  0
LINE
  5
2FA
100
AcDbEntity
  8
0
100
AcDbLine
 10
654.551248
 20
162.692898
 30
0.0
 11
634.551248
 21
162.692898
 31
0.0
  0
LINE
  5
2FB
100
AcDbEntity
  8
0
100
AcDbLine
 10
658.551248
 20
150.692898
 30
0.0
 11
654.551248
 21
150.692898
 31
0.0
  0
LINE
  5
2FC
100
AcDbEntity
  8
0
100
AcDbLine
 10
654.551248
 20
150.692898
 30
0.0
 11
654.551248
 21
154.692898
 31
0.0
  0
LINE
  5
2FD
100
AcDbEntity
  8
0
100
AcDbLine
 10
654.551248
 20
154.692898
 30
0.0
 11
634.551248
 21
154.692898
 31
0.0
  0
ARC
  5
2FE
100
AcDbEntity
  8
0
100
AcDbCircle
 10
634.551248
 20
158.692898
 30
0.0
 40
4.0
100
AcDbArc
 50
90.0
 51
270.0
  0
CIRCLE
  5
2FF
100
AcDbEntity
  8
0
100
AcDbCircle
 10
634.551248
 20
158.692898
 30
0.0
 40
1.636656
  0
LINE
  5
300
100
AcDbEntity
  8
0
100
AcDbLine
 10
682.551248
 20
114.692898
 30
0.0
 11
666.551248
 21
130.692898
 31
0.0
  0
LINE
  5
301
100
AcDbEntity
  8
0
100
AcDbLine
 10
682.551248
 20
182.692898
 30
0.0
 11
682.551248
 21
114.692898
 31
0.0
  0
LINE
  5
302
100
AcDbEntity
  8
0
100
AcDbLine
 10
658.551248
 20
126.692898
 30
0.0
 11
658.551248
 21
170.692898
 31
0.0
  0
LINE
  5
303
100
AcDbEntity
  8
0
100
AcDbLine
 10
666.551248
 20
170.692898
 30
0.0
 11
666.551248
 21
126.692898
 31
0.0
  0
LINE
  5
304
100
AcDbEntity
  8
0
100
AcDbLine
 10
658.551248
 20
170.692898
 30
0.0
 11
666.551248
 21
170.692898
 31
0.0
  0
CIRCLE
  5
305
100
AcDbEntity
  8
0
100
AcDbCircle
 10
634.551248
 20
138.692898
 30
0.0
 40
1.636656
  0
ARC
  5
306
100
AcDbEntity
  8
0
100
AcDbCircle
 10
634.551248
 20
138.692898
 30
0.0
 40
4.0
100
AcDbArc
 50
90.0
 51
270.0
  0
LINE
  5
307
100
AcDbEntity
  8
0
100
AcDbLine
 10
654.551248
 20
142.692898
 30
0.0
 11
634.551248
 21
142.692898
 31
0.0
  0
LINE
  5
308
100
AcDbEntity
  8
0
100
AcDbLine
 10
654.551248
 20
146.692898
 30
0.0
 11
654.551248
 21
142.692898
 31
0.0
  0
LINE
  5
309
100
AcDbEntity
  8
0
100
AcDbLine
 10
658.551248
 20
146.692898
 30
0.0
 11
654.551248
 21
146.692898
 31
0.0
  0
LINE
  5
30A
100
AcDbEntity
  8
0
100
AcDbLine
 10
654.551248
 20
134.692898
 30
0.0
 11
634.551248
 21
134.692898
 31
0.0
  0
LINE
  5
30B
100
AcDbEntity
  8
0
100
AcDbLine
 10
654.551248
 20
130.692898
 30
0.0
 11
654.551248
 21
134.692898
 31
0.0
  0
LINE
  5
30C
100
AcDbEntity
  8
0
100
AcDbLine
 10
658.551248
 20
130.692898
 30
0.0
 11
654.551248
 21
130.692898
 31
0.0
  0
CIRCLE
  5
30D
100
AcDbEntity
  8
0
100
AcDbCircle
 10
635.227558
 20
121.036226
 30
0.0
 40
6.0
  0
LINE
  5
30E
100
AcDbEntity
  8
0
100
AcDbLine
 10
631.838448
 20
121.036226
 30
0.0
 11
639.60516
 21
121.036226
 31
0.0
  0
LINE
  5
30F
100
AcDbEntity
  8
0
100
AcDbLine
 10
635.227558
 20
171.360481
 30
0.0
 11
635.227558
 21
179.127193
 31
0.0
  0
LINE
  5
310
100
AcDbEntity
  8
0
100
AcDbLine
 10
631.838448
 20
174.749592
 30
0.0
 11
639.60516
 21
174.749592
 31
0.0
  0
CIRCLE
  5
311
100
AcDbEntity
  8
0
100
AcDbCircle
 10
635.227558
 20
174.749592
 30
0.0
 40
6.0
  0
LINE
  5
312
100
AcDbEntity
  8
0
100
AcDbLine
 10
570.551248
 20
132.692898
 30
0.0
 11
570.551248
 21
144.692898
 31
0.0
  0
LINE
  5
313
100
AcDbEntity
  8
0
100
AcDbLine
 10
606.551248
 20
132.692898
 30
0.0
 11
570.551248
 21
132.692898
 31
0.0
  0
LINE
  5
314
100
AcDbEntity
  8
0
100
AcDbLine
 10
606.551248
 20
144.692898
 30
0.0
 11
606.551248
 21
132.692898
 31
0.0
  0
LINE
  5
315
100
AcDbEntity
  8
0
100
AcDbLine
 10
570.551248
 20
144.692898
 30
0.0
 11
606.551248
 21
144.692898
 31
0.0
  0
LINE
  5
316
100
AcDbEntity
  8
0
100
AcDbLine
 10
444.551248
 20
104.692898
 30
0.0
 11
534.551248
 21
104.692898
 31
0.0
  0
LINE
  5
317
100
AcDbEntity
  8
0
100
AcDbLine
 10
408.551248
 20
108.692898
 30
0.0
 11
444.551248
 21
108.692898
 31
0.0
  0
LINE
  5
318
100
AcDbEntity
  8
0
100
AcDbLine
 10
444.551248
 20
108.692898
 30
0.0
 11
444.551248
 21
96.692898
 31
0.0
  0
LINE
  5
319
100
AcDbEntity
  8
0
100
AcDbLine
 10
444.551248
 20
96.692898
 30
0.0
 11
408.551248
 21
96.692898
 31
0.0
  0
LINE
  5
31A
100
AcDbEntity
  8
0
100
AcDbLine
 10
408.551248
 20
96.692898
 30
0.0
 11
408.551248
 21
108.692898
 31
0.0
  0
LINE
  5
31B
100
AcDbEntity
  8
0
100
AcDbLine
 10
360.821781
 20
110.692898
 30
0.0
 11
364.821781
 21
110.692898
 31
0.0
  0
LINE
  5
31C
100
AcDbEntity
  8
0
100
AcDbLine
 10
364.821781
 20
110.692898
 30
0.0
 11
364.821781
 21
106.692898
 31
0.0
  0
LINE
  5
31D
100
AcDbEntity
  8
0
100
AcDbLine
 10
364.821781
 20
106.692898
 30
0.0
 11
384.821781
 21
106.692898
 31
0.0
  0
LINE
  5
31E
100
AcDbEntity
  8
0
100
AcDbLine
 10
360.821781
 20
94.692898
 30
0.0
 11
364.821781
 21
94.692898
 31
0.0
  0
LINE
  5
31F
100
AcDbEntity
  8
0
100
AcDbLine
 10
364.821781
 20
94.692898
 30
0.0
 11
364.821781
 21
98.692898
 31
0.0
  0
LINE
  5
320
100
AcDbEntity
  8
0
100
AcDbLine
 10
364.821781
 20
98.692898
 30
0.0
 11
384.821781
 21
98.692898
 31
0.0
  0
ARC
  5
321
100
AcDbEntity
  8
0
100
AcDbCircle
 10
384.821781
 20
102.692898
 30
0.0
 40
4.0
100
AcDbArc
 50
270.0
 51
450.0
  0
CIRCLE
  5
322
100
AcDbEntity
  8
0
100
AcDbCircle
 10
384.821781
 20
102.692898
 30
0.0
 40
1.636656
  0
LINE
  5
323
100
AcDbEntity
  8
0
100
AcDbLine
 10
360.821781
 20
102.692898
 30
0.0
 11
332.821781
 21
102.692898
 31
0.0
  0
LWPOLYLINE
  5
324
100
AcDbEntity
  8
0
100
AcDbPolyline
 90
        2
 70
     0
 43
4.0
 10
322.821781
 20
182.692898
 10
322.821781
 20
102.692898
  0
LWPOLYLINE
  5
328
100
AcDbEntity
  8
0
100
AcDbPolyline
 90
        2
 70
     0
 43
6.0
 10
332.821781
 20
182.692898
 10
332.821781
 20
102.692898
  0
LWPOLYLINE
  5
32C
100
AcDbEntity
  8
0
100
AcDbPolyline
 90
        2
 70
     0
 43
6.0
 10
304.821781
 20
182.692898
 10
304.821781
 20
102.692898
  0
LINE
  5
330
100
AcDbEntity
  8
0
100
AcDbLine
 10
276.821781
 20
102.692898
 30
0.0
 11
304.821781
 21
102.692898
 31
0.0
  0
LWPOLYLINE
  5
331
100
AcDbEntity
  8
0
100
AcDbPolyline
 90
        2
 70
     0
 43
4.0
 10
314.821781
 20
182.692898
 10
314.821781
 20
102.692898
  0
LINE
  5
335
100
AcDbEntity
  8
UL1
100
AcDbLine
 10
360.821781
 20
78.692898
 30
0.0
 11
360.821781
 21
206.692898
 31
0.0
  0
LINE
  5
336
100
AcDbEntity
  8
UL1
100
AcDbLine
 10
276.821781
 20
78.692898
 30
0.0
 11
360.821781
 21
78.692898
 31
0.0
  0
LINE
  5
337
100
AcDbEntity
  8
UL1
100
AcDbLine
 10
276.821781
 20
206.692898
 30
0.0
 11
276.821781
 21
78.692898
 31
0.0
  0
LINE
  5
338
100
AcDbEntity
  8
0
100
AcDbLine
 10
276.821781
 20
104.692898
 30
0.0
 11
248.821781
 21
104.692898
 31
0.0
  0
LINE
  5
339
100
AcDbEntity
  8
0
100
AcDbLine
 10
248.821781
 20
104.692898
 30
0.0
 11
248.821781
 21
100.692898
 31
0.0
  0
LINE
  5
33A
100
AcDbEntity
  8
0
100
AcDbLine
 10
248.821781
 20
100.692898
 30
0.0
 11
276.821781
 21
100.692898
 31
0.0
  0
LINE
  5
33B
100
AcDbEntity
  8
0
100
AcDbLine
 10
248.821781
 20
102.692898
 30
0.0
 11
244.821781
 21
102.692898
 31
0.0
  0
LINE
  5
33C
100
AcDbEntity
  8
0
100
AcDbLine
 10
248.821781
 20
118.692898
 30
0.0
 11
244.821781
 21
118.692898
 31
0.0
  0
LINE
  5
33D
100
AcDbEntity
  8
0
100
AcDbLine
 10
248.821781
 20
116.692898
 30
0.0
 11
276.821781
 21
116.692898
 31
0.0
  0
LINE
  5
33E
100
AcDbEntity
  8
0
100
AcDbLine
 10
248.821781
 20
120.692898
 30
0.0
 11
248.821781
 21
116.692898
 31
0.0
  0
LINE
  5
33F
100
AcDbEntity
  8
0
100
AcDbLine
 10
276.821781
 20
120.692898
 30
0.0
 11
248.821781
 21
120.692898
 31
0.0
  0
LINE
  5
340
100
AcDbEntity
  8
0
100
AcDbLine
 10
276.821781
 20
118.692898
 30
0.0
 11
304.821781
 21
118.692898
 31
0.0
  0
LINE
  5
341
100
AcDbEntity
  8
0
100
AcDbLine
 10
248.821781
 20
134.692898
 30
0.0
 11
244.821781
 21
134.692898
 31
0.0
  0
LINE
  5
342
100
AcDbEntity
  8
0
100
AcDbLine
 10
248.821781
 20
132.692898
 30
0.0
 11
276.821781
 21
132.692898
 31
0.0
  0
LINE
  5
343
100
AcDbEntity
  8
0
100
AcDbLine
 10
248.821781
 20
136.692898
 30
0.0
 11
248.821781
 21
132.692898
 31
0.0
  0
LINE
  5
344
100
AcDbEntity
  8
0
100
AcDbLine
 10
276.821781
 20
136.692898
 30
0.0
 11
248.821781
 21
136.692898
 31
0.0
  0
LINE
  5
345
100
AcDbEntity
  8
0
100
AcDbLine
 10
276.821781
 20
134.692898
 30
0.0
 11
304.821781
 21
134.692898
 31
0.0
  0
LINE
  5
346
100
AcDbEntity
  8
0
100
AcDbLine
 10
248.821781
 20
150.692898
 30
0.0
 11
244.821781
 21
150.692898
 31
0.0
  0
LINE
  5
347
100
AcDbEntity
  8
0
100
AcDbLine
 10
248.821781
 20
148.692898
 30
0.0
 11
276.821781
 21
148.692898
 31
0.0
  0
LINE
  5
348
100
AcDbEntity
  8
0
100
AcDbLine
 10
248.821781
 20
152.692898
 30
0.0
 11
248.821781
 21
148.692898
 31
0.0
  0
LINE
  5
349
100
AcDbEntity
  8
0
100
AcDbLine
 10
276.821781
 20
152.692898
 30
0.0
 11
248.821781
 21
152.692898
 31
0.0
  0
LINE
  5
34A
100
AcDbEntity
  8
0
100
AcDbLine
 10
276.821781
 20
150.692898
 30
0.0
 11
304.821781
 21
150.692898
 31
0.0
  0
LINE
  5
34B
100
AcDbEntity
  8
0
100
AcDbLine
 10
248.821781
 20
166.692898
 30
0.0
 11
244.821781
 21
166.692898
 31
0.0
  0
LINE
  5
34C
100
AcDbEntity
  8
0
100
AcDbLine
 10
248.821781
 20
164.692898
 30
0.0
 11
276.821781
 21
164.692898
 31
0.0
  0
LINE
  5
34D
100
AcDbEntity
  8
0
100
AcDbLine
 10
248.821781
 20
168.692898
 30
0.0
 11
248.821781
 21
164.692898
 31
0.0
  0
LINE
  5
34E
100
AcDbEntity
  8
0
100
AcDbLine
 10
276.821781
 20
168.692898
 30
0.0
 11
248.821781
 21
168.692898
 31
0.0
  0
LINE
  5
34F
100
AcDbEntity
  8
0
100
AcDbLine
 10
276.821781
 20
166.692898
 30
0.0
 11
304.821781
 21
166.692898
 31
0.0
  0
LINE
  5
350
100
AcDbEntity
  8
0
100
AcDbLine
 10
248.821781
 20
182.692898
 30
0.0
 11
244.821781
 21
182.692898
 31
0.0
  0
LINE
  5
351
100
AcDbEntity
  8
0
100
AcDbLine
 10
248.821781
 20
180.692898
 30
0.0
 11
276.821781
 21
180.692898
 31
0.0
  0
LINE
  5
352
100
AcDbEntity
  8
0
100
AcDbLine
 10
248.821781
 20
184.692898
 30
0.0
 11
248.821781
 21
180.692898
 31
0.0
  0
LINE
  5
353
100
AcDbEntity
  8
0
100
AcDbLine
 10
276.821781
 20
184.692898
 30
0.0
 11
248.821781
 21
184.692898
 31
0.0
  0
LINE
  5
354
100
AcDbEntity
  8
0
100
AcDbLine
 10
276.821781
 20
182.692898
 30
0.0
 11
304.764689
 21
182.692898
 31
0.0
  0
LINE
  5
355
100
AcDbEntity
  8
0
100
AcDbLine
 10
360.821781
 20
182.692898
 30
0.0
 11
332.821781
 21
182.692898
 31
0.0
  0
CIRCLE
  5
356
100
AcDbEntity
  8
0
100
AcDbCircle
 10
384.821781
 20
182.692898
 30
0.0
 40
1.636656
  0
ARC
  5
357
100
AcDbEntity
  8
0
100
AcDbCircle
 10
384.821781
 20
182.692898
 30
0.0
 40
4.0
100
AcDbArc
 50
270.0
 51
450.0
  0
LINE
  5
358
100
AcDbEntity
  8
0
100
AcDbLine
 10
364.821781
 20
186.692898
 30
0.0
 11
384.821781
 21
186.692898
 31
0.0
  0
LINE
  5
359
100
AcDbEntity
  8
0
100
AcDbLine
 10
364.821781
 20
190.692898
 30
0.0
 11
364.821781
 21
186.692898
 31
0.0
  0
LINE
  5
35A
100
AcDbEntity
  8
0
100
AcDbLine
 10
360.821781
 20
190.692898
 30
0.0
 11
364.821781
 21
190.692898
 31
0.0
  0
LINE
  5
35B
100
AcDbEntity
  8
0
100
AcDbLine
 10
364.821781
 20
178.692898
 30
0.0
 11
384.821781
 21
178.692898
 31
0.0
  0
LINE
  5
35C
100
AcDbEntity
  8
0
100
AcDbLine
 10
364.821781
 20
174.692898
 30
0.0
 11
364.821781
 21
178.692898
 31
0.0
  0
LINE
  5
35D
100
AcDbEntity
  8
0
100
AcDbLine
 10
360.821781
 20
174.692898
 30
0.0
 11
364.821781
 21
174.692898
 31
0.0
  0
LINE
  5
35E
100
AcDbEntity
  8
0
100
AcDbLine
 10
360.821781
 20
142.692898
 30
0.0
 11
332.821781
 21
142.692898
 31
0.0
  0
CIRCLE
  5
35F
100
AcDbEntity
  8
0
100
AcDbCircle
 10
384.821781
 20
142.692898
 30
0.0
 40
1.636656
  0
ARC
  5
360
100
AcDbEntity
  8
0
100
AcDbCircle
 10
384.821781
 20
142.692898
 30
0.0
 40
4.0
100
AcDbArc
 50
270.0
 51
450.0
  0
LINE
  5
361
100
AcDbEntity
  8
0
100
AcDbLine
 10
364.821781
 20
138.692898
 30
0.0
 11
384.821781
 21
138.692898
 31
0.0
  0
LINE
  5
362
100
AcDbEntity
  8
0
100
AcDbLine
 10
364.821781
 20
134.692898
 30
0.0
 11
364.821781
 21
138.692898
 31
0.0
  0
LINE
  5
363
100
AcDbEntity
  8
0
100
AcDbLine
 10
360.821781
 20
134.692898
 30
0.0
 11
364.821781
 21
134.692898
 31
0.0
  0
LINE
  5
364
100
AcDbEntity
  8
0
100
AcDbLine
 10
364.821781
 20
146.692898
 30
0.0
 11
384.821781
 21
146.692898
 31
0.0
  0
LINE
  5
365
100
AcDbEntity
  8
0
100
AcDbLine
 10
364.821781
 20
150.692898
 30
0.0
 11
364.821781
 21
146.692898
 31
0.0
  0
LINE
  5
366
100
AcDbEntity
  8
0
100
AcDbLine
 10
360.821781
 20
150.692898
 30
0.0
 11
364.821781
 21
150.692898
 31
0.0
  0
LINE
  5
367
100
AcDbEntity
  8
UL1
100
AcDbLine
 10
276.821781
 20
206.692898
 30
0.0
 11
360.821781
 21
206.692898
 31
0.0
  0
DIMENSION
  5
368
100
AcDbEntity
  8
SCALE
100
AcDbDimension
  2
*D4
 10
523.398781
 20
615.511981
 30
0.0
 11
380.398781
 21
626.511981
 31
0.0
 12
0.0
 22
-149.025834
 32
0.0
  1
%%C286
  3
STANDARD
100
AcDbAlignedDimension
 13
237.398781
 23
405.503929
 33
0.0
 14
523.398781
 24
405.503929
 34
0.0
100
AcDbRotatedDimension
  0
DIMENSION
  5
369
100
AcDbEntity
  8
SCALE
100
AcDbDimension
  2
*D5
 10
542.398781
 20
645.511981
 30
0.0
 11
380.398781
 21
656.511981
 31
0.0
 12
0.0
 22
-149.025834
 32
0.0
  1
%%C324
  3
STANDARD
100
AcDbAlignedDimension
 13
218.398781
 23
405.503929
 33
0.0
 14
542.398781
 24
405.503929
 34
0.0
100
AcDbRotatedDimension
  0
DIMENSION
  5
36A
100
AcDbEntity
  8
SCALE
100
AcDbDimension
  2
*D7
 10
615.160913
 20
615.511981
 30
0.0
 11
641.065675
 21
626.511981
 31
0.0
 12
0.0
 22
-149.025834
 32
0.0
  1
6
  3
STANDARD
100
AcDbAlignedDimension
 13
609.160913
 23
560.503929
 33
0.0
 14
615.160913
 24
567.503929
 34
0.0
100
AcDbRotatedDimension
  0
DIMENSION
  5
36B
100
AcDbEntity
  8
SCALE
100
AcDbDimension
  2
*D6
 10
679.160913
 20
645.511981
 30
0.0
 11
644.160913
 21
656.511981
 31
0.0
 12
0.0
 22
-149.025834
 32
0.0
  1
70
  3
STANDARD
100
AcDbAlignedDimension
 13
609.160913
 23
560.503929
 33
0.0
 14
679.160913
 24
438.003929
 34
0.0
100
AcDbRotatedDimension
  0
INSERT
  5
36C
100
AcDbEntity
  8
SCALE
100
AcDbBlockReference
  2
YAZ3
 10
482.026384
 20
301.94051
 30
0.0
 41
7.5
 42
7.5
 43
7.5
 50
112.533828
  0
LINE
  5
36D
100
AcDbEntity
  8
SCALE
100
AcDbLine
 10
484.900601
 20
295.01311
 30
0.0
 11
513.736998
 21
225.511981
 31
0.0
  0
LINE
  5
36E
100
AcDbEntity
  8
SCALE
100
AcDbLine
 10
513.736998
 20
225.511981
 30
0.0
 11
521.236998
 21
225.511981
 31
0.0
  0
LINE
  5
36F
100
AcDbEntity
  8
SCALE
100
AcDbLine
 10
521.236998
 20
225.511981
 30
0.0
 11
585.165569
 21
225.511981
 31
0.0
  0
INSERT
  5
370
100
AcDbEntity
  8
1
100
AcDbBlockReference
  2
YAZ3
 10
631.13442
 20
485.474552
 30
0.0
 41
7.5
 42
7.5
 43
7.5
 50
245.690667
  0
LINE
  5
371
100
AcDbEntity
  8
1
100
AcDbLine
 10
634.221891
 20
492.309574
 30
0.0
 11
648.797044
 21
524.575946
 31
0.0
  0
INSERT
  5
372
100
AcDbEntity
  8
1
100
AcDbBlockReference
 66
     1
  2
USBLN1
 10
653.736998
 20
535.511981
 30
0.0
 41
1.6
 42
1.6
 43
1.6
  0
ATTRIB
  5
373
100
AcDbEntity
  8
0
100
AcDbText
 10
650.003665
 20
529.911981
 30
0.0
 40
11.2
  1
2
 72
     4
 11
653.736998
 21
535.511981
 31
0.0
100
AcDbAttribute
  2
X
 70
     0
  0
SEQEND
  5
374
100
AcDbEntity
  8
1
  0
INSERT
  5
375
100
AcDbEntity
  8
1
100
AcDbBlockReference
  2
YAZ3
 10
667.660913
 20
320.503929
 30
0.0
 41
7.5
 42
7.5
 43
7.5
 50
103.893523
  0
LINE
  5
376
100
AcDbEntity
  8
1
100
AcDbLine
 10
669.4618
 20
313.223352
 30
0.0
 11
680.855578
 21
267.160904
 31
0.0
  0
INSERT
  5
377
100
AcDbEntity
  8
1
100
AcDbBlockReference
 66
     1
  2
USBLN1
 10
683.736998
 20
255.511981
 30
0.0
 41
1.6
 42
1.6
 43
1.6
  0
ATTRIB
  5
378
100
AcDbEntity
  8
0
100
AcDbText
 10
680.003665
 20
249.911981
 30
0.0
 40
11.2
  1
3
 72
     4
 11
683.736998
 21
255.511981
 31
0.0
100
AcDbAttribute
  2
X
 70
     0
  0
SEQEND
  5
379
100
AcDbEntity
  8
1
  0
LINE
  5
37A
100
AcDbEntity
  8
1
100
AcDbLine
 10
331.478966
 20
262.009565
 30
0.0
 11
308.957166
 21
239.750209
 31
0.0
  0
INSERT
  5
37B
100
AcDbEntity
  8
1
100
AcDbBlockReference
 66
     1
  2
USBLN1
 10
300.471884
 20
231.264928
 30
0.0
 41
1.6
 42
1.6
 43
1.6
  0
ATTRIB
  5
37C
100
AcDbEntity
  8
0
100
AcDbText
 10
299.138551
 20
225.664928
 30
0.0
 40
11.2
  1
1
 72
     4
 11
300.471884
 21
231.264928
 31
0.0
100
AcDbAttribute
  2
X
 70
     0
  0
SEQEND
  5
37D
100
AcDbEntity
  8
1
  0
LWPOLYLINE
  5
37E
100
AcDbEntity
  8
1
100
AcDbPolyline
 90
        2
 70
     1
 43
2.5
 10
330.228966
 20
262.009565
 42
1.0
 10
332.728966
 20
262.009565
 42
1.0
  0
LINE
  5
382
100
AcDbEntity
  8
0
100
AcDbLine
 10
609.160913
 20
410.503929
 30
0.0
 11
605.160913
 21
410.503929
 31
0.0
  0
LINE
  5
383
100
AcDbEntity
  8
0
100
AcDbLine
 10
605.160913
 20
410.503929
 30
0.0
 11
605.160913
 21
400.503929
 31
0.0
  0
LINE
  5
384
100
AcDbEntity
  8
0
100
AcDbLine
 10
605.160913
 20
400.503929
 30
0.0
 11
609.160913
 21
400.503929
 31
0.0
  0
LINE
  5
385
100
AcDbEntity
  8
0
100
AcDbLine
 10
605.160913
 20
408.003929
 30
0.0
 11
600.160913
 21
408.003929
 31
0.0
  0
LINE
  5
386
100
AcDbEntity
  8
0
100
AcDbLine
 10
600.160913
 20
408.003929
 30
0.0
 11
600.160913
 21
403.003929
 31
0.0
  0
LINE
  5
387
100
AcDbEntity
  8
0
100
AcDbLine
 10
600.160913
 20
403.003929
 30
0.0
 11
605.160913
 21
403.003929
 31
0.0
  0
LINE
  5
388
100
AcDbEntity
  8
0
100
AcDbLine
 10
652.160913
 20
425.503929
 30
0.0
 11
634.782027
 21
445.055176
 31
0.0
  0
LINE
  5
389
100
AcDbEntity
  8
0
100
AcDbLine
 10
632.160913
 20
444.05863
 30
0.0
 11
632.160913
 21
366.949228
 31
0.0
  0
LINE
  5
38A
100
AcDbEntity
  8
0
100
AcDbLine
 10
634.782027
 20
365.952682
 30
0.0
 11
652.160913
 21
385.503929
 31
0.0
  0
LINE
  5
38B
100
AcDbEntity
  8
0
100
AcDbLine
 10
652.160913
 20
385.503929
 30
0.0
 11
652.160913
 21
425.503929
 31
0.0
  0
ARC
  5
38C
100
AcDbEntity
  8
0
100
AcDbCircle
 10
633.660913
 20
444.05863
 30
0.0
 40
1.5
100
AcDbArc
 50
41.633539
 51
180.0
  0
ARC
  5
38D
100
AcDbEntity
  8
0
100
AcDbCircle
 10
633.660913
 20
366.949228
 30
0.0
 40
1.5
100
AcDbArc
 50
180.0
 51
318.366461
  0
LINE
  5
38E
100
AcDbEntity
  8
0
100
AcDbLine
 10
647.160913
 20
414.503929
 30
0.0
 11
649.660913
 21
414.503929
 31
0.0
  0
LINE
  5
38F
100
AcDbEntity
  8
0
100
AcDbLine
 10
649.660913
 20
414.503929
 30
0.0
 11
649.660913
 21
396.503929
 31
0.0
  0
LINE
  5
390
100
AcDbEntity
  8
0
100
AcDbLine
 10
649.660913
 20
396.503929
 30
0.0
 11
647.160913
 21
396.503929
 31
0.0
  0
LINE
  5
391
100
AcDbEntity
  8
0
100
AcDbLine
 10
647.160913
 20
396.503929
 30
0.0
 11
647.160913
 21
414.503929
 31
0.0
  0
LINE
  5
392
100
AcDbEntity
  8
0
100
AcDbLine
 10
649.660913
 20
410.753929
 30
0.0
 11
652.160913
 21
410.753929
 31
0.0
  0
LINE
  5
393
100
AcDbEntity
  8
0
100
AcDbLine
 10
649.660913
 20
400.253929
 30
0.0
 11
652.160913
 21
400.253929
 31
0.0
  0
LINE
  5
394
100
AcDbEntity
  8
SCALE
  6
BYBLOCK
 62
     4
100
AcDbLine
 10
600.160913
 20
413.003929
 30
0.0
 11
600.160913
 21
654.261981
 31
0.0
  0
LINE
  5
395
100
AcDbEntity
  8
SCALE
  6
BYBLOCK
 62
     4
100
AcDbLine
 10
600.160913
 20
645.093301
 30
0.0
 11
568.375199
 21
645.511981
 31
0.0
  0
INSERT
  5
396
100
AcDbEntity
  8
SCALE
  6
BYBLOCK
 62
     4
100
AcDbBlockReference
  2
YAZ3
 10
600.160913
 20
645.511981
 30
0.0
 41
7.5
 42
7.5
 43
7.5
  0
LINE
  5
397
100
AcDbEntity
  8
SCALE
  6
BYBLOCK
 62
     4
100
AcDbLine
 10
600.160913
 20
645.511981
 30
0.0
 11
609.160913
 21
645.511981
 31
0.0
  0
LINE
  5
398
100
AcDbEntity
  8
0
100
AcDbLine
 10
444.551248
 20
100.692898
 30
0.0
 11
538.551248
 21
100.692898
 31
0.0
  0
LINE
  5
399
100
AcDbEntity
  8
0
100
AcDbLine
 10
658.551248
 20
126.692898
 30
0.0
 11
666.551248
 21
126.692898
 31
0.0
  0
LINE
  5
39A
100
AcDbEntity
  8
0
100
AcDbLine
 10
682.551248
 20
182.692898
 30
0.0
 11
666.551248
 21
166.692898
 31
0.0
  0
LINE
  5
39B
100
AcDbEntity
  8
0
100
AcDbLine
 10
534.551248
 20
104.692898
 30
0.0
 11
534.551248
 21
140.692898
 31
0.0
  0
LINE
  5
39C
100
AcDbEntity
  8
0
100
AcDbLine
 10
534.551248
 20
140.692898
 30
0.0
 11
570.551248
 21
140.692898
 31
0.0
  0
LINE
  5
39D
100
AcDbEntity
  8
0
100
AcDbLine
 10
538.551248
 20
100.692898
 30
0.0
 11
538.551248
 21
136.692898
 31
0.0
  0
LINE
  5
39E
100
AcDbEntity
  8
0
100
AcDbLine
 10
538.551248
 20
136.692898
 30
0.0
 11
570.551248
 21
136.692898
 31
0.0
  0
LINE
  5
39F
100
AcDbEntity
  8
0
100
AcDbLine
 10
570.551248
 20
164.692898
 30
0.0
 11
606.551248
 21
164.692898
 31
0.0
  0
LINE
  5
3A0
100
AcDbEntity
  8
0
100
AcDbLine
 10
606.551248
 20
164.692898
 30
0.0
 11
606.551248
 21
152.692898
 31
0.0
  0
LINE
  5
3A1
100
AcDbEntity
  8
0
100
AcDbLine
 10
606.551248
 20
152.692898
 30
0.0
 11
570.551248
 21
152.692898
 31
0.0
  0
LINE
  5
3A2
100
AcDbEntity
  8
0
100
AcDbLine
 10
570.551248
 20
152.692898
 30
0.0
 11
570.551248
 21
164.692898
 31
0.0
  0
LINE
  5
3A3
100
AcDbEntity
  8
0
100
AcDbLine
 10
534.551248
 20
156.692898
 30
0.0
 11
570.551248
 21
156.692898
 31
0.0
  0
LINE
  5
3A4
100
AcDbEntity
  8
0
100
AcDbLine
 10
534.551248
 20
160.692898
 30
0.0
 11
570.551248
 21
160.692898
 31
0.0
  0
LINE
  5
3A5
100
AcDbEntity
  8
0
100
AcDbLine
 10
534.551248
 20
156.692898
 30
0.0
 11
534.551248
 21
160.692898
 31
0.0
  0
INSERT
  5
3A6
100
AcDbEntity
  8
0
  6
BYBLOCK
 62
     0
100
AcDbBlockReference
  2
YAZ1
 10
502.551248
 20
158.692898
 30
0.0
 41
7.5
 42
7.5
 43
7.5
 50
180.0
  0
LINE
  5
3A7
100
AcDbEntity
  8
0
100
AcDbLine
 10
534.551248
 20
158.692898
 30
0.0
 11
502.551248
 21
158.692898
 31
0.0
  0
LINE
  5
3A8
100
AcDbEntity
  8
0
100
AcDbLine
 10
494.551248
 20
162.692898
 30
0.0
 11
502.551248
 21
158.692898
 31
0.0
  0
LINE
  5
3A9
100
AcDbEntity
  8
0
100
AcDbLine
 10
502.551248
 20
158.692898
 30
0.0
 11
494.551248
 21
154.692898
 31
0.0
  0
LINE
  5
3AA
100
AcDbEntity
  8
0
100
AcDbLine
 10
494.551248
 20
154.692898
 30
0.0
 11
502.551248
 21
150.692898
 31
0.0
  0
LINE
  5
3AB
100
AcDbEntity
  8
0
100
AcDbLine
 10
502.551248
 20
150.692898
 30
0.0
 11
494.551248
 21
146.692898
 31
0.0
  0
LINE
  5
3AC
100
AcDbEntity
  8
0
100
AcDbLine
 10
494.551248
 20
146.692898
 30
0.0
 11
498.551248
 21
144.692898
 31
0.0
  0
LINE
  5
3AD
100
AcDbEntity
  8
0
100
AcDbLine
 10
498.551248
 20
104.692898
 30
0.0
 11
498.551248
 21
144.692898
 31
0.0
  0
LINE
  5
3AE
100
AcDbEntity
  8
0
100
AcDbLine
 10
502.551248
 20
166.692898
 30
0.0
 11
494.551248
 21
162.692898
 31
0.0
  0
LINE
  5
3AF
100
AcDbEntity
  8
0
100
AcDbLine
 10
498.551248
 20
168.692898
 30
0.0
 11
502.551248
 21
166.692898
 31
0.0
  0
LINE
  5
3B0
100
AcDbEntity
  8
0
100
AcDbLine
 10
498.551248
 20
168.692898
 30
0.0
 11
498.551248
 21
184.692898
 31
0.0
  0
LINE
  5
3B1
100
AcDbEntity
  8
0
100
AcDbLine
 10
408.551248
 20
136.692898
 30
0.0
 11
408.551248
 21
148.692898
 31
0.0
  0
LINE
  5
3B2
100
AcDbEntity
  8
0
100
AcDbLine
 10
444.551248
 20
136.692898
 30
0.0
 11
408.551248
 21
136.692898
 31
0.0
  0
LINE
  5
3B3
100
AcDbEntity
  8
0
100
AcDbLine
 10
444.551248
 20
148.692898
 30
0.0
 11
444.551248
 21
136.692898
 31
0.0
  0
LINE
  5
3B4
100
AcDbEntity
  8
0
100
AcDbLine
 10
408.551248
 20
148.692898
 30
0.0
 11
444.551248
 21
148.692898
 31
0.0
  0
LINE
  5
3B5
100
AcDbEntity
  8
0
100
AcDbLine
 10
444.551248
 20
144.692898
 30
0.0
 11
460.551248
 21
144.692898
 31
0.0
  0
LINE
  5
3B6
100
AcDbEntity
  8
0
100
AcDbLine
 10
460.551248
 20
184.692898
 30
0.0
 11
460.551248
 21
144.692898
 31
0.0
  0
LINE
  5
3B7
100
AcDbEntity
  8
HIDDEN
100
AcDbLine
 10
444.551248
 20
184.692898
 30
0.0
 11
460.551248
 21
184.692898
 31
0.0
  0
LINE
  5
3B8
100
AcDbEntity
  8
HIDDEN
100
AcDbLine
 10
408.551248
 20
188.692898
 30
0.0
 11
444.551248
 21
188.692898
 31
0.0
  0
LINE
  5
3B9
100
AcDbEntity
  8
HIDDEN
100
AcDbLine
 10
444.551248
 20
188.692898
 30
0.0
 11
444.551248
 21
176.692898
 31
0.0
  0
LINE
  5
3BA
100
AcDbEntity
  8
HIDDEN
100
AcDbLine
 10
444.551248
 20
176.692898
 30
0.0
 11
408.551248
 21
176.692898
 31
0.0
  0
LINE
  5
3BB
100
AcDbEntity
  8
HIDDEN
100
AcDbLine
 10
408.551248
 20
176.692898
 30
0.0
 11
408.551248
 21
188.692898
 31
0.0
  0
LINE
  5
3BC
100
AcDbEntity
  8
HIDDEN
100
AcDbLine
 10
444.551248
 20
180.692898
 30
0.0
 11
460.551248
 21
180.692898
 31
0.0
  0
LINE
  5
3BD
100
AcDbEntity
  8
0
100
AcDbLine
 10
444.551248
 20
140.692898
 30
0.0
 11
464.551248
 21
140.692898
 31
0.0
  0
LINE
  5
3BE
100
AcDbEntity
  8
0
100
AcDbLine
 10
464.551248
 20
180.692898
 30
0.0
 11
464.551248
 21
140.692898
 31
0.0
  0
LINE
  5
3BF
100
AcDbEntity
  8
0
100
AcDbLine
 10
460.551248
 20
184.692898
 30
0.0
 11
498.551248
 21
184.692898
 31
0.0
  0
LINE
  5
3C0
100
AcDbEntity
  8
0
100
AcDbLine
 10
464.551248
 20
180.692898
 30
0.0
 11
498.551248
 21
180.692898
 31
0.0
  0
LINE
  5
3C1
100
AcDbEntity
  8
UL1
100
AcDbLine
 10
479.551248
 20
206.692898
 30
0.0
 11
552.551248
 21
206.692898
 31
0.0
  0
LINE
  5
3C2
100
AcDbEntity
  8
UL1
100
AcDbLine
 10
552.551248
 20
78.692898
 30
0.0
 11
552.551248
 21
206.692898
 31
0.0
  0
LINE
  5
3C3
100
AcDbEntity
  8
UL1
100
AcDbLine
 10
479.551248
 20
206.692898
 30
0.0
 11
479.551248
 21
78.692898
 31
0.0
  0
LINE
  5
3C4
100
AcDbEntity
  8
UL1
100
AcDbLine
 10
479.551248
 20
78.692898
 30
0.0
 11
552.551248
 21
78.692898
 31
0.0
  0
CIRCLE
  5
3C5
100
AcDbEntity
  8
0
100
AcDbCircle
 10
326.615226
 20
456.926938
 30
0.0
 40
1.25
  0
CIRCLE
  5
3C6
100
AcDbEntity
  8
0
100
AcDbCircle
 10
324.115226
 20
456.926938
 30
0.0
 40
1.25
  0
CIRCLE
  5
3C7
100
AcDbEntity
  8
0
100
AcDbCircle
 10
321.615226
 20
456.926938
 30
0.0
 40
1.25
  0
CIRCLE
  5
3C8
100
AcDbEntity
  8
0
100
AcDbCircle
 10
332.366618
 20
451.390044
 30
0.0
 40
1.25
  0
CIRCLE
  5
3C9
100
AcDbEntity
  8
0
100
AcDbCircle
 10
329.866618
 20
451.390044
 30
0.0
 40
1.25
  0
CIRCLE
  5
3CA
100
AcDbEntity
  8
0
100
AcDbCircle
 10
327.366618
 20
451.390044
 30
0.0
 40
1.25
  0
CIRCLE
  5
3CB
100
AcDbEntity
  8
0
100
AcDbCircle
 10
324.866618
 20
451.390044
 30
0.0
 40
1.25
  0
CIRCLE
  5
3CC
100
AcDbEntity
  8
0
100
AcDbCircle
 10
322.366618
 20
451.390044
 30
0.0
 40
1.25
  0
CIRCLE
  5
3CD
100
AcDbEntity
  8
0
100
AcDbCircle
 10
319.866618
 20
451.390044
 30
0.0
 40
1.25
  0
CIRCLE
  5
3CE
100
AcDbEntity
  8
0
100
AcDbCircle
 10
317.366618
 20
451.390044
 30
0.0
 40
1.25
  0
CIRCLE
  5
3CF
100
AcDbEntity
  8
0
100
AcDbCircle
 10
321.615226
 20
354.08092
 30
0.0
 40
1.25
  0
CIRCLE
  5
3D0
100
AcDbEntity
  8
0
100
AcDbCircle
 10
324.115226
 20
354.08092
 30
0.0
 40
1.25
  0
CIRCLE
  5
3D1
100
AcDbEntity
  8
0
100
AcDbCircle
 10
326.615226
 20
354.08092
 30
0.0
 40
1.25
  0
CIRCLE
  5
3D2
100
AcDbEntity
  8
0
100
AcDbCircle
 10
302.898781
 20
405.503929
 30
0.0
 40
1.25
  0
CIRCLE
  5
3D3
100
AcDbEntity
  8
0
100
AcDbCircle
 10
305.398781
 20
405.503929
 30
0.0
 40
1.25
  0
CIRCLE
  5
3D4
100
AcDbEntity
  8
0
100
AcDbCircle
 10
307.898781
 20
405.503929
 30
0.0
 40
1.25
  0
CIRCLE
  5
3D5
100
AcDbEntity
  8
0
100
AcDbCircle
 10
310.398781
 20
405.503929
 30
0.0
 40
1.25
  0
CIRCLE
  5
3D6
100
AcDbEntity
  8
0
100
AcDbCircle
 10
312.898781
 20
405.503929
 30
0.0
 40
1.25
  0
CIRCLE
  5
3D7
100
AcDbEntity
  8
0
100
AcDbCircle
 10
315.398781
 20
405.503929
 30
0.0
 40
1.25
  0
CIRCLE
  5
3D8
100
AcDbEntity
  8
0
100
AcDbCircle
 10
317.898781
 20
405.503929
 30
0.0
 40
1.25
  0
CIRCLE
  5
3D9
100
AcDbEntity
  8
0
100
AcDbCircle
 10
320.398781
 20
405.503929
 30
0.0
 40
1.25
  0
CIRCLE
  5
3DA
100
AcDbEntity
  8
0
100
AcDbCircle
 10
322.898781
 20
405.503929
 30
0.0
 40
1.25
  0
CIRCLE
  5
3DB
100
AcDbEntity
  8
0
100
AcDbCircle
 10
325.398781
 20
405.503929
 30
0.0
 40
1.25
  0
CIRCLE
  5
3DC
100
AcDbEntity
  8
0
100
AcDbCircle
 10
327.898781
 20
405.503929
 30
0.0
 40
1.25
  0
CIRCLE
  5
3DD
100
AcDbEntity
  8
0
100
AcDbCircle
 10
330.398781
 20
405.503929
 30
0.0
 40
1.25
  0
CIRCLE
  5
3DE
100
AcDbEntity
  8
0
100
AcDbCircle
 10
332.898781
 20
405.503929
 30
0.0
 40
1.25
  0
CIRCLE
  5
3DF
100
AcDbEntity
  8
0
100
AcDbCircle
 10
335.398781
 20
405.503929
 30
0.0
 40
1.25
  0
CIRCLE
  5
3E0
100
AcDbEntity
  8
0
100
AcDbCircle
 10
337.898781
 20
405.503929
 30
0.0
 40
1.25
  0
CIRCLE
  5
3E1
100
AcDbEntity
  8
0
100
AcDbCircle
 10
340.398781
 20
405.503929
 30
0.0
 40
1.25
  0
CIRCLE
  5
3E2
100
AcDbEntity
  8
0
100
AcDbCircle
 10
342.898781
 20
405.503929
 30
0.0
 40
1.25
  0
CIRCLE
  5
3E3
100
AcDbEntity
  8
0
100
AcDbCircle
 10
345.398781
 20
405.503929
 30
0.0
 40
1.25
  0
CIRCLE
  5
3E4
100
AcDbEntity
  8
0
100
AcDbCircle
 10
347.898781
 20
405.503929
 30
0.0
 40
1.25
  0
CIRCLE
  5
3E5
100
AcDbEntity
  8
0
100
AcDbCircle
 10
350.398781
 20
405.503929
 30
0.0
 40
1.25
  0
CIRCLE
  5
3E6
100
AcDbEntity
  8
0
100
AcDbCircle
 10
352.898781
 20
405.503929
 30
0.0
 40
1.25
  0
CIRCLE
  5
3E7
100
AcDbEntity
  8
0
100
AcDbCircle
 10
355.398781
 20
405.503929
 30
0.0
 40
1.25
  0
CIRCLE
  5
3E8
100
AcDbEntity
  8
0
100
AcDbCircle
 10
357.898781
 20
405.503929
 30
0.0
 40
1.25
  0
CIRCLE
  5
3E9
100
AcDbEntity
  8
0
100
AcDbCircle
 10
360.398781
 20
405.503929
 30
0.0
 40
1.25
  0
CIRCLE
  5
3EA
100
AcDbEntity
  8
0
100
AcDbCircle
 10
362.898781
 20
405.503929
 30
0.0
 40
1.25
  0
CIRCLE
  5
3EB
100
AcDbEntity
  8
0
100
AcDbCircle
 10
365.398781
 20
405.503929
 30
0.0
 40
1.25
  0
CIRCLE
  5
3EC
100
AcDbEntity
  8
0
100
AcDbCircle
 10
367.898781
 20
405.503929
 30
0.0
 40
1.25
  0
CIRCLE
  5
3ED
100
AcDbEntity
  8
0
100
AcDbCircle
 10
370.398781
 20
405.503929
 30
0.0
 40
1.25
  0
CIRCLE
  5
3EE
100
AcDbEntity
  8
0
100
AcDbCircle
 10
372.898781
 20
405.503929
 30
0.0
 40
1.25
  0
CIRCLE
  5
3EF
100
AcDbEntity
  8
0
100
AcDbCircle
 10
377.898781
 20
405.503929
 30
0.0
 40
1.25
  0
CIRCLE
  5
3F0
100
AcDbEntity
  8
0
100
AcDbCircle
 10
375.398781
 20
405.503929
 30
0.0
 40
1.25
  0
CIRCLE
  5
3F1
100
AcDbEntity
  8
0
100
AcDbCircle
 10
303.203206
 20
398.53147
 30
0.0
 40
1.25
  0
CIRCLE
  5
3F2
100
AcDbEntity
  8
0
100
AcDbCircle
 10
305.703206
 20
398.53147
 30
0.0
 40
1.25
  0
CIRCLE
  5
3F3
100
AcDbEntity
  8
0
100
AcDbCircle
 10
308.203206
 20
398.53147
 30
0.0
 40
1.25
  0
CIRCLE
  5
3F4
100
AcDbEntity
  8
0
100
AcDbCircle
 10
310.703206
 20
398.53147
 30
0.0
 40
1.25
  0
CIRCLE
  5
3F5
100
AcDbEntity
  8
0
100
AcDbCircle
 10
313.203206
 20
398.53147
 30
0.0
 40
1.25
  0
CIRCLE
  5
3F6
100
AcDbEntity
  8
0
100
AcDbCircle
 10
315.703206
 20
398.53147
 30
0.0
 40
1.25
  0
CIRCLE
  5
3F7
100
AcDbEntity
  8
0
100
AcDbCircle
 10
318.203206
 20
398.53147
 30
0.0
 40
1.25
  0
CIRCLE
  5
3F8
100
AcDbEntity
  8
0
100
AcDbCircle
 10
320.703206
 20
398.53147
 30
0.0
 40
1.25
  0
CIRCLE
  5
3F9
100
AcDbEntity
  8
0
100
AcDbCircle
 10
323.203206
 20
398.53147
 30
0.0
 40
1.25
  0
CIRCLE
  5
3FA
100
AcDbEntity
  8
0
100
AcDbCircle
 10
325.703206
 20
398.53147
 30
0.0
 40
1.25
  0
CIRCLE
  5
3FB
100
AcDbEntity
  8
0
100
AcDbCircle
 10
328.203206
 20
398.53147
 30
0.0
 40
1.25
  0
CIRCLE
  5
3FC
100
AcDbEntity
  8
0
100
AcDbCircle
 10
330.703206
 20
398.53147
 30
0.0
 40
1.25
  0
CIRCLE
  5
3FD
100
AcDbEntity
  8
0
100
AcDbCircle
 10
333.203206
 20
398.53147
 30
0.0
 40
1.25
  0
CIRCLE
  5
3FE
100
AcDbEntity
  8
0
100
AcDbCircle
 10
335.703206
 20
398.53147
 30
0.0
 40
1.25
  0
CIRCLE
  5
3FF
100
AcDbEntity
  8
0
100
AcDbCircle
 10
338.203206
 20
398.53147
 30
0.0
 40
1.25
  0
CIRCLE
  5
400
100
AcDbEntity
  8
0
100
AcDbCircle
 10
340.703206
 20
398.53147
 30
0.0
 40
1.25
  0
CIRCLE
  5
401
100
AcDbEntity
  8
0
100
AcDbCircle
 10
343.203206
 20
398.53147
 30
0.0
 40
1.25
  0
CIRCLE
  5
402
100
AcDbEntity
  8
0
100
AcDbCircle
 10
345.703206
 20
398.53147
 30
0.0
 40
1.25
  0
CIRCLE
  5
403
100
AcDbEntity
  8
0
100
AcDbCircle
 10
348.203206
 20
398.53147
 30
0.0
 40
1.25
  0
CIRCLE
  5
404
100
AcDbEntity
  8
0
100
AcDbCircle
 10
350.703206
 20
398.53147
 30
0.0
 40
1.25
  0
CIRCLE
  5
405
100
AcDbEntity
  8
0
100
AcDbCircle
 10
353.203206
 20
398.53147
 30
0.0
 40
1.25
  0
CIRCLE
  5
406
100
AcDbEntity
  8
0
100
AcDbCircle
 10
355.703206
 20
398.53147
 30
0.0
 40
1.25
  0
CIRCLE
  5
407
100
AcDbEntity
  8
0
100
AcDbCircle
 10
358.203206
 20
398.53147
 30
0.0
 40
1.25
  0
CIRCLE
  5
408
100
AcDbEntity
  8
0
100
AcDbCircle
 10
360.703206
 20
398.53147
 30
0.0
 40
1.25
  0
CIRCLE
  5
409
100
AcDbEntity
  8
0
100
AcDbCircle
 10
363.203206
 20
398.53147
 30
0.0
 40
1.25
  0
CIRCLE
  5
40A
100
AcDbEntity
  8
0
100
AcDbCircle
 10
365.703206
 20
398.53147
 30
0.0
 40
1.25
  0
CIRCLE
  5
40B
100
AcDbEntity
  8
0
100
AcDbCircle
 10
368.203206
 20
398.53147
 30
0.0
 40
1.25
  0
CIRCLE
  5
40C
100
AcDbEntity
  8
0
100
AcDbCircle
 10
370.703206
 20
398.53147
 30
0.0
 40
1.25
  0
CIRCLE
  5
40D
100
AcDbEntity
  8
0
100
AcDbCircle
 10
304.114161
 20
391.612075
 30
0.0
 40
1.25
  0
CIRCLE
  5
40E
100
AcDbEntity
  8
0
100
AcDbCircle
 10
306.614161
 20
391.612075
 30
0.0
 40
1.25
  0
CIRCLE
  5
40F
100
AcDbEntity
  8
0
100
AcDbCircle
 10
309.114161
 20
391.612075
 30
0.0
 40
1.25
  0
CIRCLE
  5
410
100
AcDbEntity
  8
0
100
AcDbCircle
 10
311.614161
 20
391.612075
 30
0.0
 40
1.25
  0
CIRCLE
  5
411
100
AcDbEntity
  8
0
100
AcDbCircle
 10
314.114161
 20
391.612075
 30
0.0
 40
1.25
  0
CIRCLE
  5
412
100
AcDbEntity
  8
0
100
AcDbCircle
 10
316.614161
 20
391.612075
 30
0.0
 40
1.25
  0
CIRCLE
  5
413
100
AcDbEntity
  8
0
100
AcDbCircle
 10
319.114161
 20
391.612075
 30
0.0
 40
1.25
  0
CIRCLE
  5
414
100
AcDbEntity
  8
0
100
AcDbCircle
 10
321.614161
 20
391.612075
 30
0.0
 40
1.25
  0
CIRCLE
  5
415
100
AcDbEntity
  8
0
100
AcDbCircle
 10
324.114161
 20
391.612075
 30
0.0
 40
1.25
  0
CIRCLE
  5
416
100
AcDbEntity
  8
0
100
AcDbCircle
 10
326.614161
 20
391.612075
 30
0.0
 40
1.25
  0
CIRCLE
  5
417
100
AcDbEntity
  8
0
100
AcDbCircle
 10
329.114161
 20
391.612075
 30
0.0
 40
1.25
  0
CIRCLE
  5
418
100
AcDbEntity
  8
0
100
AcDbCircle
 10
331.614161
 20
391.612075
 30
0.0
 40
1.25
  0
CIRCLE
  5
419
100
AcDbEntity
  8
0
100
AcDbCircle
 10
334.114161
 20
391.612075
 30
0.0
 40
1.25
  0
CIRCLE
  5
41A
100
AcDbEntity
  8
0
100
AcDbCircle
 10
336.614161
 20
391.612075
 30
0.0
 40
1.25
  0
CIRCLE
  5
41B
100
AcDbEntity
  8
0
100
AcDbCircle
 10
339.114161
 20
391.612075
 30
0.0
 40
1.25
  0
CIRCLE
  5
41C
100
AcDbEntity
  8
0
100
AcDbCircle
 10
341.614161
 20
391.612075
 30
0.0
 40
1.25
  0
CIRCLE
  5
41D
100
AcDbEntity
  8
0
100
AcDbCircle
 10
344.114161
 20
391.612075
 30
0.0
 40
1.25
  0
CIRCLE
  5
41E
100
AcDbEntity
  8
0
100
AcDbCircle
 10
346.614161
 20
391.612075
 30
0.0
 40
1.25
  0
CIRCLE
  5
41F
100
AcDbEntity
  8
0
100
AcDbCircle
 10
349.114161
 20
391.612075
 30
0.0
 40
1.25
  0
CIRCLE
  5
420
100
AcDbEntity
  8
0
100
AcDbCircle
 10
351.614161
 20
391.612075
 30
0.0
 40
1.25
  0
CIRCLE
  5
421
100
AcDbEntity
  8
0
100
AcDbCircle
 10
354.114161
 20
391.612075
 30
0.0
 40
1.25
  0
CIRCLE
  5
422
100
AcDbEntity
  8
0
100
AcDbCircle
 10
356.614161
 20
391.612075
 30
0.0
 40
1.25
  0
CIRCLE
  5
423
100
AcDbEntity
  8
0
100
AcDbCircle
 10
359.114161
 20
391.612075
 30
0.0
 40
1.25
  0
CIRCLE
  5
424
100
AcDbEntity
  8
0
100
AcDbCircle
 10
361.614161
 20
391.612075
 30
0.0
 40
1.25
  0
CIRCLE
  5
425
100
AcDbEntity
  8
0
100
AcDbCircle
 10
364.114161
 20
391.612075
 30
0.0
 40
1.25
  0
CIRCLE
  5
426
100
AcDbEntity
  8
0
100
AcDbCircle
 10
305.624715
 20
384.798406
 30
0.0
 40
1.25
  0
CIRCLE
  5
427
100
AcDbEntity
  8
0
100
AcDbCircle
 10
308.124715
 20
384.798406
 30
0.0
 40
1.25
  0
CIRCLE
  5
428
100
AcDbEntity
  8
0
100
AcDbCircle
 10
310.624715
 20
384.798406
 30
0.0
 40
1.25
  0
CIRCLE
  5
429
100
AcDbEntity
  8
0
100
AcDbCircle
 10
313.124715
 20
384.798406
 30
0.0
 40
1.25
  0
CIRCLE
  5
42A
100
AcDbEntity
  8
0
100
AcDbCircle
 10
315.624715
 20
384.798406
 30
0.0
 40
1.25
  0
CIRCLE
  5
42B
100
AcDbEntity
  8
0
100
AcDbCircle
 10
318.124715
 20
384.798406
 30
0.0
 40
1.25
  0
CIRCLE
  5
42C
100
AcDbEntity
  8
0
100
AcDbCircle
 10
320.624715
 20
384.798406
 30
0.0
 40
1.25
  0
CIRCLE
  5
42D
100
AcDbEntity
  8
0
100
AcDbCircle
 10
323.124715
 20
384.798406
 30
0.0
 40
1.25
  0
CIRCLE
  5
42E
100
AcDbEntity
  8
0
100
AcDbCircle
 10
325.624715
 20
384.798406
 30
0.0
 40
1.25
  0
CIRCLE
  5
42F
100
AcDbEntity
  8
0
100
AcDbCircle
 10
328.124715
 20
384.798406
 30
0.0
 40
1.25
  0
CIRCLE
  5
430
100
AcDbEntity
  8
0
100
AcDbCircle
 10
330.624715
 20
384.798406
 30
0.0
 40
1.25
  0
CIRCLE
  5
431
100
AcDbEntity
  8
0
100
AcDbCircle
 10
333.124715
 20
384.798406
 30
0.0
 40
1.25
  0
CIRCLE
  5
432
100
AcDbEntity
  8
0
100
AcDbCircle
 10
335.624715
 20
384.798406
 30
0.0
 40
1.25
  0
CIRCLE
  5
433
100
AcDbEntity
  8
0
100
AcDbCircle
 10
338.124715
 20
384.798406
 30
0.0
 40
1.25
  0
CIRCLE
  5
434
100
AcDbEntity
  8
0
100
AcDbCircle
 10
340.624715
 20
384.798406
 30
0.0
 40
1.25
  0
CIRCLE
  5
435
100
AcDbEntity
  8
0
100
AcDbCircle
 10
343.124715
 20
384.798406
 30
0.0
 40
1.25
  0
CIRCLE
  5
436
100
AcDbEntity
  8
0
100
AcDbCircle
 10
345.624715
 20
384.798406
 30
0.0
 40
1.25
  0
CIRCLE
  5
437
100
AcDbEntity
  8
0
100
AcDbCircle
 10
348.124715
 20
384.798406
 30
0.0
 40
1.25
  0
CIRCLE
  5
438
100
AcDbEntity
  8
0
100
AcDbCircle
 10
350.624715
 20
384.798406
 30
0.0
 40
1.25
  0
CIRCLE
  5
439
100
AcDbEntity
  8
0
100
AcDbCircle
 10
358.124715
 20
384.798406
 30
0.0
 40
1.25
  0
CIRCLE
  5
43A
100
AcDbEntity
  8
0
100
AcDbCircle
 10
355.624715
 20
384.798406
 30
0.0
 40
1.25
  0
CIRCLE
  5
43B
100
AcDbEntity
  8
0
100
AcDbCircle
 10
353.124715
 20
384.798406
 30
0.0
 40
1.25
  0
CIRCLE
  5
43C
100
AcDbEntity
  8
0
100
AcDbCircle
 10
307.723372
 20
378.142318
 30
0.0
 40
1.25
  0
CIRCLE
  5
43D
100
AcDbEntity
  8
0
100
AcDbCircle
 10
310.223372
 20
378.142318
 30
0.0
 40
1.25
  0
CIRCLE
  5
43E
100
AcDbEntity
  8
0
100
AcDbCircle
 10
312.723372
 20
378.142318
 30
0.0
 40
1.25
  0
CIRCLE
  5
43F
100
AcDbEntity
  8
0
100
AcDbCircle
 10
315.223372
 20
378.142318
 30
0.0
 40
1.25
  0
CIRCLE
  5
440
100
AcDbEntity
  8
0
100
AcDbCircle
 10
317.723372
 20
378.142318
 30
0.0
 40
1.25
  0
CIRCLE
  5
441
100
AcDbEntity
  8
0
100
AcDbCircle
 10
320.223372
 20
378.142318
 30
0.0
 40
1.25
  0
CIRCLE
  5
442
100
AcDbEntity
  8
0
100
AcDbCircle
 10
322.723372
 20
378.142318
 30
0.0
 40
1.25
  0
CIRCLE
  5
443
100
AcDbEntity
  8
0
100
AcDbCircle
 10
325.223372
 20
378.142318
 30
0.0
 40
1.25
  0
CIRCLE
  5
444
100
AcDbEntity
  8
0
100
AcDbCircle
 10
327.723372
 20
378.142318
 30
0.0
 40
1.25
  0
CIRCLE
  5
445
100
AcDbEntity
  8
0
100
AcDbCircle
 10
330.223372
 20
378.142318
 30
0.0
 40
1.25
  0
CIRCLE
  5
446
100
AcDbEntity
  8
0
100
AcDbCircle
 10
332.723372
 20
378.142318
 30
0.0
 40
1.25
  0
CIRCLE
  5
447
100
AcDbEntity
  8
0
100
AcDbCircle
 10
335.223372
 20
378.142318
 30
0.0
 40
1.25
  0
CIRCLE
  5
448
100
AcDbEntity
  8
0
100
AcDbCircle
 10
337.723372
 20
378.142318
 30
0.0
 40
1.25
  0
CIRCLE
  5
449
100
AcDbEntity
  8
0
100
AcDbCircle
 10
340.223372
 20
378.142318
 30
0.0
 40
1.25
  0
CIRCLE
  5
44A
100
AcDbEntity
  8
0
100
AcDbCircle
 10
342.723372
 20
378.142318
 30
0.0
 40
1.25
  0
CIRCLE
  5
44B
100
AcDbEntity
  8
0
100
AcDbCircle
 10
345.223372
 20
378.142318
 30
0.0
 40
1.25
  0
CIRCLE
  5
44C
100
AcDbEntity
  8
0
100
AcDbCircle
 10
347.723372
 20
378.142318
 30
0.0
 40
1.25
  0
CIRCLE
  5
44D
100
AcDbEntity
  8
0
100
AcDbCircle
 10
350.223372
 20
378.142318
 30
0.0
 40
1.25
  0
CIRCLE
  5
44E
100
AcDbEntity
  8
0
100
AcDbCircle
 10
310.394158
 20
371.694468
 30
0.0
 40
1.25
  0
CIRCLE
  5
44F
100
AcDbEntity
  8
0
100
AcDbCircle
 10
312.894158
 20
371.694468
 30
0.0
 40
1.25
  0
CIRCLE
  5
450
100
AcDbEntity
  8
0
100
AcDbCircle
 10
315.394158
 20
371.694468
 30
0.0
 40
1.25
  0
CIRCLE
  5
451
100
AcDbEntity
  8
0
100
AcDbCircle
 10
317.894158
 20
371.694468
 30
0.0
 40
1.25
  0
CIRCLE
  5
452
100
AcDbEntity
  8
0
100
AcDbCircle
 10
320.394158
 20
371.694468
 30
0.0
 40
1.25
  0
CIRCLE
  5
453
100
AcDbEntity
  8
0
100
AcDbCircle
 10
322.894158
 20
371.694468
 30
0.0
 40
1.25
  0
CIRCLE
  5
454
100
AcDbEntity
  8
0
100
AcDbCircle
 10
325.394158
 20
371.694468
 30
0.0
 40
1.25
  0
CIRCLE
  5
455
100
AcDbEntity
  8
0
100
AcDbCircle
 10
327.894158
 20
371.694468
 30
0.0
 40
1.25
  0
CIRCLE
  5
456
100
AcDbEntity
  8
0
100
AcDbCircle
 10
330.394158
 20
371.694468
 30
0.0
 40
1.25
  0
CIRCLE
  5
457
100
AcDbEntity
  8
0
100
AcDbCircle
 10
332.894158
 20
371.694468
 30
0.0
 40
1.25
  0
CIRCLE
  5
458
100
AcDbEntity
  8
0
100
AcDbCircle
 10
335.394158
 20
371.694468
 30
0.0
 40
1.25
  0
CIRCLE
  5
459
100
AcDbEntity
  8
0
100
AcDbCircle
 10
337.894158
 20
371.694468
 30
0.0
 40
1.25
  0
CIRCLE
  5
45A
100
AcDbEntity
  8
0
100
AcDbCircle
 10
340.394158
 20
371.694468
 30
0.0
 40
1.25
  0
CIRCLE
  5
45B
100
AcDbEntity
  8
0
100
AcDbCircle
 10
342.894158
 20
371.694468
 30
0.0
 40
1.25
  0
CIRCLE
  5
45C
100
AcDbEntity
  8
0
100
AcDbCircle
 10
345.394158
 20
371.694468
 30
0.0
 40
1.25
  0
CIRCLE
  5
45D
100
AcDbEntity
  8
0
100
AcDbCircle
 10
313.616749
 20
365.503929
 30
0.0
 40
1.25
  0
CIRCLE
  5
45E
100
AcDbEntity
  8
0
100
AcDbCircle
 10
316.116749
 20
365.503929
 30
0.0
 40
1.25
  0
CIRCLE
  5
45F
100
AcDbEntity
  8
0
100
AcDbCircle
 10
318.616749
 20
365.503929
 30
0.0
 40
1.25
  0
CIRCLE
  5
460
100
AcDbEntity
  8
0
100
AcDbCircle
 10
321.116749
 20
365.503929
 30
0.0
 40
1.25
  0
CIRCLE
  5
461
100
AcDbEntity
  8
0
100
AcDbCircle
 10
323.616749
 20
365.503929
 30
0.0
 40
1.25
  0
CIRCLE
  5
462
100
AcDbEntity
  8
0
100
AcDbCircle
 10
326.116749
 20
365.503929
 30
0.0
 40
1.25
  0
CIRCLE
  5
463
100
AcDbEntity
  8
0
100
AcDbCircle
 10
328.616749
 20
365.503929
 30
0.0
 40
1.25
  0
CIRCLE
  5
464
100
AcDbEntity
  8
0
100
AcDbCircle
 10
331.116749
 20
365.503929
 30
0.0
 40
1.25
  0
CIRCLE
  5
465
100
AcDbEntity
  8
0
100
AcDbCircle
 10
333.616749
 20
365.503929
 30
0.0
 40
1.25
  0
CIRCLE
  5
466
100
AcDbEntity
  8
0
100
AcDbCircle
 10
336.116749
 20
365.503929
 30
0.0
 40
1.25
  0
CIRCLE
  5
467
100
AcDbEntity
  8
0
100
AcDbCircle
 10
338.616749
 20
365.503929
 30
0.0
 40
1.25
  0
CIRCLE
  5
468
100
AcDbEntity
  8
0
100
AcDbCircle
 10
317.366618
 20
359.617814
 30
0.0
 40
1.25
  0
CIRCLE
  5
469
100
AcDbEntity
  8
0
100
AcDbCircle
 10
319.866618
 20
359.617814
 30
0.0
 40
1.25
  0
CIRCLE
  5
46A
100
AcDbEntity
  8
0
100
AcDbCircle
 10
322.366618
 20
359.617814
 30
0.0
 40
1.25
  0
CIRCLE
  5
46B
100
AcDbEntity
  8
0
100
AcDbCircle
 10
324.866618
 20
359.617814
 30
0.0
 40
1.25
  0
CIRCLE
  5
46C
100
AcDbEntity
  8
0
100
AcDbCircle
 10
327.366618
 20
359.617814
 30
0.0
 40
1.25
  0
CIRCLE
  5
46D
100
AcDbEntity
  8
0
100
AcDbCircle
 10
329.866618
 20
359.617814
 30
0.0
 40
1.25
  0
CIRCLE
  5
46E
100
AcDbEntity
  8
0
100
AcDbCircle
 10
332.366618
 20
359.617814
 30
0.0
 40
1.25
  0
CIRCLE
  5
46F
100
AcDbEntity
  8
0
100
AcDbCircle
 10
338.616749
 20
445.503929
 30
0.0
 40
1.25
  0
CIRCLE
  5
470
100
AcDbEntity
  8
0
100
AcDbCircle
 10
336.116749
 20
445.503929
 30
0.0
 40
1.25
  0
CIRCLE
  5
471
100
AcDbEntity
  8
0
100
AcDbCircle
 10
333.616749
 20
445.503929
 30
0.0
 40
1.25
  0
CIRCLE
  5
472
100
AcDbEntity
  8
0
100
AcDbCircle
 10
331.116749
 20
445.503929
 30
0.0
 40
1.25
  0
CIRCLE
  5
473
100
AcDbEntity
  8
0
100
AcDbCircle
 10
328.616749
 20
445.503929
 30
0.0
 40
1.25
  0
CIRCLE
  5
474
100
AcDbEntity
  8
0
100
AcDbCircle
 10
326.116749
 20
445.503929
 30
0.0
 40
1.25
  0
CIRCLE
  5
475
100
AcDbEntity
  8
0
100
AcDbCircle
 10
323.616749
 20
445.503929
 30
0.0
 40
1.25
  0
CIRCLE
  5
476
100
AcDbEntity
  8
0
100
AcDbCircle
 10
321.116749
 20
445.503929
 30
0.0
 40
1.25
  0
CIRCLE
  5
477
100
AcDbEntity
  8
0
100
AcDbCircle
 10
318.616749
 20
445.503929
 30
0.0
 40
1.25
  0
CIRCLE
  5
478
100
AcDbEntity
  8
0
100
AcDbCircle
 10
316.116749
 20
445.503929
 30
0.0
 40
1.25
  0
CIRCLE
  5
479
100
AcDbEntity
  8
0
100
AcDbCircle
 10
313.616749
 20
445.503929
 30
0.0
 40
1.25
  0
CIRCLE
  5
47A
100
AcDbEntity
  8
0
100
AcDbCircle
 10
345.394158
 20
439.31339
 30
0.0
 40
1.25
  0
CIRCLE
  5
47B
100
AcDbEntity
  8
0
100
AcDbCircle
 10
342.894158
 20
439.31339
 30
0.0
 40
1.25
  0
CIRCLE
  5
47C
100
AcDbEntity
  8
0
100
AcDbCircle
 10
340.394158
 20
439.31339
 30
0.0
 40
1.25
  0
CIRCLE
  5
47D
100
AcDbEntity
  8
0
100
AcDbCircle
 10
337.894158
 20
439.31339
 30
0.0
 40
1.25
  0
CIRCLE
  5
47E
100
AcDbEntity
  8
0
100
AcDbCircle
 10
335.394158
 20
439.31339
 30
0.0
 40
1.25
  0
CIRCLE
  5
47F
100
AcDbEntity
  8
0
100
AcDbCircle
 10
332.894158
 20
439.31339
 30
0.0
 40
1.25
  0
CIRCLE
  5
480
100
AcDbEntity
  8
0
100
AcDbCircle
 10
330.394158
 20
439.31339
 30
0.0
 40
1.25
  0
CIRCLE
  5
481
100
AcDbEntity
  8
0
100
AcDbCircle
 10
327.894158
 20
439.31339
 30
0.0
 40
1.25
  0
CIRCLE
  5
482
100
AcDbEntity
  8
0
100
AcDbCircle
 10
325.394158
 20
439.31339
 30
0.0
 40
1.25
  0
CIRCLE
  5
483
100
AcDbEntity
  8
0
100
AcDbCircle
 10
322.894158
 20
439.31339
 30
0.0
 40
1.25
  0
CIRCLE
  5
484
100
AcDbEntity
  8
0
100
AcDbCircle
 10
320.394158
 20
439.31339
 30
0.0
 40
1.25
  0
CIRCLE
  5
485
100
AcDbEntity
  8
0
100
AcDbCircle
 10
317.894158
 20
439.31339
 30
0.0
 40
1.25
  0
CIRCLE
  5
486
100
AcDbEntity
  8
0
100
AcDbCircle
 10
315.394158
 20
439.31339
 30
0.0
 40
1.25
  0
CIRCLE
  5
487
100
AcDbEntity
  8
0
100
AcDbCircle
 10
312.894158
 20
439.31339
 30
0.0
 40
1.25
  0
CIRCLE
  5
488
100
AcDbEntity
  8
0
100
AcDbCircle
 10
310.394158
 20
439.31339
 30
0.0
 40
1.25
  0
CIRCLE
  5
489
100
AcDbEntity
  8
0
100
AcDbCircle
 10
350.223372
 20
432.865541
 30
0.0
 40
1.25
  0
CIRCLE
  5
48A
100
AcDbEntity
  8
0
100
AcDbCircle
 10
347.723372
 20
432.865541
 30
0.0
 40
1.25
  0
CIRCLE
  5
48B
100
AcDbEntity
  8
0
100
AcDbCircle
 10
345.223372
 20
432.865541
 30
0.0
 40
1.25
  0
CIRCLE
  5
48C
100
AcDbEntity
  8
0
100
AcDbCircle
 10
342.723372
 20
432.865541
 30
0.0
 40
1.25
  0
CIRCLE
  5
48D
100
AcDbEntity
  8
0
100
AcDbCircle
 10
340.223372
 20
432.865541
 30
0.0
 40
1.25
  0
CIRCLE
  5
48E
100
AcDbEntity
  8
0
100
AcDbCircle
 10
337.723372
 20
432.865541
 30
0.0
 40
1.25
  0
CIRCLE
  5
48F
100
AcDbEntity
  8
0
100
AcDbCircle
 10
335.223372
 20
432.865541
 30
0.0
 40
1.25
  0
CIRCLE
  5
490
100
AcDbEntity
  8
0
100
AcDbCircle
 10
332.723372
 20
432.865541
 30
0.0
 40
1.25
  0
CIRCLE
  5
491
100
AcDbEntity
  8
0
100
AcDbCircle
 10
330.223372
 20
432.865541
 30
0.0
 40
1.25
  0
CIRCLE
  5
492
100
AcDbEntity
  8
0
100
AcDbCircle
 10
327.723372
 20
432.865541
 30
0.0
 40
1.25
  0
CIRCLE
  5
493
100
AcDbEntity
  8
0
100
AcDbCircle
 10
325.223372
 20
432.865541
 30
0.0
 40
1.25
  0
CIRCLE
  5
494
100
AcDbEntity
  8
0
100
AcDbCircle
 10
322.723372
 20
432.865541
 30
0.0
 40
1.25
  0
CIRCLE
  5
495
100
AcDbEntity
  8
0
100
AcDbCircle
 10
320.223372
 20
432.865541
 30
0.0
 40
1.25
  0
CIRCLE
  5
496
100
AcDbEntity
  8
0
100
AcDbCircle
 10
317.723372
 20
432.865541
 30
0.0
 40
1.25
  0
CIRCLE
  5
497
100
AcDbEntity
  8
0
100
AcDbCircle
 10
315.223372
 20
432.865541
 30
0.0
 40
1.25
  0
CIRCLE
  5
498
100
AcDbEntity
  8
0
100
AcDbCircle
 10
312.723372
 20
432.865541
 30
0.0
 40
1.25
  0
CIRCLE
  5
499
100
AcDbEntity
  8
0
100
AcDbCircle
 10
310.223372
 20
432.865541
 30
0.0
 40
1.25
  0
CIRCLE
  5
49A
100
AcDbEntity
  8
0
100
AcDbCircle
 10
307.723372
 20
432.865541
 30
0.0
 40
1.25
  0
CIRCLE
  5
49B
100
AcDbEntity
  8
0
100
AcDbCircle
 10
353.124715
 20
426.209453
 30
0.0
 40
1.25
  0
CIRCLE
  5
49C
100
AcDbEntity
  8
0
100
AcDbCircle
 10
355.624715
 20
426.209453
 30
0.0
 40
1.25
  0
CIRCLE
  5
49D
100
AcDbEntity
  8
0
100
AcDbCircle
 10
358.124715
 20
426.209453
 30
0.0
 40
1.25
  0
CIRCLE
  5
49E
100
AcDbEntity
  8
0
100
AcDbCircle
 10
350.624715
 20
426.209453
 30
0.0
 40
1.25
  0
CIRCLE
  5
49F
100
AcDbEntity
  8
0
100
AcDbCircle
 10
348.124715
 20
426.209453
 30
0.0
 40
1.25
  0
CIRCLE
  5
4A0
100
AcDbEntity
  8
0
100
AcDbCircle
 10
345.624715
 20
426.209453
 30
0.0
 40
1.25
  0
CIRCLE
  5
4A1
100
AcDbEntity
  8
0
100
AcDbCircle
 10
343.124715
 20
426.209453
 30
0.0
 40
1.25
  0
CIRCLE
  5
4A2
100
AcDbEntity
  8
0
100
AcDbCircle
 10
340.624715
 20
426.209453
 30
0.0
 40
1.25
  0
CIRCLE
  5
4A3
100
AcDbEntity
  8
0
100
AcDbCircle
 10
338.124715
 20
426.209453
 30
0.0
 40
1.25
  0
CIRCLE
  5
4A4
100
AcDbEntity
  8
0
100
AcDbCircle
 10
335.624715
 20
426.209453
 30
0.0
 40
1.25
  0
CIRCLE
  5
4A5
100
AcDbEntity
  8
0
100
AcDbCircle
 10
333.124715
 20
426.209453
 30
0.0
 40
1.25
  0
CIRCLE
  5
4A6
100
AcDbEntity
  8
0
100
AcDbCircle
 10
330.624715
 20
426.209453
 30
0.0
 40
1.25
  0
CIRCLE
  5
4A7
100
AcDbEntity
  8
0
100
AcDbCircle
 10
328.124715
 20
426.209453
 30
0.0
 40
1.25
  0
CIRCLE
  5
4A8
100
AcDbEntity
  8
0
100
AcDbCircle
 10
325.624715
 20
426.209453
 30
0.0
 40
1.25
  0
CIRCLE
  5
4A9
100
AcDbEntity
  8
0
100
AcDbCircle
 10
323.124715
 20
426.209453
 30
0.0
 40
1.25
  0
CIRCLE
  5
4AA
100
AcDbEntity
  8
0
100
AcDbCircle
 10
320.624715
 20
426.209453
 30
0.0
 40
1.25
  0
CIRCLE
  5
4AB
100
AcDbEntity
  8
0
100
AcDbCircle
 10
318.124715
 20
426.209453
 30
0.0
 40
1.25
  0
CIRCLE
  5
4AC
100
AcDbEntity
  8
0
100
AcDbCircle
 10
315.624715
 20
426.209453
 30
0.0
 40
1.25
  0
CIRCLE
  5
4AD
100
AcDbEntity
  8
0
100
AcDbCircle
 10
313.124715
 20
426.209453
 30
0.0
 40
1.25
  0
CIRCLE
  5
4AE
100
AcDbEntity
  8
0
100
AcDbCircle
 10
310.624715
 20
426.209453
 30
0.0
 40
1.25
  0
CIRCLE
  5
4AF
100
AcDbEntity
  8
0
100
AcDbCircle
 10
308.124715
 20
426.209453
 30
0.0
 40
1.25
  0
CIRCLE
  5
4B0
100
AcDbEntity
  8
0
100
AcDbCircle
 10
305.624715
 20
426.209453
 30
0.0
 40
1.25
  0
CIRCLE
  5
4B1
100
AcDbEntity
  8
0
100
AcDbCircle
 10
364.114161
 20
419.395783
 30
0.0
 40
1.25
  0
CIRCLE
  5
4B2
100
AcDbEntity
  8
0
100
AcDbCircle
 10
361.614161
 20
419.395783
 30
0.0
 40
1.25
  0
CIRCLE
  5
4B3
100
AcDbEntity
  8
0
100
AcDbCircle
 10
359.114161
 20
419.395783
 30
0.0
 40
1.25
  0
CIRCLE
  5
4B4
100
AcDbEntity
  8
0
100
AcDbCircle
 10
356.614161
 20
419.395783
 30
0.0
 40
1.25
  0
CIRCLE
  5
4B5
100
AcDbEntity
  8
0
100
AcDbCircle
 10
354.114161
 20
419.395783
 30
0.0
 40
1.25
  0
CIRCLE
  5
4B6
100
AcDbEntity
  8
0
100
AcDbCircle
 10
351.614161
 20
419.395783
 30
0.0
 40
1.25
  0
CIRCLE
  5
4B7
100
AcDbEntity
  8
0
100
AcDbCircle
 10
349.114161
 20
419.395783
 30
0.0
 40
1.25
  0
CIRCLE
  5
4B8
100
AcDbEntity
  8
0
100
AcDbCircle
 10
346.614161
 20
419.395783
 30
0.0
 40
1.25
  0
CIRCLE
  5
4B9
100
AcDbEntity
  8
0
100
AcDbCircle
 10
344.114161
 20
419.395783
 30
0.0
 40
1.25
  0
CIRCLE
  5
4BA
100
AcDbEntity
  8
0
100
AcDbCircle
 10
341.614161
 20
419.395783
 30
0.0
 40
1.25
  0
CIRCLE
  5
4BB
100
AcDbEntity
  8
0
100
AcDbCircle
 10
339.114161
 20
419.395783
 30
0.0
 40
1.25
  0
CIRCLE
  5
4BC
100
AcDbEntity
  8
0
100
AcDbCircle
 10
336.614161
 20
419.395783
 30
0.0
 40
1.25
  0
CIRCLE
  5
4BD
100
AcDbEntity
  8
0
100
AcDbCircle
 10
334.114161
 20
419.395783
 30
0.0
 40
1.25
  0
CIRCLE
  5
4BE
100
AcDbEntity
  8
0
100
AcDbCircle
 10
331.614161
 20
419.395783
 30
0.0
 40
1.25
  0
CIRCLE
  5
4BF
100
AcDbEntity
  8
0
100
AcDbCircle
 10
329.114161
 20
419.395783
 30
0.0
 40
1.25
  0
CIRCLE
  5
4C0
100
AcDbEntity
  8
0
100
AcDbCircle
 10
326.614161
 20
419.395783
 30
0.0
 40
1.25
  0
CIRCLE
  5
4C1
100
AcDbEntity
  8
0
100
AcDbCircle
 10
324.114161
 20
419.395783
 30
0.0
 40
1.25
  0
CIRCLE
  5
4C2
100
AcDbEntity
  8
0
100
AcDbCircle
 10
321.614161
 20
419.395783
 30
0.0
 40
1.25
  0
CIRCLE
  5
4C3
100
AcDbEntity
  8
0
100
AcDbCircle
 10
319.114161
 20
419.395783
 30
0.0
 40
1.25
  0
CIRCLE
  5
4C4
100
AcDbEntity
  8
0
100
AcDbCircle
 10
316.614161
 20
419.395783
 30
0.0
 40
1.25
  0
CIRCLE
  5
4C5
100
AcDbEntity
  8
0
100
AcDbCircle
 10
314.114161
 20
419.395783
 30
0.0
 40
1.25
  0
CIRCLE
  5
4C6
100
AcDbEntity
  8
0
100
AcDbCircle
 10
311.614161
 20
419.395783
 30
0.0
 40
1.25
  0
CIRCLE
  5
4C7
100
AcDbEntity
  8
0
100
AcDbCircle
 10
309.114161
 20
419.395783
 30
0.0
 40
1.25
  0
CIRCLE
  5
4C8
100
AcDbEntity
  8
0
100
AcDbCircle
 10
306.614161
 20
419.395783
 30
0.0
 40
1.25
  0
CIRCLE
  5
4C9
100
AcDbEntity
  8
0
100
AcDbCircle
 10
304.114161
 20
419.395783
 30
0.0
 40
1.25
  0
CIRCLE
  5
4CA
100
AcDbEntity
  8
0
100
AcDbCircle
 10
370.703206
 20
412.476389
 30
0.0
 40
1.25
  0
CIRCLE
  5
4CB
100
AcDbEntity
  8
0
100
AcDbCircle
 10
368.203206
 20
412.476389
 30
0.0
 40
1.25
  0
CIRCLE
  5
4CC
100
AcDbEntity
  8
0
100
AcDbCircle
 10
365.703206
 20
412.476389
 30
0.0
 40
1.25
  0
CIRCLE
  5
4CD
100
AcDbEntity
  8
0
100
AcDbCircle
 10
363.203206
 20
412.476389
 30
0.0
 40
1.25
  0
CIRCLE
  5
4CE
100
AcDbEntity
  8
0
100
AcDbCircle
 10
360.703206
 20
412.476389
 30
0.0
 40
1.25
  0
CIRCLE
  5
4CF
100
AcDbEntity
  8
0
100
AcDbCircle
 10
358.203206
 20
412.476389
 30
0.0
 40
1.25
  0
CIRCLE
  5
4D0
100
AcDbEntity
  8
0
100
AcDbCircle
 10
355.703206
 20
412.476389
 30
0.0
 40
1.25
  0
CIRCLE
  5
4D1
100
AcDbEntity
  8
0
100
AcDbCircle
 10
353.203206
 20
412.476389
 30
0.0
 40
1.25
  0
CIRCLE
  5
4D2
100
AcDbEntity
  8
0
100
AcDbCircle
 10
350.703206
 20
412.476389
 30
0.0
 40
1.25
  0
CIRCLE
  5
4D3
100
AcDbEntity
  8
0
100
AcDbCircle
 10
348.203206
 20
412.476389
 30
0.0
 40
1.25
  0
CIRCLE
  5
4D4
100
AcDbEntity
  8
0
100
AcDbCircle
 10
345.703206
 20
412.476389
 30
0.0
 40
1.25
  0
CIRCLE
  5
4D5
100
AcDbEntity
  8
0
100
AcDbCircle
 10
343.203206
 20
412.476389
 30
0.0
 40
1.25
  0
CIRCLE
  5
4D6
100
AcDbEntity
  8
0
100
AcDbCircle
 10
340.703206
 20
412.476389
 30
0.0
 40
1.25
  0
CIRCLE
  5
4D7
100
AcDbEntity
  8
0
100
AcDbCircle
 10
338.203206
 20
412.476389
 30
0.0
 40
1.25
  0
CIRCLE
  5
4D8
100
AcDbEntity
  8
0
100
AcDbCircle
 10
335.703206
 20
412.476389
 30
0.0
 40
1.25
  0
CIRCLE
  5
4D9
100
AcDbEntity
  8
0
100
AcDbCircle
 10
333.203206
 20
412.476389
 30
0.0
 40
1.25
  0
CIRCLE
  5
4DA
100
AcDbEntity
  8
0
100
AcDbCircle
 10
330.703206
 20
412.476389
 30
0.0
 40
1.25
  0
CIRCLE
  5
4DB
100
AcDbEntity
  8
0
100
AcDbCircle
 10
328.203206
 20
412.476389
 30
0.0
 40
1.25
  0
CIRCLE
  5
4DC
100
AcDbEntity
  8
0
100
AcDbCircle
 10
325.703206
 20
412.476389
 30
0.0
 40
1.25
  0
CIRCLE
  5
4DD
100
AcDbEntity
  8
0
100
AcDbCircle
 10
323.203206
 20
412.476389
 30
0.0
 40
1.25
  0
CIRCLE
  5
4DE
100
AcDbEntity
  8
0
100
AcDbCircle
 10
320.703206
 20
412.476389
 30
0.0
 40
1.25
  0
CIRCLE
  5
4DF
100
AcDbEntity
  8
0
100
AcDbCircle
 10
318.203206
 20
412.476389
 30
0.0
 40
1.25
  0
CIRCLE
  5
4E0
100
AcDbEntity
  8
0
100
AcDbCircle
 10
315.703206
 20
412.476389
 30
0.0
 40
1.25
  0
CIRCLE
  5
4E1
100
AcDbEntity
  8
0
100
AcDbCircle
 10
313.203206
 20
412.476389
 30
0.0
 40
1.25
  0
CIRCLE
  5
4E2
100
AcDbEntity
  8
0
100
AcDbCircle
 10
310.703206
 20
412.476389
 30
0.0
 40
1.25
  0
CIRCLE
  5
4E3
100
AcDbEntity
  8
0
100
AcDbCircle
 10
308.203206
 20
412.476389
 30
0.0
 40
1.25
  0
CIRCLE
  5
4E4
100
AcDbEntity
  8
0
100
AcDbCircle
 10
305.703206
 20
412.476389
 30
0.0
 40
1.25
  0
CIRCLE
  5
4E5
100
AcDbEntity
  8
0
100
AcDbCircle
 10
303.203206
 20
412.476389
 30
0.0
 40
1.25
  0
CIRCLE
  5
4E6
100
AcDbEntity
  8
0
100
AcDbCircle
 10
457.594357
 20
412.476389
 30
0.0
 40
1.25
  0
CIRCLE
  5
4E7
100
AcDbEntity
  8
0
100
AcDbCircle
 10
455.094357
 20
412.476389
 30
0.0
 40
1.25
  0
CIRCLE
  5
4E8
100
AcDbEntity
  8
0
100
AcDbCircle
 10
452.594357
 20
412.476389
 30
0.0
 40
1.25
  0
CIRCLE
  5
4E9
100
AcDbEntity
  8
0
100
AcDbCircle
 10
450.094357
 20
412.476389
 30
0.0
 40
1.25
  0
CIRCLE
  5
4EA
100
AcDbEntity
  8
0
100
AcDbCircle
 10
447.594357
 20
412.476389
 30
0.0
 40
1.25
  0
CIRCLE
  5
4EB
100
AcDbEntity
  8
0
100
AcDbCircle
 10
445.094357
 20
412.476389
 30
0.0
 40
1.25
  0
CIRCLE
  5
4EC
100
AcDbEntity
  8
0
100
AcDbCircle
 10
442.594357
 20
412.476389
 30
0.0
 40
1.25
  0
CIRCLE
  5
4ED
100
AcDbEntity
  8
0
100
AcDbCircle
 10
440.094357
 20
412.476389
 30
0.0
 40
1.25
  0
CIRCLE
  5
4EE
100
AcDbEntity
  8
0
100
AcDbCircle
 10
437.594357
 20
412.476389
 30
0.0
 40
1.25
  0
CIRCLE
  5
4EF
100
AcDbEntity
  8
0
100
AcDbCircle
 10
435.094357
 20
412.476389
 30
0.0
 40
1.25
  0
CIRCLE
  5
4F0
100
AcDbEntity
  8
0
100
AcDbCircle
 10
432.594357
 20
412.476389
 30
0.0
 40
1.25
  0
CIRCLE
  5
4F1
100
AcDbEntity
  8
0
100
AcDbCircle
 10
430.094357
 20
412.476389
 30
0.0
 40
1.25
  0
CIRCLE
  5
4F2
100
AcDbEntity
  8
0
100
AcDbCircle
 10
427.594357
 20
412.476389
 30
0.0
 40
1.25
  0
CIRCLE
  5
4F3
100
AcDbEntity
  8
0
100
AcDbCircle
 10
425.094357
 20
412.476389
 30
0.0
 40
1.25
  0
CIRCLE
  5
4F4
100
AcDbEntity
  8
0
100
AcDbCircle
 10
422.594357
 20
412.476389
 30
0.0
 40
1.25
  0
CIRCLE
  5
4F5
100
AcDbEntity
  8
0
100
AcDbCircle
 10
420.094357
 20
412.476389
 30
0.0
 40
1.25
  0
CIRCLE
  5
4F6
100
AcDbEntity
  8
0
100
AcDbCircle
 10
417.594357
 20
412.476389
 30
0.0
 40
1.25
  0
CIRCLE
  5
4F7
100
AcDbEntity
  8
0
100
AcDbCircle
 10
415.094357
 20
412.476389
 30
0.0
 40
1.25
  0
CIRCLE
  5
4F8
100
AcDbEntity
  8
0
100
AcDbCircle
 10
412.594357
 20
412.476389
 30
0.0
 40
1.25
  0
CIRCLE
  5
4F9
100
AcDbEntity
  8
0
100
AcDbCircle
 10
410.094357
 20
412.476389
 30
0.0
 40
1.25
  0
CIRCLE
  5
4FA
100
AcDbEntity
  8
0
100
AcDbCircle
 10
407.594357
 20
412.476389
 30
0.0
 40
1.25
  0
CIRCLE
  5
4FB
100
AcDbEntity
  8
0
100
AcDbCircle
 10
405.094357
 20
412.476389
 30
0.0
 40
1.25
  0
CIRCLE
  5
4FC
100
AcDbEntity
  8
0
100
AcDbCircle
 10
402.594357
 20
412.476389
 30
0.0
 40
1.25
  0
CIRCLE
  5
4FD
100
AcDbEntity
  8
0
100
AcDbCircle
 10
400.094357
 20
412.476389
 30
0.0
 40
1.25
  0
CIRCLE
  5
4FE
100
AcDbEntity
  8
0
100
AcDbCircle
 10
397.594357
 20
412.476389
 30
0.0
 40
1.25
  0
CIRCLE
  5
4FF
100
AcDbEntity
  8
0
100
AcDbCircle
 10
395.094357
 20
412.476389
 30
0.0
 40
1.25
  0
CIRCLE
  5
500
100
AcDbEntity
  8
0
100
AcDbCircle
 10
392.594357
 20
412.476389
 30
0.0
 40
1.25
  0
CIRCLE
  5
501
100
AcDbEntity
  8
0
100
AcDbCircle
 10
390.094357
 20
412.476389
 30
0.0
 40
1.25
  0
CIRCLE
  5
502
100
AcDbEntity
  8
0
100
AcDbCircle
 10
456.683402
 20
419.395783
 30
0.0
 40
1.25
  0
CIRCLE
  5
503
100
AcDbEntity
  8
0
100
AcDbCircle
 10
454.183402
 20
419.395783
 30
0.0
 40
1.25
  0
CIRCLE
  5
504
100
AcDbEntity
  8
0
100
AcDbCircle
 10
451.683402
 20
419.395783
 30
0.0
 40
1.25
  0
CIRCLE
  5
505
100
AcDbEntity
  8
0
100
AcDbCircle
 10
449.183402
 20
419.395783
 30
0.0
 40
1.25
  0
CIRCLE
  5
506
100
AcDbEntity
  8
0
100
AcDbCircle
 10
446.683402
 20
419.395783
 30
0.0
 40
1.25
  0
CIRCLE
  5
507
100
AcDbEntity
  8
0
100
AcDbCircle
 10
444.183402
 20
419.395783
 30
0.0
 40
1.25
  0
CIRCLE
  5
508
100
AcDbEntity
  8
0
100
AcDbCircle
 10
441.683402
 20
419.395783
 30
0.0
 40
1.25
  0
CIRCLE
  5
509
100
AcDbEntity
  8
0
100
AcDbCircle
 10
439.183402
 20
419.395783
 30
0.0
 40
1.25
  0
CIRCLE
  5
50A
100
AcDbEntity
  8
0
100
AcDbCircle
 10
436.683402
 20
419.395783
 30
0.0
 40
1.25
  0
CIRCLE
  5
50B
100
AcDbEntity
  8
0
100
AcDbCircle
 10
434.183402
 20
419.395783
 30
0.0
 40
1.25
  0
CIRCLE
  5
50C
100
AcDbEntity
  8
0
100
AcDbCircle
 10
431.683402
 20
419.395783
 30
0.0
 40
1.25
  0
CIRCLE
  5
50D
100
AcDbEntity
  8
0
100
AcDbCircle
 10
429.183402
 20
419.395783
 30
0.0
 40
1.25
  0
CIRCLE
  5
50E
100
AcDbEntity
  8
0
100
AcDbCircle
 10
426.683402
 20
419.395783
 30
0.0
 40
1.25
  0
CIRCLE
  5
50F
100
AcDbEntity
  8
0
100
AcDbCircle
 10
424.183402
 20
419.395783
 30
0.0
 40
1.25
  0
CIRCLE
  5
510
100
AcDbEntity
  8
0
100
AcDbCircle
 10
421.683402
 20
419.395783
 30
0.0
 40
1.25
  0
CIRCLE
  5
511
100
AcDbEntity
  8
0
100
AcDbCircle
 10
419.183402
 20
419.395783
 30
0.0
 40
1.25
  0
CIRCLE
  5
512
100
AcDbEntity
  8
0
100
AcDbCircle
 10
416.683402
 20
419.395783
 30
0.0
 40
1.25
  0
CIRCLE
  5
513
100
AcDbEntity
  8
0
100
AcDbCircle
 10
414.183402
 20
419.395783
 30
0.0
 40
1.25
  0
CIRCLE
  5
514
100
AcDbEntity
  8
0
100
AcDbCircle
 10
411.683402
 20
419.395783
 30
0.0
 40
1.25
  0
CIRCLE
  5
515
100
AcDbEntity
  8
0
100
AcDbCircle
 10
409.183402
 20
419.395783
 30
0.0
 40
1.25
  0
CIRCLE
  5
516
100
AcDbEntity
  8
0
100
AcDbCircle
 10
406.683402
 20
419.395783
 30
0.0
 40
1.25
  0
CIRCLE
  5
517
100
AcDbEntity
  8
0
100
AcDbCircle
 10
404.183402
 20
419.395783
 30
0.0
 40
1.25
  0
CIRCLE
  5
518
100
AcDbEntity
  8
0
100
AcDbCircle
 10
401.683402
 20
419.395783
 30
0.0
 40
1.25
  0
CIRCLE
  5
519
100
AcDbEntity
  8
0
100
AcDbCircle
 10
399.183402
 20
419.395783
 30
0.0
 40
1.25
  0
CIRCLE
  5
51A
100
AcDbEntity
  8
0
100
AcDbCircle
 10
396.683402
 20
419.395783
 30
0.0
 40
1.25
  0
CIRCLE
  5
51B
100
AcDbEntity
  8
0
100
AcDbCircle
 10
455.172848
 20
426.209453
 30
0.0
 40
1.25
  0
CIRCLE
  5
51C
100
AcDbEntity
  8
0
100
AcDbCircle
 10
452.672848
 20
426.209453
 30
0.0
 40
1.25
  0
CIRCLE
  5
51D
100
AcDbEntity
  8
0
100
AcDbCircle
 10
450.172848
 20
426.209453
 30
0.0
 40
1.25
  0
CIRCLE
  5
51E
100
AcDbEntity
  8
0
100
AcDbCircle
 10
447.672848
 20
426.209453
 30
0.0
 40
1.25
  0
CIRCLE
  5
51F
100
AcDbEntity
  8
0
100
AcDbCircle
 10
445.172848
 20
426.209453
 30
0.0
 40
1.25
  0
CIRCLE
  5
520
100
AcDbEntity
  8
0
100
AcDbCircle
 10
442.672848
 20
426.209453
 30
0.0
 40
1.25
  0
CIRCLE
  5
521
100
AcDbEntity
  8
0
100
AcDbCircle
 10
440.172848
 20
426.209453
 30
0.0
 40
1.25
  0
CIRCLE
  5
522
100
AcDbEntity
  8
0
100
AcDbCircle
 10
437.672848
 20
426.209453
 30
0.0
 40
1.25
  0
CIRCLE
  5
523
100
AcDbEntity
  8
0
100
AcDbCircle
 10
435.172848
 20
426.209453
 30
0.0
 40
1.25
  0
CIRCLE
  5
524
100
AcDbEntity
  8
0
100
AcDbCircle
 10
432.672848
 20
426.209453
 30
0.0
 40
1.25
  0
CIRCLE
  5
525
100
AcDbEntity
  8
0
100
AcDbCircle
 10
430.172848
 20
426.209453
 30
0.0
 40
1.25
  0
CIRCLE
  5
526
100
AcDbEntity
  8
0
100
AcDbCircle
 10
427.672848
 20
426.209453
 30
0.0
 40
1.25
  0
CIRCLE
  5
527
100
AcDbEntity
  8
0
100
AcDbCircle
 10
425.172848
 20
426.209453
 30
0.0
 40
1.25
  0
CIRCLE
  5
528
100
AcDbEntity
  8
0
100
AcDbCircle
 10
422.672848
 20
426.209453
 30
0.0
 40
1.25
  0
CIRCLE
  5
529
100
AcDbEntity
  8
0
100
AcDbCircle
 10
420.172848
 20
426.209453
 30
0.0
 40
1.25
  0
CIRCLE
  5
52A
100
AcDbEntity
  8
0
100
AcDbCircle
 10
417.672848
 20
426.209453
 30
0.0
 40
1.25
  0
CIRCLE
  5
52B
100
AcDbEntity
  8
0
100
AcDbCircle
 10
415.172848
 20
426.209453
 30
0.0
 40
1.25
  0
CIRCLE
  5
52C
100
AcDbEntity
  8
0
100
AcDbCircle
 10
412.672848
 20
426.209453
 30
0.0
 40
1.25
  0
CIRCLE
  5
52D
100
AcDbEntity
  8
0
100
AcDbCircle
 10
410.172848
 20
426.209453
 30
0.0
 40
1.25
  0
CIRCLE
  5
52E
100
AcDbEntity
  8
0
100
AcDbCircle
 10
402.672848
 20
426.209453
 30
0.0
 40
1.25
  0
CIRCLE
  5
52F
100
AcDbEntity
  8
0
100
AcDbCircle
 10
405.172848
 20
426.209453
 30
0.0
 40
1.25
  0
CIRCLE
  5
530
100
AcDbEntity
  8
0
100
AcDbCircle
 10
407.672848
 20
426.209453
 30
0.0
 40
1.25
  0
CIRCLE
  5
531
100
AcDbEntity
  8
0
100
AcDbCircle
 10
453.074191
 20
432.865541
 30
0.0
 40
1.25
  0
CIRCLE
  5
532
100
AcDbEntity
  8
0
100
AcDbCircle
 10
450.574191
 20
432.865541
 30
0.0
 40
1.25
  0
CIRCLE
  5
533
100
AcDbEntity
  8
0
100
AcDbCircle
 10
448.074191
 20
432.865541
 30
0.0
 40
1.25
  0
CIRCLE
  5
534
100
AcDbEntity
  8
0
100
AcDbCircle
 10
445.574191
 20
432.865541
 30
0.0
 40
1.25
  0
CIRCLE
  5
535
100
AcDbEntity
  8
0
100
AcDbCircle
 10
443.074191
 20
432.865541
 30
0.0
 40
1.25
  0
CIRCLE
  5
536
100
AcDbEntity
  8
0
100
AcDbCircle
 10
440.574191
 20
432.865541
 30
0.0
 40
1.25
  0
CIRCLE
  5
537
100
AcDbEntity
  8
0
100
AcDbCircle
 10
438.074191
 20
432.865541
 30
0.0
 40
1.25
  0
CIRCLE
  5
538
100
AcDbEntity
  8
0
100
AcDbCircle
 10
435.574191
 20
432.865541
 30
0.0
 40
1.25
  0
CIRCLE
  5
539
100
AcDbEntity
  8
0
100
AcDbCircle
 10
433.074191
 20
432.865541
 30
0.0
 40
1.25
  0
CIRCLE
  5
53A
100
AcDbEntity
  8
0
100
AcDbCircle
 10
430.574191
 20
432.865541
 30
0.0
 40
1.25
  0
CIRCLE
  5
53B
100
AcDbEntity
  8
0
100
AcDbCircle
 10
428.074191
 20
432.865541
 30
0.0
 40
1.25
  0
CIRCLE
  5
53C
100
AcDbEntity
  8
0
100
AcDbCircle
 10
425.574191
 20
432.865541
 30
0.0
 40
1.25
  0
CIRCLE
  5
53D
100
AcDbEntity
  8
0
100
AcDbCircle
 10
423.074191
 20
432.865541
 30
0.0
 40
1.25
  0
CIRCLE
  5
53E
100
AcDbEntity
  8
0
100
AcDbCircle
 10
420.574191
 20
432.865541
 30
0.0
 40
1.25
  0
CIRCLE
  5
53F
100
AcDbEntity
  8
0
100
AcDbCircle
 10
418.074191
 20
432.865541
 30
0.0
 40
1.25
  0
CIRCLE
  5
540
100
AcDbEntity
  8
0
100
AcDbCircle
 10
415.574191
 20
432.865541
 30
0.0
 40
1.25
  0
CIRCLE
  5
541
100
AcDbEntity
  8
0
100
AcDbCircle
 10
413.074191
 20
432.865541
 30
0.0
 40
1.25
  0
CIRCLE
  5
542
100
AcDbEntity
  8
0
100
AcDbCircle
 10
410.574191
 20
432.865541
 30
0.0
 40
1.25
  0
CIRCLE
  5
543
100
AcDbEntity
  8
0
100
AcDbCircle
 10
450.403404
 20
439.31339
 30
0.0
 40
1.25
  0
CIRCLE
  5
544
100
AcDbEntity
  8
0
100
AcDbCircle
 10
447.903404
 20
439.31339
 30
0.0
 40
1.25
  0
CIRCLE
  5
545
100
AcDbEntity
  8
0
100
AcDbCircle
 10
445.403404
 20
439.31339
 30
0.0
 40
1.25
  0
CIRCLE
  5
546
100
AcDbEntity
  8
0
100
AcDbCircle
 10
442.903404
 20
439.31339
 30
0.0
 40
1.25
  0
CIRCLE
  5
547
100
AcDbEntity
  8
0
100
AcDbCircle
 10
440.403404
 20
439.31339
 30
0.0
 40
1.25
  0
CIRCLE
  5
548
100
AcDbEntity
  8
0
100
AcDbCircle
 10
437.903404
 20
439.31339
 30
0.0
 40
1.25
  0
CIRCLE
  5
549
100
AcDbEntity
  8
0
100
AcDbCircle
 10
435.403404
 20
439.31339
 30
0.0
 40
1.25
  0
CIRCLE
  5
54A
100
AcDbEntity
  8
0
100
AcDbCircle
 10
432.903404
 20
439.31339
 30
0.0
 40
1.25
  0
CIRCLE
  5
54B
100
AcDbEntity
  8
0
100
AcDbCircle
 10
430.403404
 20
439.31339
 30
0.0
 40
1.25
  0
CIRCLE
  5
54C
100
AcDbEntity
  8
0
100
AcDbCircle
 10
427.903404
 20
439.31339
 30
0.0
 40
1.25
  0
CIRCLE
  5
54D
100
AcDbEntity
  8
0
100
AcDbCircle
 10
425.403404
 20
439.31339
 30
0.0
 40
1.25
  0
CIRCLE
  5
54E
100
AcDbEntity
  8
0
100
AcDbCircle
 10
422.903404
 20
439.31339
 30
0.0
 40
1.25
  0
CIRCLE
  5
54F
100
AcDbEntity
  8
0
100
AcDbCircle
 10
420.403404
 20
439.31339
 30
0.0
 40
1.25
  0
CIRCLE
  5
550
100
AcDbEntity
  8
0
100
AcDbCircle
 10
417.903404
 20
439.31339
 30
0.0
 40
1.25
  0
CIRCLE
  5
551
100
AcDbEntity
  8
0
100
AcDbCircle
 10
415.403404
 20
439.31339
 30
0.0
 40
1.25
  0
CIRCLE
  5
552
100
AcDbEntity
  8
0
100
AcDbCircle
 10
447.180814
 20
445.503929
 30
0.0
 40
1.25
  0
CIRCLE
  5
553
100
AcDbEntity
  8
0
100
AcDbCircle
 10
444.680814
 20
445.503929
 30
0.0
 40
1.25
  0
CIRCLE
  5
554
100
AcDbEntity
  8
0
100
AcDbCircle
 10
442.180814
 20
445.503929
 30
0.0
 40
1.25
  0
CIRCLE
  5
555
100
AcDbEntity
  8
0
100
AcDbCircle
 10
439.680814
 20
445.503929
 30
0.0
 40
1.25
  0
CIRCLE
  5
556
100
AcDbEntity
  8
0
100
AcDbCircle
 10
437.180814
 20
445.503929
 30
0.0
 40
1.25
  0
CIRCLE
  5
557
100
AcDbEntity
  8
0
100
AcDbCircle
 10
434.680814
 20
445.503929
 30
0.0
 40
1.25
  0
CIRCLE
  5
558
100
AcDbEntity
  8
0
100
AcDbCircle
 10
432.180814
 20
445.503929
 30
0.0
 40
1.25
  0
CIRCLE
  5
559
100
AcDbEntity
  8
0
100
AcDbCircle
 10
429.680814
 20
445.503929
 30
0.0
 40
1.25
  0
CIRCLE
  5
55A
100
AcDbEntity
  8
0
100
AcDbCircle
 10
427.180814
 20
445.503929
 30
0.0
 40
1.25
  0
CIRCLE
  5
55B
100
AcDbEntity
  8
0
100
AcDbCircle
 10
424.680814
 20
445.503929
 30
0.0
 40
1.25
  0
CIRCLE
  5
55C
100
AcDbEntity
  8
0
100
AcDbCircle
 10
422.180814
 20
445.503929
 30
0.0
 40
1.25
  0
CIRCLE
  5
55D
100
AcDbEntity
  8
0
100
AcDbCircle
 10
443.430945
 20
451.390044
 30
0.0
 40
1.25
  0
CIRCLE
  5
55E
100
AcDbEntity
  8
0
100
AcDbCircle
 10
440.930945
 20
451.390044
 30
0.0
 40
1.25
  0
CIRCLE
  5
55F
100
AcDbEntity
  8
0
100
AcDbCircle
 10
438.430945
 20
451.390044
 30
0.0
 40
1.25
  0
CIRCLE
  5
560
100
AcDbEntity
  8
0
100
AcDbCircle
 10
435.930945
 20
451.390044
 30
0.0
 40
1.25
  0
CIRCLE
  5
561
100
AcDbEntity
  8
0
100
AcDbCircle
 10
433.430945
 20
451.390044
 30
0.0
 40
1.25
  0
CIRCLE
  5
562
100
AcDbEntity
  8
0
100
AcDbCircle
 10
430.930945
 20
451.390044
 30
0.0
 40
1.25
  0
CIRCLE
  5
563
100
AcDbEntity
  8
0
100
AcDbCircle
 10
428.430945
 20
451.390044
 30
0.0
 40
1.25
  0
CIRCLE
  5
564
100
AcDbEntity
  8
0
100
AcDbCircle
 10
439.182337
 20
456.926938
 30
0.0
 40
1.25
  0
CIRCLE
  5
565
100
AcDbEntity
  8
0
100
AcDbCircle
 10
436.682337
 20
456.926938
 30
0.0
 40
1.25
  0
CIRCLE
  5
566
100
AcDbEntity
  8
0
100
AcDbCircle
 10
434.182337
 20
456.926938
 30
0.0
 40
1.25
  0
CIRCLE
  5
567
100
AcDbEntity
  8
0
100
AcDbCircle
 10
434.182337
 20
354.08092
 30
0.0
 40
1.25
  0
CIRCLE
  5
568
100
AcDbEntity
  8
0
100
AcDbCircle
 10
436.682337
 20
354.08092
 30
0.0
 40
1.25
  0
CIRCLE
  5
569
100
AcDbEntity
  8
0
100
AcDbCircle
 10
439.182337
 20
354.08092
 30
0.0
 40
1.25
  0
CIRCLE
  5
56A
100
AcDbEntity
  8
0
100
AcDbCircle
 10
428.430945
 20
359.617814
 30
0.0
 40
1.25
  0
CIRCLE
  5
56B
100
AcDbEntity
  8
0
100
AcDbCircle
 10
430.930945
 20
359.617814
 30
0.0
 40
1.25
  0
CIRCLE
  5
56C
100
AcDbEntity
  8
0
100
AcDbCircle
 10
433.430945
 20
359.617814
 30
0.0
 40
1.25
  0
CIRCLE
  5
56D
100
AcDbEntity
  8
0
100
AcDbCircle
 10
435.930945
 20
359.617814
 30
0.0
 40
1.25
  0
CIRCLE
  5
56E
100
AcDbEntity
  8
0
100
AcDbCircle
 10
438.430945
 20
359.617814
 30
0.0
 40
1.25
  0
CIRCLE
  5
56F
100
AcDbEntity
  8
0
100
AcDbCircle
 10
440.930945
 20
359.617814
 30
0.0
 40
1.25
  0
CIRCLE
  5
570
100
AcDbEntity
  8
0
100
AcDbCircle
 10
443.430945
 20
359.617814
 30
0.0
 40
1.25
  0
CIRCLE
  5
571
100
AcDbEntity
  8
0
100
AcDbCircle
 10
422.180814
 20
365.503929
 30
0.0
 40
1.25
  0
CIRCLE
  5
572
100
AcDbEntity
  8
0
100
AcDbCircle
 10
424.680814
 20
365.503929
 30
0.0
 40
1.25
  0
CIRCLE
  5
573
100
AcDbEntity
  8
0
100
AcDbCircle
 10
427.180814
 20
365.503929
 30
0.0
 40
1.25
  0
CIRCLE
  5
574
100
AcDbEntity
  8
0
100
AcDbCircle
 10
429.680814
 20
365.503929
 30
0.0
 40
1.25
  0
CIRCLE
  5
575
100
AcDbEntity
  8
0
100
AcDbCircle
 10
432.180814
 20
365.503929
 30
0.0
 40
1.25
  0
CIRCLE
  5
576
100
AcDbEntity
  8
0
100
AcDbCircle
 10
434.680814
 20
365.503929
 30
0.0
 40
1.25
  0
CIRCLE
  5
577
100
AcDbEntity
  8
0
100
AcDbCircle
 10
437.180814
 20
365.503929
 30
0.0
 40
1.25
  0
CIRCLE
  5
578
100
AcDbEntity
  8
0
100
AcDbCircle
 10
439.680814
 20
365.503929
 30
0.0
 40
1.25
  0
CIRCLE
  5
579
100
AcDbEntity
  8
0
100
AcDbCircle
 10
442.180814
 20
365.503929
 30
0.0
 40
1.25
  0
CIRCLE
  5
57A
100
AcDbEntity
  8
0
100
AcDbCircle
 10
444.680814
 20
365.503929
 30
0.0
 40
1.25
  0
CIRCLE
  5
57B
100
AcDbEntity
  8
0
100
AcDbCircle
 10
447.180814
 20
365.503929
 30
0.0
 40
1.25
  0
CIRCLE
  5
57C
100
AcDbEntity
  8
0
100
AcDbCircle
 10
415.403404
 20
371.694468
 30
0.0
 40
1.25
  0
CIRCLE
  5
57D
100
AcDbEntity
  8
0
100
AcDbCircle
 10
417.903404
 20
371.694468
 30
0.0
 40
1.25
  0
CIRCLE
  5
57E
100
AcDbEntity
  8
0
100
AcDbCircle
 10
420.403404
 20
371.694468
 30
0.0
 40
1.25
  0
CIRCLE
  5
57F
100
AcDbEntity
  8
0
100
AcDbCircle
 10
422.903404
 20
371.694468
 30
0.0
 40
1.25
  0
CIRCLE
  5
580
100
AcDbEntity
  8
0
100
AcDbCircle
 10
425.403404
 20
371.694468
 30
0.0
 40
1.25
  0
CIRCLE
  5
581
100
AcDbEntity
  8
0
100
AcDbCircle
 10
427.903404
 20
371.694468
 30
0.0
 40
1.25
  0
CIRCLE
  5
582
100
AcDbEntity
  8
0
100
AcDbCircle
 10
430.403404
 20
371.694468
 30
0.0
 40
1.25
  0
CIRCLE
  5
583
100
AcDbEntity
  8
0
100
AcDbCircle
 10
432.903404
 20
371.694468
 30
0.0
 40
1.25
  0
CIRCLE
  5
584
100
AcDbEntity
  8
0
100
AcDbCircle
 10
435.403404
 20
371.694468
 30
0.0
 40
1.25
  0
CIRCLE
  5
585
100
AcDbEntity
  8
0
100
AcDbCircle
 10
437.903404
 20
371.694468
 30
0.0
 40
1.25
  0
CIRCLE
  5
586
100
AcDbEntity
  8
0
100
AcDbCircle
 10
440.403404
 20
371.694468
 30
0.0
 40
1.25
  0
CIRCLE
  5
587
100
AcDbEntity
  8
0
100
AcDbCircle
 10
442.903404
 20
371.694468
 30
0.0
 40
1.25
  0
CIRCLE
  5
588
100
AcDbEntity
  8
0
100
AcDbCircle
 10
445.403404
 20
371.694468
 30
0.0
 40
1.25
  0
CIRCLE
  5
589
100
AcDbEntity
  8
0
100
AcDbCircle
 10
447.903404
 20
371.694468
 30
0.0
 40
1.25
  0
CIRCLE
  5
58A
100
AcDbEntity
  8
0
100
AcDbCircle
 10
450.403404
 20
371.694468
 30
0.0
 40
1.25
  0
CIRCLE
  5
58B
100
AcDbEntity
  8
0
100
AcDbCircle
 10
410.574191
 20
378.142318
 30
0.0
 40
1.25
  0
CIRCLE
  5
58C
100
AcDbEntity
  8
0
100
AcDbCircle
 10
413.074191
 20
378.142318
 30
0.0
 40
1.25
  0
CIRCLE
  5
58D
100
AcDbEntity
  8
0
100
AcDbCircle
 10
415.574191
 20
378.142318
 30
0.0
 40
1.25
  0
CIRCLE
  5
58E
100
AcDbEntity
  8
0
100
AcDbCircle
 10
418.074191
 20
378.142318
 30
0.0
 40
1.25
  0
CIRCLE
  5
58F
100
AcDbEntity
  8
0
100
AcDbCircle
 10
420.574191
 20
378.142318
 30
0.0
 40
1.25
  0
CIRCLE
  5
590
100
AcDbEntity
  8
0
100
AcDbCircle
 10
423.074191
 20
378.142318
 30
0.0
 40
1.25
  0
CIRCLE
  5
591
100
AcDbEntity
  8
0
100
AcDbCircle
 10
425.574191
 20
378.142318
 30
0.0
 40
1.25
  0
CIRCLE
  5
592
100
AcDbEntity
  8
0
100
AcDbCircle
 10
428.074191
 20
378.142318
 30
0.0
 40
1.25
  0
CIRCLE
  5
593
100
AcDbEntity
  8
0
100
AcDbCircle
 10
430.574191
 20
378.142318
 30
0.0
 40
1.25
  0
CIRCLE
  5
594
100
AcDbEntity
  8
0
100
AcDbCircle
 10
433.074191
 20
378.142318
 30
0.0
 40
1.25
  0
CIRCLE
  5
595
100
AcDbEntity
  8
0
100
AcDbCircle
 10
435.574191
 20
378.142318
 30
0.0
 40
1.25
  0
CIRCLE
  5
596
100
AcDbEntity
  8
0
100
AcDbCircle
 10
438.074191
 20
378.142318
 30
0.0
 40
1.25
  0
CIRCLE
  5
597
100
AcDbEntity
  8
0
100
AcDbCircle
 10
440.574191
 20
378.142318
 30
0.0
 40
1.25
  0
CIRCLE
  5
598
100
AcDbEntity
  8
0
100
AcDbCircle
 10
443.074191
 20
378.142318
 30
0.0
 40
1.25
  0
CIRCLE
  5
599
100
AcDbEntity
  8
0
100
AcDbCircle
 10
445.574191
 20
378.142318
 30
0.0
 40
1.25
  0
CIRCLE
  5
59A
100
AcDbEntity
  8
0
100
AcDbCircle
 10
448.074191
 20
378.142318
 30
0.0
 40
1.25
  0
CIRCLE
  5
59B
100
AcDbEntity
  8
0
100
AcDbCircle
 10
450.574191
 20
378.142318
 30
0.0
 40
1.25
  0
CIRCLE
  5
59C
100
AcDbEntity
  8
0
100
AcDbCircle
 10
453.074191
 20
378.142318
 30
0.0
 40
1.25
  0
CIRCLE
  5
59D
100
AcDbEntity
  8
0
100
AcDbCircle
 10
407.672848
 20
384.798406
 30
0.0
 40
1.25
  0
CIRCLE
  5
59E
100
AcDbEntity
  8
0
100
AcDbCircle
 10
405.172848
 20
384.798406
 30
0.0
 40
1.25
  0
CIRCLE
  5
59F
100
AcDbEntity
  8
0
100
AcDbCircle
 10
402.672848
 20
384.798406
 30
0.0
 40
1.25
  0
CIRCLE
  5
5A0
100
AcDbEntity
  8
0
100
AcDbCircle
 10
410.172848
 20
384.798406
 30
0.0
 40
1.25
  0
CIRCLE
  5
5A1
100
AcDbEntity
  8
0
100
AcDbCircle
 10
412.672848
 20
384.798406
 30
0.0
 40
1.25
  0
CIRCLE
  5
5A2
100
AcDbEntity
  8
0
100
AcDbCircle
 10
415.172848
 20
384.798406
 30
0.0
 40
1.25
  0
CIRCLE
  5
5A3
100
AcDbEntity
  8
0
100
AcDbCircle
 10
417.672848
 20
384.798406
 30
0.0
 40
1.25
  0
CIRCLE
  5
5A4
100
AcDbEntity
  8
0
100
AcDbCircle
 10
420.172848
 20
384.798406
 30
0.0
 40
1.25
  0
CIRCLE
  5
5A5
100
AcDbEntity
  8
0
100
AcDbCircle
 10
422.672848
 20
384.798406
 30
0.0
 40
1.25
  0
CIRCLE
  5
5A6
100
AcDbEntity
  8
0
100
AcDbCircle
 10
425.172848
 20
384.798406
 30
0.0
 40
1.25
  0
CIRCLE
  5
5A7
100
AcDbEntity
  8
0
100
AcDbCircle
 10
427.672848
 20
384.798406
 30
0.0
 40
1.25
  0
CIRCLE
  5
5A8
100
AcDbEntity
  8
0
100
AcDbCircle
 10
430.172848
 20
384.798406
 30
0.0
 40
1.25
  0
CIRCLE
  5
5A9
100
AcDbEntity
  8
0
100
AcDbCircle
 10
432.672848
 20
384.798406
 30
0.0
 40
1.25
  0
CIRCLE
  5
5AA
100
AcDbEntity
  8
0
100
AcDbCircle
 10
435.172848
 20
384.798406
 30
0.0
 40
1.25
  0
CIRCLE
  5
5AB
100
AcDbEntity
  8
0
100
AcDbCircle
 10
437.672848
 20
384.798406
 30
0.0
 40
1.25
  0
CIRCLE
  5
5AC
100
AcDbEntity
  8
0
100
AcDbCircle
 10
440.172848
 20
384.798406
 30
0.0
 40
1.25
  0
CIRCLE
  5
5AD
100
AcDbEntity
  8
0
100
AcDbCircle
 10
442.672848
 20
384.798406
 30
0.0
 40
1.25
  0
CIRCLE
  5
5AE
100
AcDbEntity
  8
0
100
AcDbCircle
 10
445.172848
 20
384.798406
 30
0.0
 40
1.25
  0
CIRCLE
  5
5AF
100
AcDbEntity
  8
0
100
AcDbCircle
 10
447.672848
 20
384.798406
 30
0.0
 40
1.25
  0
CIRCLE
  5
5B0
100
AcDbEntity
  8
0
100
AcDbCircle
 10
450.172848
 20
384.798406
 30
0.0
 40
1.25
  0
CIRCLE
  5
5B1
100
AcDbEntity
  8
0
100
AcDbCircle
 10
452.672848
 20
384.798406
 30
0.0
 40
1.25
  0
CIRCLE
  5
5B2
100
AcDbEntity
  8
0
100
AcDbCircle
 10
455.172848
 20
384.798406
 30
0.0
 40
1.25
  0
CIRCLE
  5
5B3
100
AcDbEntity
  8
0
100
AcDbCircle
 10
396.683402
 20
391.612075
 30
0.0
 40
1.25
  0
CIRCLE
  5
5B4
100
AcDbEntity
  8
0
100
AcDbCircle
 10
399.183402
 20
391.612075
 30
0.0
 40
1.25
  0
CIRCLE
  5
5B5
100
AcDbEntity
  8
0
100
AcDbCircle
 10
401.683402
 20
391.612075
 30
0.0
 40
1.25
  0
CIRCLE
  5
5B6
100
AcDbEntity
  8
0
100
AcDbCircle
 10
404.183402
 20
391.612075
 30
0.0
 40
1.25
  0
CIRCLE
  5
5B7
100
AcDbEntity
  8
0
100
AcDbCircle
 10
406.683402
 20
391.612075
 30
0.0
 40
1.25
  0
CIRCLE
  5
5B8
100
AcDbEntity
  8
0
100
AcDbCircle
 10
409.183402
 20
391.612075
 30
0.0
 40
1.25
  0
CIRCLE
  5
5B9
100
AcDbEntity
  8
0
100
AcDbCircle
 10
411.683402
 20
391.612075
 30
0.0
 40
1.25
  0
CIRCLE
  5
5BA
100
AcDbEntity
  8
0
100
AcDbCircle
 10
414.183402
 20
391.612075
 30
0.0
 40
1.25
  0
CIRCLE
  5
5BB
100
AcDbEntity
  8
0
100
AcDbCircle
 10
416.683402
 20
391.612075
 30
0.0
 40
1.25
  0
CIRCLE
  5
5BC
100
AcDbEntity
  8
0
100
AcDbCircle
 10
419.183402
 20
391.612075
 30
0.0
 40
1.25
  0
CIRCLE
  5
5BD
100
AcDbEntity
  8
0
100
AcDbCircle
 10
421.683402
 20
391.612075
 30
0.0
 40
1.25
  0
CIRCLE
  5
5BE
100
AcDbEntity
  8
0
100
AcDbCircle
 10
424.183402
 20
391.612075
 30
0.0
 40
1.25
  0
CIRCLE
  5
5BF
100
AcDbEntity
  8
0
100
AcDbCircle
 10
426.683402
 20
391.612075
 30
0.0
 40
1.25
  0
CIRCLE
  5
5C0
100
AcDbEntity
  8
0
100
AcDbCircle
 10
429.183402
 20
391.612075
 30
0.0
 40
1.25
  0
CIRCLE
  5
5C1
100
AcDbEntity
  8
0
100
AcDbCircle
 10
431.683402
 20
391.612075
 30
0.0
 40
1.25
  0
CIRCLE
  5
5C2
100
AcDbEntity
  8
0
100
AcDbCircle
 10
434.183402
 20
391.612075
 30
0.0
 40
1.25
  0
CIRCLE
  5
5C3
100
AcDbEntity
  8
0
100
AcDbCircle
 10
436.683402
 20
391.612075
 30
0.0
 40
1.25
  0
CIRCLE
  5
5C4
100
AcDbEntity
  8
0
100
AcDbCircle
 10
439.183402
 20
391.612075
 30
0.0
 40
1.25
  0
CIRCLE
  5
5C5
100
AcDbEntity
  8
0
100
AcDbCircle
 10
441.683402
 20
391.612075
 30
0.0
 40
1.25
  0
CIRCLE
  5
5C6
100
AcDbEntity
  8
0
100
AcDbCircle
 10
444.183402
 20
391.612075
 30
0.0
 40
1.25
  0
CIRCLE
  5
5C7
100
AcDbEntity
  8
0
100
AcDbCircle
 10
446.683402
 20
391.612075
 30
0.0
 40
1.25
  0
CIRCLE
  5
5C8
100
AcDbEntity
  8
0
100
AcDbCircle
 10
449.183402
 20
391.612075
 30
0.0
 40
1.25
  0
CIRCLE
  5
5C9
100
AcDbEntity
  8
0
100
AcDbCircle
 10
451.683402
 20
391.612075
 30
0.0
 40
1.25
  0
CIRCLE
  5
5CA
100
AcDbEntity
  8
0
100
AcDbCircle
 10
454.183402
 20
391.612075
 30
0.0
 40
1.25
  0
CIRCLE
  5
5CB
100
AcDbEntity
  8
0
100
AcDbCircle
 10
456.683402
 20
391.612075
 30
0.0
 40
1.25
  0
CIRCLE
  5
5CC
100
AcDbEntity
  8
0
100
AcDbCircle
 10
390.094357
 20
398.53147
 30
0.0
 40
1.25
  0
CIRCLE
  5
5CD
100
AcDbEntity
  8
0
100
AcDbCircle
 10
392.594357
 20
398.53147
 30
0.0
 40
1.25
  0
CIRCLE
  5
5CE
100
AcDbEntity
  8
0
100
AcDbCircle
 10
395.094357
 20
398.53147
 30
0.0
 40
1.25
  0
CIRCLE
  5
5CF
100
AcDbEntity
  8
0
100
AcDbCircle
 10
397.594357
 20
398.53147
 30
0.0
 40
1.25
  0
CIRCLE
  5
5D0
100
AcDbEntity
  8
0
100
AcDbCircle
 10
400.094357
 20
398.53147
 30
0.0
 40
1.25
  0
CIRCLE
  5
5D1
100
AcDbEntity
  8
0
100
AcDbCircle
 10
402.594357
 20
398.53147
 30
0.0
 40
1.25
  0
CIRCLE
  5
5D2
100
AcDbEntity
  8
0
100
AcDbCircle
 10
405.094357
 20
398.53147
 30
0.0
 40
1.25
  0
CIRCLE
  5
5D3
100
AcDbEntity
  8
0
100
AcDbCircle
 10
407.594357
 20
398.53147
 30
0.0
 40
1.25
  0
CIRCLE
  5
5D4
100
AcDbEntity
  8
0
100
AcDbCircle
 10
410.094357
 20
398.53147
 30
0.0
 40
1.25
  0
CIRCLE
  5
5D5
100
AcDbEntity
  8
0
100
AcDbCircle
 10
412.594357
 20
398.53147
 30
0.0
 40
1.25
  0
CIRCLE
  5
5D6
100
AcDbEntity
  8
0
100
AcDbCircle
 10
415.094357
 20
398.53147
 30
0.0
 40
1.25
  0
CIRCLE
  5
5D7
100
AcDbEntity
  8
0
100
AcDbCircle
 10
417.594357
 20
398.53147
 30
0.0
 40
1.25
  0
CIRCLE
  5
5D8
100
AcDbEntity
  8
0
100
AcDbCircle
 10
420.094357
 20
398.53147
 30
0.0
 40
1.25
  0
CIRCLE
  5
5D9
100
AcDbEntity
  8
0
100
AcDbCircle
 10
422.594357
 20
398.53147
 30
0.0
 40
1.25
  0
CIRCLE
  5
5DA
100
AcDbEntity
  8
0
100
AcDbCircle
 10
425.094357
 20
398.53147
 30
0.0
 40
1.25
  0
CIRCLE
  5
5DB
100
AcDbEntity
  8
0
100
AcDbCircle
 10
427.594357
 20
398.53147
 30
0.0
 40
1.25
  0
CIRCLE
  5
5DC
100
AcDbEntity
  8
0
100
AcDbCircle
 10
430.094357
 20
398.53147
 30
0.0
 40
1.25
  0
CIRCLE
  5
5DD
100
AcDbEntity
  8
0
100
AcDbCircle
 10
432.594357
 20
398.53147
 30
0.0
 40
1.25
  0
CIRCLE
  5
5DE
100
AcDbEntity
  8
0
100
AcDbCircle
 10
435.094357
 20
398.53147
 30
0.0
 40
1.25
  0
CIRCLE
  5
5DF
100
AcDbEntity
  8
0
100
AcDbCircle
 10
437.594357
 20
398.53147
 30
0.0
 40
1.25
  0
CIRCLE
  5
5E0
100
AcDbEntity
  8
0
100
AcDbCircle
 10
440.094357
 20
398.53147
 30
0.0
 40
1.25
  0
CIRCLE
  5
5E1
100
AcDbEntity
  8
0
100
AcDbCircle
 10
442.594357
 20
398.53147
 30
0.0
 40
1.25
  0
CIRCLE
  5
5E2
100
AcDbEntity
  8
0
100
AcDbCircle
 10
445.094357
 20
398.53147
 30
0.0
 40
1.25
  0
CIRCLE
  5
5E3
100
AcDbEntity
  8
0
100
AcDbCircle
 10
447.594357
 20
398.53147
 30
0.0
 40
1.25
  0
CIRCLE
  5
5E4
100
AcDbEntity
  8
0
100
AcDbCircle
 10
450.094357
 20
398.53147
 30
0.0
 40
1.25
  0
CIRCLE
  5
5E5
100
AcDbEntity
  8
0
100
AcDbCircle
 10
452.594357
 20
398.53147
 30
0.0
 40
1.25
  0
CIRCLE
  5
5E6
100
AcDbEntity
  8
0
100
AcDbCircle
 10
455.094357
 20
398.53147
 30
0.0
 40
1.25
  0
CIRCLE
  5
5E7
100
AcDbEntity
  8
0
100
AcDbCircle
 10
457.594357
 20
398.53147
 30
0.0
 40
1.25
  0
CIRCLE
  5
5E8
100
AcDbEntity
  8
0
100
AcDbCircle
 10
385.398781
 20
405.503929
 30
0.0
 40
1.25
  0
CIRCLE
  5
5E9
100
AcDbEntity
  8
0
100
AcDbCircle
 10
382.898781
 20
405.503929
 30
0.0
 40
1.25
  0
CIRCLE
  5
5EA
100
AcDbEntity
  8
0
100
AcDbCircle
 10
387.898781
 20
405.503929
 30
0.0
 40
1.25
  0
CIRCLE
  5
5EB
100
AcDbEntity
  8
0
100
AcDbCircle
 10
390.398781
 20
405.503929
 30
0.0
 40
1.25
  0
CIRCLE
  5
5EC
100
AcDbEntity
  8
0
100
AcDbCircle
 10
392.898781
 20
405.503929
 30
0.0
 40
1.25
  0
CIRCLE
  5
5ED
100
AcDbEntity
  8
0
100
AcDbCircle
 10
395.398781
 20
405.503929
 30
0.0
 40
1.25
  0
CIRCLE
  5
5EE
100
AcDbEntity
  8
0
100
AcDbCircle
 10
397.898781
 20
405.503929
 30
0.0
 40
1.25
  0
CIRCLE
  5
5EF
100
AcDbEntity
  8
0
100
AcDbCircle
 10
400.398781
 20
405.503929
 30
0.0
 40
1.25
  0
CIRCLE
  5
5F0
100
AcDbEntity
  8
0
100
AcDbCircle
 10
402.898781
 20
405.503929
 30
0.0
 40
1.25
  0
CIRCLE
  5
5F1
100
AcDbEntity
  8
0
100
AcDbCircle
 10
405.398781
 20
405.503929
 30
0.0
 40
1.25
  0
CIRCLE
  5
5F2
100
AcDbEntity
  8
0
100
AcDbCircle
 10
407.898781
 20
405.503929
 30
0.0
 40
1.25
  0
CIRCLE
  5
5F3
100
AcDbEntity
  8
0
100
AcDbCircle
 10
410.398781
 20
405.503929
 30
0.0
 40
1.25
  0
CIRCLE
  5
5F4
100
AcDbEntity
  8
0
100
AcDbCircle
 10
412.898781
 20
405.503929
 30
0.0
 40
1.25
  0
CIRCLE
  5
5F5
100
AcDbEntity
  8
0
100
AcDbCircle
 10
415.398781
 20
405.503929
 30
0.0
 40
1.25
  0
CIRCLE
  5
5F6
100
AcDbEntity
  8
0
100
AcDbCircle
 10
417.898781
 20
405.503929
 30
0.0
 40
1.25
  0
CIRCLE
  5
5F7
100
AcDbEntity
  8
0
100
AcDbCircle
 10
420.398781
 20
405.503929
 30
0.0
 40
1.25
  0
CIRCLE
  5
5F8
100
AcDbEntity
  8
0
100
AcDbCircle
 10
422.898781
 20
405.503929
 30
0.0
 40
1.25
  0
CIRCLE
  5
5F9
100
AcDbEntity
  8
0
100
AcDbCircle
 10
425.398781
 20
405.503929
 30
0.0
 40
1.25
  0
CIRCLE
  5
5FA
100
AcDbEntity
  8
0
100
AcDbCircle
 10
427.898781
 20
405.503929
 30
0.0
 40
1.25
  0
CIRCLE
  5
5FB
100
AcDbEntity
  8
0
100
AcDbCircle
 10
430.398781
 20
405.503929
 30
0.0
 40
1.25
  0
CIRCLE
  5
5FC
100
AcDbEntity
  8
0
100
AcDbCircle
 10
432.898781
 20
405.503929
 30
0.0
 40
1.25
  0
CIRCLE
  5
5FD
100
AcDbEntity
  8
0
100
AcDbCircle
 10
435.398781
 20
405.503929
 30
0.0
 40
1.25
  0
CIRCLE
  5
5FE
100
AcDbEntity
  8
0
100
AcDbCircle
 10
437.898781
 20
405.503929
 30
0.0
 40
1.25
  0
CIRCLE
  5
5FF
100
AcDbEntity
  8
0
100
AcDbCircle
 10
440.398781
 20
405.503929
 30
0.0
 40
1.25
  0
CIRCLE
  5
600
100
AcDbEntity
  8
0
100
AcDbCircle
 10
442.898781
 20
405.503929
 30
0.0
 40
1.25
  0
CIRCLE
  5
601
100
AcDbEntity
  8
0
100
AcDbCircle
 10
445.398781
 20
405.503929
 30
0.0
 40
1.25
  0
CIRCLE
  5
602
100
AcDbEntity
  8
0
100
AcDbCircle
 10
447.898781
 20
405.503929
 30
0.0
 40
1.25
  0
CIRCLE
  5
603
100
AcDbEntity
  8
0
100
AcDbCircle
 10
450.398781
 20
405.503929
 30
0.0
 40
1.25
  0
CIRCLE
  5
604
100
AcDbEntity
  8
0
100
AcDbCircle
 10
452.898781
 20
405.503929
 30
0.0
 40
1.25
  0
CIRCLE
  5
605
100
AcDbEntity
  8
0
100
AcDbCircle
 10
455.398781
 20
405.503929
 30
0.0
 40
1.25
  0
CIRCLE
  5
606
100
AcDbEntity
  8
0
100
AcDbCircle
 10
457.898781
 20
405.503929
 30
0.0
 40
1.25
  0
CIRCLE
  5
607
100
AcDbEntity
  8
0
100
AcDbCircle
 10
441.682337
 20
456.926938
 30
0.0
 40
1.25
  0
CIRCLE
  5
608
100
AcDbEntity
  8
0
100
AcDbCircle
 10
445.930945
 20
451.390044
 30
0.0
 40
1.25
  0
CIRCLE
  5
609
100
AcDbEntity
  8
0
100
AcDbCircle
 10
449.680814
 20
445.503929
 30
0.0
 40
1.25
  0
CIRCLE
  5
60A
100
AcDbEntity
  8
0
100
AcDbCircle
 10
452.903404
 20
439.31339
 30
0.0
 40
1.25
  0
CIRCLE
  5
60B
100
AcDbEntity
  8
0
100
AcDbCircle
 10
455.574191
 20
432.865541
 30
0.0
 40
1.25
  0
CIRCLE
  5
60C
100
AcDbEntity
  8
0
100
AcDbCircle
 10
457.672848
 20
426.209453
 30
0.0
 40
1.25
  0
CIRCLE
  5
60D
100
AcDbEntity
  8
0
100
AcDbCircle
 10
459.183402
 20
419.395783
 30
0.0
 40
1.25
  0
CIRCLE
  5
60E
100
AcDbEntity
  8
0
100
AcDbCircle
 10
460.094357
 20
412.476389
 30
0.0
 40
1.25
  0
CIRCLE
  5
60F
100
AcDbEntity
  8
0
100
AcDbCircle
 10
460.398781
 20
405.503929
 30
0.0
 40
1.25
  0
CIRCLE
  5
610
100
AcDbEntity
  8
0
100
AcDbCircle
 10
460.094357
 20
398.53147
 30
0.0
 40
1.25
  0
CIRCLE
  5
611
100
AcDbEntity
  8
0
100
AcDbCircle
 10
459.183402
 20
391.612075
 30
0.0
 40
1.25
  0
CIRCLE
  5
612
100
AcDbEntity
  8
0
100
AcDbCircle
 10
457.672848
 20
384.798406
 30
0.0
 40
1.25
  0
CIRCLE
  5
613
100
AcDbEntity
  8
0
100
AcDbCircle
 10
455.574191
 20
378.142318
 30
0.0
 40
1.25
  0
CIRCLE
  5
614
100
AcDbEntity
  8
0
100
AcDbCircle
 10
452.903404
 20
371.694468
 30
0.0
 40
1.25
  0
CIRCLE
  5
615
100
AcDbEntity
  8
0
100
AcDbCircle
 10
449.680814
 20
365.503929
 30
0.0
 40
1.25
  0
CIRCLE
  5
616
100
AcDbEntity
  8
0
100
AcDbCircle
 10
445.930945
 20
359.617814
 30
0.0
 40
1.25
  0
CIRCLE
  5
617
100
AcDbEntity
  8
0
100
AcDbCircle
 10
441.682337
 20
354.08092
 30
0.0
 40
1.25
  0
CIRCLE
  5
618
100
AcDbEntity
  8
0
100
AcDbCircle
 10
319.115226
 20
354.08092
 30
0.0
 40
1.25
  0
CIRCLE
  5
619
100
AcDbEntity
  8
0
100
AcDbCircle
 10
314.866618
 20
359.617814
 30
0.0
 40
1.25
  0
CIRCLE
  5
61A
100
AcDbEntity
  8
0
100
AcDbCircle
 10
311.116749
 20
365.503929
 30
0.0
 40
1.25
  0
CIRCLE
  5
61B
100
AcDbEntity
  8
0
100
AcDbCircle
 10
307.894158
 20
371.694468
 30
0.0
 40
1.25
  0
CIRCLE
  5
61C
100
AcDbEntity
  8
0
100
AcDbCircle
 10
305.223372
 20
378.142318
 30
0.0
 40
1.25
  0
CIRCLE
  5
61D
100
AcDbEntity
  8
0
100
AcDbCircle
 10
303.124715
 20
384.798406
 30
0.0
 40
1.25
  0
CIRCLE
  5
61E
100
AcDbEntity
  8
0
100
AcDbCircle
 10
301.614161
 20
391.612075
 30
0.0
 40
1.25
  0
CIRCLE
  5
61F
100
AcDbEntity
  8
0
100
AcDbCircle
 10
300.703206
 20
398.53147
 30
0.0
 40
1.25
  0
CIRCLE
  5
620
100
AcDbEntity
  8
0
100
AcDbCircle
 10
300.398781
 20
405.503929
 30
0.0
 40
1.25
  0
CIRCLE
  5
621
100
AcDbEntity
  8
0
100
AcDbCircle
 10
300.703206
 20
412.476389
 30
0.0
 40
1.25
  0
CIRCLE
  5
622
100
AcDbEntity
  8
0
100
AcDbCircle
 10
301.614161
 20
419.395783
 30
0.0
 40
1.25
  0
CIRCLE
  5
623
100
AcDbEntity
  8
0
100
AcDbCircle
 10
303.124715
 20
426.209453
 30
0.0
 40
1.25
  0
CIRCLE
  5
624
100
AcDbEntity
  8
0
100
AcDbCircle
 10
305.223372
 20
432.865541
 30
0.0
 40
1.25
  0
CIRCLE
  5
625
100
AcDbEntity
  8
0
100
AcDbCircle
 10
307.894158
 20
439.31339
 30
0.0
 40
1.25
  0
CIRCLE
  5
626
100
AcDbEntity
  8
0
100
AcDbCircle
 10
311.116749
 20
445.503929
 30
0.0
 40
1.25
  0
CIRCLE
  5
627
100
AcDbEntity
  8
0
100
AcDbCircle
 10
314.866618
 20
451.390044
 30
0.0
 40
1.25
  0
CIRCLE
  5
628
100
AcDbEntity
  8
0
100
AcDbCircle
 10
319.115226
 20
456.926938
 30
0.0
 40
1.25
  0
TEXT
  5
639
100
AcDbEntity
  8
1
100
AcDbText
 10
203.224297
 20
179.000913
 30
0.0
 40
10.6
  1
0.5W
 41
0.8
  7
UT7
100
AcDbText
  0
TEXT
  5
63A
100
AcDbEntity
  8
1
100
AcDbText
 10
218.128063
 20
163.646199
 30
0.0
 40
10.6
  1
1W
 41
0.8
  7
UT7
100
AcDbText
  0
TEXT
  5
63B
100
AcDbEntity
  8
1
100
AcDbText
 10
216.109015
 20
147.646199
 30
0.0
 40
10.6
  1
2W
 41
0.8
  7
UT7
100
AcDbText
  0
TEXT
  5
63C
100
AcDbEntity
  8
1
100
AcDbText
 10
216.109015
 20
131.646199
 30
0.0
 40
10.6
  1
3W
 41
0.8
  7
UT7
100
AcDbText
  0
TEXT
  5
63D
100
AcDbEntity
  8
1
100
AcDbText
 10
216.109015
 20
115.646199
 30
0.0
 40
10.6
  1
6W
 41
0.8
  7
UT7
100
AcDbText
  0
TEXT
  5
63E
100
AcDbEntity
  8
1
100
AcDbText
 10
206.518539
 20
99.646199
 30
0.0
 40
10.6
  1
COM
 41
0.8
  7
UT7
100
AcDbText
  0
TEXT
  5
63F
100
AcDbEntity
  8
1
100
AcDbText
 10
274.107356
 20
57.419856
 30
0.0
 40
10.6
  1
(Transformer)
 41
0.8
  7
UT7
100
AcDbText
  0
TEXT
  5
640
100
AcDbEntity
  8
1
100
AcDbText
 10
371.730731
 20
192.28549
 30
0.0
 40
10.6
  1
25V
 41
0.8
  7
UT7
100
AcDbText
  0
TEXT
  5
641
100
AcDbEntity
  8
1
100
AcDbText
 10
373.387693
 20
166.066489
 30
0.0
 40
10.6
  1
8 ohm
 41
0.8
  7
UT7
100
AcDbText
  0
TEXT
  5
642
100
AcDbEntity
  8
1
100
AcDbText
 10
371.730731
 20
148.789516
 30
0.0
 40
10.6
  1
70.7V
 41
0.8
  7
UT7
100
AcDbText
  0
TEXT
  5
643
100
AcDbEntity
  8
1
100
AcDbText
 10
371.020605
 20
122.063268
 30
0.0
 40
10.6
  1
8 ohm
 41
0.8
  7
UT7
100
AcDbText
  0
TEXT
  5
644
100
AcDbEntity
  8
1
100
AcDbText
 10
371.076964
 20
83.301593
 30
0.0
 40
10.6
  1
COM
 41
0.8
  7
UT7
100
AcDbText
  0
TEXT
  5
645
100
AcDbEntity
  8
1
100
AcDbText
 10
403.571682
 20
120.647618
 30
0.0
 40
10.6
  1
(White)
 41
0.8
  7
UT7
100
AcDbText
  0
TEXT
  5
646
100
AcDbEntity
  8
1
100
AcDbText
 10
403.571682
 20
80.687876
 30
0.0
 40
10.6
  1
(Black)
 41
0.8
  7
UT7
100
AcDbText
  0
TEXT
  5
647
100
AcDbEntity
  8
1
100
AcDbText
 10
433.830504
 20
58.710427
 30
0.0
 40
10.6
  1
(Potentiometer)
 41
0.8
  7
UT7
100
AcDbText
  0
TEXT
  5
648
100
AcDbEntity
  8
1
100
AcDbText
 10
556.643362
 20
117.08079
 30
0.0
 40
10.6
  1
(Black)
 41
0.8
  7
UT7
100
AcDbText
  0
TEXT
  5
649
100
AcDbEntity
  8
1
100
AcDbText
 10
556.643362
 20
170.594478
 30
0.0
 40
10.6
  1
(Red)
 41
0.8
  7
UT7
100
AcDbText
  0
TEXT
  5
64A
100
AcDbEntity
  8
1
100
AcDbText
 10
612.006659
 20
144.423977
 30
0.0
 40
10.6
  1
8 ohm
 41
0.8
  7
UT7
100
AcDbText
  0
TEXT
  5
64B
100
AcDbEntity
  8
1
100
AcDbText
 10
626.24098
 20
88.129229
 30
0.0
 40
10.6
  1
(Speaker)
 41
0.8
  7
UT7
100
AcDbText
  0
TEXT
  5
64C
100
AcDbEntity
  8
1
100
AcDbText
 10
729.35946
 20
226.763793
 30
0.0
 40
12.5
  1
1.Baffle
 41
0.8
  7
UT7
100
AcDbText
  0
TEXT
  5
64D
100
AcDbEntity
  8
1
100
AcDbText
 10
729.35946
 20
209.263793
 30
0.0
 40
12.5
  1
2.Speaker
 41
0.8
  7
UT7
100
AcDbText
  0
TEXT
  5
64E
100
AcDbEntity
  8
1
100
AcDbText
 10
729.35946
 20
191.763793
 30
0.0
 40
12.5
  1
3.Transformer
 41
0.8
  7
UT7
100
AcDbText
  0
TEXT
  5
64F
100
AcDbEntity
  8
1
100
AcDbText
 10
528.736998
 20
233.011981
 30
0.0
 40
12.5
  1
4-%%C5
 41
0.8
  7
UT7
100
AcDbText
  0
TEXT
  5
650
100
AcDbEntity
  8
SCALE
100
AcDbText
 10
568.375199
 20
653.011981
 30
0.0
 40
11.0
  1
9
100
AcDbText
  0
ENDSEC
  0
SECTION
  2
OBJECTS
  0
DICTIONARY
  5
710
100
AcDbDictionary
  3
ACAD_GROUP
350
711
  3
ACAD_MLINESTYLE
350
712
  0
DICTIONARY
  5
711
102
{ACAD_REACTORS
330
710
102
}
100
AcDbDictionary
  0
DICTIONARY
  5
712
102
{ACAD_REACTORS
330
710
102
}
100
AcDbDictionary
  3
STANDARD
350
713
  0
MLINESTYLE
  5
713
102
{ACAD_REACTORS
330
712
102
}
100
AcDbMlineStyle
  2
STANDARD
 70
     0
  3

 62
     0
 51
90.0
 52
90.0
 71
     2
 49
0.5
 62
   256
  6
BYLAYER
 49
-0.5
 62
   256
  6
BYLAYER
  0
ENDSEC
  0
EOF
