  0
SECTION
  2
HEADER
  9
$ACADVER
  1
AC1014
  9
$ACADMAINTVER
 70
     0
  9
$DWGCODEPAGE
  3
DOS850
  9
$INSBASE
 10
0.0
 20
0.0
 30
0.0
  9
$EXTMIN
 10
34.184503
 20
52.168869
 30
0.0
  9
$EXTMAX
 10
845.007434
 20
706.18744
 30
0.0
  9
$LIMMIN
 10
0.0
 20
0.0
  9
$LIMMAX
 10
900.0
 20
1375.0
  9
$ORTHOMODE
 70
     1
  9
$REGENMODE
 70
     0
  9
$FILLMODE
 70
     1
  9
$QTEXTMODE
 70
     0
  9
$MIRRTEXT
 70
     0
  9
$DRAGMODE
 70
     2
  9
$LTSCALE
 40
50.0
  9
$OSMODE
 70
     0
  9
$ATTMODE
 70
     1
  9
$TEXTSIZE
 40
12.5
  9
$TRACEWID
 40
0.05
  9
$TEXTSTYLE
  7
UT7
  9
$CLAYER
  8
1
  9
$CELTYPE
  6
BYLAYER
  9
$CECOLOR
 62
   256
  9
$CELTSCALE
 40
1.0
  9
$DELOBJ
 70
     1
  9
$DISPSILH
 70
     0
  9
$DIMSCALE
 40
5.0
  9
$DIMASZ
 40
1.5
  9
$DIMEXO
 40
2.0
  9
$DIMDLI
 40
10.0
  9
$DIMRND
 40
0.0
  9
$DIMDLE
 40
0.0
  9
$DIMEXE
 40
1.5
  9
$DIMTP
 40
0.0
  9
$DIMTM
 40
0.0
  9
$DIMTXT
 40
2.2
  9
$DIMCEN
 40
0.09
  9
$DIMTSZ
 40
0.0
  9
$DIMTOL
 70
     0
  9
$DIMLIM
 70
     0
  9
$DIMTIH
 70
     0
  9
$DIMTOH
 70
     0
  9
$DIMSE1
 70
     0
  9
$DIMSE2
 70
     0
  9
$DIMTAD
 70
     0
  9
$DIMZIN
 70
     0
  9
$DIMBLK
  1
YAZ3
  9
$DIMASO
 70
     1
  9
$DIMSHO
 70
     0
  9
$DIMPOST
  1

  9
$DIMAPOST
  1

  9
$DIMALT
 70
     0
  9
$DIMALTD
 70
     2
  9
$DIMALTF
 40
25.4
  9
$DIMLFAC
 40
1.0
  9
$DIMTOFL
 70
     1
  9
$DIMTVP
 40
1.0
  9
$DIMTIX
 70
     0
  9
$DIMSOXD
 70
     0
  9
$DIMSAH
 70
     0
  9
$DIMBLK1
  1

  9
$DIMBLK2
  1

  9
$DIMSTYLE
  2
STANDARD
  9
$DIMCLRD
 70
     0
  9
$DIMCLRE
 70
     0
  9
$DIMCLRT
 70
     0
  9
$DIMTFAC
 40
1.0
  9
$DIMGAP
 40
0.09
  9
$DIMJUST
 70
     0
  9
$DIMSD1
 70
     0
  9
$DIMSD2
 70
     0
  9
$DIMTOLJ
 70
     1
  9
$DIMTZIN
 70
     0
  9
$DIMALTZ
 70
     0
  9
$DIMALTTZ
 70
     0
  9
$DIMFIT
 70
     3
  9
$DIMUPT
 70
     0
  9
$DIMUNIT
 70
     2
  9
$DIMDEC
 70
     4
  9
$DIMTDEC
 70
     4
  9
$DIMALTU
 70
     2
  9
$DIMALTTD
 70
     2
  9
$DIMTXSTY
  7
UT7
  9
$DIMAUNIT
 70
     0
  9
$LUNITS
 70
     2
  9
$LUPREC
 70
     1
  9
$SKETCHINC
 40
0.1
  9
$FILLETRAD
 40
0.0
  9
$AUNITS
 70
     0
  9
$AUPREC
 70
     0
  9
$MENU
  1
AMECEX
  9
$ELEVATION
 40
0.0
  9
$PELEVATION
 40
0.0
  9
$THICKNESS
 40
0.0
  9
$LIMCHECK
 70
     0
  9
$BLIPMODE
 70
     0
  9
$CHAMFERA
 40
0.0
  9
$CHAMFERB
 40
0.0
  9
$CHAMFERC
 40
0.0
  9
$CHAMFERD
 40
0.0
  9
$SKPOLY
 70
     0
  9
$TDCREATE
 40
2448082.779837963
  9
$TDUPDATE
 40
2452076.647916667
  9
$TDINDWG
 40
0.0027777315
  9
$TDUSRTIMER
 40
0.0027777315
  9
$USRTIMER
 70
     1
  9
$ANGBASE
 50
0.0
  9
$ANGDIR
 70
     0
  9
$PDMODE
 70
     0
  9
$PDSIZE
 40
0.0
  9
$PLINEWID
 40
0.0
  9
$COORDS
 70
     2
  9
$SPLFRAME
 70
     0
  9
$SPLINETYPE
 70
     6
  9
$SPLINESEGS
 70
     8
  9
$ATTDIA
 70
     0
  9
$ATTREQ
 70
     1
  9
$HANDLING
 70
     1
  9
$HANDSEED
  5
746
  9
$SURFTAB1
 70
     6
  9
$SURFTAB2
 70
     6
  9
$SURFTYPE
 70
     6
  9
$SURFU
 70
     6
  9
$SURFV
 70
     6
  9
$UCSNAME
  2

  9
$UCSORG
 10
0.0
 20
0.0
 30
0.0
  9
$UCSXDIR
 10
1.0
 20
0.0
 30
0.0
  9
$UCSYDIR
 10
0.0
 20
1.0
 30
0.0
  9
$PUCSNAME
  2

  9
$PUCSORG
 10
0.0
 20
0.0
 30
0.0
  9
$PUCSXDIR
 10
1.0
 20
0.0
 30
0.0
  9
$PUCSYDIR
 10
0.0
 20
1.0
 30
0.0
  9
$USERI1
 70
     0
  9
$USERI2
 70
     0
  9
$USERI3
 70
     0
  9
$USERI4
 70
     0
  9
$USERI5
 70
     0
  9
$USERR1
 40
30.0
  9
$USERR2
 40
0.0
  9
$USERR3
 40
0.0
  9
$USERR4
 40
0.0
  9
$USERR5
 40
0.0
  9
$WORLDVIEW
 70
     1
  9
$SHADEDGE
 70
     3
  9
$SHADEDIF
 70
    70
  9
$TILEMODE
 70
     1
  9
$MAXACTVP
 70
    16
  9
$PINSBASE
 10
0.0
 20
0.0
 30
0.0
  9
$PLIMCHECK
 70
     0
  9
$PEXTMIN
 10
1.000000E+20
 20
1.000000E+20
 30
1.000000E+20
  9
$PEXTMAX
 10
-1.000000E+20
 20
-1.000000E+20
 30
-1.000000E+20
  9
$PLIMMIN
 10
0.0
 20
0.0
  9
$PLIMMAX
 10
12.0
 20
9.0
  9
$UNITMODE
 70
     0
  9
$VISRETAIN
 70
     0
  9
$PLINEGEN
 70
     1
  9
$PSLTSCALE
 70
     0
  9
$TREEDEPTH
 70
  3020
  9
$PICKSTYLE
 70
     1
  9
$CMLSTYLE
  2
STANDARD
  9
$CMLJUST
 70
     0
  9
$CMLSCALE
 40
1.0
  9
$PROXYGRAPHICS
 70
     0
  9
$MEASUREMENT
 70
     0
  0
ENDSEC
  0
SECTION
  2
CLASSES
  0
CLASS
  1
LWPOLYLINE
  2
AcDbPolyline
  3
"AutoCAD"
 90
        0
280
     0
281
     1
  0
CLASS
  1
IMAGE
  2
AcDbRasterImage
  3
ISM
 90
      127
280
     0
281
     1
  0
CLASS
  1
OLE2FRAME
  2
AcDbOle2Frame
  3
""
 90
        0
280
     0
281
     1
  0
CLASS
  1
HATCH
  2
AcDbHatch
  3
"ACAD_SEDONA"
 90
        0
280
     0
281
     1
  0
CLASS
  1
DICTIONARYVAR
  2
AcDbDictionaryVar
  3
"AutoCAD"
 90
        0
280
     0
281
     0
  0
CLASS
  1
RASTERVARIABLES
  2
AcDbRasterVariables
  3
ISM
 90
        0
280
     0
281
     0
  0
CLASS
  1
IMAGEDEF
  2
AcDbRasterImageDef
  3
ISM
 90
        0
280
     0
281
     0
  0
CLASS
  1
IMAGEDEF_REACTOR
  2
AcDbRasterImageDefReactor
  3
ISM
 90
        1
280
     0
281
     0
  0
CLASS
  1
IDBUFFER
  2
AcDbIdBuffer
  3
"Acad"
 90
        0
280
     0
281
     0
  0
CLASS
  1
SPATIAL_FILTER
  2
AcDbSpatialFilter
  3
"Acad"
 90
        0
280
     0
281
     0
  0
CLASS
  1
XRECORD
  2
AcDbXrecord
  3
"<Built In>"
 90
        0
280
     0
281
     0
  0
CLASS
  1
SORTENTSTABLE
  2
AcDbSortentsTable
  3
"AutoCAD"
 90
        0
280
     0
281
     0
  0
CLASS
  1
LAYER_INDEX
  2
AcDbLayerIndex
  3
"Acad"
 90
        0
280
     0
281
     0
  0
CLASS
  1
SPATIAL_INDEX
  2
AcDbSpatialIndex
  3
"Acad"
 90
        0
280
     0
281
     0
  0
CLASS
  1
OBJECT_PTR
  2
CAseDLPNTableRecord
  3
"ASE-LPNTableRecord"
 90
        1
280
     0
281
     0
  0
CLASS
  1
LAYOUT
  2
AcDbLayout
  3
"AutoCAD 2000"
 90
        1
280
     0
281
     0
  0
CLASS
  1
PLOTSETTINGS
  2
AcDbPlotSettings
  3
"AutoCAD 2000"
 90
        1
280
     0
281
     0
  0
CLASS
  1
ACDBDICTIONARYWDFLT
  2
AcDbDictionaryWithDefault
  3
"AutoCAD 2000"
 90
        1
280
     0
281
     0
  0
CLASS
  1
ACDBPLACEHOLDER
  2
AcDbPlaceHolder
  3
"AutoCAD 2000"
 90
        1
280
     0
281
     0
  0
CLASS
  1
VBA_PROJECT
  2
AcDbVbaProject
  3
"acadvba"
 90
        1
280
     0
281
     0
  0
CLASS
  1
WIPEOUT
  2
AcDbWipeout
  3
WipeOut|AutoCAD Express Tool|expresstools@autodesk.com
 90
      127
280
     0
281
     1
  0
CLASS
  1
WIPEOUTVARIABLES
  2
AcDbWipeoutVariables
  3
WipeOut|AutoCAD Express Tool|expresstools@autodesk.com
 90
        0
280
     0
281
     0
  0
CLASS
  1
RTEXT
  2
RText
  3
RText|AutoCAD Express Tool|expresstools@autodesk.com
 90
        0
280
     0
281
     1
  0
CLASS
  1
ARCALIGNEDTEXT
  2
AcDbArcAlignedText
  3
ATEXT|AutoCAD Express Tool|expresstools@autodesk.com
 90
        0
280
     0
281
     1
  0
ENDSEC
  0
SECTION
  2
TABLES
  0
TABLE
  2
VPORT
  5
715
100
AcDbSymbolTable
 70
     1
  0
VPORT
  5
727
100
AcDbSymbolTableRecord
100
AcDbViewportTableRecord
  2
*ACTIVE
 70
     0
 10
0.0
 20
0.0
 11
1.0
 21
1.0
 12
439.595969
 22
379.178155
 13
0.0
 23
0.0
 14
1.0
 24
1.0
 15
0.0
 25
0.0
 16
0.0
 26
0.0
 36
1.0
 17
0.0
 27
0.0
 37
0.0
 40
667.098942
 41
0.688564
 42
50.0
 43
0.0
 44
0.0
 50
0.0
 51
0.0
 71
     0
 72
   100
 73
     1
 74
     1
 75
     0
 76
     0
 77
     0
 78
     0
  0
ENDTAB
  0
TABLE
  2
LTYPE
  5
712
100
AcDbSymbolTable
 70
     5
  0
LTYPE
  5
71B
100
AcDbSymbolTableRecord
100
AcDbLinetypeTableRecord
  2
BYBLOCK
 70
    64
  3

 72
    65
 73
     0
 40
0.0
  0
LTYPE
  5
71C
100
AcDbSymbolTableRecord
100
AcDbLinetypeTableRecord
  2
BYLAYER
 70
    64
  3

 72
    65
 73
     0
 40
0.0
  0
LTYPE
  5
71D
100
AcDbSymbolTableRecord
100
AcDbLinetypeTableRecord
  2
CONTINUOUS
 70
    64
  3
Solid line
 72
    65
 73
     0
 40
0.0
  0
LTYPE
  5
71E
100
AcDbSymbolTableRecord
100
AcDbLinetypeTableRecord
  2
HIDDEN
 70
    64
  3
_ _ _ _ _ _ _ _ _ _ _ _ _ _ _ _ _ _ _ _ _ _ _
 72
    65
 73
     2
 40
0.375
 49
0.25
 74
     0
 49
-0.125
 74
     0
  0
LTYPE
  5
71F
100
AcDbSymbolTableRecord
100
AcDbLinetypeTableRecord
  2
CENTER
 70
    64
  3
____ _ ____ _ ____ _ ____ _ ____ _ ____ _ ____
 72
    65
 73
     4
 40
2.0
 49
1.25
 74
     0
 49
-0.25
 74
     0
 49
0.25
 74
     0
 49
-0.25
 74
     0
  0
ENDTAB
  0
TABLE
  2
LAYER
  5
710
100
AcDbSymbolTable
 70
     7
  0
LAYER
  5
720
100
AcDbSymbolTableRecord
100
AcDbLayerTableRecord
  2
0
 70
    64
 62
     7
  6
CONTINUOUS
  0
LAYER
  5
721
100
AcDbSymbolTableRecord
100
AcDbLayerTableRecord
  2
1
 70
    64
 62
     3
  6
CONTINUOUS
  0
LAYER
  5
722
100
AcDbSymbolTableRecord
100
AcDbLayerTableRecord
  2
SCALE
 70
    64
 62
     4
  6
CONTINUOUS
  0
LAYER
  5
723
100
AcDbSymbolTableRecord
100
AcDbLayerTableRecord
  2
CENTER
 70
    64
 62
     1
  6
CENTER
  0
LAYER
  5
724
100
AcDbSymbolTableRecord
100
AcDbLayerTableRecord
  2
HIDDEN
 70
    64
 62
     3
  6
HIDDEN
  0
LAYER
  5
725
100
AcDbSymbolTableRecord
100
AcDbLayerTableRecord
  2
UL1
 70
    64
 62
     4
  6
CENTER
  0
LAYER
  5
726
100
AcDbSymbolTableRecord
100
AcDbLayerTableRecord
  2
DEFPOINTS
 70
    64
 62
    -7
  6
CONTINUOUS
  0
ENDTAB
  0
TABLE
  2
STYLE
  5
711
100
AcDbSymbolTable
 70
     2
  0
STYLE
  5
729
100
AcDbSymbolTableRecord
100
AcDbTextStyleTableRecord
  2
STANDARD
 70
    64
 40
0.0
 41
1.0
 50
0.0
 71
     0
 42
3.0
  3
SIMPLEX
  4
SLFONT
  0
STYLE
  5
72A
100
AcDbSymbolTableRecord
100
AcDbTextStyleTableRecord
  2
UT7
 70
    64
 40
0.0
 41
0.8
 50
0.0
 71
     0
 42
12.5
  3
TOAFONT
  4

  0
ENDTAB
  0
TABLE
  2
VIEW
  5
713
100
AcDbSymbolTable
 70
     0
  0
ENDTAB
  0
TABLE
  2
UCS
  5
714
100
AcDbSymbolTable
 70
     0
  0
ENDTAB
  0
TABLE
  2
APPID
  5
716
100
AcDbSymbolTable
 70
     1
  0
APPID
  5
728
100
AcDbSymbolTableRecord
100
AcDbRegAppTableRecord
  2
ACAD
 70
     0
  0
ENDTAB
  0
TABLE
  2
DIMSTYLE
  5
717
100
AcDbSymbolTable
 70
     1
  0
DIMSTYLE
105
73A
100
AcDbSymbolTableRecord
100
AcDbDimStyleTableRecord
  2
STANDARD
 70
    64
  3

  4

  5

  6

  7

 40
5.0
 41
1.5
 42
2.0
 43
10.0
 44
1.5
 45
0.0
 46
0.0
 47
0.0
 48
0.0
 71
     0
 72
     0
 73
     0
 74
     0
 75
     0
 76
     0
 77
     0
 78
     0
140
2.2
141
0.09
142
0.0
143
25.4
144
1.0
145
1.0
146
1.0
147
0.09
170
     0
171
     2
172
     1
173
     0
174
     0
175
     0
176
     0
177
     0
178
     0
270
     2
271
     4
272
     4
273
     2
274
     2
275
     0
280
     0
281
     0
282
     0
283
     1
284
     0
285
     0
286
     0
287
     0
288
     0
340
729
  0
ENDTAB
  0
TABLE
  2
BLOCK_RECORD
  5
735
100
AcDbSymbolTable
 70
     8
  0
BLOCK_RECORD
  5
733
100
AcDbSymbolTableRecord
100
AcDbBlockTableRecord
  2
*MODEL_SPACE
  0
BLOCK_RECORD
  5
734
100
AcDbSymbolTableRecord
100
AcDbBlockTableRecord
  2
*PAPER_SPACE
  0
BLOCK_RECORD
  5
72B
100
AcDbSymbolTableRecord
100
AcDbBlockTableRecord
  2
YAZ3
  0
BLOCK_RECORD
  5
72C
100
AcDbSymbolTableRecord
100
AcDbBlockTableRecord
  2
YAZ1
  0
BLOCK_RECORD
  5
72D
100
AcDbSymbolTableRecord
100
AcDbBlockTableRecord
  2
BASE
  0
BLOCK_RECORD
  5
72E
100
AcDbSymbolTableRecord
100
AcDbBlockTableRecord
  2
USBLN1
  0
BLOCK_RECORD
  5
72F
100
AcDbSymbolTableRecord
100
AcDbBlockTableRecord
  2
*D4
  0
BLOCK_RECORD
  5
730
100
AcDbSymbolTableRecord
100
AcDbBlockTableRecord
  2
*D5
  0
BLOCK_RECORD
  5
731
100
AcDbSymbolTableRecord
100
AcDbBlockTableRecord
  2
*D6
  0
BLOCK_RECORD
  5
732
100
AcDbSymbolTableRecord
100
AcDbBlockTableRecord
  2
*D7
  0
ENDTAB
  0
ENDSEC
  0
SECTION
  2
BLOCKS
  0
BLOCK
  5
736
100
AcDbEntity
  8
0
100
AcDbBlockBegin
  2
*MODEL_SPACE
 70
     0
 10
0.0
 20
0.0
 30
0.0
  3
*MODEL_SPACE
  1

  0
ENDBLK
  5
737
100
AcDbEntity
  8
0
100
AcDbBlockEnd
  0
BLOCK
  5
738
100
AcDbEntity
 67
     1
  8
0
100
AcDbBlockBegin
  2
*PAPER_SPACE
 70
     0
 10
0.0
 20
0.0
 30
0.0
  3
*PAPER_SPACE
  1

  0
ENDBLK
  5
739
100
AcDbEntity
 67
     1
  8
0
100
AcDbBlockEnd
  0
BLOCK
  5
655
100
AcDbEntity
  8
0
100
AcDbBlockBegin
  2
YAZ3
 70
    64
 10
0.0
 20
0.0
 30
0.0
  3

  1

  0
INSERT
  5
656
100
AcDbEntity
  8
0
100
AcDbBlockReference
  2
YAZ1
 10
0.0
 20
0.0
 30
0.0
  0
LINE
  5
657
100
AcDbEntity
  8
0
100
AcDbLine
 10
-0.999365
 20
0.04706
 30
0.0
 11
-0.175629
 21
0.04706
 31
0.0
  0
LINE
  5
658
100
AcDbEntity
  8
0
100
AcDbLine
 10
-0.999365
 20
0.09706
 30
0.0
 11
-0.362232
 21
0.09706
 31
0.0
  0
LINE
  5
659
100
AcDbEntity
  8
0
100
AcDbLine
 10
-0.999365
 20
0.14706
 30
0.0
 11
-0.548834
 21
0.14706
 31
0.0
  0
LINE
  5
65A
100
AcDbEntity
  8
0
100
AcDbLine
 10
-0.999365
 20
0.19706
 30
0.0
 11
-0.735437
 21
0.19706
 31
0.0
  0
LINE
  5
65B
100
AcDbEntity
  8
0
100
AcDbLine
 10
-0.999365
 20
0.24706
 30
0.0
 11
-0.922039
 21
0.24706
 31
0.0
  0
LINE
  5
65C
100
AcDbEntity
  8
0
100
AcDbLine
 10
-0.999365
 20
-0.05294
 30
0.0
 11
-0.197576
 21
-0.05294
 31
0.0
  0
LINE
  5
65D
100
AcDbEntity
  8
0
100
AcDbLine
 10
-0.999365
 20
-0.10294
 30
0.0
 11
-0.384179
 21
-0.10294
 31
0.0
  0
LINE
  5
65E
100
AcDbEntity
  8
0
100
AcDbLine
 10
-0.999365
 20
-0.15294
 30
0.0
 11
-0.570781
 21
-0.15294
 31
0.0
  0
LINE
  5
65F
100
AcDbEntity
  8
0
100
AcDbLine
 10
-0.999365
 20
-0.20294
 30
0.0
 11
-0.757384
 21
-0.20294
 31
0.0
  0
LINE
  5
660
100
AcDbEntity
  8
0
100
AcDbLine
 10
-0.999365
 20
-0.25294
 30
0.0
 11
-0.943986
 21
-0.25294
 31
0.0
  0
SOLID
  5
661
100
AcDbEntity
  8
0
100
AcDbTrace
 10
0.0
 20
0.0
 30
0.0
 11
-1.0
 21
0.267949
 31
0.0
 12
-1.0
 22
-0.267949
 32
0.0
 13
-1.0
 23
-0.267949
 33
0.0
  0
ENDBLK
  5
662
100
AcDbEntity
  8
0
100
AcDbBlockEnd
  0
BLOCK
  5
663
100
AcDbEntity
  8
0
100
AcDbBlockBegin
  2
YAZ1
 70
    64
 10
184.0
 20
133.0
 30
0.0
  3

  1

  0
LINE
  5
664
100
AcDbEntity
  8
0
100
AcDbLine
 10
184.0
 20
133.0
 30
0.0
 11
183.0
 21
132.732051
 31
0.0
  0
LINE
  5
665
100
AcDbEntity
  8
0
100
AcDbLine
 10
184.0
 20
133.0
 30
0.0
 11
183.0
 21
133.267949
 31
0.0
  0
LINE
  5
666
100
AcDbEntity
  8
0
100
AcDbLine
 10
183.0
 20
133.0
 30
0.0
 11
184.0
 21
133.0
 31
0.0
  0
ENDBLK
  5
667
100
AcDbEntity
  8
0
100
AcDbBlockEnd
  0
BLOCK
  5
668
100
AcDbEntity
  8
0
100
AcDbBlockBegin
  2
BASE
 70
    64
 10
0.0
 20
0.0
 30
0.0
  3

  1

  0
ENDBLK
  5
669
100
AcDbEntity
  8
0
100
AcDbBlockEnd
  0
BLOCK
  5
66A
100
AcDbEntity
  8
1
100
AcDbBlockBegin
  2
USBLN1
 70
    66
 10
166.182124
 20
82.82165
 30
0.0
  3

  1

  0
ATTDEF
  5
66B
100
AcDbEntity
  8
0
100
AcDbText
 10
163.848791
 20
79.32165
 30
0.0
 40
7.0
  1

 72
     4
 11
166.182124
 21
82.82165
 31
0.0
100
AcDbAttributeDefinition
  3
éwé­ô³ù═
  2
X
 70
     0
  0
CIRCLE
  5
66C
100
AcDbEntity
  8
0
100
AcDbCircle
 10
166.182124
 20
82.82165
 30
0.0
 40
7.5
  0
ENDBLK
  5
66D
100
AcDbEntity
  8
1
100
AcDbBlockEnd
  0
BLOCK
  5
66E
100
AcDbEntity
  8
1
100
AcDbBlockBegin
  2
*D4
 70
    65
 10
0.0
 20
0.0
 30
0.0
  3

  1

  0
LINE
  5
66F
100
AcDbEntity
  8
0
  6
BYBLOCK
 62
     0
100
AcDbLine
 10
228.741791
 20
496.923001
 30
0.0
 11
228.741791
 21
734.431052
 31
0.0
  0
LINE
  5
670
100
AcDbEntity
  8
0
  6
BYBLOCK
 62
     0
100
AcDbLine
 10
552.741791
 20
496.923001
 30
0.0
 11
552.741791
 21
734.431052
 31
0.0
  0
LINE
  5
671
100
AcDbEntity
  8
0
  6
BYBLOCK
 62
     0
100
AcDbLine
 10
236.241791
 20
726.931052
 30
0.0
 11
545.241791
 21
726.931052
 31
0.0
  0
INSERT
  5
672
100
AcDbEntity
  8
0
  6
BYBLOCK
 62
     0
100
AcDbBlockReference
  2
YAZ3
 10
228.741791
 20
726.931052
 30
0.0
 41
7.5
 42
7.5
 43
7.5
 50
180.0
  0
INSERT
  5
673
100
AcDbEntity
  8
0
  6
BYBLOCK
 62
     0
100
AcDbBlockReference
  2
YAZ3
 10
552.741791
 20
726.931052
 30
0.0
 41
7.5
 42
7.5
 43
7.5
  0
TEXT
  5
674
100
AcDbEntity
  8
0
  6
BYBLOCK
 62
     0
100
AcDbText
 10
371.360839
 20
732.431052
 30
0.0
 40
11.0
  1
%%C324
100
AcDbText
  0
POINT
  5
675
100
AcDbEntity
  8
DEFPOINTS
  6
BYBLOCK
 62
     0
100
AcDbPoint
 10
228.741791
 20
486.923001
 30
0.0
  0
POINT
  5
676
100
AcDbEntity
  8
DEFPOINTS
  6
BYBLOCK
 62
     0
100
AcDbPoint
 10
552.741791
 20
486.923001
 30
0.0
  0
POINT
  5
677
100
AcDbEntity
  8
DEFPOINTS
  6
BYBLOCK
 62
     0
100
AcDbPoint
 10
552.741791
 20
726.931052
 30
0.0
  0
ENDBLK
  5
678
100
AcDbEntity
  8
1
100
AcDbBlockEnd
  0
BLOCK
  5
679
100
AcDbEntity
  8
1
100
AcDbBlockBegin
  2
*D5
 70
    65
 10
0.0
 20
0.0
 30
0.0
  3

  1

  0
LINE
  5
67A
100
AcDbEntity
  8
0
  6
BYBLOCK
 62
     0
100
AcDbLine
 10
247.741791
 20
496.923001
 30
0.0
 11
247.741791
 21
704.431052
 31
0.0
  0
LINE
  5
67B
100
AcDbEntity
  8
0
  6
BYBLOCK
 62
     0
100
AcDbLine
 10
533.741791
 20
496.923001
 30
0.0
 11
533.741791
 21
704.431052
 31
0.0
  0
LINE
  5
67C
100
AcDbEntity
  8
0
  6
BYBLOCK
 62
     0
100
AcDbLine
 10
255.241791
 20
696.931052
 30
0.0
 11
526.241791
 21
696.931052
 31
0.0
  0
INSERT
  5
67D
100
AcDbEntity
  8
0
  6
BYBLOCK
 62
     0
100
AcDbBlockReference
  2
YAZ3
 10
247.741791
 20
696.931052
 30
0.0
 41
7.5
 42
7.5
 43
7.5
 50
180.0
  0
INSERT
  5
67E
100
AcDbEntity
  8
0
  6
BYBLOCK
 62
     0
100
AcDbBlockReference
  2
YAZ3
 10
533.741791
 20
696.931052
 30
0.0
 41
7.5
 42
7.5
 43
7.5
  0
TEXT
  5
67F
100
AcDbEntity
  8
0
  6
BYBLOCK
 62
     0
100
AcDbText
 10
371.884649
 20
702.431052
 30
0.0
 40
11.0
  1
%%C286
100
AcDbText
  0
POINT
  5
680
100
AcDbEntity
  8
DEFPOINTS
  6
BYBLOCK
 62
     0
100
AcDbPoint
 10
247.741791
 20
486.923001
 30
0.0
  0
POINT
  5
681
100
AcDbEntity
  8
DEFPOINTS
  6
BYBLOCK
 62
     0
100
AcDbPoint
 10
533.741791
 20
486.923001
 30
0.0
  0
POINT
  5
682
100
AcDbEntity
  8
DEFPOINTS
  6
BYBLOCK
 62
     0
100
AcDbPoint
 10
533.741791
 20
696.931052
 30
0.0
  0
ENDBLK
  5
683
100
AcDbEntity
  8
1
100
AcDbBlockEnd
  0
BLOCK
  5
684
100
AcDbEntity
  8
1
100
AcDbBlockBegin
  2
*D6
 70
    65
 10
0.0
 20
0.0
 30
0.0
  3

  1

  0
LINE
  5
685
100
AcDbEntity
  8
0
  6
BYBLOCK
 62
     0
100
AcDbLine
 10
619.503923
 20
651.923001
 30
0.0
 11
619.503923
 21
734.431052
 31
0.0
  0
LINE
  5
686
100
AcDbEntity
  8
0
  6
BYBLOCK
 62
     0
100
AcDbLine
 10
689.503923
 20
529.423001
 30
0.0
 11
689.503923
 21
734.431052
 31
0.0
  0
LINE
  5
687
100
AcDbEntity
  8
0
  6
BYBLOCK
 62
     0
100
AcDbLine
 10
627.003923
 20
726.931052
 30
0.0
 11
682.003923
 21
726.931052
 31
0.0
  0
INSERT
  5
688
100
AcDbEntity
  8
0
  6
BYBLOCK
 62
     0
100
AcDbBlockReference
  2
YAZ3
 10
619.503923
 20
726.931052
 30
0.0
 41
7.5
 42
7.5
 43
7.5
 50
180.0
  0
INSERT
  5
689
100
AcDbEntity
  8
0
  6
BYBLOCK
 62
     0
100
AcDbBlockReference
  2
YAZ3
 10
689.503923
 20
726.931052
 30
0.0
 41
7.5
 42
7.5
 43
7.5
  0
TEXT
  5
68A
100
AcDbEntity
  8
0
  6
BYBLOCK
 62
     0
100
AcDbText
 10
645.599161
 20
732.431052
 30
0.0
 40
11.0
  1
70
100
AcDbText
  0
POINT
  5
68B
100
AcDbEntity
  8
DEFPOINTS
  6
BYBLOCK
 62
     0
100
AcDbPoint
 10
619.503923
 20
641.923001
 30
0.0
  0
POINT
  5
68C
100
AcDbEntity
  8
DEFPOINTS
  6
BYBLOCK
 62
     0
100
AcDbPoint
 10
689.503923
 20
519.423001
 30
0.0
  0
POINT
  5
68D
100
AcDbEntity
  8
DEFPOINTS
  6
BYBLOCK
 62
     0
100
AcDbPoint
 10
689.503923
 20
726.931052
 30
0.0
  0
ENDBLK
  5
68E
100
AcDbEntity
  8
1
100
AcDbBlockEnd
  0
BLOCK
  5
68F
100
AcDbEntity
  8
1
100
AcDbBlockBegin
  2
*D7
 70
    65
 10
0.0
 20
0.0
 30
0.0
  3

  1

  0
LINE
  5
690
100
AcDbEntity
  8
0
  6
BYBLOCK
 62
     0
100
AcDbLine
 10
619.503923
 20
651.923001
 30
0.0
 11
619.503923
 21
704.431052
 31
0.0
  0
LINE
  5
691
100
AcDbEntity
  8
0
  6
BYBLOCK
 62
     0
100
AcDbLine
 10
625.503923
 20
658.923001
 30
0.0
 11
625.503923
 21
704.431052
 31
0.0
  0
LINE
  5
692
100
AcDbEntity
  8
0
  6
BYBLOCK
 62
     0
100
AcDbLine
 10
633.003923
 20
696.931052
 30
0.0
 11
640.503923
 21
696.931052
 31
0.0
  0
LINE
  5
693
100
AcDbEntity
  8
0
  6
BYBLOCK
 62
     0
100
AcDbLine
 10
612.003923
 20
696.931052
 30
0.0
 11
604.503923
 21
696.931052
 31
0.0
  0
LINE
  5
694
100
AcDbEntity
  8
0
  6
BYBLOCK
 62
     0
100
AcDbLine
 10
640.503923
 20
696.931052
 30
0.0
 11
654.813447
 21
696.931052
 31
0.0
  0
INSERT
  5
695
100
AcDbEntity
  8
0
  6
BYBLOCK
 62
     0
100
AcDbBlockReference
  2
YAZ3
 10
625.503923
 20
696.931052
 30
0.0
 41
7.5
 42
7.5
 43
7.5
 50
180.0
  0
INSERT
  5
696
100
AcDbEntity
  8
0
  6
BYBLOCK
 62
     0
100
AcDbBlockReference
  2
YAZ3
 10
619.503923
 20
696.931052
 30
0.0
 41
7.5
 42
7.5
 43
7.5
  0
LINE
  5
697
100
AcDbEntity
  8
0
  6
BYBLOCK
 62
     0
100
AcDbLine
 10
625.503923
 20
696.931052
 30
0.0
 11
619.503923
 21
696.931052
 31
0.0
  0
TEXT
  5
698
100
AcDbEntity
  8
0
  6
BYBLOCK
 62
     0
100
AcDbText
 10
648.003923
 20
702.431052
 30
0.0
 40
11.0
  1
6
100
AcDbText
  0
POINT
  5
699
100
AcDbEntity
  8
DEFPOINTS
  6
BYBLOCK
 62
     0
100
AcDbPoint
 10
619.503923
 20
641.923001
 30
0.0
  0
POINT
  5
69A
100
AcDbEntity
  8
DEFPOINTS
  6
BYBLOCK
 62
     0
100
AcDbPoint
 10
625.503923
 20
648.923001
 30
0.0
  0
POINT
  5
69B
100
AcDbEntity
  8
DEFPOINTS
  6
BYBLOCK
 62
     0
100
AcDbPoint
 10
625.503923
 20
696.931052
 30
0.0
  0
ENDBLK
  5
69C
100
AcDbEntity
  8
1
100
AcDbBlockEnd
  0
ENDSEC
  0
SECTION
  2
ENTITIES
  0
TEXT
  5
38
100
AcDbEntity
  8
1
100
AcDbText
 10
134.139208
 20
52.928869
 30
0.0
 40
12.5
  1
SCALE:1/5
 41
0.8
  7
UT7
100
AcDbText
  0
TEXT
  5
39
100
AcDbEntity
  8
1
100
AcDbText
 10
34.184503
 20
52.168869
 30
0.0
 40
12.5
  1
UNIT:mm
 41
0.8
  7
UT7
100
AcDbText
  0
TEXT
  5
3B
100
AcDbEntity
  8
0
100
AcDbText
 10
3.382929
 20
16.909274
 30
0.0
 40
12.5
  1

 41
0.8
  7
UT7
100
AcDbText
  0
INSERT
  5
4D
100
AcDbEntity
  8
0
100
AcDbBlockReference
  2
BASE
 10
925.0
 20
0.0
 30
0.0
  0
CIRCLE
  5
4E
100
AcDbEntity
  8
0
100
AcDbCircle
 10
390.741791
 20
449.679388
 30
0.0
 40
162.0
  0
CIRCLE
  5
4F
100
AcDbEntity
  8
CENTER
100
AcDbCircle
 10
390.741791
 20
449.679388
 30
0.0
 40
143.0
  0
LINE
  5
50
100
AcDbEntity
  8
CENTER
100
AcDbLine
 10
390.741791
 20
633.020773
 30
0.0
 11
390.741791
 21
263.012722
 31
0.0
  0
LINE
  5
51
100
AcDbEntity
  8
CENTER
100
AcDbLine
 10
214.055592
 20
449.679388
 30
0.0
 11
570.696826
 21
449.679388
 31
0.0
  0
CIRCLE
  5
52
100
AcDbEntity
  8
CENTER
100
AcDbCircle
 10
390.741791
 20
449.679388
 30
0.0
 40
97.5
  0
CIRCLE
  5
53
100
AcDbEntity
  8
0
100
AcDbCircle
 10
491.858061
 20
348.563119
 30
0.0
 40
2.5
  0
CIRCLE
  5
54
100
AcDbEntity
  8
0
100
AcDbCircle
 10
459.684703
 20
380.736477
 30
0.0
 40
5.0
  0
CIRCLE
  5
55
100
AcDbEntity
  8
0
100
AcDbCircle
 10
321.79888
 20
518.6223
 30
0.0
 40
5.0
  0
CIRCLE
  5
56
100
AcDbEntity
  8
0
100
AcDbCircle
 10
289.625522
 20
550.795658
 30
0.0
 40
2.5
  0
LINE
  5
57
100
AcDbEntity
  8
CENTER
100
AcDbLine
 10
280.866962
 20
559.554217
 30
0.0
 11
498.066026
 21
342.355154
 31
0.0
  0
CIRCLE
  5
58
100
AcDbEntity
  8
0
100
AcDbCircle
 10
289.625522
 20
348.563119
 30
0.0
 40
2.5
  0
CIRCLE
  5
59
100
AcDbEntity
  8
0
100
AcDbCircle
 10
321.79888
 20
380.736477
 30
0.0
 40
5.0
  0
CIRCLE
  5
5A
100
AcDbEntity
  8
0
100
AcDbCircle
 10
459.684703
 20
518.6223
 30
0.0
 40
5.0
  0
CIRCLE
  5
5B
100
AcDbEntity
  8
0
100
AcDbCircle
 10
491.858061
 20
550.795658
 30
0.0
 40
2.5
  0
LINE
  5
5C
100
AcDbEntity
  8
CENTER
100
AcDbLine
 10
280.866962
 20
339.804559
 30
0.0
 11
498.066026
 21
557.003623
 31
0.0
  0
CIRCLE
  5
5D
100
AcDbEntity
  8
0
100
AcDbCircle
 10
447.310334
 20
506.247931
 30
0.0
 40
1.25
  0
CIRCLE
  5
5E
100
AcDbEntity
  8
0
100
AcDbCircle
 10
442.1648
 20
510.962944
 30
0.0
 40
1.25
  0
CIRCLE
  5
5F
100
AcDbEntity
  8
0
100
AcDbCircle
 10
436.627906
 20
515.211552
 30
0.0
 40
1.25
  0
CIRCLE
  5
60
100
AcDbEntity
  8
0
100
AcDbCircle
 10
430.741791
 20
518.961421
 30
0.0
 40
1.25
  0
CIRCLE
  5
61
100
AcDbEntity
  8
0
100
AcDbCircle
 10
424.551252
 20
522.184011
 30
0.0
 40
1.25
  0
CIRCLE
  5
62
100
AcDbEntity
  8
0
100
AcDbCircle
 10
418.103403
 20
524.854798
 30
0.0
 40
1.25
  0
CIRCLE
  5
63
100
AcDbEntity
  8
0
100
AcDbCircle
 10
411.447315
 20
526.953454
 30
0.0
 40
1.25
  0
CIRCLE
  5
64
100
AcDbEntity
  8
0
100
AcDbCircle
 10
404.633646
 20
528.464009
 30
0.0
 40
1.25
  0
CIRCLE
  5
65
100
AcDbEntity
  8
0
100
AcDbCircle
 10
397.714251
 20
529.374964
 30
0.0
 40
1.25
  0
CIRCLE
  5
66
100
AcDbEntity
  8
0
100
AcDbCircle
 10
390.741791
 20
529.679388
 30
0.0
 40
1.25
  0
CIRCLE
  5
67
100
AcDbEntity
  8
0
100
AcDbCircle
 10
383.769332
 20
529.374964
 30
0.0
 40
1.25
  0
CIRCLE
  5
68
100
AcDbEntity
  8
0
100
AcDbCircle
 10
376.849937
 20
528.464009
 30
0.0
 40
1.25
  0
CIRCLE
  5
69
100
AcDbEntity
  8
0
100
AcDbCircle
 10
370.036268
 20
526.953454
 30
0.0
 40
1.25
  0
CIRCLE
  5
6A
100
AcDbEntity
  8
0
100
AcDbCircle
 10
363.38018
 20
524.854798
 30
0.0
 40
1.25
  0
CIRCLE
  5
6B
100
AcDbEntity
  8
0
100
AcDbCircle
 10
356.932331
 20
522.184011
 30
0.0
 40
1.25
  0
CIRCLE
  5
6C
100
AcDbEntity
  8
0
100
AcDbCircle
 10
350.741791
 20
518.961421
 30
0.0
 40
1.25
  0
CIRCLE
  5
6D
100
AcDbEntity
  8
0
100
AcDbCircle
 10
344.855677
 20
515.211552
 30
0.0
 40
1.25
  0
CIRCLE
  5
6E
100
AcDbEntity
  8
0
100
AcDbCircle
 10
339.318783
 20
510.962944
 30
0.0
 40
1.25
  0
CIRCLE
  5
6F
100
AcDbEntity
  8
0
100
AcDbCircle
 10
334.173249
 20
506.247931
 30
0.0
 40
1.25
  0
CIRCLE
  5
70
100
AcDbEntity
  8
0
100
AcDbCircle
 10
334.173249
 20
393.110846
 30
0.0
 40
1.25
  0
CIRCLE
  5
71
100
AcDbEntity
  8
0
100
AcDbCircle
 10
339.318783
 20
388.395833
 30
0.0
 40
1.25
  0
CIRCLE
  5
72
100
AcDbEntity
  8
0
100
AcDbCircle
 10
344.855677
 20
384.147225
 30
0.0
 40
1.25
  0
CIRCLE
  5
73
100
AcDbEntity
  8
0
100
AcDbCircle
 10
350.741791
 20
380.397356
 30
0.0
 40
1.25
  0
CIRCLE
  5
74
100
AcDbEntity
  8
0
100
AcDbCircle
 10
356.932331
 20
377.174765
 30
0.0
 40
1.25
  0
CIRCLE
  5
75
100
AcDbEntity
  8
0
100
AcDbCircle
 10
363.38018
 20
374.503979
 30
0.0
 40
1.25
  0
CIRCLE
  5
76
100
AcDbEntity
  8
0
100
AcDbCircle
 10
370.036268
 20
372.405322
 30
0.0
 40
1.25
  0
CIRCLE
  5
77
100
AcDbEntity
  8
0
100
AcDbCircle
 10
376.849937
 20
370.894768
 30
0.0
 40
1.25
  0
CIRCLE
  5
78
100
AcDbEntity
  8
0
100
AcDbCircle
 10
383.769332
 20
369.983813
 30
0.0
 40
1.25
  0
CIRCLE
  5
79
100
AcDbEntity
  8
0
100
AcDbCircle
 10
390.741791
 20
369.679388
 30
0.0
 40
1.25
  0
CIRCLE
  5
7A
100
AcDbEntity
  8
0
100
AcDbCircle
 10
397.714251
 20
369.983813
 30
0.0
 40
1.25
  0
CIRCLE
  5
7B
100
AcDbEntity
  8
0
100
AcDbCircle
 10
404.633646
 20
370.894768
 30
0.0
 40
1.25
  0
CIRCLE
  5
7C
100
AcDbEntity
  8
0
100
AcDbCircle
 10
411.447315
 20
372.405322
 30
0.0
 40
1.25
  0
CIRCLE
  5
7D
100
AcDbEntity
  8
0
100
AcDbCircle
 10
418.103403
 20
374.503979
 30
0.0
 40
1.25
  0
CIRCLE
  5
7E
100
AcDbEntity
  8
0
100
AcDbCircle
 10
424.551252
 20
377.174765
 30
0.0
 40
1.25
  0
CIRCLE
  5
7F
100
AcDbEntity
  8
0
100
AcDbCircle
 10
430.741791
 20
380.397356
 30
0.0
 40
1.25
  0
CIRCLE
  5
80
100
AcDbEntity
  8
0
100
AcDbCircle
 10
436.627906
 20
384.147225
 30
0.0
 40
1.25
  0
CIRCLE
  5
81
100
AcDbEntity
  8
0
100
AcDbCircle
 10
442.1648
 20
388.395833
 30
0.0
 40
1.25
  0
CIRCLE
  5
82
100
AcDbEntity
  8
0
100
AcDbCircle
 10
447.310334
 20
393.110846
 30
0.0
 40
1.25
  0
CIRCLE
  5
83
100
AcDbEntity
  8
0
100
AcDbCircle
 10
390.741791
 20
372.179388
 30
0.0
 40
1.25
  0
CIRCLE
  5
84
100
AcDbEntity
  8
0
100
AcDbCircle
 10
390.741791
 20
374.679388
 30
0.0
 40
1.25
  0
CIRCLE
  5
85
100
AcDbEntity
  8
0
100
AcDbCircle
 10
390.741791
 20
377.179388
 30
0.0
 40
1.25
  0
CIRCLE
  5
86
100
AcDbEntity
  8
0
100
AcDbCircle
 10
390.741791
 20
379.679388
 30
0.0
 40
1.25
  0
CIRCLE
  5
87
100
AcDbEntity
  8
0
100
AcDbCircle
 10
390.741791
 20
382.179388
 30
0.0
 40
1.25
  0
CIRCLE
  5
88
100
AcDbEntity
  8
0
100
AcDbCircle
 10
390.741791
 20
384.679388
 30
0.0
 40
1.25
  0
CIRCLE
  5
89
100
AcDbEntity
  8
0
100
AcDbCircle
 10
390.741791
 20
387.179388
 30
0.0
 40
1.25
  0
CIRCLE
  5
8A
100
AcDbEntity
  8
0
100
AcDbCircle
 10
390.741791
 20
389.679388
 30
0.0
 40
1.25
  0
CIRCLE
  5
8B
100
AcDbEntity
  8
0
100
AcDbCircle
 10
390.741791
 20
392.179388
 30
0.0
 40
1.25
  0
CIRCLE
  5
8C
100
AcDbEntity
  8
0
100
AcDbCircle
 10
390.741791
 20
394.679388
 30
0.0
 40
1.25
  0
CIRCLE
  5
8D
100
AcDbEntity
  8
0
100
AcDbCircle
 10
390.741791
 20
397.179388
 30
0.0
 40
1.25
  0
CIRCLE
  5
8E
100
AcDbEntity
  8
0
100
AcDbCircle
 10
390.741791
 20
399.679388
 30
0.0
 40
1.25
  0
CIRCLE
  5
8F
100
AcDbEntity
  8
0
100
AcDbCircle
 10
390.741791
 20
402.179388
 30
0.0
 40
1.25
  0
CIRCLE
  5
90
100
AcDbEntity
  8
0
100
AcDbCircle
 10
390.741791
 20
404.679388
 30
0.0
 40
1.25
  0
CIRCLE
  5
91
100
AcDbEntity
  8
0
100
AcDbCircle
 10
390.741791
 20
407.179388
 30
0.0
 40
1.25
  0
CIRCLE
  5
92
100
AcDbEntity
  8
0
100
AcDbCircle
 10
390.741791
 20
409.679388
 30
0.0
 40
1.25
  0
CIRCLE
  5
93
100
AcDbEntity
  8
0
100
AcDbCircle
 10
390.741791
 20
412.179388
 30
0.0
 40
1.25
  0
CIRCLE
  5
94
100
AcDbEntity
  8
0
100
AcDbCircle
 10
390.741791
 20
414.679388
 30
0.0
 40
1.25
  0
CIRCLE
  5
95
100
AcDbEntity
  8
0
100
AcDbCircle
 10
390.741791
 20
417.179388
 30
0.0
 40
1.25
  0
CIRCLE
  5
96
100
AcDbEntity
  8
0
100
AcDbCircle
 10
390.741791
 20
419.679388
 30
0.0
 40
1.25
  0
CIRCLE
  5
97
100
AcDbEntity
  8
0
100
AcDbCircle
 10
390.741791
 20
422.179388
 30
0.0
 40
1.25
  0
CIRCLE
  5
98
100
AcDbEntity
  8
0
100
AcDbCircle
 10
390.741791
 20
424.679388
 30
0.0
 40
1.25
  0
CIRCLE
  5
99
100
AcDbEntity
  8
0
100
AcDbCircle
 10
390.741791
 20
427.179388
 30
0.0
 40
1.25
  0
CIRCLE
  5
9A
100
AcDbEntity
  8
0
100
AcDbCircle
 10
390.741791
 20
429.679388
 30
0.0
 40
1.25
  0
CIRCLE
  5
9B
100
AcDbEntity
  8
0
100
AcDbCircle
 10
390.741791
 20
432.179388
 30
0.0
 40
1.25
  0
CIRCLE
  5
9C
100
AcDbEntity
  8
0
100
AcDbCircle
 10
390.741791
 20
434.679388
 30
0.0
 40
1.25
  0
CIRCLE
  5
9D
100
AcDbEntity
  8
0
100
AcDbCircle
 10
390.741791
 20
437.179388
 30
0.0
 40
1.25
  0
CIRCLE
  5
9E
100
AcDbEntity
  8
0
100
AcDbCircle
 10
390.741791
 20
439.679388
 30
0.0
 40
1.25
  0
CIRCLE
  5
9F
100
AcDbEntity
  8
0
100
AcDbCircle
 10
390.741791
 20
442.179388
 30
0.0
 40
1.25
  0
CIRCLE
  5
A0
100
AcDbEntity
  8
0
100
AcDbCircle
 10
390.741791
 20
449.679388
 30
0.0
 40
1.25
  0
CIRCLE
  5
A1
100
AcDbEntity
  8
0
100
AcDbCircle
 10
390.741791
 20
447.179388
 30
0.0
 40
1.25
  0
CIRCLE
  5
A2
100
AcDbEntity
  8
0
100
AcDbCircle
 10
390.741791
 20
444.679388
 30
0.0
 40
1.25
  0
CIRCLE
  5
A3
100
AcDbEntity
  8
0
100
AcDbCircle
 10
383.769332
 20
372.483813
 30
0.0
 40
1.25
  0
CIRCLE
  5
A4
100
AcDbEntity
  8
0
100
AcDbCircle
 10
383.769332
 20
374.983813
 30
0.0
 40
1.25
  0
CIRCLE
  5
A5
100
AcDbEntity
  8
0
100
AcDbCircle
 10
383.769332
 20
377.483813
 30
0.0
 40
1.25
  0
CIRCLE
  5
A6
100
AcDbEntity
  8
0
100
AcDbCircle
 10
383.769332
 20
379.983813
 30
0.0
 40
1.25
  0
CIRCLE
  5
A7
100
AcDbEntity
  8
0
100
AcDbCircle
 10
383.769332
 20
382.483813
 30
0.0
 40
1.25
  0
CIRCLE
  5
A8
100
AcDbEntity
  8
0
100
AcDbCircle
 10
383.769332
 20
384.983813
 30
0.0
 40
1.25
  0
CIRCLE
  5
A9
100
AcDbEntity
  8
0
100
AcDbCircle
 10
383.769332
 20
387.483813
 30
0.0
 40
1.25
  0
CIRCLE
  5
AA
100
AcDbEntity
  8
0
100
AcDbCircle
 10
383.769332
 20
389.983813
 30
0.0
 40
1.25
  0
CIRCLE
  5
AB
100
AcDbEntity
  8
0
100
AcDbCircle
 10
383.769332
 20
392.483813
 30
0.0
 40
1.25
  0
CIRCLE
  5
AC
100
AcDbEntity
  8
0
100
AcDbCircle
 10
383.769332
 20
394.983813
 30
0.0
 40
1.25
  0
CIRCLE
  5
AD
100
AcDbEntity
  8
0
100
AcDbCircle
 10
383.769332
 20
397.483813
 30
0.0
 40
1.25
  0
CIRCLE
  5
AE
100
AcDbEntity
  8
0
100
AcDbCircle
 10
383.769332
 20
399.983813
 30
0.0
 40
1.25
  0
CIRCLE
  5
AF
100
AcDbEntity
  8
0
100
AcDbCircle
 10
383.769332
 20
402.483813
 30
0.0
 40
1.25
  0
CIRCLE
  5
B0
100
AcDbEntity
  8
0
100
AcDbCircle
 10
383.769332
 20
404.983813
 30
0.0
 40
1.25
  0
CIRCLE
  5
B1
100
AcDbEntity
  8
0
100
AcDbCircle
 10
383.769332
 20
407.483813
 30
0.0
 40
1.25
  0
CIRCLE
  5
B2
100
AcDbEntity
  8
0
100
AcDbCircle
 10
383.769332
 20
409.983813
 30
0.0
 40
1.25
  0
CIRCLE
  5
B3
100
AcDbEntity
  8
0
100
AcDbCircle
 10
383.769332
 20
412.483813
 30
0.0
 40
1.25
  0
CIRCLE
  5
B4
100
AcDbEntity
  8
0
100
AcDbCircle
 10
383.769332
 20
414.983813
 30
0.0
 40
1.25
  0
CIRCLE
  5
B5
100
AcDbEntity
  8
0
100
AcDbCircle
 10
383.769332
 20
417.483813
 30
0.0
 40
1.25
  0
CIRCLE
  5
B6
100
AcDbEntity
  8
0
100
AcDbCircle
 10
383.769332
 20
419.983813
 30
0.0
 40
1.25
  0
CIRCLE
  5
B7
100
AcDbEntity
  8
0
100
AcDbCircle
 10
383.769332
 20
422.483813
 30
0.0
 40
1.25
  0
CIRCLE
  5
B8
100
AcDbEntity
  8
0
100
AcDbCircle
 10
383.769332
 20
424.983813
 30
0.0
 40
1.25
  0
CIRCLE
  5
B9
100
AcDbEntity
  8
0
100
AcDbCircle
 10
383.769332
 20
427.483813
 30
0.0
 40
1.25
  0
CIRCLE
  5
BA
100
AcDbEntity
  8
0
100
AcDbCircle
 10
383.769332
 20
429.983813
 30
0.0
 40
1.25
  0
CIRCLE
  5
BB
100
AcDbEntity
  8
0
100
AcDbCircle
 10
383.769332
 20
432.483813
 30
0.0
 40
1.25
  0
CIRCLE
  5
BC
100
AcDbEntity
  8
0
100
AcDbCircle
 10
383.769332
 20
434.983813
 30
0.0
 40
1.25
  0
CIRCLE
  5
BD
100
AcDbEntity
  8
0
100
AcDbCircle
 10
383.769332
 20
437.483813
 30
0.0
 40
1.25
  0
CIRCLE
  5
BE
100
AcDbEntity
  8
0
100
AcDbCircle
 10
383.769332
 20
439.983813
 30
0.0
 40
1.25
  0
CIRCLE
  5
BF
100
AcDbEntity
  8
0
100
AcDbCircle
 10
376.849937
 20
373.394768
 30
0.0
 40
1.25
  0
CIRCLE
  5
C0
100
AcDbEntity
  8
0
100
AcDbCircle
 10
376.849937
 20
375.894768
 30
0.0
 40
1.25
  0
CIRCLE
  5
C1
100
AcDbEntity
  8
0
100
AcDbCircle
 10
376.849937
 20
378.394768
 30
0.0
 40
1.25
  0
CIRCLE
  5
C2
100
AcDbEntity
  8
0
100
AcDbCircle
 10
376.849937
 20
380.894768
 30
0.0
 40
1.25
  0
CIRCLE
  5
C3
100
AcDbEntity
  8
0
100
AcDbCircle
 10
376.849937
 20
383.394768
 30
0.0
 40
1.25
  0
CIRCLE
  5
C4
100
AcDbEntity
  8
0
100
AcDbCircle
 10
376.849937
 20
385.894768
 30
0.0
 40
1.25
  0
CIRCLE
  5
C5
100
AcDbEntity
  8
0
100
AcDbCircle
 10
376.849937
 20
388.394768
 30
0.0
 40
1.25
  0
CIRCLE
  5
C6
100
AcDbEntity
  8
0
100
AcDbCircle
 10
376.849937
 20
390.894768
 30
0.0
 40
1.25
  0
CIRCLE
  5
C7
100
AcDbEntity
  8
0
100
AcDbCircle
 10
376.849937
 20
393.394768
 30
0.0
 40
1.25
  0
CIRCLE
  5
C8
100
AcDbEntity
  8
0
100
AcDbCircle
 10
376.849937
 20
395.894768
 30
0.0
 40
1.25
  0
CIRCLE
  5
C9
100
AcDbEntity
  8
0
100
AcDbCircle
 10
376.849937
 20
398.394768
 30
0.0
 40
1.25
  0
CIRCLE
  5
CA
100
AcDbEntity
  8
0
100
AcDbCircle
 10
376.849937
 20
400.894768
 30
0.0
 40
1.25
  0
CIRCLE
  5
CB
100
AcDbEntity
  8
0
100
AcDbCircle
 10
376.849937
 20
403.394768
 30
0.0
 40
1.25
  0
CIRCLE
  5
CC
100
AcDbEntity
  8
0
100
AcDbCircle
 10
376.849937
 20
405.894768
 30
0.0
 40
1.25
  0
CIRCLE
  5
CD
100
AcDbEntity
  8
0
100
AcDbCircle
 10
376.849937
 20
408.394768
 30
0.0
 40
1.25
  0
CIRCLE
  5
CE
100
AcDbEntity
  8
0
100
AcDbCircle
 10
376.849937
 20
410.894768
 30
0.0
 40
1.25
  0
CIRCLE
  5
CF
100
AcDbEntity
  8
0
100
AcDbCircle
 10
376.849937
 20
413.394768
 30
0.0
 40
1.25
  0
CIRCLE
  5
D0
100
AcDbEntity
  8
0
100
AcDbCircle
 10
376.849937
 20
415.894768
 30
0.0
 40
1.25
  0
CIRCLE
  5
D1
100
AcDbEntity
  8
0
100
AcDbCircle
 10
376.849937
 20
418.394768
 30
0.0
 40
1.25
  0
CIRCLE
  5
D2
100
AcDbEntity
  8
0
100
AcDbCircle
 10
376.849937
 20
420.894768
 30
0.0
 40
1.25
  0
CIRCLE
  5
D3
100
AcDbEntity
  8
0
100
AcDbCircle
 10
376.849937
 20
423.394768
 30
0.0
 40
1.25
  0
CIRCLE
  5
D4
100
AcDbEntity
  8
0
100
AcDbCircle
 10
376.849937
 20
425.894768
 30
0.0
 40
1.25
  0
CIRCLE
  5
D5
100
AcDbEntity
  8
0
100
AcDbCircle
 10
376.849937
 20
428.394768
 30
0.0
 40
1.25
  0
CIRCLE
  5
D6
100
AcDbEntity
  8
0
100
AcDbCircle
 10
376.849937
 20
430.894768
 30
0.0
 40
1.25
  0
CIRCLE
  5
D7
100
AcDbEntity
  8
0
100
AcDbCircle
 10
376.849937
 20
433.394768
 30
0.0
 40
1.25
  0
CIRCLE
  5
D8
100
AcDbEntity
  8
0
100
AcDbCircle
 10
370.036268
 20
374.905322
 30
0.0
 40
1.25
  0
CIRCLE
  5
D9
100
AcDbEntity
  8
0
100
AcDbCircle
 10
370.036268
 20
377.405322
 30
0.0
 40
1.25
  0
CIRCLE
  5
DA
100
AcDbEntity
  8
0
100
AcDbCircle
 10
370.036268
 20
379.905322
 30
0.0
 40
1.25
  0
CIRCLE
  5
DB
100
AcDbEntity
  8
0
100
AcDbCircle
 10
370.036268
 20
382.405322
 30
0.0
 40
1.25
  0
CIRCLE
  5
DC
100
AcDbEntity
  8
0
100
AcDbCircle
 10
370.036268
 20
384.905322
 30
0.0
 40
1.25
  0
CIRCLE
  5
DD
100
AcDbEntity
  8
0
100
AcDbCircle
 10
370.036268
 20
387.405322
 30
0.0
 40
1.25
  0
CIRCLE
  5
DE
100
AcDbEntity
  8
0
100
AcDbCircle
 10
370.036268
 20
389.905322
 30
0.0
 40
1.25
  0
CIRCLE
  5
DF
100
AcDbEntity
  8
0
100
AcDbCircle
 10
370.036268
 20
392.405322
 30
0.0
 40
1.25
  0
CIRCLE
  5
E0
100
AcDbEntity
  8
0
100
AcDbCircle
 10
370.036268
 20
394.905322
 30
0.0
 40
1.25
  0
CIRCLE
  5
E1
100
AcDbEntity
  8
0
100
AcDbCircle
 10
370.036268
 20
397.405322
 30
0.0
 40
1.25
  0
CIRCLE
  5
E2
100
AcDbEntity
  8
0
100
AcDbCircle
 10
370.036268
 20
399.905322
 30
0.0
 40
1.25
  0
CIRCLE
  5
E3
100
AcDbEntity
  8
0
100
AcDbCircle
 10
370.036268
 20
402.405322
 30
0.0
 40
1.25
  0
CIRCLE
  5
E4
100
AcDbEntity
  8
0
100
AcDbCircle
 10
370.036268
 20
404.905322
 30
0.0
 40
1.25
  0
CIRCLE
  5
E5
100
AcDbEntity
  8
0
100
AcDbCircle
 10
370.036268
 20
407.405322
 30
0.0
 40
1.25
  0
CIRCLE
  5
E6
100
AcDbEntity
  8
0
100
AcDbCircle
 10
370.036268
 20
409.905322
 30
0.0
 40
1.25
  0
CIRCLE
  5
E7
100
AcDbEntity
  8
0
100
AcDbCircle
 10
370.036268
 20
412.405322
 30
0.0
 40
1.25
  0
CIRCLE
  5
E8
100
AcDbEntity
  8
0
100
AcDbCircle
 10
370.036268
 20
414.905322
 30
0.0
 40
1.25
  0
CIRCLE
  5
E9
100
AcDbEntity
  8
0
100
AcDbCircle
 10
370.036268
 20
417.405322
 30
0.0
 40
1.25
  0
CIRCLE
  5
EA
100
AcDbEntity
  8
0
100
AcDbCircle
 10
370.036268
 20
419.905322
 30
0.0
 40
1.25
  0
CIRCLE
  5
EB
100
AcDbEntity
  8
0
100
AcDbCircle
 10
370.036268
 20
427.405322
 30
0.0
 40
1.25
  0
CIRCLE
  5
EC
100
AcDbEntity
  8
0
100
AcDbCircle
 10
370.036268
 20
424.905322
 30
0.0
 40
1.25
  0
CIRCLE
  5
ED
100
AcDbEntity
  8
0
100
AcDbCircle
 10
370.036268
 20
422.405322
 30
0.0
 40
1.25
  0
CIRCLE
  5
EE
100
AcDbEntity
  8
0
100
AcDbCircle
 10
363.38018
 20
377.003979
 30
0.0
 40
1.25
  0
CIRCLE
  5
EF
100
AcDbEntity
  8
0
100
AcDbCircle
 10
363.38018
 20
379.503979
 30
0.0
 40
1.25
  0
CIRCLE
  5
F0
100
AcDbEntity
  8
0
100
AcDbCircle
 10
363.38018
 20
382.003979
 30
0.0
 40
1.25
  0
CIRCLE
  5
F1
100
AcDbEntity
  8
0
100
AcDbCircle
 10
363.38018
 20
384.503979
 30
0.0
 40
1.25
  0
CIRCLE
  5
F2
100
AcDbEntity
  8
0
100
AcDbCircle
 10
363.38018
 20
387.003979
 30
0.0
 40
1.25
  0
CIRCLE
  5
F3
100
AcDbEntity
  8
0
100
AcDbCircle
 10
363.38018
 20
389.503979
 30
0.0
 40
1.25
  0
CIRCLE
  5
F4
100
AcDbEntity
  8
0
100
AcDbCircle
 10
363.38018
 20
392.003979
 30
0.0
 40
1.25
  0
CIRCLE
  5
F5
100
AcDbEntity
  8
0
100
AcDbCircle
 10
363.38018
 20
394.503979
 30
0.0
 40
1.25
  0
CIRCLE
  5
F6
100
AcDbEntity
  8
0
100
AcDbCircle
 10
363.38018
 20
397.003979
 30
0.0
 40
1.25
  0
CIRCLE
  5
F7
100
AcDbEntity
  8
0
100
AcDbCircle
 10
363.38018
 20
399.503979
 30
0.0
 40
1.25
  0
CIRCLE
  5
F8
100
AcDbEntity
  8
0
100
AcDbCircle
 10
363.38018
 20
402.003979
 30
0.0
 40
1.25
  0
CIRCLE
  5
F9
100
AcDbEntity
  8
0
100
AcDbCircle
 10
363.38018
 20
404.503979
 30
0.0
 40
1.25
  0
CIRCLE
  5
FA
100
AcDbEntity
  8
0
100
AcDbCircle
 10
363.38018
 20
407.003979
 30
0.0
 40
1.25
  0
CIRCLE
  5
FB
100
AcDbEntity
  8
0
100
AcDbCircle
 10
363.38018
 20
409.503979
 30
0.0
 40
1.25
  0
CIRCLE
  5
FC
100
AcDbEntity
  8
0
100
AcDbCircle
 10
363.38018
 20
412.003979
 30
0.0
 40
1.25
  0
CIRCLE
  5
FD
100
AcDbEntity
  8
0
100
AcDbCircle
 10
363.38018
 20
414.503979
 30
0.0
 40
1.25
  0
CIRCLE
  5
FE
100
AcDbEntity
  8
0
100
AcDbCircle
 10
363.38018
 20
417.003979
 30
0.0
 40
1.25
  0
CIRCLE
  5
FF
100
AcDbEntity
  8
0
100
AcDbCircle
 10
363.38018
 20
419.503979
 30
0.0
 40
1.25
  0
CIRCLE
  5
100
100
AcDbEntity
  8
0
100
AcDbCircle
 10
363.38018
 20
422.003979
 30
0.0
 40
1.25
  0
CIRCLE
  5
101
100
AcDbEntity
  8
0
100
AcDbCircle
 10
356.932331
 20
379.674765
 30
0.0
 40
1.25
  0
CIRCLE
  5
102
100
AcDbEntity
  8
0
100
AcDbCircle
 10
356.932331
 20
382.174765
 30
0.0
 40
1.25
  0
CIRCLE
  5
103
100
AcDbEntity
  8
0
100
AcDbCircle
 10
356.932331
 20
384.674765
 30
0.0
 40
1.25
  0
CIRCLE
  5
104
100
AcDbEntity
  8
0
100
AcDbCircle
 10
356.932331
 20
387.174765
 30
0.0
 40
1.25
  0
CIRCLE
  5
105
100
AcDbEntity
  8
0
100
AcDbCircle
 10
356.932331
 20
389.674765
 30
0.0
 40
1.25
  0
CIRCLE
  5
106
100
AcDbEntity
  8
0
100
AcDbCircle
 10
356.932331
 20
392.174765
 30
0.0
 40
1.25
  0
CIRCLE
  5
107
100
AcDbEntity
  8
0
100
AcDbCircle
 10
356.932331
 20
394.674765
 30
0.0
 40
1.25
  0
CIRCLE
  5
108
100
AcDbEntity
  8
0
100
AcDbCircle
 10
356.932331
 20
397.174765
 30
0.0
 40
1.25
  0
CIRCLE
  5
109
100
AcDbEntity
  8
0
100
AcDbCircle
 10
356.932331
 20
399.674765
 30
0.0
 40
1.25
  0
CIRCLE
  5
10A
100
AcDbEntity
  8
0
100
AcDbCircle
 10
356.932331
 20
402.174765
 30
0.0
 40
1.25
  0
CIRCLE
  5
10B
100
AcDbEntity
  8
0
100
AcDbCircle
 10
356.932331
 20
404.674765
 30
0.0
 40
1.25
  0
CIRCLE
  5
10C
100
AcDbEntity
  8
0
100
AcDbCircle
 10
356.932331
 20
407.174765
 30
0.0
 40
1.25
  0
CIRCLE
  5
10D
100
AcDbEntity
  8
0
100
AcDbCircle
 10
356.932331
 20
409.674765
 30
0.0
 40
1.25
  0
CIRCLE
  5
10E
100
AcDbEntity
  8
0
100
AcDbCircle
 10
356.932331
 20
412.174765
 30
0.0
 40
1.25
  0
CIRCLE
  5
10F
100
AcDbEntity
  8
0
100
AcDbCircle
 10
356.932331
 20
414.674765
 30
0.0
 40
1.25
  0
CIRCLE
  5
110
100
AcDbEntity
  8
0
100
AcDbCircle
 10
350.741791
 20
382.897356
 30
0.0
 40
1.25
  0
CIRCLE
  5
111
100
AcDbEntity
  8
0
100
AcDbCircle
 10
350.741791
 20
385.397356
 30
0.0
 40
1.25
  0
CIRCLE
  5
112
100
AcDbEntity
  8
0
100
AcDbCircle
 10
350.741791
 20
387.897356
 30
0.0
 40
1.25
  0
CIRCLE
  5
113
100
AcDbEntity
  8
0
100
AcDbCircle
 10
350.741791
 20
390.397356
 30
0.0
 40
1.25
  0
CIRCLE
  5
114
100
AcDbEntity
  8
0
100
AcDbCircle
 10
350.741791
 20
392.897356
 30
0.0
 40
1.25
  0
CIRCLE
  5
115
100
AcDbEntity
  8
0
100
AcDbCircle
 10
350.741791
 20
395.397356
 30
0.0
 40
1.25
  0
CIRCLE
  5
116
100
AcDbEntity
  8
0
100
AcDbCircle
 10
350.741791
 20
397.897356
 30
0.0
 40
1.25
  0
CIRCLE
  5
117
100
AcDbEntity
  8
0
100
AcDbCircle
 10
350.741791
 20
400.397356
 30
0.0
 40
1.25
  0
CIRCLE
  5
118
100
AcDbEntity
  8
0
100
AcDbCircle
 10
350.741791
 20
402.897356
 30
0.0
 40
1.25
  0
CIRCLE
  5
119
100
AcDbEntity
  8
0
100
AcDbCircle
 10
350.741791
 20
405.397356
 30
0.0
 40
1.25
  0
CIRCLE
  5
11A
100
AcDbEntity
  8
0
100
AcDbCircle
 10
350.741791
 20
407.897356
 30
0.0
 40
1.25
  0
CIRCLE
  5
11B
100
AcDbEntity
  8
0
100
AcDbCircle
 10
344.855677
 20
386.647225
 30
0.0
 40
1.25
  0
CIRCLE
  5
11C
100
AcDbEntity
  8
0
100
AcDbCircle
 10
344.855677
 20
389.147225
 30
0.0
 40
1.25
  0
CIRCLE
  5
11D
100
AcDbEntity
  8
0
100
AcDbCircle
 10
344.855677
 20
391.647225
 30
0.0
 40
1.25
  0
CIRCLE
  5
11E
100
AcDbEntity
  8
0
100
AcDbCircle
 10
344.855677
 20
394.147225
 30
0.0
 40
1.25
  0
CIRCLE
  5
11F
100
AcDbEntity
  8
0
100
AcDbCircle
 10
344.855677
 20
396.647225
 30
0.0
 40
1.25
  0
CIRCLE
  5
120
100
AcDbEntity
  8
0
100
AcDbCircle
 10
344.855677
 20
399.147225
 30
0.0
 40
1.25
  0
CIRCLE
  5
121
100
AcDbEntity
  8
0
100
AcDbCircle
 10
344.855677
 20
401.647225
 30
0.0
 40
1.25
  0
CIRCLE
  5
122
100
AcDbEntity
  8
0
100
AcDbCircle
 10
339.318783
 20
390.895833
 30
0.0
 40
1.25
  0
CIRCLE
  5
123
100
AcDbEntity
  8
0
100
AcDbCircle
 10
339.318783
 20
393.395833
 30
0.0
 40
1.25
  0
CIRCLE
  5
124
100
AcDbEntity
  8
0
100
AcDbCircle
 10
339.318783
 20
395.895833
 30
0.0
 40
1.25
  0
CIRCLE
  5
125
100
AcDbEntity
  8
0
100
AcDbCircle
 10
442.1648
 20
395.895833
 30
0.0
 40
1.25
  0
CIRCLE
  5
126
100
AcDbEntity
  8
0
100
AcDbCircle
 10
442.1648
 20
393.395833
 30
0.0
 40
1.25
  0
CIRCLE
  5
127
100
AcDbEntity
  8
0
100
AcDbCircle
 10
442.1648
 20
390.895833
 30
0.0
 40
1.25
  0
CIRCLE
  5
128
100
AcDbEntity
  8
0
100
AcDbCircle
 10
436.627906
 20
401.647225
 30
0.0
 40
1.25
  0
CIRCLE
  5
129
100
AcDbEntity
  8
0
100
AcDbCircle
 10
436.627906
 20
399.147225
 30
0.0
 40
1.25
  0
CIRCLE
  5
12A
100
AcDbEntity
  8
0
100
AcDbCircle
 10
436.627906
 20
396.647225
 30
0.0
 40
1.25
  0
CIRCLE
  5
12B
100
AcDbEntity
  8
0
100
AcDbCircle
 10
436.627906
 20
394.147225
 30
0.0
 40
1.25
  0
CIRCLE
  5
12C
100
AcDbEntity
  8
0
100
AcDbCircle
 10
436.627906
 20
391.647225
 30
0.0
 40
1.25
  0
CIRCLE
  5
12D
100
AcDbEntity
  8
0
100
AcDbCircle
 10
436.627906
 20
389.147225
 30
0.0
 40
1.25
  0
CIRCLE
  5
12E
100
AcDbEntity
  8
0
100
AcDbCircle
 10
436.627906
 20
386.647225
 30
0.0
 40
1.25
  0
CIRCLE
  5
12F
100
AcDbEntity
  8
0
100
AcDbCircle
 10
430.741791
 20
407.897356
 30
0.0
 40
1.25
  0
CIRCLE
  5
130
100
AcDbEntity
  8
0
100
AcDbCircle
 10
430.741791
 20
405.397356
 30
0.0
 40
1.25
  0
CIRCLE
  5
131
100
AcDbEntity
  8
0
100
AcDbCircle
 10
430.741791
 20
402.897356
 30
0.0
 40
1.25
  0
CIRCLE
  5
132
100
AcDbEntity
  8
0
100
AcDbCircle
 10
430.741791
 20
400.397356
 30
0.0
 40
1.25
  0
CIRCLE
  5
133
100
AcDbEntity
  8
0
100
AcDbCircle
 10
430.741791
 20
397.897356
 30
0.0
 40
1.25
  0
CIRCLE
  5
134
100
AcDbEntity
  8
0
100
AcDbCircle
 10
430.741791
 20
395.397356
 30
0.0
 40
1.25
  0
CIRCLE
  5
135
100
AcDbEntity
  8
0
100
AcDbCircle
 10
430.741791
 20
392.897356
 30
0.0
 40
1.25
  0
CIRCLE
  5
136
100
AcDbEntity
  8
0
100
AcDbCircle
 10
430.741791
 20
390.397356
 30
0.0
 40
1.25
  0
CIRCLE
  5
137
100
AcDbEntity
  8
0
100
AcDbCircle
 10
430.741791
 20
387.897356
 30
0.0
 40
1.25
  0
CIRCLE
  5
138
100
AcDbEntity
  8
0
100
AcDbCircle
 10
430.741791
 20
385.397356
 30
0.0
 40
1.25
  0
CIRCLE
  5
139
100
AcDbEntity
  8
0
100
AcDbCircle
 10
430.741791
 20
382.897356
 30
0.0
 40
1.25
  0
CIRCLE
  5
13A
100
AcDbEntity
  8
0
100
AcDbCircle
 10
424.551252
 20
414.674765
 30
0.0
 40
1.25
  0
CIRCLE
  5
13B
100
AcDbEntity
  8
0
100
AcDbCircle
 10
424.551252
 20
412.174765
 30
0.0
 40
1.25
  0
CIRCLE
  5
13C
100
AcDbEntity
  8
0
100
AcDbCircle
 10
424.551252
 20
409.674765
 30
0.0
 40
1.25
  0
CIRCLE
  5
13D
100
AcDbEntity
  8
0
100
AcDbCircle
 10
424.551252
 20
407.174765
 30
0.0
 40
1.25
  0
CIRCLE
  5
13E
100
AcDbEntity
  8
0
100
AcDbCircle
 10
424.551252
 20
404.674765
 30
0.0
 40
1.25
  0
CIRCLE
  5
13F
100
AcDbEntity
  8
0
100
AcDbCircle
 10
424.551252
 20
402.174765
 30
0.0
 40
1.25
  0
CIRCLE
  5
140
100
AcDbEntity
  8
0
100
AcDbCircle
 10
424.551252
 20
399.674765
 30
0.0
 40
1.25
  0
CIRCLE
  5
141
100
AcDbEntity
  8
0
100
AcDbCircle
 10
424.551252
 20
397.174765
 30
0.0
 40
1.25
  0
CIRCLE
  5
142
100
AcDbEntity
  8
0
100
AcDbCircle
 10
424.551252
 20
394.674765
 30
0.0
 40
1.25
  0
CIRCLE
  5
143
100
AcDbEntity
  8
0
100
AcDbCircle
 10
424.551252
 20
392.174765
 30
0.0
 40
1.25
  0
CIRCLE
  5
144
100
AcDbEntity
  8
0
100
AcDbCircle
 10
424.551252
 20
389.674765
 30
0.0
 40
1.25
  0
CIRCLE
  5
145
100
AcDbEntity
  8
0
100
AcDbCircle
 10
424.551252
 20
387.174765
 30
0.0
 40
1.25
  0
CIRCLE
  5
146
100
AcDbEntity
  8
0
100
AcDbCircle
 10
424.551252
 20
384.674765
 30
0.0
 40
1.25
  0
CIRCLE
  5
147
100
AcDbEntity
  8
0
100
AcDbCircle
 10
424.551252
 20
382.174765
 30
0.0
 40
1.25
  0
CIRCLE
  5
148
100
AcDbEntity
  8
0
100
AcDbCircle
 10
424.551252
 20
379.674765
 30
0.0
 40
1.25
  0
CIRCLE
  5
149
100
AcDbEntity
  8
0
100
AcDbCircle
 10
418.103403
 20
422.003979
 30
0.0
 40
1.25
  0
CIRCLE
  5
14A
100
AcDbEntity
  8
0
100
AcDbCircle
 10
418.103403
 20
419.503979
 30
0.0
 40
1.25
  0
CIRCLE
  5
14B
100
AcDbEntity
  8
0
100
AcDbCircle
 10
418.103403
 20
417.003979
 30
0.0
 40
1.25
  0
CIRCLE
  5
14C
100
AcDbEntity
  8
0
100
AcDbCircle
 10
418.103403
 20
414.503979
 30
0.0
 40
1.25
  0
CIRCLE
  5
14D
100
AcDbEntity
  8
0
100
AcDbCircle
 10
418.103403
 20
412.003979
 30
0.0
 40
1.25
  0
CIRCLE
  5
14E
100
AcDbEntity
  8
0
100
AcDbCircle
 10
418.103403
 20
409.503979
 30
0.0
 40
1.25
  0
CIRCLE
  5
14F
100
AcDbEntity
  8
0
100
AcDbCircle
 10
418.103403
 20
407.003979
 30
0.0
 40
1.25
  0
CIRCLE
  5
150
100
AcDbEntity
  8
0
100
AcDbCircle
 10
418.103403
 20
404.503979
 30
0.0
 40
1.25
  0
CIRCLE
  5
151
100
AcDbEntity
  8
0
100
AcDbCircle
 10
418.103403
 20
402.003979
 30
0.0
 40
1.25
  0
CIRCLE
  5
152
100
AcDbEntity
  8
0
100
AcDbCircle
 10
418.103403
 20
399.503979
 30
0.0
 40
1.25
  0
CIRCLE
  5
153
100
AcDbEntity
  8
0
100
AcDbCircle
 10
418.103403
 20
397.003979
 30
0.0
 40
1.25
  0
CIRCLE
  5
154
100
AcDbEntity
  8
0
100
AcDbCircle
 10
418.103403
 20
394.503979
 30
0.0
 40
1.25
  0
CIRCLE
  5
155
100
AcDbEntity
  8
0
100
AcDbCircle
 10
418.103403
 20
392.003979
 30
0.0
 40
1.25
  0
CIRCLE
  5
156
100
AcDbEntity
  8
0
100
AcDbCircle
 10
418.103403
 20
389.503979
 30
0.0
 40
1.25
  0
CIRCLE
  5
157
100
AcDbEntity
  8
0
100
AcDbCircle
 10
418.103403
 20
387.003979
 30
0.0
 40
1.25
  0
CIRCLE
  5
158
100
AcDbEntity
  8
0
100
AcDbCircle
 10
418.103403
 20
384.503979
 30
0.0
 40
1.25
  0
CIRCLE
  5
159
100
AcDbEntity
  8
0
100
AcDbCircle
 10
418.103403
 20
382.003979
 30
0.0
 40
1.25
  0
CIRCLE
  5
15A
100
AcDbEntity
  8
0
100
AcDbCircle
 10
418.103403
 20
379.503979
 30
0.0
 40
1.25
  0
CIRCLE
  5
15B
100
AcDbEntity
  8
0
100
AcDbCircle
 10
418.103403
 20
377.003979
 30
0.0
 40
1.25
  0
CIRCLE
  5
15C
100
AcDbEntity
  8
0
100
AcDbCircle
 10
411.447315
 20
422.405322
 30
0.0
 40
1.25
  0
CIRCLE
  5
15D
100
AcDbEntity
  8
0
100
AcDbCircle
 10
411.447315
 20
424.905322
 30
0.0
 40
1.25
  0
CIRCLE
  5
15E
100
AcDbEntity
  8
0
100
AcDbCircle
 10
411.447315
 20
427.405322
 30
0.0
 40
1.25
  0
CIRCLE
  5
15F
100
AcDbEntity
  8
0
100
AcDbCircle
 10
411.447315
 20
419.905322
 30
0.0
 40
1.25
  0
CIRCLE
  5
160
100
AcDbEntity
  8
0
100
AcDbCircle
 10
411.447315
 20
417.405322
 30
0.0
 40
1.25
  0
CIRCLE
  5
161
100
AcDbEntity
  8
0
100
AcDbCircle
 10
411.447315
 20
414.905322
 30
0.0
 40
1.25
  0
CIRCLE
  5
162
100
AcDbEntity
  8
0
100
AcDbCircle
 10
411.447315
 20
412.405322
 30
0.0
 40
1.25
  0
CIRCLE
  5
163
100
AcDbEntity
  8
0
100
AcDbCircle
 10
411.447315
 20
409.905322
 30
0.0
 40
1.25
  0
CIRCLE
  5
164
100
AcDbEntity
  8
0
100
AcDbCircle
 10
411.447315
 20
407.405322
 30
0.0
 40
1.25
  0
CIRCLE
  5
165
100
AcDbEntity
  8
0
100
AcDbCircle
 10
411.447315
 20
404.905322
 30
0.0
 40
1.25
  0
CIRCLE
  5
166
100
AcDbEntity
  8
0
100
AcDbCircle
 10
411.447315
 20
402.405322
 30
0.0
 40
1.25
  0
CIRCLE
  5
167
100
AcDbEntity
  8
0
100
AcDbCircle
 10
411.447315
 20
399.905322
 30
0.0
 40
1.25
  0
CIRCLE
  5
168
100
AcDbEntity
  8
0
100
AcDbCircle
 10
411.447315
 20
397.405322
 30
0.0
 40
1.25
  0
CIRCLE
  5
169
100
AcDbEntity
  8
0
100
AcDbCircle
 10
411.447315
 20
394.905322
 30
0.0
 40
1.25
  0
CIRCLE
  5
16A
100
AcDbEntity
  8
0
100
AcDbCircle
 10
411.447315
 20
392.405322
 30
0.0
 40
1.25
  0
CIRCLE
  5
16B
100
AcDbEntity
  8
0
100
AcDbCircle
 10
411.447315
 20
389.905322
 30
0.0
 40
1.25
  0
CIRCLE
  5
16C
100
AcDbEntity
  8
0
100
AcDbCircle
 10
411.447315
 20
387.405322
 30
0.0
 40
1.25
  0
CIRCLE
  5
16D
100
AcDbEntity
  8
0
100
AcDbCircle
 10
411.447315
 20
384.905322
 30
0.0
 40
1.25
  0
CIRCLE
  5
16E
100
AcDbEntity
  8
0
100
AcDbCircle
 10
411.447315
 20
382.405322
 30
0.0
 40
1.25
  0
CIRCLE
  5
16F
100
AcDbEntity
  8
0
100
AcDbCircle
 10
411.447315
 20
379.905322
 30
0.0
 40
1.25
  0
CIRCLE
  5
170
100
AcDbEntity
  8
0
100
AcDbCircle
 10
411.447315
 20
377.405322
 30
0.0
 40
1.25
  0
CIRCLE
  5
171
100
AcDbEntity
  8
0
100
AcDbCircle
 10
411.447315
 20
374.905322
 30
0.0
 40
1.25
  0
CIRCLE
  5
172
100
AcDbEntity
  8
0
100
AcDbCircle
 10
404.633646
 20
433.394768
 30
0.0
 40
1.25
  0
CIRCLE
  5
173
100
AcDbEntity
  8
0
100
AcDbCircle
 10
404.633646
 20
430.894768
 30
0.0
 40
1.25
  0
CIRCLE
  5
174
100
AcDbEntity
  8
0
100
AcDbCircle
 10
404.633646
 20
428.394768
 30
0.0
 40
1.25
  0
CIRCLE
  5
175
100
AcDbEntity
  8
0
100
AcDbCircle
 10
404.633646
 20
425.894768
 30
0.0
 40
1.25
  0
CIRCLE
  5
176
100
AcDbEntity
  8
0
100
AcDbCircle
 10
404.633646
 20
423.394768
 30
0.0
 40
1.25
  0
CIRCLE
  5
177
100
AcDbEntity
  8
0
100
AcDbCircle
 10
404.633646
 20
420.894768
 30
0.0
 40
1.25
  0
CIRCLE
  5
178
100
AcDbEntity
  8
0
100
AcDbCircle
 10
404.633646
 20
418.394768
 30
0.0
 40
1.25
  0
CIRCLE
  5
179
100
AcDbEntity
  8
0
100
AcDbCircle
 10
404.633646
 20
415.894768
 30
0.0
 40
1.25
  0
CIRCLE
  5
17A
100
AcDbEntity
  8
0
100
AcDbCircle
 10
404.633646
 20
413.394768
 30
0.0
 40
1.25
  0
CIRCLE
  5
17B
100
AcDbEntity
  8
0
100
AcDbCircle
 10
404.633646
 20
410.894768
 30
0.0
 40
1.25
  0
CIRCLE
  5
17C
100
AcDbEntity
  8
0
100
AcDbCircle
 10
404.633646
 20
408.394768
 30
0.0
 40
1.25
  0
CIRCLE
  5
17D
100
AcDbEntity
  8
0
100
AcDbCircle
 10
404.633646
 20
405.894768
 30
0.0
 40
1.25
  0
CIRCLE
  5
17E
100
AcDbEntity
  8
0
100
AcDbCircle
 10
404.633646
 20
403.394768
 30
0.0
 40
1.25
  0
CIRCLE
  5
17F
100
AcDbEntity
  8
0
100
AcDbCircle
 10
404.633646
 20
400.894768
 30
0.0
 40
1.25
  0
CIRCLE
  5
180
100
AcDbEntity
  8
0
100
AcDbCircle
 10
404.633646
 20
398.394768
 30
0.0
 40
1.25
  0
CIRCLE
  5
181
100
AcDbEntity
  8
0
100
AcDbCircle
 10
404.633646
 20
395.894768
 30
0.0
 40
1.25
  0
CIRCLE
  5
182
100
AcDbEntity
  8
0
100
AcDbCircle
 10
404.633646
 20
393.394768
 30
0.0
 40
1.25
  0
CIRCLE
  5
183
100
AcDbEntity
  8
0
100
AcDbCircle
 10
404.633646
 20
390.894768
 30
0.0
 40
1.25
  0
CIRCLE
  5
184
100
AcDbEntity
  8
0
100
AcDbCircle
 10
404.633646
 20
388.394768
 30
0.0
 40
1.25
  0
CIRCLE
  5
185
100
AcDbEntity
  8
0
100
AcDbCircle
 10
404.633646
 20
385.894768
 30
0.0
 40
1.25
  0
CIRCLE
  5
186
100
AcDbEntity
  8
0
100
AcDbCircle
 10
404.633646
 20
383.394768
 30
0.0
 40
1.25
  0
CIRCLE
  5
187
100
AcDbEntity
  8
0
100
AcDbCircle
 10
404.633646
 20
380.894768
 30
0.0
 40
1.25
  0
CIRCLE
  5
188
100
AcDbEntity
  8
0
100
AcDbCircle
 10
404.633646
 20
378.394768
 30
0.0
 40
1.25
  0
CIRCLE
  5
189
100
AcDbEntity
  8
0
100
AcDbCircle
 10
404.633646
 20
375.894768
 30
0.0
 40
1.25
  0
CIRCLE
  5
18A
100
AcDbEntity
  8
0
100
AcDbCircle
 10
404.633646
 20
373.394768
 30
0.0
 40
1.25
  0
CIRCLE
  5
18B
100
AcDbEntity
  8
0
100
AcDbCircle
 10
397.714251
 20
439.983813
 30
0.0
 40
1.25
  0
CIRCLE
  5
18C
100
AcDbEntity
  8
0
100
AcDbCircle
 10
397.714251
 20
437.483813
 30
0.0
 40
1.25
  0
CIRCLE
  5
18D
100
AcDbEntity
  8
0
100
AcDbCircle
 10
397.714251
 20
434.983813
 30
0.0
 40
1.25
  0
CIRCLE
  5
18E
100
AcDbEntity
  8
0
100
AcDbCircle
 10
397.714251
 20
432.483813
 30
0.0
 40
1.25
  0
CIRCLE
  5
18F
100
AcDbEntity
  8
0
100
AcDbCircle
 10
397.714251
 20
429.983813
 30
0.0
 40
1.25
  0
CIRCLE
  5
190
100
AcDbEntity
  8
0
100
AcDbCircle
 10
397.714251
 20
427.483813
 30
0.0
 40
1.25
  0
CIRCLE
  5
191
100
AcDbEntity
  8
0
100
AcDbCircle
 10
397.714251
 20
424.983813
 30
0.0
 40
1.25
  0
CIRCLE
  5
192
100
AcDbEntity
  8
0
100
AcDbCircle
 10
397.714251
 20
422.483813
 30
0.0
 40
1.25
  0
CIRCLE
  5
193
100
AcDbEntity
  8
0
100
AcDbCircle
 10
397.714251
 20
419.983813
 30
0.0
 40
1.25
  0
CIRCLE
  5
194
100
AcDbEntity
  8
0
100
AcDbCircle
 10
397.714251
 20
417.483813
 30
0.0
 40
1.25
  0
CIRCLE
  5
195
100
AcDbEntity
  8
0
100
AcDbCircle
 10
397.714251
 20
414.983813
 30
0.0
 40
1.25
  0
CIRCLE
  5
196
100
AcDbEntity
  8
0
100
AcDbCircle
 10
397.714251
 20
412.483813
 30
0.0
 40
1.25
  0
CIRCLE
  5
197
100
AcDbEntity
  8
0
100
AcDbCircle
 10
397.714251
 20
409.983813
 30
0.0
 40
1.25
  0
CIRCLE
  5
198
100
AcDbEntity
  8
0
100
AcDbCircle
 10
397.714251
 20
407.483813
 30
0.0
 40
1.25
  0
CIRCLE
  5
199
100
AcDbEntity
  8
0
100
AcDbCircle
 10
397.714251
 20
404.983813
 30
0.0
 40
1.25
  0
CIRCLE
  5
19A
100
AcDbEntity
  8
0
100
AcDbCircle
 10
397.714251
 20
402.483813
 30
0.0
 40
1.25
  0
CIRCLE
  5
19B
100
AcDbEntity
  8
0
100
AcDbCircle
 10
397.714251
 20
399.983813
 30
0.0
 40
1.25
  0
CIRCLE
  5
19C
100
AcDbEntity
  8
0
100
AcDbCircle
 10
397.714251
 20
397.483813
 30
0.0
 40
1.25
  0
CIRCLE
  5
19D
100
AcDbEntity
  8
0
100
AcDbCircle
 10
397.714251
 20
394.983813
 30
0.0
 40
1.25
  0
CIRCLE
  5
19E
100
AcDbEntity
  8
0
100
AcDbCircle
 10
397.714251
 20
392.483813
 30
0.0
 40
1.25
  0
CIRCLE
  5
19F
100
AcDbEntity
  8
0
100
AcDbCircle
 10
397.714251
 20
389.983813
 30
0.0
 40
1.25
  0
CIRCLE
  5
1A0
100
AcDbEntity
  8
0
100
AcDbCircle
 10
397.714251
 20
387.483813
 30
0.0
 40
1.25
  0
CIRCLE
  5
1A1
100
AcDbEntity
  8
0
100
AcDbCircle
 10
397.714251
 20
384.983813
 30
0.0
 40
1.25
  0
CIRCLE
  5
1A2
100
AcDbEntity
  8
0
100
AcDbCircle
 10
397.714251
 20
382.483813
 30
0.0
 40
1.25
  0
CIRCLE
  5
1A3
100
AcDbEntity
  8
0
100
AcDbCircle
 10
397.714251
 20
379.983813
 30
0.0
 40
1.25
  0
CIRCLE
  5
1A4
100
AcDbEntity
  8
0
100
AcDbCircle
 10
397.714251
 20
377.483813
 30
0.0
 40
1.25
  0
CIRCLE
  5
1A5
100
AcDbEntity
  8
0
100
AcDbCircle
 10
397.714251
 20
374.983813
 30
0.0
 40
1.25
  0
CIRCLE
  5
1A6
100
AcDbEntity
  8
0
100
AcDbCircle
 10
397.714251
 20
372.483813
 30
0.0
 40
1.25
  0
CIRCLE
  5
1A7
100
AcDbEntity
  8
0
100
AcDbCircle
 10
397.714251
 20
526.874964
 30
0.0
 40
1.25
  0
CIRCLE
  5
1A8
100
AcDbEntity
  8
0
100
AcDbCircle
 10
397.714251
 20
524.374964
 30
0.0
 40
1.25
  0
CIRCLE
  5
1A9
100
AcDbEntity
  8
0
100
AcDbCircle
 10
397.714251
 20
521.874964
 30
0.0
 40
1.25
  0
CIRCLE
  5
1AA
100
AcDbEntity
  8
0
100
AcDbCircle
 10
397.714251
 20
519.374964
 30
0.0
 40
1.25
  0
CIRCLE
  5
1AB
100
AcDbEntity
  8
0
100
AcDbCircle
 10
397.714251
 20
516.874964
 30
0.0
 40
1.25
  0
CIRCLE
  5
1AC
100
AcDbEntity
  8
0
100
AcDbCircle
 10
397.714251
 20
514.374964
 30
0.0
 40
1.25
  0
CIRCLE
  5
1AD
100
AcDbEntity
  8
0
100
AcDbCircle
 10
397.714251
 20
511.874964
 30
0.0
 40
1.25
  0
CIRCLE
  5
1AE
100
AcDbEntity
  8
0
100
AcDbCircle
 10
397.714251
 20
509.374964
 30
0.0
 40
1.25
  0
CIRCLE
  5
1AF
100
AcDbEntity
  8
0
100
AcDbCircle
 10
397.714251
 20
506.874964
 30
0.0
 40
1.25
  0
CIRCLE
  5
1B0
100
AcDbEntity
  8
0
100
AcDbCircle
 10
397.714251
 20
504.374964
 30
0.0
 40
1.25
  0
CIRCLE
  5
1B1
100
AcDbEntity
  8
0
100
AcDbCircle
 10
397.714251
 20
501.874964
 30
0.0
 40
1.25
  0
CIRCLE
  5
1B2
100
AcDbEntity
  8
0
100
AcDbCircle
 10
397.714251
 20
499.374964
 30
0.0
 40
1.25
  0
CIRCLE
  5
1B3
100
AcDbEntity
  8
0
100
AcDbCircle
 10
397.714251
 20
496.874964
 30
0.0
 40
1.25
  0
CIRCLE
  5
1B4
100
AcDbEntity
  8
0
100
AcDbCircle
 10
397.714251
 20
494.374964
 30
0.0
 40
1.25
  0
CIRCLE
  5
1B5
100
AcDbEntity
  8
0
100
AcDbCircle
 10
397.714251
 20
491.874964
 30
0.0
 40
1.25
  0
CIRCLE
  5
1B6
100
AcDbEntity
  8
0
100
AcDbCircle
 10
397.714251
 20
489.374964
 30
0.0
 40
1.25
  0
CIRCLE
  5
1B7
100
AcDbEntity
  8
0
100
AcDbCircle
 10
397.714251
 20
486.874964
 30
0.0
 40
1.25
  0
CIRCLE
  5
1B8
100
AcDbEntity
  8
0
100
AcDbCircle
 10
397.714251
 20
484.374964
 30
0.0
 40
1.25
  0
CIRCLE
  5
1B9
100
AcDbEntity
  8
0
100
AcDbCircle
 10
397.714251
 20
481.874964
 30
0.0
 40
1.25
  0
CIRCLE
  5
1BA
100
AcDbEntity
  8
0
100
AcDbCircle
 10
397.714251
 20
479.374964
 30
0.0
 40
1.25
  0
CIRCLE
  5
1BB
100
AcDbEntity
  8
0
100
AcDbCircle
 10
397.714251
 20
476.874964
 30
0.0
 40
1.25
  0
CIRCLE
  5
1BC
100
AcDbEntity
  8
0
100
AcDbCircle
 10
397.714251
 20
474.374964
 30
0.0
 40
1.25
  0
CIRCLE
  5
1BD
100
AcDbEntity
  8
0
100
AcDbCircle
 10
397.714251
 20
471.874964
 30
0.0
 40
1.25
  0
CIRCLE
  5
1BE
100
AcDbEntity
  8
0
100
AcDbCircle
 10
397.714251
 20
469.374964
 30
0.0
 40
1.25
  0
CIRCLE
  5
1BF
100
AcDbEntity
  8
0
100
AcDbCircle
 10
397.714251
 20
466.874964
 30
0.0
 40
1.25
  0
CIRCLE
  5
1C0
100
AcDbEntity
  8
0
100
AcDbCircle
 10
397.714251
 20
464.374964
 30
0.0
 40
1.25
  0
CIRCLE
  5
1C1
100
AcDbEntity
  8
0
100
AcDbCircle
 10
397.714251
 20
461.874964
 30
0.0
 40
1.25
  0
CIRCLE
  5
1C2
100
AcDbEntity
  8
0
100
AcDbCircle
 10
397.714251
 20
459.374964
 30
0.0
 40
1.25
  0
CIRCLE
  5
1C3
100
AcDbEntity
  8
0
100
AcDbCircle
 10
404.633646
 20
525.964009
 30
0.0
 40
1.25
  0
CIRCLE
  5
1C4
100
AcDbEntity
  8
0
100
AcDbCircle
 10
404.633646
 20
523.464009
 30
0.0
 40
1.25
  0
CIRCLE
  5
1C5
100
AcDbEntity
  8
0
100
AcDbCircle
 10
404.633646
 20
520.964009
 30
0.0
 40
1.25
  0
CIRCLE
  5
1C6
100
AcDbEntity
  8
0
100
AcDbCircle
 10
404.633646
 20
518.464009
 30
0.0
 40
1.25
  0
CIRCLE
  5
1C7
100
AcDbEntity
  8
0
100
AcDbCircle
 10
404.633646
 20
515.964009
 30
0.0
 40
1.25
  0
CIRCLE
  5
1C8
100
AcDbEntity
  8
0
100
AcDbCircle
 10
404.633646
 20
513.464009
 30
0.0
 40
1.25
  0
CIRCLE
  5
1C9
100
AcDbEntity
  8
0
100
AcDbCircle
 10
404.633646
 20
510.964009
 30
0.0
 40
1.25
  0
CIRCLE
  5
1CA
100
AcDbEntity
  8
0
100
AcDbCircle
 10
404.633646
 20
508.464009
 30
0.0
 40
1.25
  0
CIRCLE
  5
1CB
100
AcDbEntity
  8
0
100
AcDbCircle
 10
404.633646
 20
505.964009
 30
0.0
 40
1.25
  0
CIRCLE
  5
1CC
100
AcDbEntity
  8
0
100
AcDbCircle
 10
404.633646
 20
503.464009
 30
0.0
 40
1.25
  0
CIRCLE
  5
1CD
100
AcDbEntity
  8
0
100
AcDbCircle
 10
404.633646
 20
500.964009
 30
0.0
 40
1.25
  0
CIRCLE
  5
1CE
100
AcDbEntity
  8
0
100
AcDbCircle
 10
404.633646
 20
498.464009
 30
0.0
 40
1.25
  0
CIRCLE
  5
1CF
100
AcDbEntity
  8
0
100
AcDbCircle
 10
404.633646
 20
495.964009
 30
0.0
 40
1.25
  0
CIRCLE
  5
1D0
100
AcDbEntity
  8
0
100
AcDbCircle
 10
404.633646
 20
493.464009
 30
0.0
 40
1.25
  0
CIRCLE
  5
1D1
100
AcDbEntity
  8
0
100
AcDbCircle
 10
404.633646
 20
490.964009
 30
0.0
 40
1.25
  0
CIRCLE
  5
1D2
100
AcDbEntity
  8
0
100
AcDbCircle
 10
404.633646
 20
488.464009
 30
0.0
 40
1.25
  0
CIRCLE
  5
1D3
100
AcDbEntity
  8
0
100
AcDbCircle
 10
404.633646
 20
485.964009
 30
0.0
 40
1.25
  0
CIRCLE
  5
1D4
100
AcDbEntity
  8
0
100
AcDbCircle
 10
404.633646
 20
483.464009
 30
0.0
 40
1.25
  0
CIRCLE
  5
1D5
100
AcDbEntity
  8
0
100
AcDbCircle
 10
404.633646
 20
480.964009
 30
0.0
 40
1.25
  0
CIRCLE
  5
1D6
100
AcDbEntity
  8
0
100
AcDbCircle
 10
404.633646
 20
478.464009
 30
0.0
 40
1.25
  0
CIRCLE
  5
1D7
100
AcDbEntity
  8
0
100
AcDbCircle
 10
404.633646
 20
475.964009
 30
0.0
 40
1.25
  0
CIRCLE
  5
1D8
100
AcDbEntity
  8
0
100
AcDbCircle
 10
404.633646
 20
473.464009
 30
0.0
 40
1.25
  0
CIRCLE
  5
1D9
100
AcDbEntity
  8
0
100
AcDbCircle
 10
404.633646
 20
470.964009
 30
0.0
 40
1.25
  0
CIRCLE
  5
1DA
100
AcDbEntity
  8
0
100
AcDbCircle
 10
404.633646
 20
468.464009
 30
0.0
 40
1.25
  0
CIRCLE
  5
1DB
100
AcDbEntity
  8
0
100
AcDbCircle
 10
404.633646
 20
465.964009
 30
0.0
 40
1.25
  0
CIRCLE
  5
1DC
100
AcDbEntity
  8
0
100
AcDbCircle
 10
411.447315
 20
524.453454
 30
0.0
 40
1.25
  0
CIRCLE
  5
1DD
100
AcDbEntity
  8
0
100
AcDbCircle
 10
411.447315
 20
521.953454
 30
0.0
 40
1.25
  0
CIRCLE
  5
1DE
100
AcDbEntity
  8
0
100
AcDbCircle
 10
411.447315
 20
519.453454
 30
0.0
 40
1.25
  0
CIRCLE
  5
1DF
100
AcDbEntity
  8
0
100
AcDbCircle
 10
411.447315
 20
516.953454
 30
0.0
 40
1.25
  0
CIRCLE
  5
1E0
100
AcDbEntity
  8
0
100
AcDbCircle
 10
411.447315
 20
514.453454
 30
0.0
 40
1.25
  0
CIRCLE
  5
1E1
100
AcDbEntity
  8
0
100
AcDbCircle
 10
411.447315
 20
511.953454
 30
0.0
 40
1.25
  0
CIRCLE
  5
1E2
100
AcDbEntity
  8
0
100
AcDbCircle
 10
411.447315
 20
509.453454
 30
0.0
 40
1.25
  0
CIRCLE
  5
1E3
100
AcDbEntity
  8
0
100
AcDbCircle
 10
411.447315
 20
506.953454
 30
0.0
 40
1.25
  0
CIRCLE
  5
1E4
100
AcDbEntity
  8
0
100
AcDbCircle
 10
411.447315
 20
504.453454
 30
0.0
 40
1.25
  0
CIRCLE
  5
1E5
100
AcDbEntity
  8
0
100
AcDbCircle
 10
411.447315
 20
501.953454
 30
0.0
 40
1.25
  0
CIRCLE
  5
1E6
100
AcDbEntity
  8
0
100
AcDbCircle
 10
411.447315
 20
499.453454
 30
0.0
 40
1.25
  0
CIRCLE
  5
1E7
100
AcDbEntity
  8
0
100
AcDbCircle
 10
411.447315
 20
496.953454
 30
0.0
 40
1.25
  0
CIRCLE
  5
1E8
100
AcDbEntity
  8
0
100
AcDbCircle
 10
411.447315
 20
494.453454
 30
0.0
 40
1.25
  0
CIRCLE
  5
1E9
100
AcDbEntity
  8
0
100
AcDbCircle
 10
411.447315
 20
491.953454
 30
0.0
 40
1.25
  0
CIRCLE
  5
1EA
100
AcDbEntity
  8
0
100
AcDbCircle
 10
411.447315
 20
489.453454
 30
0.0
 40
1.25
  0
CIRCLE
  5
1EB
100
AcDbEntity
  8
0
100
AcDbCircle
 10
411.447315
 20
486.953454
 30
0.0
 40
1.25
  0
CIRCLE
  5
1EC
100
AcDbEntity
  8
0
100
AcDbCircle
 10
411.447315
 20
484.453454
 30
0.0
 40
1.25
  0
CIRCLE
  5
1ED
100
AcDbEntity
  8
0
100
AcDbCircle
 10
411.447315
 20
481.953454
 30
0.0
 40
1.25
  0
CIRCLE
  5
1EE
100
AcDbEntity
  8
0
100
AcDbCircle
 10
411.447315
 20
479.453454
 30
0.0
 40
1.25
  0
CIRCLE
  5
1EF
100
AcDbEntity
  8
0
100
AcDbCircle
 10
411.447315
 20
471.953454
 30
0.0
 40
1.25
  0
CIRCLE
  5
1F0
100
AcDbEntity
  8
0
100
AcDbCircle
 10
411.447315
 20
474.453454
 30
0.0
 40
1.25
  0
CIRCLE
  5
1F1
100
AcDbEntity
  8
0
100
AcDbCircle
 10
411.447315
 20
476.953454
 30
0.0
 40
1.25
  0
CIRCLE
  5
1F2
100
AcDbEntity
  8
0
100
AcDbCircle
 10
418.103403
 20
522.354798
 30
0.0
 40
1.25
  0
CIRCLE
  5
1F3
100
AcDbEntity
  8
0
100
AcDbCircle
 10
418.103403
 20
519.854798
 30
0.0
 40
1.25
  0
CIRCLE
  5
1F4
100
AcDbEntity
  8
0
100
AcDbCircle
 10
418.103403
 20
517.354798
 30
0.0
 40
1.25
  0
CIRCLE
  5
1F5
100
AcDbEntity
  8
0
100
AcDbCircle
 10
418.103403
 20
514.854798
 30
0.0
 40
1.25
  0
CIRCLE
  5
1F6
100
AcDbEntity
  8
0
100
AcDbCircle
 10
418.103403
 20
512.354798
 30
0.0
 40
1.25
  0
CIRCLE
  5
1F7
100
AcDbEntity
  8
0
100
AcDbCircle
 10
418.103403
 20
509.854798
 30
0.0
 40
1.25
  0
CIRCLE
  5
1F8
100
AcDbEntity
  8
0
100
AcDbCircle
 10
418.103403
 20
507.354798
 30
0.0
 40
1.25
  0
CIRCLE
  5
1F9
100
AcDbEntity
  8
0
100
AcDbCircle
 10
418.103403
 20
504.854798
 30
0.0
 40
1.25
  0
CIRCLE
  5
1FA
100
AcDbEntity
  8
0
100
AcDbCircle
 10
418.103403
 20
502.354798
 30
0.0
 40
1.25
  0
CIRCLE
  5
1FB
100
AcDbEntity
  8
0
100
AcDbCircle
 10
418.103403
 20
499.854798
 30
0.0
 40
1.25
  0
CIRCLE
  5
1FC
100
AcDbEntity
  8
0
100
AcDbCircle
 10
418.103403
 20
497.354798
 30
0.0
 40
1.25
  0
CIRCLE
  5
1FD
100
AcDbEntity
  8
0
100
AcDbCircle
 10
418.103403
 20
494.854798
 30
0.0
 40
1.25
  0
CIRCLE
  5
1FE
100
AcDbEntity
  8
0
100
AcDbCircle
 10
418.103403
 20
492.354798
 30
0.0
 40
1.25
  0
CIRCLE
  5
1FF
100
AcDbEntity
  8
0
100
AcDbCircle
 10
418.103403
 20
489.854798
 30
0.0
 40
1.25
  0
CIRCLE
  5
200
100
AcDbEntity
  8
0
100
AcDbCircle
 10
418.103403
 20
487.354798
 30
0.0
 40
1.25
  0
CIRCLE
  5
201
100
AcDbEntity
  8
0
100
AcDbCircle
 10
418.103403
 20
484.854798
 30
0.0
 40
1.25
  0
CIRCLE
  5
202
100
AcDbEntity
  8
0
100
AcDbCircle
 10
418.103403
 20
482.354798
 30
0.0
 40
1.25
  0
CIRCLE
  5
203
100
AcDbEntity
  8
0
100
AcDbCircle
 10
418.103403
 20
479.854798
 30
0.0
 40
1.25
  0
CIRCLE
  5
204
100
AcDbEntity
  8
0
100
AcDbCircle
 10
418.103403
 20
477.354798
 30
0.0
 40
1.25
  0
CIRCLE
  5
205
100
AcDbEntity
  8
0
100
AcDbCircle
 10
424.551252
 20
519.684011
 30
0.0
 40
1.25
  0
CIRCLE
  5
206
100
AcDbEntity
  8
0
100
AcDbCircle
 10
424.551252
 20
517.184011
 30
0.0
 40
1.25
  0
CIRCLE
  5
207
100
AcDbEntity
  8
0
100
AcDbCircle
 10
424.551252
 20
514.684011
 30
0.0
 40
1.25
  0
CIRCLE
  5
208
100
AcDbEntity
  8
0
100
AcDbCircle
 10
424.551252
 20
512.184011
 30
0.0
 40
1.25
  0
CIRCLE
  5
209
100
AcDbEntity
  8
0
100
AcDbCircle
 10
424.551252
 20
509.684011
 30
0.0
 40
1.25
  0
CIRCLE
  5
20A
100
AcDbEntity
  8
0
100
AcDbCircle
 10
424.551252
 20
507.184011
 30
0.0
 40
1.25
  0
CIRCLE
  5
20B
100
AcDbEntity
  8
0
100
AcDbCircle
 10
424.551252
 20
504.684011
 30
0.0
 40
1.25
  0
CIRCLE
  5
20C
100
AcDbEntity
  8
0
100
AcDbCircle
 10
424.551252
 20
502.184011
 30
0.0
 40
1.25
  0
CIRCLE
  5
20D
100
AcDbEntity
  8
0
100
AcDbCircle
 10
424.551252
 20
499.684011
 30
0.0
 40
1.25
  0
CIRCLE
  5
20E
100
AcDbEntity
  8
0
100
AcDbCircle
 10
424.551252
 20
497.184011
 30
0.0
 40
1.25
  0
CIRCLE
  5
20F
100
AcDbEntity
  8
0
100
AcDbCircle
 10
424.551252
 20
494.684011
 30
0.0
 40
1.25
  0
CIRCLE
  5
210
100
AcDbEntity
  8
0
100
AcDbCircle
 10
424.551252
 20
492.184011
 30
0.0
 40
1.25
  0
CIRCLE
  5
211
100
AcDbEntity
  8
0
100
AcDbCircle
 10
424.551252
 20
489.684011
 30
0.0
 40
1.25
  0
CIRCLE
  5
212
100
AcDbEntity
  8
0
100
AcDbCircle
 10
424.551252
 20
487.184011
 30
0.0
 40
1.25
  0
CIRCLE
  5
213
100
AcDbEntity
  8
0
100
AcDbCircle
 10
424.551252
 20
484.684011
 30
0.0
 40
1.25
  0
CIRCLE
  5
214
100
AcDbEntity
  8
0
100
AcDbCircle
 10
430.741791
 20
516.461421
 30
0.0
 40
1.25
  0
CIRCLE
  5
215
100
AcDbEntity
  8
0
100
AcDbCircle
 10
430.741791
 20
513.961421
 30
0.0
 40
1.25
  0
CIRCLE
  5
216
100
AcDbEntity
  8
0
100
AcDbCircle
 10
430.741791
 20
511.461421
 30
0.0
 40
1.25
  0
CIRCLE
  5
217
100
AcDbEntity
  8
0
100
AcDbCircle
 10
430.741791
 20
508.961421
 30
0.0
 40
1.25
  0
CIRCLE
  5
218
100
AcDbEntity
  8
0
100
AcDbCircle
 10
430.741791
 20
506.461421
 30
0.0
 40
1.25
  0
CIRCLE
  5
219
100
AcDbEntity
  8
0
100
AcDbCircle
 10
430.741791
 20
503.961421
 30
0.0
 40
1.25
  0
CIRCLE
  5
21A
100
AcDbEntity
  8
0
100
AcDbCircle
 10
430.741791
 20
501.461421
 30
0.0
 40
1.25
  0
CIRCLE
  5
21B
100
AcDbEntity
  8
0
100
AcDbCircle
 10
430.741791
 20
498.961421
 30
0.0
 40
1.25
  0
CIRCLE
  5
21C
100
AcDbEntity
  8
0
100
AcDbCircle
 10
430.741791
 20
496.461421
 30
0.0
 40
1.25
  0
CIRCLE
  5
21D
100
AcDbEntity
  8
0
100
AcDbCircle
 10
430.741791
 20
493.961421
 30
0.0
 40
1.25
  0
CIRCLE
  5
21E
100
AcDbEntity
  8
0
100
AcDbCircle
 10
430.741791
 20
491.461421
 30
0.0
 40
1.25
  0
CIRCLE
  5
21F
100
AcDbEntity
  8
0
100
AcDbCircle
 10
344.855677
 20
497.711552
 30
0.0
 40
1.25
  0
CIRCLE
  5
220
100
AcDbEntity
  8
0
100
AcDbCircle
 10
344.855677
 20
500.211552
 30
0.0
 40
1.25
  0
CIRCLE
  5
221
100
AcDbEntity
  8
0
100
AcDbCircle
 10
344.855677
 20
502.711552
 30
0.0
 40
1.25
  0
CIRCLE
  5
222
100
AcDbEntity
  8
0
100
AcDbCircle
 10
344.855677
 20
505.211552
 30
0.0
 40
1.25
  0
CIRCLE
  5
223
100
AcDbEntity
  8
0
100
AcDbCircle
 10
344.855677
 20
507.711552
 30
0.0
 40
1.25
  0
CIRCLE
  5
224
100
AcDbEntity
  8
0
100
AcDbCircle
 10
344.855677
 20
510.211552
 30
0.0
 40
1.25
  0
CIRCLE
  5
225
100
AcDbEntity
  8
0
100
AcDbCircle
 10
344.855677
 20
512.711552
 30
0.0
 40
1.25
  0
CIRCLE
  5
226
100
AcDbEntity
  8
0
100
AcDbCircle
 10
350.741791
 20
491.461421
 30
0.0
 40
1.25
  0
CIRCLE
  5
227
100
AcDbEntity
  8
0
100
AcDbCircle
 10
350.741791
 20
493.961421
 30
0.0
 40
1.25
  0
CIRCLE
  5
228
100
AcDbEntity
  8
0
100
AcDbCircle
 10
350.741791
 20
496.461421
 30
0.0
 40
1.25
  0
CIRCLE
  5
229
100
AcDbEntity
  8
0
100
AcDbCircle
 10
350.741791
 20
498.961421
 30
0.0
 40
1.25
  0
CIRCLE
  5
22A
100
AcDbEntity
  8
0
100
AcDbCircle
 10
350.741791
 20
501.461421
 30
0.0
 40
1.25
  0
CIRCLE
  5
22B
100
AcDbEntity
  8
0
100
AcDbCircle
 10
350.741791
 20
503.961421
 30
0.0
 40
1.25
  0
CIRCLE
  5
22C
100
AcDbEntity
  8
0
100
AcDbCircle
 10
350.741791
 20
506.461421
 30
0.0
 40
1.25
  0
CIRCLE
  5
22D
100
AcDbEntity
  8
0
100
AcDbCircle
 10
350.741791
 20
508.961421
 30
0.0
 40
1.25
  0
CIRCLE
  5
22E
100
AcDbEntity
  8
0
100
AcDbCircle
 10
350.741791
 20
511.461421
 30
0.0
 40
1.25
  0
CIRCLE
  5
22F
100
AcDbEntity
  8
0
100
AcDbCircle
 10
350.741791
 20
513.961421
 30
0.0
 40
1.25
  0
CIRCLE
  5
230
100
AcDbEntity
  8
0
100
AcDbCircle
 10
350.741791
 20
516.461421
 30
0.0
 40
1.25
  0
CIRCLE
  5
231
100
AcDbEntity
  8
0
100
AcDbCircle
 10
356.932331
 20
484.684011
 30
0.0
 40
1.25
  0
CIRCLE
  5
232
100
AcDbEntity
  8
0
100
AcDbCircle
 10
356.932331
 20
487.184011
 30
0.0
 40
1.25
  0
CIRCLE
  5
233
100
AcDbEntity
  8
0
100
AcDbCircle
 10
356.932331
 20
489.684011
 30
0.0
 40
1.25
  0
CIRCLE
  5
234
100
AcDbEntity
  8
0
100
AcDbCircle
 10
356.932331
 20
492.184011
 30
0.0
 40
1.25
  0
CIRCLE
  5
235
100
AcDbEntity
  8
0
100
AcDbCircle
 10
356.932331
 20
494.684011
 30
0.0
 40
1.25
  0
CIRCLE
  5
236
100
AcDbEntity
  8
0
100
AcDbCircle
 10
356.932331
 20
497.184011
 30
0.0
 40
1.25
  0
CIRCLE
  5
237
100
AcDbEntity
  8
0
100
AcDbCircle
 10
356.932331
 20
499.684011
 30
0.0
 40
1.25
  0
CIRCLE
  5
238
100
AcDbEntity
  8
0
100
AcDbCircle
 10
356.932331
 20
502.184011
 30
0.0
 40
1.25
  0
CIRCLE
  5
239
100
AcDbEntity
  8
0
100
AcDbCircle
 10
356.932331
 20
504.684011
 30
0.0
 40
1.25
  0
CIRCLE
  5
23A
100
AcDbEntity
  8
0
100
AcDbCircle
 10
356.932331
 20
507.184011
 30
0.0
 40
1.25
  0
CIRCLE
  5
23B
100
AcDbEntity
  8
0
100
AcDbCircle
 10
356.932331
 20
509.684011
 30
0.0
 40
1.25
  0
CIRCLE
  5
23C
100
AcDbEntity
  8
0
100
AcDbCircle
 10
356.932331
 20
512.184011
 30
0.0
 40
1.25
  0
CIRCLE
  5
23D
100
AcDbEntity
  8
0
100
AcDbCircle
 10
356.932331
 20
514.684011
 30
0.0
 40
1.25
  0
CIRCLE
  5
23E
100
AcDbEntity
  8
0
100
AcDbCircle
 10
356.932331
 20
517.184011
 30
0.0
 40
1.25
  0
CIRCLE
  5
23F
100
AcDbEntity
  8
0
100
AcDbCircle
 10
356.932331
 20
519.684011
 30
0.0
 40
1.25
  0
CIRCLE
  5
240
100
AcDbEntity
  8
0
100
AcDbCircle
 10
363.38018
 20
477.354798
 30
0.0
 40
1.25
  0
CIRCLE
  5
241
100
AcDbEntity
  8
0
100
AcDbCircle
 10
363.38018
 20
479.854798
 30
0.0
 40
1.25
  0
CIRCLE
  5
242
100
AcDbEntity
  8
0
100
AcDbCircle
 10
363.38018
 20
482.354798
 30
0.0
 40
1.25
  0
CIRCLE
  5
243
100
AcDbEntity
  8
0
100
AcDbCircle
 10
363.38018
 20
484.854798
 30
0.0
 40
1.25
  0
CIRCLE
  5
244
100
AcDbEntity
  8
0
100
AcDbCircle
 10
363.38018
 20
487.354798
 30
0.0
 40
1.25
  0
CIRCLE
  5
245
100
AcDbEntity
  8
0
100
AcDbCircle
 10
363.38018
 20
489.854798
 30
0.0
 40
1.25
  0
CIRCLE
  5
246
100
AcDbEntity
  8
0
100
AcDbCircle
 10
363.38018
 20
492.354798
 30
0.0
 40
1.25
  0
CIRCLE
  5
247
100
AcDbEntity
  8
0
100
AcDbCircle
 10
363.38018
 20
494.854798
 30
0.0
 40
1.25
  0
CIRCLE
  5
248
100
AcDbEntity
  8
0
100
AcDbCircle
 10
363.38018
 20
497.354798
 30
0.0
 40
1.25
  0
CIRCLE
  5
249
100
AcDbEntity
  8
0
100
AcDbCircle
 10
363.38018
 20
499.854798
 30
0.0
 40
1.25
  0
CIRCLE
  5
24A
100
AcDbEntity
  8
0
100
AcDbCircle
 10
363.38018
 20
502.354798
 30
0.0
 40
1.25
  0
CIRCLE
  5
24B
100
AcDbEntity
  8
0
100
AcDbCircle
 10
363.38018
 20
504.854798
 30
0.0
 40
1.25
  0
CIRCLE
  5
24C
100
AcDbEntity
  8
0
100
AcDbCircle
 10
363.38018
 20
507.354798
 30
0.0
 40
1.25
  0
CIRCLE
  5
24D
100
AcDbEntity
  8
0
100
AcDbCircle
 10
363.38018
 20
509.854798
 30
0.0
 40
1.25
  0
CIRCLE
  5
24E
100
AcDbEntity
  8
0
100
AcDbCircle
 10
363.38018
 20
512.354798
 30
0.0
 40
1.25
  0
CIRCLE
  5
24F
100
AcDbEntity
  8
0
100
AcDbCircle
 10
363.38018
 20
514.854798
 30
0.0
 40
1.25
  0
CIRCLE
  5
250
100
AcDbEntity
  8
0
100
AcDbCircle
 10
363.38018
 20
517.354798
 30
0.0
 40
1.25
  0
CIRCLE
  5
251
100
AcDbEntity
  8
0
100
AcDbCircle
 10
363.38018
 20
519.854798
 30
0.0
 40
1.25
  0
CIRCLE
  5
252
100
AcDbEntity
  8
0
100
AcDbCircle
 10
363.38018
 20
522.354798
 30
0.0
 40
1.25
  0
CIRCLE
  5
253
100
AcDbEntity
  8
0
100
AcDbCircle
 10
370.036268
 20
476.953454
 30
0.0
 40
1.25
  0
CIRCLE
  5
254
100
AcDbEntity
  8
0
100
AcDbCircle
 10
370.036268
 20
474.453454
 30
0.0
 40
1.25
  0
CIRCLE
  5
255
100
AcDbEntity
  8
0
100
AcDbCircle
 10
370.036268
 20
471.953454
 30
0.0
 40
1.25
  0
CIRCLE
  5
256
100
AcDbEntity
  8
0
100
AcDbCircle
 10
370.036268
 20
479.453454
 30
0.0
 40
1.25
  0
CIRCLE
  5
257
100
AcDbEntity
  8
0
100
AcDbCircle
 10
370.036268
 20
481.953454
 30
0.0
 40
1.25
  0
CIRCLE
  5
258
100
AcDbEntity
  8
0
100
AcDbCircle
 10
370.036268
 20
484.453454
 30
0.0
 40
1.25
  0
CIRCLE
  5
259
100
AcDbEntity
  8
0
100
AcDbCircle
 10
370.036268
 20
486.953454
 30
0.0
 40
1.25
  0
CIRCLE
  5
25A
100
AcDbEntity
  8
0
100
AcDbCircle
 10
370.036268
 20
489.453454
 30
0.0
 40
1.25
  0
CIRCLE
  5
25B
100
AcDbEntity
  8
0
100
AcDbCircle
 10
370.036268
 20
491.953454
 30
0.0
 40
1.25
  0
CIRCLE
  5
25C
100
AcDbEntity
  8
0
100
AcDbCircle
 10
370.036268
 20
494.453454
 30
0.0
 40
1.25
  0
CIRCLE
  5
25D
100
AcDbEntity
  8
0
100
AcDbCircle
 10
370.036268
 20
496.953454
 30
0.0
 40
1.25
  0
CIRCLE
  5
25E
100
AcDbEntity
  8
0
100
AcDbCircle
 10
370.036268
 20
499.453454
 30
0.0
 40
1.25
  0
CIRCLE
  5
25F
100
AcDbEntity
  8
0
100
AcDbCircle
 10
370.036268
 20
501.953454
 30
0.0
 40
1.25
  0
CIRCLE
  5
260
100
AcDbEntity
  8
0
100
AcDbCircle
 10
370.036268
 20
504.453454
 30
0.0
 40
1.25
  0
CIRCLE
  5
261
100
AcDbEntity
  8
0
100
AcDbCircle
 10
370.036268
 20
506.953454
 30
0.0
 40
1.25
  0
CIRCLE
  5
262
100
AcDbEntity
  8
0
100
AcDbCircle
 10
370.036268
 20
509.453454
 30
0.0
 40
1.25
  0
CIRCLE
  5
263
100
AcDbEntity
  8
0
100
AcDbCircle
 10
370.036268
 20
511.953454
 30
0.0
 40
1.25
  0
CIRCLE
  5
264
100
AcDbEntity
  8
0
100
AcDbCircle
 10
370.036268
 20
514.453454
 30
0.0
 40
1.25
  0
CIRCLE
  5
265
100
AcDbEntity
  8
0
100
AcDbCircle
 10
370.036268
 20
516.953454
 30
0.0
 40
1.25
  0
CIRCLE
  5
266
100
AcDbEntity
  8
0
100
AcDbCircle
 10
370.036268
 20
519.453454
 30
0.0
 40
1.25
  0
CIRCLE
  5
267
100
AcDbEntity
  8
0
100
AcDbCircle
 10
370.036268
 20
521.953454
 30
0.0
 40
1.25
  0
CIRCLE
  5
268
100
AcDbEntity
  8
0
100
AcDbCircle
 10
370.036268
 20
524.453454
 30
0.0
 40
1.25
  0
CIRCLE
  5
269
100
AcDbEntity
  8
0
100
AcDbCircle
 10
376.849937
 20
465.964009
 30
0.0
 40
1.25
  0
CIRCLE
  5
26A
100
AcDbEntity
  8
0
100
AcDbCircle
 10
376.849937
 20
468.464009
 30
0.0
 40
1.25
  0
CIRCLE
  5
26B
100
AcDbEntity
  8
0
100
AcDbCircle
 10
376.849937
 20
470.964009
 30
0.0
 40
1.25
  0
CIRCLE
  5
26C
100
AcDbEntity
  8
0
100
AcDbCircle
 10
376.849937
 20
473.464009
 30
0.0
 40
1.25
  0
CIRCLE
  5
26D
100
AcDbEntity
  8
0
100
AcDbCircle
 10
376.849937
 20
475.964009
 30
0.0
 40
1.25
  0
CIRCLE
  5
26E
100
AcDbEntity
  8
0
100
AcDbCircle
 10
376.849937
 20
478.464009
 30
0.0
 40
1.25
  0
CIRCLE
  5
26F
100
AcDbEntity
  8
0
100
AcDbCircle
 10
376.849937
 20
480.964009
 30
0.0
 40
1.25
  0
CIRCLE
  5
270
100
AcDbEntity
  8
0
100
AcDbCircle
 10
376.849937
 20
483.464009
 30
0.0
 40
1.25
  0
CIRCLE
  5
271
100
AcDbEntity
  8
0
100
AcDbCircle
 10
376.849937
 20
485.964009
 30
0.0
 40
1.25
  0
CIRCLE
  5
272
100
AcDbEntity
  8
0
100
AcDbCircle
 10
376.849937
 20
488.464009
 30
0.0
 40
1.25
  0
CIRCLE
  5
273
100
AcDbEntity
  8
0
100
AcDbCircle
 10
376.849937
 20
490.964009
 30
0.0
 40
1.25
  0
CIRCLE
  5
274
100
AcDbEntity
  8
0
100
AcDbCircle
 10
376.849937
 20
493.464009
 30
0.0
 40
1.25
  0
CIRCLE
  5
275
100
AcDbEntity
  8
0
100
AcDbCircle
 10
376.849937
 20
495.964009
 30
0.0
 40
1.25
  0
CIRCLE
  5
276
100
AcDbEntity
  8
0
100
AcDbCircle
 10
376.849937
 20
498.464009
 30
0.0
 40
1.25
  0
CIRCLE
  5
277
100
AcDbEntity
  8
0
100
AcDbCircle
 10
376.849937
 20
500.964009
 30
0.0
 40
1.25
  0
CIRCLE
  5
278
100
AcDbEntity
  8
0
100
AcDbCircle
 10
376.849937
 20
503.464009
 30
0.0
 40
1.25
  0
CIRCLE
  5
279
100
AcDbEntity
  8
0
100
AcDbCircle
 10
376.849937
 20
505.964009
 30
0.0
 40
1.25
  0
CIRCLE
  5
27A
100
AcDbEntity
  8
0
100
AcDbCircle
 10
376.849937
 20
508.464009
 30
0.0
 40
1.25
  0
CIRCLE
  5
27B
100
AcDbEntity
  8
0
100
AcDbCircle
 10
376.849937
 20
510.964009
 30
0.0
 40
1.25
  0
CIRCLE
  5
27C
100
AcDbEntity
  8
0
100
AcDbCircle
 10
376.849937
 20
513.464009
 30
0.0
 40
1.25
  0
CIRCLE
  5
27D
100
AcDbEntity
  8
0
100
AcDbCircle
 10
376.849937
 20
515.964009
 30
0.0
 40
1.25
  0
CIRCLE
  5
27E
100
AcDbEntity
  8
0
100
AcDbCircle
 10
376.849937
 20
518.464009
 30
0.0
 40
1.25
  0
CIRCLE
  5
27F
100
AcDbEntity
  8
0
100
AcDbCircle
 10
376.849937
 20
520.964009
 30
0.0
 40
1.25
  0
CIRCLE
  5
280
100
AcDbEntity
  8
0
100
AcDbCircle
 10
376.849937
 20
523.464009
 30
0.0
 40
1.25
  0
CIRCLE
  5
281
100
AcDbEntity
  8
0
100
AcDbCircle
 10
376.849937
 20
525.964009
 30
0.0
 40
1.25
  0
CIRCLE
  5
282
100
AcDbEntity
  8
0
100
AcDbCircle
 10
383.769332
 20
459.374964
 30
0.0
 40
1.25
  0
CIRCLE
  5
283
100
AcDbEntity
  8
0
100
AcDbCircle
 10
383.769332
 20
461.874964
 30
0.0
 40
1.25
  0
CIRCLE
  5
284
100
AcDbEntity
  8
0
100
AcDbCircle
 10
383.769332
 20
464.374964
 30
0.0
 40
1.25
  0
CIRCLE
  5
285
100
AcDbEntity
  8
0
100
AcDbCircle
 10
383.769332
 20
466.874964
 30
0.0
 40
1.25
  0
CIRCLE
  5
286
100
AcDbEntity
  8
0
100
AcDbCircle
 10
383.769332
 20
469.374964
 30
0.0
 40
1.25
  0
CIRCLE
  5
287
100
AcDbEntity
  8
0
100
AcDbCircle
 10
383.769332
 20
471.874964
 30
0.0
 40
1.25
  0
CIRCLE
  5
288
100
AcDbEntity
  8
0
100
AcDbCircle
 10
383.769332
 20
474.374964
 30
0.0
 40
1.25
  0
CIRCLE
  5
289
100
AcDbEntity
  8
0
100
AcDbCircle
 10
383.769332
 20
476.874964
 30
0.0
 40
1.25
  0
CIRCLE
  5
28A
100
AcDbEntity
  8
0
100
AcDbCircle
 10
383.769332
 20
479.374964
 30
0.0
 40
1.25
  0
CIRCLE
  5
28B
100
AcDbEntity
  8
0
100
AcDbCircle
 10
383.769332
 20
481.874964
 30
0.0
 40
1.25
  0
CIRCLE
  5
28C
100
AcDbEntity
  8
0
100
AcDbCircle
 10
383.769332
 20
484.374964
 30
0.0
 40
1.25
  0
CIRCLE
  5
28D
100
AcDbEntity
  8
0
100
AcDbCircle
 10
383.769332
 20
486.874964
 30
0.0
 40
1.25
  0
CIRCLE
  5
28E
100
AcDbEntity
  8
0
100
AcDbCircle
 10
383.769332
 20
489.374964
 30
0.0
 40
1.25
  0
CIRCLE
  5
28F
100
AcDbEntity
  8
0
100
AcDbCircle
 10
383.769332
 20
491.874964
 30
0.0
 40
1.25
  0
CIRCLE
  5
290
100
AcDbEntity
  8
0
100
AcDbCircle
 10
383.769332
 20
494.374964
 30
0.0
 40
1.25
  0
CIRCLE
  5
291
100
AcDbEntity
  8
0
100
AcDbCircle
 10
383.769332
 20
496.874964
 30
0.0
 40
1.25
  0
CIRCLE
  5
292
100
AcDbEntity
  8
0
100
AcDbCircle
 10
383.769332
 20
499.374964
 30
0.0
 40
1.25
  0
CIRCLE
  5
293
100
AcDbEntity
  8
0
100
AcDbCircle
 10
383.769332
 20
501.874964
 30
0.0
 40
1.25
  0
CIRCLE
  5
294
100
AcDbEntity
  8
0
100
AcDbCircle
 10
383.769332
 20
504.374964
 30
0.0
 40
1.25
  0
CIRCLE
  5
295
100
AcDbEntity
  8
0
100
AcDbCircle
 10
383.769332
 20
506.874964
 30
0.0
 40
1.25
  0
CIRCLE
  5
296
100
AcDbEntity
  8
0
100
AcDbCircle
 10
383.769332
 20
509.374964
 30
0.0
 40
1.25
  0
CIRCLE
  5
297
100
AcDbEntity
  8
0
100
AcDbCircle
 10
383.769332
 20
511.874964
 30
0.0
 40
1.25
  0
CIRCLE
  5
298
100
AcDbEntity
  8
0
100
AcDbCircle
 10
383.769332
 20
514.374964
 30
0.0
 40
1.25
  0
CIRCLE
  5
299
100
AcDbEntity
  8
0
100
AcDbCircle
 10
383.769332
 20
516.874964
 30
0.0
 40
1.25
  0
CIRCLE
  5
29A
100
AcDbEntity
  8
0
100
AcDbCircle
 10
383.769332
 20
519.374964
 30
0.0
 40
1.25
  0
CIRCLE
  5
29B
100
AcDbEntity
  8
0
100
AcDbCircle
 10
383.769332
 20
521.874964
 30
0.0
 40
1.25
  0
CIRCLE
  5
29C
100
AcDbEntity
  8
0
100
AcDbCircle
 10
383.769332
 20
524.374964
 30
0.0
 40
1.25
  0
CIRCLE
  5
29D
100
AcDbEntity
  8
0
100
AcDbCircle
 10
383.769332
 20
526.874964
 30
0.0
 40
1.25
  0
CIRCLE
  5
29E
100
AcDbEntity
  8
0
100
AcDbCircle
 10
390.741791
 20
454.679388
 30
0.0
 40
1.25
  0
CIRCLE
  5
29F
100
AcDbEntity
  8
0
100
AcDbCircle
 10
390.741791
 20
452.179388
 30
0.0
 40
1.25
  0
CIRCLE
  5
2A0
100
AcDbEntity
  8
0
100
AcDbCircle
 10
390.741791
 20
457.179388
 30
0.0
 40
1.25
  0
CIRCLE
  5
2A1
100
AcDbEntity
  8
0
100
AcDbCircle
 10
390.741791
 20
459.679388
 30
0.0
 40
1.25
  0
CIRCLE
  5
2A2
100
AcDbEntity
  8
0
100
AcDbCircle
 10
390.741791
 20
462.179388
 30
0.0
 40
1.25
  0
CIRCLE
  5
2A3
100
AcDbEntity
  8
0
100
AcDbCircle
 10
390.741791
 20
464.679388
 30
0.0
 40
1.25
  0
CIRCLE
  5
2A4
100
AcDbEntity
  8
0
100
AcDbCircle
 10
390.741791
 20
467.179388
 30
0.0
 40
1.25
  0
CIRCLE
  5
2A5
100
AcDbEntity
  8
0
100
AcDbCircle
 10
390.741791
 20
469.679388
 30
0.0
 40
1.25
  0
CIRCLE
  5
2A6
100
AcDbEntity
  8
0
100
AcDbCircle
 10
390.741791
 20
472.179388
 30
0.0
 40
1.25
  0
CIRCLE
  5
2A7
100
AcDbEntity
  8
0
100
AcDbCircle
 10
390.741791
 20
474.679388
 30
0.0
 40
1.25
  0
CIRCLE
  5
2A8
100
AcDbEntity
  8
0
100
AcDbCircle
 10
390.741791
 20
477.179388
 30
0.0
 40
1.25
  0
CIRCLE
  5
2A9
100
AcDbEntity
  8
0
100
AcDbCircle
 10
390.741791
 20
479.679388
 30
0.0
 40
1.25
  0
CIRCLE
  5
2AA
100
AcDbEntity
  8
0
100
AcDbCircle
 10
390.741791
 20
482.179388
 30
0.0
 40
1.25
  0
CIRCLE
  5
2AB
100
AcDbEntity
  8
0
100
AcDbCircle
 10
390.741791
 20
484.679388
 30
0.0
 40
1.25
  0
CIRCLE
  5
2AC
100
AcDbEntity
  8
0
100
AcDbCircle
 10
390.741791
 20
487.179388
 30
0.0
 40
1.25
  0
CIRCLE
  5
2AD
100
AcDbEntity
  8
0
100
AcDbCircle
 10
390.741791
 20
489.679388
 30
0.0
 40
1.25
  0
CIRCLE
  5
2AE
100
AcDbEntity
  8
0
100
AcDbCircle
 10
390.741791
 20
492.179388
 30
0.0
 40
1.25
  0
CIRCLE
  5
2AF
100
AcDbEntity
  8
0
100
AcDbCircle
 10
390.741791
 20
494.679388
 30
0.0
 40
1.25
  0
CIRCLE
  5
2B0
100
AcDbEntity
  8
0
100
AcDbCircle
 10
390.741791
 20
497.179388
 30
0.0
 40
1.25
  0
CIRCLE
  5
2B1
100
AcDbEntity
  8
0
100
AcDbCircle
 10
390.741791
 20
499.679388
 30
0.0
 40
1.25
  0
CIRCLE
  5
2B2
100
AcDbEntity
  8
0
100
AcDbCircle
 10
390.741791
 20
502.179388
 30
0.0
 40
1.25
  0
CIRCLE
  5
2B3
100
AcDbEntity
  8
0
100
AcDbCircle
 10
390.741791
 20
504.679388
 30
0.0
 40
1.25
  0
CIRCLE
  5
2B4
100
AcDbEntity
  8
0
100
AcDbCircle
 10
390.741791
 20
507.179388
 30
0.0
 40
1.25
  0
CIRCLE
  5
2B5
100
AcDbEntity
  8
0
100
AcDbCircle
 10
390.741791
 20
509.679388
 30
0.0
 40
1.25
  0
CIRCLE
  5
2B6
100
AcDbEntity
  8
0
100
AcDbCircle
 10
390.741791
 20
512.179388
 30
0.0
 40
1.25
  0
CIRCLE
  5
2B7
100
AcDbEntity
  8
0
100
AcDbCircle
 10
390.741791
 20
514.679388
 30
0.0
 40
1.25
  0
CIRCLE
  5
2B8
100
AcDbEntity
  8
0
100
AcDbCircle
 10
390.741791
 20
517.179388
 30
0.0
 40
1.25
  0
CIRCLE
  5
2B9
100
AcDbEntity
  8
0
100
AcDbCircle
 10
390.741791
 20
519.679388
 30
0.0
 40
1.25
  0
CIRCLE
  5
2BA
100
AcDbEntity
  8
0
100
AcDbCircle
 10
390.741791
 20
522.179388
 30
0.0
 40
1.25
  0
CIRCLE
  5
2BB
100
AcDbEntity
  8
0
100
AcDbCircle
 10
390.741791
 20
524.679388
 30
0.0
 40
1.25
  0
CIRCLE
  5
2BC
100
AcDbEntity
  8
0
100
AcDbCircle
 10
390.741791
 20
527.179388
 30
0.0
 40
1.25
  0
CIRCLE
  5
2BD
100
AcDbEntity
  8
0
100
AcDbCircle
 10
339.318783
 20
503.462944
 30
0.0
 40
1.25
  0
CIRCLE
  5
2BE
100
AcDbEntity
  8
0
100
AcDbCircle
 10
339.318783
 20
505.962944
 30
0.0
 40
1.25
  0
CIRCLE
  5
2BF
100
AcDbEntity
  8
0
100
AcDbCircle
 10
339.318783
 20
508.462944
 30
0.0
 40
1.25
  0
CIRCLE
  5
2C0
100
AcDbEntity
  8
0
100
AcDbCircle
 10
436.627906
 20
512.711552
 30
0.0
 40
1.25
  0
CIRCLE
  5
2C1
100
AcDbEntity
  8
0
100
AcDbCircle
 10
436.627906
 20
510.211552
 30
0.0
 40
1.25
  0
CIRCLE
  5
2C2
100
AcDbEntity
  8
0
100
AcDbCircle
 10
436.627906
 20
507.711552
 30
0.0
 40
1.25
  0
CIRCLE
  5
2C3
100
AcDbEntity
  8
0
100
AcDbCircle
 10
436.627906
 20
505.211552
 30
0.0
 40
1.25
  0
CIRCLE
  5
2C4
100
AcDbEntity
  8
0
100
AcDbCircle
 10
436.627906
 20
502.711552
 30
0.0
 40
1.25
  0
CIRCLE
  5
2C5
100
AcDbEntity
  8
0
100
AcDbCircle
 10
436.627906
 20
500.211552
 30
0.0
 40
1.25
  0
CIRCLE
  5
2C6
100
AcDbEntity
  8
0
100
AcDbCircle
 10
436.627906
 20
497.711552
 30
0.0
 40
1.25
  0
CIRCLE
  5
2C7
100
AcDbEntity
  8
0
100
AcDbCircle
 10
442.1648
 20
508.462944
 30
0.0
 40
1.25
  0
CIRCLE
  5
2C8
100
AcDbEntity
  8
0
100
AcDbCircle
 10
442.1648
 20
505.962944
 30
0.0
 40
1.25
  0
CIRCLE
  5
2C9
100
AcDbEntity
  8
0
100
AcDbCircle
 10
442.1648
 20
503.462944
 30
0.0
 40
1.25
  0
LINE
  5
2CA
100
AcDbEntity
  8
0
100
AcDbLine
 10
625.503923
 20
611.679388
 30
0.0
 11
621.503923
 21
608.679388
 31
0.0
  0
LINE
  5
2CB
100
AcDbEntity
  8
0
100
AcDbLine
 10
619.503923
 20
604.679388
 30
0.0
 11
619.503923
 21
294.679388
 31
0.0
  0
LINE
  5
2CC
100
AcDbEntity
  8
0
100
AcDbLine
 10
621.503923
 20
290.679388
 30
0.0
 11
625.503923
 21
287.679388
 31
0.0
  0
LINE
  5
2CD
100
AcDbEntity
  8
0
100
AcDbLine
 10
625.503923
 20
287.679388
 30
0.0
 11
625.503923
 21
611.679388
 31
0.0
  0
ARC
  5
2CE
100
AcDbEntity
  8
0
100
AcDbCircle
 10
624.503923
 20
294.679388
 30
0.0
 40
5.0
100
AcDbArc
 50
180.0
 51
233.130102
  0
ARC
  5
2CF
100
AcDbEntity
  8
0
100
AcDbCircle
 10
624.503923
 20
604.679388
 30
0.0
 40
5.0
100
AcDbArc
 50
126.869898
 51
180.0
  0
LINE
  5
2D0
100
AcDbEntity
  8
0
100
AcDbLine
 10
625.503923
 20
349.679388
 30
0.0
 11
630.003923
 21
350.929388
 31
0.0
  0
LINE
  5
2D1
100
AcDbEntity
  8
0
100
AcDbLine
 10
625.503923
 20
549.679388
 30
0.0
 11
630.003923
 21
548.429388
 31
0.0
  0
LINE
  5
2D2
100
AcDbEntity
  8
0
100
AcDbLine
 10
630.003923
 20
548.429388
 30
0.0
 11
630.003923
 21
350.929388
 31
0.0
  0
LINE
  5
2D3
100
AcDbEntity
  8
0
100
AcDbLine
 10
635.003923
 20
539.679388
 30
0.0
 11
670.503923
 21
484.679388
 31
0.0
  0
LINE
  5
2D4
100
AcDbEntity
  8
0
100
AcDbLine
 10
670.503923
 20
484.679388
 30
0.0
 11
670.503923
 21
414.679388
 31
0.0
  0
LINE
  5
2D5
100
AcDbEntity
  8
0
100
AcDbLine
 10
670.503923
 20
414.679388
 30
0.0
 11
658.003923
 21
392.179388
 31
0.0
  0
LINE
  5
2D6
100
AcDbEntity
  8
0
100
AcDbLine
 10
658.003923
 20
392.179388
 30
0.0
 11
638.003923
 21
390.838809
 31
0.0
  0
LINE
  5
2D7
100
AcDbEntity
  8
0
100
AcDbLine
 10
638.003923
 20
390.838809
 30
0.0
 11
638.003923
 21
359.679388
 31
0.0
  0
LINE
  5
2D8
100
AcDbEntity
  8
0
100
AcDbLine
 10
638.003923
 20
359.679388
 30
0.0
 11
635.003923
 21
359.679388
 31
0.0
  0
LINE
  5
2D9
100
AcDbEntity
  8
0
100
AcDbLine
 10
635.003923
 20
359.679388
 30
0.0
 11
635.003923
 21
539.679388
 31
0.0
  0
LINE
  5
2DA
100
AcDbEntity
  8
0
100
AcDbLine
 10
677.503923
 20
413.429388
 30
0.0
 11
684.503923
 21
413.429388
 31
0.0
  0
LINE
  5
2DB
100
AcDbEntity
  8
0
100
AcDbLine
 10
684.503923
 20
413.429388
 30
0.0
 11
684.503923
 21
485.929388
 31
0.0
  0
LINE
  5
2DC
100
AcDbEntity
  8
0
100
AcDbLine
 10
684.503923
 20
485.929388
 30
0.0
 11
677.503923
 21
485.929388
 31
0.0
  0
LINE
  5
2DD
100
AcDbEntity
  8
0
100
AcDbLine
 10
677.503923
 20
485.929388
 30
0.0
 11
677.503923
 21
413.429388
 31
0.0
  0
LINE
  5
2DE
100
AcDbEntity
  8
0
100
AcDbLine
 10
677.503923
 20
482.179388
 30
0.0
 11
674.003923
 21
482.179388
 31
0.0
  0
LINE
  5
2DF
100
AcDbEntity
  8
0
100
AcDbLine
 10
674.003923
 20
482.179388
 30
0.0
 11
674.003923
 21
417.179388
 31
0.0
  0
LINE
  5
2E0
100
AcDbEntity
  8
0
100
AcDbLine
 10
674.003923
 20
417.179388
 30
0.0
 11
677.503923
 21
417.179388
 31
0.0
  0
LINE
  5
2E1
100
AcDbEntity
  8
0
100
AcDbLine
 10
684.503923
 20
417.179388
 30
0.0
 11
689.503923
 21
417.179388
 31
0.0
  0
LINE
  5
2E2
100
AcDbEntity
  8
0
100
AcDbLine
 10
689.503923
 20
417.179388
 30
0.0
 11
689.503923
 21
482.179388
 31
0.0
  0
LINE
  5
2E3
100
AcDbEntity
  8
0
100
AcDbLine
 10
689.503923
 20
482.179388
 30
0.0
 11
684.503923
 21
482.179388
 31
0.0
  0
LINE
  5
2E4
100
AcDbEntity
  8
0
100
AcDbLine
 10
638.003923
 20
384.679388
 30
0.0
 11
678.003923
 21
384.679388
 31
0.0
  0
LINE
  5
2E5
100
AcDbEntity
  8
0
100
AcDbLine
 10
678.003923
 20
384.679388
 30
0.0
 11
678.003923
 21
364.679388
 31
0.0
  0
LINE
  5
2E6
100
AcDbEntity
  8
0
100
AcDbLine
 10
678.003923
 20
364.679388
 30
0.0
 11
638.003923
 21
364.679388
 31
0.0
  0
LINE
  5
2E7
100
AcDbEntity
  8
0
100
AcDbLine
 10
641.003923
 20
384.679388
 30
0.0
 11
641.003923
 21
364.679388
 31
0.0
  0
ARC
  5
2E8
100
AcDbEntity
  8
0
100
AcDbCircle
 10
641.003923
 20
374.679388
 30
0.0
 40
2.469198
100
AcDbArc
 50
270.0
 51
450.0
  0
LINE
  5
2E9
100
AcDbEntity
  8
0
100
AcDbLine
 10
673.003923
 20
391.509099
 30
0.0
 11
673.003923
 21
384.679388
 31
0.0
  0
LINE
  5
2EA
100
AcDbEntity
  8
0
100
AcDbLine
 10
648.003923
 20
391.509099
 30
0.0
 11
648.003923
 21
384.679388
 31
0.0
  0
LINE
  5
2EB
100
AcDbEntity
  8
0
100
AcDbLine
 10
648.003923
 20
391.509099
 30
0.0
 11
673.003923
 21
391.509099
 31
0.0
  0
LINE
  5
2EC
100
AcDbEntity
  8
0
100
AcDbLine
 10
648.003923
 20
357.849678
 30
0.0
 11
673.003923
 21
357.849678
 31
0.0
  0
LINE
  5
2ED
100
AcDbEntity
  8
0
100
AcDbLine
 10
648.003923
 20
357.849678
 30
0.0
 11
648.003923
 21
364.679388
 31
0.0
  0
LINE
  5
2EE
100
AcDbEntity
  8
0
100
AcDbLine
 10
673.003923
 20
357.849678
 30
0.0
 11
673.003923
 21
364.679388
 31
0.0
  0
LINE
  5
2EF
100
AcDbEntity
  8
0
100
AcDbLine
 10
638.332026
 20
364.679388
 30
0.0
 11
658.412055
 21
285.416115
 31
0.0
  0
LINE
  5
2F0
100
AcDbEntity
  8
0
100
AcDbLine
 10
640.395206
 20
364.679388
 30
0.0
 11
660.35081
 21
285.907266
 31
0.0
  0
LINE
  5
2F1
100
AcDbEntity
  8
0
100
AcDbLine
 10
642.458386
 20
364.679388
 30
0.0
 11
662.289565
 21
286.398418
 31
0.0
  0
LINE
  5
2F2
100
AcDbEntity
  8
0
100
AcDbLine
 10
661.888426
 20
287.981863
 30
0.0
 11
656.072161
 21
286.508409
 31
0.0
  0
LWPOLYLINE
  5
2F3
100
AcDbEntity
  8
0
100
AcDbPolyline
 90
        2
 70
     0
 43
1.0
 10
637.4733
 20
359.924964
 10
656.4733
 20
284.924964
  0
LINE
  5
2F7
100
AcDbEntity
  8
CENTER
100
AcDbLine
 10
601.104911
 20
449.679388
 30
0.0
 11
711.681728
 21
449.679388
 31
0.0
  0
LINE
  5
2F8
100
AcDbEntity
  8
0
100
AcDbLine
 10
589.03389
 20
168.690357
 30
0.0
 11
585.03389
 21
168.690357
 31
0.0
  0
LINE
  5
2F9
100
AcDbEntity
  8
0
100
AcDbLine
 10
585.03389
 20
168.690357
 30
0.0
 11
585.03389
 21
164.690357
 31
0.0
  0
LINE
  5
2FA
100
AcDbEntity
  8
0
100
AcDbLine
 10
585.03389
 20
164.690357
 30
0.0
 11
565.03389
 21
164.690357
 31
0.0
  0
LINE
  5
2FB
100
AcDbEntity
  8
0
100
AcDbLine
 10
589.03389
 20
152.690357
 30
0.0
 11
585.03389
 21
152.690357
 31
0.0
  0
LINE
  5
2FC
100
AcDbEntity
  8
0
100
AcDbLine
 10
585.03389
 20
152.690357
 30
0.0
 11
585.03389
 21
156.690357
 31
0.0
  0
LINE
  5
2FD
100
AcDbEntity
  8
0
100
AcDbLine
 10
585.03389
 20
156.690357
 30
0.0
 11
565.03389
 21
156.690357
 31
0.0
  0
ARC
  5
2FE
100
AcDbEntity
  8
0
100
AcDbCircle
 10
565.03389
 20
160.690357
 30
0.0
 40
4.0
100
AcDbArc
 50
90.0
 51
270.0
  0
CIRCLE
  5
2FF
100
AcDbEntity
  8
0
100
AcDbCircle
 10
565.03389
 20
160.690357
 30
0.0
 40
1.636656
  0
LINE
  5
300
100
AcDbEntity
  8
0
100
AcDbLine
 10
613.03389
 20
112.690357
 30
0.0
 11
597.03389
 21
128.690357
 31
0.0
  0
LINE
  5
301
100
AcDbEntity
  8
0
100
AcDbLine
 10
613.03389
 20
184.690357
 30
0.0
 11
613.03389
 21
112.690357
 31
0.0
  0
LINE
  5
302
100
AcDbEntity
  8
0
100
AcDbLine
 10
597.03389
 20
168.690357
 30
0.0
 11
613.03389
 21
184.690357
 31
0.0
  0
LINE
  5
303
100
AcDbEntity
  8
0
100
AcDbLine
 10
589.03389
 20
124.690357
 30
0.0
 11
589.03389
 21
172.690357
 31
0.0
  0
LINE
  5
304
100
AcDbEntity
  8
0
100
AcDbLine
 10
597.03389
 20
124.690357
 30
0.0
 11
589.03389
 21
124.690357
 31
0.0
  0
LINE
  5
305
100
AcDbEntity
  8
0
100
AcDbLine
 10
597.03389
 20
172.690357
 30
0.0
 11
597.03389
 21
124.690357
 31
0.0
  0
LINE
  5
306
100
AcDbEntity
  8
0
100
AcDbLine
 10
589.03389
 20
172.690357
 30
0.0
 11
597.03389
 21
172.690357
 31
0.0
  0
CIRCLE
  5
307
100
AcDbEntity
  8
0
100
AcDbCircle
 10
565.03389
 20
136.690357
 30
0.0
 40
1.636656
  0
ARC
  5
308
100
AcDbEntity
  8
0
100
AcDbCircle
 10
565.03389
 20
136.690357
 30
0.0
 40
4.0
100
AcDbArc
 50
90.0
 51
270.0
  0
LINE
  5
309
100
AcDbEntity
  8
0
100
AcDbLine
 10
585.03389
 20
140.690357
 30
0.0
 11
565.03389
 21
140.690357
 31
0.0
  0
LINE
  5
30A
100
AcDbEntity
  8
0
100
AcDbLine
 10
585.03389
 20
144.690357
 30
0.0
 11
585.03389
 21
140.690357
 31
0.0
  0
LINE
  5
30B
100
AcDbEntity
  8
0
100
AcDbLine
 10
589.03389
 20
144.690357
 30
0.0
 11
585.03389
 21
144.690357
 31
0.0
  0
LINE
  5
30C
100
AcDbEntity
  8
0
100
AcDbLine
 10
585.03389
 20
132.690357
 30
0.0
 11
565.03389
 21
132.690357
 31
0.0
  0
LINE
  5
30D
100
AcDbEntity
  8
0
100
AcDbLine
 10
585.03389
 20
128.690357
 30
0.0
 11
585.03389
 21
132.690357
 31
0.0
  0
LINE
  5
30E
100
AcDbEntity
  8
0
100
AcDbLine
 10
589.03389
 20
128.690357
 30
0.0
 11
585.03389
 21
128.690357
 31
0.0
  0
CIRCLE
  5
30F
100
AcDbEntity
  8
0
100
AcDbCircle
 10
565.710201
 20
119.033686
 30
0.0
 40
6.0
  0
LINE
  5
310
100
AcDbEntity
  8
0
100
AcDbLine
 10
562.32109
 20
119.033686
 30
0.0
 11
570.087802
 21
119.033686
 31
0.0
  0
LINE
  5
311
100
AcDbEntity
  8
0
100
AcDbLine
 10
565.710201
 20
173.357941
 30
0.0
 11
565.710201
 21
181.124653
 31
0.0
  0
LINE
  5
312
100
AcDbEntity
  8
0
100
AcDbLine
 10
562.32109
 20
176.747051
 30
0.0
 11
570.087802
 21
176.747051
 31
0.0
  0
CIRCLE
  5
313
100
AcDbEntity
  8
0
100
AcDbCircle
 10
565.710201
 20
176.747051
 30
0.0
 40
6.0
  0
LINE
  5
314
100
AcDbEntity
  8
HIDDEN
100
AcDbLine
 10
463.639339
 20
162.690357
 30
0.0
 11
463.639339
 21
194.690357
 31
0.0
  0
LINE
  5
315
100
AcDbEntity
  8
HIDDEN
100
AcDbLine
 10
459.639339
 20
162.690357
 30
0.0
 11
459.639339
 21
190.690357
 31
0.0
  0
LINE
  5
316
100
AcDbEntity
  8
0
100
AcDbLine
 10
463.639339
 20
158.690357
 30
0.0
 11
503.639339
 21
158.690357
 31
0.0
  0
LINE
  5
317
100
AcDbEntity
  8
0
100
AcDbLine
 10
463.639339
 20
150.690357
 30
0.0
 11
463.639339
 21
158.690357
 31
0.0
  0
LINE
  5
318
100
AcDbEntity
  8
0
100
AcDbLine
 10
503.639339
 20
166.690357
 30
0.0
 11
539.639339
 21
166.690357
 31
0.0
  0
LINE
  5
319
100
AcDbEntity
  8
0
100
AcDbLine
 10
539.639339
 20
166.690357
 30
0.0
 11
539.639339
 21
154.690357
 31
0.0
  0
LINE
  5
31A
100
AcDbEntity
  8
0
100
AcDbLine
 10
539.639339
 20
154.690357
 30
0.0
 11
503.639339
 21
154.690357
 31
0.0
  0
LINE
  5
31B
100
AcDbEntity
  8
0
100
AcDbLine
 10
503.639339
 20
154.690357
 30
0.0
 11
503.639339
 21
166.690357
 31
0.0
  0
LINE
  5
31C
100
AcDbEntity
  8
0
100
AcDbLine
 10
459.639339
 20
162.690357
 30
0.0
 11
503.639339
 21
162.690357
 31
0.0
  0
LINE
  5
31D
100
AcDbEntity
  8
0
100
AcDbLine
 10
459.639339
 20
154.690357
 30
0.0
 11
459.639339
 21
162.690357
 31
0.0
  0
LINE
  5
31E
100
AcDbEntity
  8
0
100
AcDbLine
 10
503.639339
 20
130.690357
 30
0.0
 11
503.639339
 21
142.690357
 31
0.0
  0
LINE
  5
31F
100
AcDbEntity
  8
0
100
AcDbLine
 10
539.639339
 20
130.690357
 30
0.0
 11
503.639339
 21
130.690357
 31
0.0
  0
LINE
  5
320
100
AcDbEntity
  8
0
100
AcDbLine
 10
539.639339
 20
142.690357
 30
0.0
 11
539.639339
 21
130.690357
 31
0.0
  0
LINE
  5
321
100
AcDbEntity
  8
0
100
AcDbLine
 10
503.639339
 20
142.690357
 30
0.0
 11
539.639339
 21
142.690357
 31
0.0
  0
LINE
  5
322
100
AcDbEntity
  8
0
100
AcDbLine
 10
483.639339
 20
134.690357
 30
0.0
 11
503.639339
 21
134.690357
 31
0.0
  0
LINE
  5
323
100
AcDbEntity
  8
0
100
AcDbLine
 10
483.639339
 20
110.690357
 30
0.0
 11
483.639339
 21
134.690357
 31
0.0
  0
LINE
  5
324
100
AcDbEntity
  8
0
100
AcDbLine
 10
443.639339
 20
110.690357
 30
0.0
 11
483.639339
 21
110.690357
 31
0.0
  0
LINE
  5
325
100
AcDbEntity
  8
0
100
AcDbLine
 10
479.639339
 20
138.690357
 30
0.0
 11
503.639339
 21
138.690357
 31
0.0
  0
LINE
  5
326
100
AcDbEntity
  8
0
100
AcDbLine
 10
479.639339
 20
114.690357
 30
0.0
 11
479.639339
 21
138.690357
 31
0.0
  0
LINE
  5
327
100
AcDbEntity
  8
0
100
AcDbLine
 10
443.639339
 20
114.690357
 30
0.0
 11
479.639339
 21
114.690357
 31
0.0
  0
LINE
  5
328
100
AcDbEntity
  8
0
100
AcDbLine
 10
407.639339
 20
118.690357
 30
0.0
 11
443.639339
 21
118.690357
 31
0.0
  0
LINE
  5
329
100
AcDbEntity
  8
0
100
AcDbLine
 10
443.639339
 20
118.690357
 30
0.0
 11
443.639339
 21
106.690357
 31
0.0
  0
LINE
  5
32A
100
AcDbEntity
  8
0
100
AcDbLine
 10
443.639339
 20
106.690357
 30
0.0
 11
407.639339
 21
106.690357
 31
0.0
  0
LINE
  5
32B
100
AcDbEntity
  8
0
100
AcDbLine
 10
407.639339
 20
106.690357
 30
0.0
 11
407.639339
 21
118.690357
 31
0.0
  0
LINE
  5
32C
100
AcDbEntity
  8
0
100
AcDbLine
 10
350.638986
 20
120.690357
 30
0.0
 11
354.638986
 21
120.690357
 31
0.0
  0
LINE
  5
32D
100
AcDbEntity
  8
0
100
AcDbLine
 10
354.638986
 20
120.690357
 30
0.0
 11
354.638986
 21
116.690357
 31
0.0
  0
LINE
  5
32E
100
AcDbEntity
  8
0
100
AcDbLine
 10
354.638986
 20
116.690357
 30
0.0
 11
374.638986
 21
116.690357
 31
0.0
  0
LINE
  5
32F
100
AcDbEntity
  8
0
100
AcDbLine
 10
350.638986
 20
104.690357
 30
0.0
 11
354.638986
 21
104.690357
 31
0.0
  0
LINE
  5
330
100
AcDbEntity
  8
0
100
AcDbLine
 10
354.638986
 20
104.690357
 30
0.0
 11
354.638986
 21
108.690357
 31
0.0
  0
LINE
  5
331
100
AcDbEntity
  8
0
100
AcDbLine
 10
354.638986
 20
108.690357
 30
0.0
 11
374.638986
 21
108.690357
 31
0.0
  0
ARC
  5
332
100
AcDbEntity
  8
0
100
AcDbCircle
 10
374.638986
 20
112.690357
 30
0.0
 40
4.0
100
AcDbArc
 50
270.0
 51
450.0
  0
CIRCLE
  5
333
100
AcDbEntity
  8
0
100
AcDbCircle
 10
374.638986
 20
112.690357
 30
0.0
 40
1.636656
  0
LINE
  5
334
100
AcDbEntity
  8
0
100
AcDbLine
 10
350.638986
 20
112.690357
 30
0.0
 11
322.638986
 21
112.690357
 31
0.0
  0
LWPOLYLINE
  5
335
100
AcDbEntity
  8
0
100
AcDbPolyline
 90
        2
 70
     0
 43
4.0
 10
312.638986
 20
192.690357
 10
312.638986
 20
112.690357
  0
LWPOLYLINE
  5
339
100
AcDbEntity
  8
0
100
AcDbPolyline
 90
        2
 70
     0
 43
6.0
 10
322.638986
 20
192.690357
 10
322.638986
 20
112.690357
  0
LWPOLYLINE
  5
33D
100
AcDbEntity
  8
0
100
AcDbPolyline
 90
        2
 70
     0
 43
6.0
 10
294.638986
 20
192.690357
 10
294.638986
 20
112.690357
  0
LINE
  5
341
100
AcDbEntity
  8
0
100
AcDbLine
 10
266.638986
 20
112.690357
 30
0.0
 11
294.638986
 21
112.690357
 31
0.0
  0
LWPOLYLINE
  5
342
100
AcDbEntity
  8
0
100
AcDbPolyline
 90
        2
 70
     0
 43
4.0
 10
304.638986
 20
192.690357
 10
304.638986
 20
112.690357
  0
LINE
  5
346
100
AcDbEntity
  8
UL1
100
AcDbLine
 10
350.638986
 20
88.690357
 30
0.0
 11
350.638986
 21
216.690357
 31
0.0
  0
LINE
  5
347
100
AcDbEntity
  8
UL1
100
AcDbLine
 10
266.638986
 20
88.690357
 30
0.0
 11
350.638986
 21
88.690357
 31
0.0
  0
LINE
  5
348
100
AcDbEntity
  8
UL1
100
AcDbLine
 10
266.638986
 20
216.690357
 30
0.0
 11
266.638986
 21
88.690357
 31
0.0
  0
LINE
  5
349
100
AcDbEntity
  8
0
100
AcDbLine
 10
266.638986
 20
114.690357
 30
0.0
 11
238.638986
 21
114.690357
 31
0.0
  0
LINE
  5
34A
100
AcDbEntity
  8
0
100
AcDbLine
 10
238.638986
 20
114.690357
 30
0.0
 11
238.638986
 21
110.690357
 31
0.0
  0
LINE
  5
34B
100
AcDbEntity
  8
0
100
AcDbLine
 10
238.638986
 20
110.690357
 30
0.0
 11
266.638986
 21
110.690357
 31
0.0
  0
LINE
  5
34C
100
AcDbEntity
  8
0
100
AcDbLine
 10
238.638986
 20
112.690357
 30
0.0
 11
234.638986
 21
112.690357
 31
0.0
  0
LINE
  5
34D
100
AcDbEntity
  8
0
100
AcDbLine
 10
238.638986
 20
128.690357
 30
0.0
 11
234.638986
 21
128.690357
 31
0.0
  0
LINE
  5
34E
100
AcDbEntity
  8
0
100
AcDbLine
 10
238.638986
 20
126.690357
 30
0.0
 11
266.638986
 21
126.690357
 31
0.0
  0
LINE
  5
34F
100
AcDbEntity
  8
0
100
AcDbLine
 10
238.638986
 20
130.690357
 30
0.0
 11
238.638986
 21
126.690357
 31
0.0
  0
LINE
  5
350
100
AcDbEntity
  8
0
100
AcDbLine
 10
266.638986
 20
130.690357
 30
0.0
 11
238.638986
 21
130.690357
 31
0.0
  0
LINE
  5
351
100
AcDbEntity
  8
0
100
AcDbLine
 10
266.638986
 20
128.690357
 30
0.0
 11
294.638986
 21
128.690357
 31
0.0
  0
LINE
  5
352
100
AcDbEntity
  8
0
100
AcDbLine
 10
238.638986
 20
144.690357
 30
0.0
 11
234.638986
 21
144.690357
 31
0.0
  0
LINE
  5
353
100
AcDbEntity
  8
0
100
AcDbLine
 10
238.638986
 20
142.690357
 30
0.0
 11
266.638986
 21
142.690357
 31
0.0
  0
LINE
  5
354
100
AcDbEntity
  8
0
100
AcDbLine
 10
238.638986
 20
146.690357
 30
0.0
 11
238.638986
 21
142.690357
 31
0.0
  0
LINE
  5
355
100
AcDbEntity
  8
0
100
AcDbLine
 10
266.638986
 20
146.690357
 30
0.0
 11
238.638986
 21
146.690357
 31
0.0
  0
LINE
  5
356
100
AcDbEntity
  8
0
100
AcDbLine
 10
266.638986
 20
144.690357
 30
0.0
 11
294.638986
 21
144.690357
 31
0.0
  0
LINE
  5
357
100
AcDbEntity
  8
0
100
AcDbLine
 10
238.638986
 20
160.690357
 30
0.0
 11
234.638986
 21
160.690357
 31
0.0
  0
LINE
  5
358
100
AcDbEntity
  8
0
100
AcDbLine
 10
238.638986
 20
158.690357
 30
0.0
 11
266.638986
 21
158.690357
 31
0.0
  0
LINE
  5
359
100
AcDbEntity
  8
0
100
AcDbLine
 10
238.638986
 20
162.690357
 30
0.0
 11
238.638986
 21
158.690357
 31
0.0
  0
LINE
  5
35A
100
AcDbEntity
  8
0
100
AcDbLine
 10
266.638986
 20
162.690357
 30
0.0
 11
238.638986
 21
162.690357
 31
0.0
  0
LINE
  5
35B
100
AcDbEntity
  8
0
100
AcDbLine
 10
266.638986
 20
160.690357
 30
0.0
 11
294.638986
 21
160.690357
 31
0.0
  0
LINE
  5
35C
100
AcDbEntity
  8
0
100
AcDbLine
 10
238.638986
 20
176.690357
 30
0.0
 11
234.638986
 21
176.690357
 31
0.0
  0
LINE
  5
35D
100
AcDbEntity
  8
0
100
AcDbLine
 10
238.638986
 20
174.690357
 30
0.0
 11
266.638986
 21
174.690357
 31
0.0
  0
LINE
  5
35E
100
AcDbEntity
  8
0
100
AcDbLine
 10
238.638986
 20
178.690357
 30
0.0
 11
238.638986
 21
174.690357
 31
0.0
  0
LINE
  5
35F
100
AcDbEntity
  8
0
100
AcDbLine
 10
266.638986
 20
178.690357
 30
0.0
 11
238.638986
 21
178.690357
 31
0.0
  0
LINE
  5
360
100
AcDbEntity
  8
0
100
AcDbLine
 10
266.638986
 20
176.690357
 30
0.0
 11
294.638986
 21
176.690357
 31
0.0
  0
LINE
  5
361
100
AcDbEntity
  8
0
100
AcDbLine
 10
238.638986
 20
192.690357
 30
0.0
 11
234.638986
 21
192.690357
 31
0.0
  0
LINE
  5
362
100
AcDbEntity
  8
0
100
AcDbLine
 10
238.638986
 20
190.690357
 30
0.0
 11
266.638986
 21
190.690357
 31
0.0
  0
LINE
  5
363
100
AcDbEntity
  8
0
100
AcDbLine
 10
238.638986
 20
194.690357
 30
0.0
 11
238.638986
 21
190.690357
 31
0.0
  0
LINE
  5
364
100
AcDbEntity
  8
0
100
AcDbLine
 10
266.638986
 20
194.690357
 30
0.0
 11
238.638986
 21
194.690357
 31
0.0
  0
LINE
  5
365
100
AcDbEntity
  8
0
100
AcDbLine
 10
266.638986
 20
192.690357
 30
0.0
 11
294.581894
 21
192.690357
 31
0.0
  0
LINE
  5
366
100
AcDbEntity
  8
0
100
AcDbLine
 10
350.638986
 20
192.690357
 30
0.0
 11
322.638986
 21
192.690357
 31
0.0
  0
CIRCLE
  5
367
100
AcDbEntity
  8
0
100
AcDbCircle
 10
374.638986
 20
192.690357
 30
0.0
 40
1.636656
  0
ARC
  5
368
100
AcDbEntity
  8
0
100
AcDbCircle
 10
374.638986
 20
192.690357
 30
0.0
 40
4.0
100
AcDbArc
 50
270.0
 51
450.0
  0
LINE
  5
369
100
AcDbEntity
  8
0
100
AcDbLine
 10
354.638986
 20
196.690357
 30
0.0
 11
374.638986
 21
196.690357
 31
0.0
  0
LINE
  5
36A
100
AcDbEntity
  8
0
100
AcDbLine
 10
354.638986
 20
200.690357
 30
0.0
 11
354.638986
 21
196.690357
 31
0.0
  0
LINE
  5
36B
100
AcDbEntity
  8
0
100
AcDbLine
 10
350.638986
 20
200.690357
 30
0.0
 11
354.638986
 21
200.690357
 31
0.0
  0
LINE
  5
36C
100
AcDbEntity
  8
0
100
AcDbLine
 10
354.638986
 20
188.690357
 30
0.0
 11
374.638986
 21
188.690357
 31
0.0
  0
LINE
  5
36D
100
AcDbEntity
  8
0
100
AcDbLine
 10
354.638986
 20
184.690357
 30
0.0
 11
354.638986
 21
188.690357
 31
0.0
  0
LINE
  5
36E
100
AcDbEntity
  8
0
100
AcDbLine
 10
350.638986
 20
184.690357
 30
0.0
 11
354.638986
 21
184.690357
 31
0.0
  0
LINE
  5
36F
100
AcDbEntity
  8
0
100
AcDbLine
 10
350.638986
 20
152.690357
 30
0.0
 11
322.638986
 21
152.690357
 31
0.0
  0
CIRCLE
  5
370
100
AcDbEntity
  8
0
100
AcDbCircle
 10
374.638986
 20
152.690357
 30
0.0
 40
1.636656
  0
ARC
  5
371
100
AcDbEntity
  8
0
100
AcDbCircle
 10
374.638986
 20
152.690357
 30
0.0
 40
4.0
100
AcDbArc
 50
270.0
 51
450.0
  0
LINE
  5
372
100
AcDbEntity
  8
0
100
AcDbLine
 10
354.638986
 20
148.690357
 30
0.0
 11
374.638986
 21
148.690357
 31
0.0
  0
LINE
  5
373
100
AcDbEntity
  8
0
100
AcDbLine
 10
354.638986
 20
144.690357
 30
0.0
 11
354.638986
 21
148.690357
 31
0.0
  0
LINE
  5
374
100
AcDbEntity
  8
0
100
AcDbLine
 10
350.638986
 20
144.690357
 30
0.0
 11
354.638986
 21
144.690357
 31
0.0
  0
LINE
  5
375
100
AcDbEntity
  8
0
100
AcDbLine
 10
354.638986
 20
156.690357
 30
0.0
 11
374.638986
 21
156.690357
 31
0.0
  0
LINE
  5
376
100
AcDbEntity
  8
0
100
AcDbLine
 10
354.638986
 20
160.690357
 30
0.0
 11
354.638986
 21
156.690357
 31
0.0
  0
LINE
  5
377
100
AcDbEntity
  8
0
100
AcDbLine
 10
350.638986
 20
160.690357
 30
0.0
 11
354.638986
 21
160.690357
 31
0.0
  0
LINE
  5
378
100
AcDbEntity
  8
UL1
100
AcDbLine
 10
266.638986
 20
216.690357
 30
0.0
 11
350.638986
 21
216.690357
 31
0.0
  0
LINE
  5
379
100
AcDbEntity
  8
0
100
AcDbLine
 10
407.639339
 20
146.690357
 30
0.0
 11
407.639339
 21
158.690357
 31
0.0
  0
LINE
  5
37A
100
AcDbEntity
  8
0
100
AcDbLine
 10
443.639339
 20
146.690357
 30
0.0
 11
407.639339
 21
146.690357
 31
0.0
  0
LINE
  5
37B
100
AcDbEntity
  8
0
100
AcDbLine
 10
443.639339
 20
158.690357
 30
0.0
 11
443.639339
 21
146.690357
 31
0.0
  0
LINE
  5
37C
100
AcDbEntity
  8
0
100
AcDbLine
 10
407.639339
 20
158.690357
 30
0.0
 11
443.639339
 21
158.690357
 31
0.0
  0
LINE
  5
37D
100
AcDbEntity
  8
0
100
AcDbLine
 10
443.639339
 20
154.690357
 30
0.0
 11
459.639339
 21
154.690357
 31
0.0
  0
LINE
  5
37E
100
AcDbEntity
  8
0
100
AcDbLine
 10
443.639339
 20
150.690357
 30
0.0
 11
463.639339
 21
150.690357
 31
0.0
  0
LINE
  5
37F
100
AcDbEntity
  8
HIDDEN
100
AcDbLine
 10
407.639339
 20
198.690357
 30
0.0
 11
443.639339
 21
198.690357
 31
0.0
  0
LINE
  5
380
100
AcDbEntity
  8
HIDDEN
100
AcDbLine
 10
443.639339
 20
198.690357
 30
0.0
 11
443.639339
 21
186.690357
 31
0.0
  0
LINE
  5
381
100
AcDbEntity
  8
HIDDEN
100
AcDbLine
 10
443.639339
 20
186.690357
 30
0.0
 11
407.639339
 21
186.690357
 31
0.0
  0
LINE
  5
382
100
AcDbEntity
  8
HIDDEN
100
AcDbLine
 10
407.639339
 20
186.690357
 30
0.0
 11
407.639339
 21
198.690357
 31
0.0
  0
LINE
  5
383
100
AcDbEntity
  8
HIDDEN
100
AcDbLine
 10
443.639339
 20
194.690357
 30
0.0
 11
463.639339
 21
194.690357
 31
0.0
  0
LINE
  5
384
100
AcDbEntity
  8
HIDDEN
100
AcDbLine
 10
443.639339
 20
190.690357
 30
0.0
 11
459.639339
 21
190.690357
 31
0.0
  0
DIMENSION
  5
385
100
AcDbEntity
  8
SCALE
100
AcDbDimension
  2
*D5
 10
533.741791
 20
659.68744
 30
0.0
 11
390.741791
 21
670.68744
 31
0.0
 12
0.0
 22
-37.243613
 32
0.0
  1
%%C286
  3
STANDARD
100
AcDbAlignedDimension
 13
247.741791
 23
449.679388
 33
0.0
 14
533.741791
 24
449.679388
 34
0.0
100
AcDbRotatedDimension
  0
DIMENSION
  5
386
100
AcDbEntity
  8
SCALE
100
AcDbDimension
  2
*D4
 10
552.741791
 20
689.68744
 30
0.0
 11
390.741791
 21
700.68744
 31
0.0
 12
0.0
 22
-37.243613
 32
0.0
  1
%%C324
  3
STANDARD
100
AcDbAlignedDimension
 13
228.741791
 23
449.679388
 33
0.0
 14
552.741791
 24
449.679388
 34
0.0
100
AcDbRotatedDimension
  0
DIMENSION
  5
387
100
AcDbEntity
  8
SCALE
100
AcDbDimension
  2
*D7
 10
625.503923
 20
659.68744
 30
0.0
 11
651.408685
 21
670.68744
 31
0.0
 12
0.0
 22
-37.243613
 32
0.0
  1
6
  3
STANDARD
100
AcDbAlignedDimension
 13
619.503923
 23
604.679388
 33
0.0
 14
625.503923
 24
611.679388
 34
0.0
100
AcDbRotatedDimension
  0
DIMENSION
  5
388
100
AcDbEntity
  8
SCALE
100
AcDbDimension
  2
*D6
 10
689.503923
 20
689.68744
 30
0.0
 11
654.503923
 21
700.68744
 31
0.0
 12
0.0
 22
-37.243613
 32
0.0
  1
70
  3
STANDARD
100
AcDbAlignedDimension
 13
619.503923
 23
604.679388
 33
0.0
 14
689.503923
 24
482.179388
 34
0.0
100
AcDbRotatedDimension
  0
INSERT
  5
389
100
AcDbEntity
  8
SCALE
100
AcDbBlockReference
  2
YAZ3
 10
492.369395
 20
346.11597
 30
0.0
 41
7.5
 42
7.5
 43
7.5
 50
112.533828
  0
LINE
  5
38A
100
AcDbEntity
  8
SCALE
100
AcDbLine
 10
495.243611
 20
339.188569
 30
0.0
 11
524.080008
 21
269.68744
 31
0.0
  0
LINE
  5
38B
100
AcDbEntity
  8
SCALE
100
AcDbLine
 10
524.080008
 20
269.68744
 30
0.0
 11
531.580008
 21
269.68744
 31
0.0
  0
LINE
  5
38C
100
AcDbEntity
  8
SCALE
100
AcDbLine
 10
531.580008
 20
269.68744
 30
0.0
 11
595.508579
 21
269.68744
 31
0.0
  0
INSERT
  5
38D
100
AcDbEntity
  8
1
100
AcDbBlockReference
  2
YAZ3
 10
641.47743
 20
529.650012
 30
0.0
 41
7.5
 42
7.5
 43
7.5
 50
245.690667
  0
LINE
  5
38E
100
AcDbEntity
  8
1
100
AcDbLine
 10
644.564901
 20
536.485033
 30
0.0
 11
659.140054
 21
568.751405
 31
0.0
  0
INSERT
  5
38F
100
AcDbEntity
  8
1
100
AcDbBlockReference
 66
     1
  2
USBLN1
 10
664.080008
 20
579.68744
 30
0.0
 41
1.6
 42
1.6
 43
1.6
  0
ATTRIB
  5
390
100
AcDbEntity
  8
0
100
AcDbText
 10
660.346675
 20
574.08744
 30
0.0
 40
11.2
  1
2
 72
     4
 11
664.080008
 21
579.68744
 31
0.0
100
AcDbAttribute
  2
X
 70
     0
  0
SEQEND
  5
391
100
AcDbEntity
  8
1
  0
INSERT
  5
392
100
AcDbEntity
  8
1
100
AcDbBlockReference
  2
YAZ3
 10
678.003923
 20
364.679388
 30
0.0
 41
7.5
 42
7.5
 43
7.5
 50
103.893523
  0
LINE
  5
393
100
AcDbEntity
  8
1
100
AcDbLine
 10
679.80481
 20
357.398811
 30
0.0
 11
691.198588
 21
311.336363
 31
0.0
  0
INSERT
  5
394
100
AcDbEntity
  8
1
100
AcDbBlockReference
 66
     1
  2
USBLN1
 10
694.080008
 20
299.68744
 30
0.0
 41
1.6
 42
1.6
 43
1.6
  0
ATTRIB
  5
395
100
AcDbEntity
  8
0
100
AcDbText
 10
690.346675
 20
294.08744
 30
0.0
 40
11.2
  1
3
 72
     4
 11
694.080008
 21
299.68744
 31
0.0
100
AcDbAttribute
  2
X
 70
     0
  0
SEQEND
  5
396
100
AcDbEntity
  8
1
  0
LINE
  5
397
100
AcDbEntity
  8
1
100
AcDbLine
 10
341.821976
 20
306.185024
 30
0.0
 11
302.565289
 21
268.172721
 31
0.0
  0
INSERT
  5
398
100
AcDbEntity
  8
1
100
AcDbBlockReference
 66
     1
  2
USBLN1
 10
294.080008
 20
259.68744
 30
0.0
 41
1.6
 42
1.6
 43
1.6
  0
ATTRIB
  5
399
100
AcDbEntity
  8
0
100
AcDbText
 10
292.746675
 20
254.08744
 30
0.0
 40
11.2
  1
1
 72
     4
 11
294.080008
 21
259.68744
 31
0.0
100
AcDbAttribute
  2
X
 70
     0
  0
SEQEND
  5
39A
100
AcDbEntity
  8
1
  0
LWPOLYLINE
  5
39B
100
AcDbEntity
  8
1
100
AcDbPolyline
 90
        2
 70
     1
 43
2.5
 10
340.571976
 20
306.185024
 42
1.0
 10
343.071976
 20
306.185024
 42
1.0
  0
CIRCLE
  5
39F
100
AcDbEntity
  8
0
100
AcDbCircle
 10
336.958236
 20
501.102397
 30
0.0
 40
1.25
  0
CIRCLE
  5
3A0
100
AcDbEntity
  8
0
100
AcDbCircle
 10
334.458236
 20
501.102397
 30
0.0
 40
1.25
  0
CIRCLE
  5
3A1
100
AcDbEntity
  8
0
100
AcDbCircle
 10
331.958236
 20
501.102397
 30
0.0
 40
1.25
  0
CIRCLE
  5
3A2
100
AcDbEntity
  8
0
100
AcDbCircle
 10
342.709628
 20
495.565503
 30
0.0
 40
1.25
  0
CIRCLE
  5
3A3
100
AcDbEntity
  8
0
100
AcDbCircle
 10
340.209628
 20
495.565503
 30
0.0
 40
1.25
  0
CIRCLE
  5
3A4
100
AcDbEntity
  8
0
100
AcDbCircle
 10
337.709628
 20
495.565503
 30
0.0
 40
1.25
  0
CIRCLE
  5
3A5
100
AcDbEntity
  8
0
100
AcDbCircle
 10
335.209628
 20
495.565503
 30
0.0
 40
1.25
  0
CIRCLE
  5
3A6
100
AcDbEntity
  8
0
100
AcDbCircle
 10
332.709628
 20
495.565503
 30
0.0
 40
1.25
  0
CIRCLE
  5
3A7
100
AcDbEntity
  8
0
100
AcDbCircle
 10
330.209628
 20
495.565503
 30
0.0
 40
1.25
  0
CIRCLE
  5
3A8
100
AcDbEntity
  8
0
100
AcDbCircle
 10
327.709628
 20
495.565503
 30
0.0
 40
1.25
  0
CIRCLE
  5
3A9
100
AcDbEntity
  8
0
100
AcDbCircle
 10
331.958236
 20
398.25638
 30
0.0
 40
1.25
  0
CIRCLE
  5
3AA
100
AcDbEntity
  8
0
100
AcDbCircle
 10
334.458236
 20
398.25638
 30
0.0
 40
1.25
  0
CIRCLE
  5
3AB
100
AcDbEntity
  8
0
100
AcDbCircle
 10
336.958236
 20
398.25638
 30
0.0
 40
1.25
  0
CIRCLE
  5
3AC
100
AcDbEntity
  8
0
100
AcDbCircle
 10
313.241791
 20
449.679388
 30
0.0
 40
1.25
  0
CIRCLE
  5
3AD
100
AcDbEntity
  8
0
100
AcDbCircle
 10
315.741791
 20
449.679388
 30
0.0
 40
1.25
  0
CIRCLE
  5
3AE
100
AcDbEntity
  8
0
100
AcDbCircle
 10
318.241791
 20
449.679388
 30
0.0
 40
1.25
  0
CIRCLE
  5
3AF
100
AcDbEntity
  8
0
100
AcDbCircle
 10
320.741791
 20
449.679388
 30
0.0
 40
1.25
  0
CIRCLE
  5
3B0
100
AcDbEntity
  8
0
100
AcDbCircle
 10
323.241791
 20
449.679388
 30
0.0
 40
1.25
  0
CIRCLE
  5
3B1
100
AcDbEntity
  8
0
100
AcDbCircle
 10
325.741791
 20
449.679388
 30
0.0
 40
1.25
  0
CIRCLE
  5
3B2
100
AcDbEntity
  8
0
100
AcDbCircle
 10
328.241791
 20
449.679388
 30
0.0
 40
1.25
  0
CIRCLE
  5
3B3
100
AcDbEntity
  8
0
100
AcDbCircle
 10
330.741791
 20
449.679388
 30
0.0
 40
1.25
  0
CIRCLE
  5
3B4
100
AcDbEntity
  8
0
100
AcDbCircle
 10
333.241791
 20
449.679388
 30
0.0
 40
1.25
  0
CIRCLE
  5
3B5
100
AcDbEntity
  8
0
100
AcDbCircle
 10
335.741791
 20
449.679388
 30
0.0
 40
1.25
  0
CIRCLE
  5
3B6
100
AcDbEntity
  8
0
100
AcDbCircle
 10
338.241791
 20
449.679388
 30
0.0
 40
1.25
  0
CIRCLE
  5
3B7
100
AcDbEntity
  8
0
100
AcDbCircle
 10
340.741791
 20
449.679388
 30
0.0
 40
1.25
  0
CIRCLE
  5
3B8
100
AcDbEntity
  8
0
100
AcDbCircle
 10
343.241791
 20
449.679388
 30
0.0
 40
1.25
  0
CIRCLE
  5
3B9
100
AcDbEntity
  8
0
100
AcDbCircle
 10
345.741791
 20
449.679388
 30
0.0
 40
1.25
  0
CIRCLE
  5
3BA
100
AcDbEntity
  8
0
100
AcDbCircle
 10
348.241791
 20
449.679388
 30
0.0
 40
1.25
  0
CIRCLE
  5
3BB
100
AcDbEntity
  8
0
100
AcDbCircle
 10
350.741791
 20
449.679388
 30
0.0
 40
1.25
  0
CIRCLE
  5
3BC
100
AcDbEntity
  8
0
100
AcDbCircle
 10
353.241791
 20
449.679388
 30
0.0
 40
1.25
  0
CIRCLE
  5
3BD
100
AcDbEntity
  8
0
100
AcDbCircle
 10
355.741791
 20
449.679388
 30
0.0
 40
1.25
  0
CIRCLE
  5
3BE
100
AcDbEntity
  8
0
100
AcDbCircle
 10
358.241791
 20
449.679388
 30
0.0
 40
1.25
  0
CIRCLE
  5
3BF
100
AcDbEntity
  8
0
100
AcDbCircle
 10
360.741791
 20
449.679388
 30
0.0
 40
1.25
  0
CIRCLE
  5
3C0
100
AcDbEntity
  8
0
100
AcDbCircle
 10
363.241791
 20
449.679388
 30
0.0
 40
1.25
  0
CIRCLE
  5
3C1
100
AcDbEntity
  8
0
100
AcDbCircle
 10
365.741791
 20
449.679388
 30
0.0
 40
1.25
  0
CIRCLE
  5
3C2
100
AcDbEntity
  8
0
100
AcDbCircle
 10
368.241791
 20
449.679388
 30
0.0
 40
1.25
  0
CIRCLE
  5
3C3
100
AcDbEntity
  8
0
100
AcDbCircle
 10
370.741791
 20
449.679388
 30
0.0
 40
1.25
  0
CIRCLE
  5
3C4
100
AcDbEntity
  8
0
100
AcDbCircle
 10
373.241791
 20
449.679388
 30
0.0
 40
1.25
  0
CIRCLE
  5
3C5
100
AcDbEntity
  8
0
100
AcDbCircle
 10
375.741791
 20
449.679388
 30
0.0
 40
1.25
  0
CIRCLE
  5
3C6
100
AcDbEntity
  8
0
100
AcDbCircle
 10
378.241791
 20
449.679388
 30
0.0
 40
1.25
  0
CIRCLE
  5
3C7
100
AcDbEntity
  8
0
100
AcDbCircle
 10
380.741791
 20
449.679388
 30
0.0
 40
1.25
  0
CIRCLE
  5
3C8
100
AcDbEntity
  8
0
100
AcDbCircle
 10
383.241791
 20
449.679388
 30
0.0
 40
1.25
  0
CIRCLE
  5
3C9
100
AcDbEntity
  8
0
100
AcDbCircle
 10
388.241791
 20
449.679388
 30
0.0
 40
1.25
  0
CIRCLE
  5
3CA
100
AcDbEntity
  8
0
100
AcDbCircle
 10
385.741791
 20
449.679388
 30
0.0
 40
1.25
  0
CIRCLE
  5
3CB
100
AcDbEntity
  8
0
100
AcDbCircle
 10
313.546216
 20
442.706929
 30
0.0
 40
1.25
  0
CIRCLE
  5
3CC
100
AcDbEntity
  8
0
100
AcDbCircle
 10
316.046216
 20
442.706929
 30
0.0
 40
1.25
  0
CIRCLE
  5
3CD
100
AcDbEntity
  8
0
100
AcDbCircle
 10
318.546216
 20
442.706929
 30
0.0
 40
1.25
  0
CIRCLE
  5
3CE
100
AcDbEntity
  8
0
100
AcDbCircle
 10
321.046216
 20
442.706929
 30
0.0
 40
1.25
  0
CIRCLE
  5
3CF
100
AcDbEntity
  8
0
100
AcDbCircle
 10
323.546216
 20
442.706929
 30
0.0
 40
1.25
  0
CIRCLE
  5
3D0
100
AcDbEntity
  8
0
100
AcDbCircle
 10
326.046216
 20
442.706929
 30
0.0
 40
1.25
  0
CIRCLE
  5
3D1
100
AcDbEntity
  8
0
100
AcDbCircle
 10
328.546216
 20
442.706929
 30
0.0
 40
1.25
  0
CIRCLE
  5
3D2
100
AcDbEntity
  8
0
100
AcDbCircle
 10
331.046216
 20
442.706929
 30
0.0
 40
1.25
  0
CIRCLE
  5
3D3
100
AcDbEntity
  8
0
100
AcDbCircle
 10
333.546216
 20
442.706929
 30
0.0
 40
1.25
  0
CIRCLE
  5
3D4
100
AcDbEntity
  8
0
100
AcDbCircle
 10
336.046216
 20
442.706929
 30
0.0
 40
1.25
  0
CIRCLE
  5
3D5
100
AcDbEntity
  8
0
100
AcDbCircle
 10
338.546216
 20
442.706929
 30
0.0
 40
1.25
  0
CIRCLE
  5
3D6
100
AcDbEntity
  8
0
100
AcDbCircle
 10
341.046216
 20
442.706929
 30
0.0
 40
1.25
  0
CIRCLE
  5
3D7
100
AcDbEntity
  8
0
100
AcDbCircle
 10
343.546216
 20
442.706929
 30
0.0
 40
1.25
  0
CIRCLE
  5
3D8
100
AcDbEntity
  8
0
100
AcDbCircle
 10
346.046216
 20
442.706929
 30
0.0
 40
1.25
  0
CIRCLE
  5
3D9
100
AcDbEntity
  8
0
100
AcDbCircle
 10
348.546216
 20
442.706929
 30
0.0
 40
1.25
  0
CIRCLE
  5
3DA
100
AcDbEntity
  8
0
100
AcDbCircle
 10
351.046216
 20
442.706929
 30
0.0
 40
1.25
  0
CIRCLE
  5
3DB
100
AcDbEntity
  8
0
100
AcDbCircle
 10
353.546216
 20
442.706929
 30
0.0
 40
1.25
  0
CIRCLE
  5
3DC
100
AcDbEntity
  8
0
100
AcDbCircle
 10
356.046216
 20
442.706929
 30
0.0
 40
1.25
  0
CIRCLE
  5
3DD
100
AcDbEntity
  8
0
100
AcDbCircle
 10
358.546216
 20
442.706929
 30
0.0
 40
1.25
  0
CIRCLE
  5
3DE
100
AcDbEntity
  8
0
100
AcDbCircle
 10
361.046216
 20
442.706929
 30
0.0
 40
1.25
  0
CIRCLE
  5
3DF
100
AcDbEntity
  8
0
100
AcDbCircle
 10
363.546216
 20
442.706929
 30
0.0
 40
1.25
  0
CIRCLE
  5
3E0
100
AcDbEntity
  8
0
100
AcDbCircle
 10
366.046216
 20
442.706929
 30
0.0
 40
1.25
  0
CIRCLE
  5
3E1
100
AcDbEntity
  8
0
100
AcDbCircle
 10
368.546216
 20
442.706929
 30
0.0
 40
1.25
  0
CIRCLE
  5
3E2
100
AcDbEntity
  8
0
100
AcDbCircle
 10
371.046216
 20
442.706929
 30
0.0
 40
1.25
  0
CIRCLE
  5
3E3
100
AcDbEntity
  8
0
100
AcDbCircle
 10
373.546216
 20
442.706929
 30
0.0
 40
1.25
  0
CIRCLE
  5
3E4
100
AcDbEntity
  8
0
100
AcDbCircle
 10
376.046216
 20
442.706929
 30
0.0
 40
1.25
  0
CIRCLE
  5
3E5
100
AcDbEntity
  8
0
100
AcDbCircle
 10
378.546216
 20
442.706929
 30
0.0
 40
1.25
  0
CIRCLE
  5
3E6
100
AcDbEntity
  8
0
100
AcDbCircle
 10
381.046216
 20
442.706929
 30
0.0
 40
1.25
  0
CIRCLE
  5
3E7
100
AcDbEntity
  8
0
100
AcDbCircle
 10
314.457171
 20
435.787534
 30
0.0
 40
1.25
  0
CIRCLE
  5
3E8
100
AcDbEntity
  8
0
100
AcDbCircle
 10
316.957171
 20
435.787534
 30
0.0
 40
1.25
  0
CIRCLE
  5
3E9
100
AcDbEntity
  8
0
100
AcDbCircle
 10
319.457171
 20
435.787534
 30
0.0
 40
1.25
  0
CIRCLE
  5
3EA
100
AcDbEntity
  8
0
100
AcDbCircle
 10
321.957171
 20
435.787534
 30
0.0
 40
1.25
  0
CIRCLE
  5
3EB
100
AcDbEntity
  8
0
100
AcDbCircle
 10
324.457171
 20
435.787534
 30
0.0
 40
1.25
  0
CIRCLE
  5
3EC
100
AcDbEntity
  8
0
100
AcDbCircle
 10
326.957171
 20
435.787534
 30
0.0
 40
1.25
  0
CIRCLE
  5
3ED
100
AcDbEntity
  8
0
100
AcDbCircle
 10
329.457171
 20
435.787534
 30
0.0
 40
1.25
  0
CIRCLE
  5
3EE
100
AcDbEntity
  8
0
100
AcDbCircle
 10
331.957171
 20
435.787534
 30
0.0
 40
1.25
  0
CIRCLE
  5
3EF
100
AcDbEntity
  8
0
100
AcDbCircle
 10
334.457171
 20
435.787534
 30
0.0
 40
1.25
  0
CIRCLE
  5
3F0
100
AcDbEntity
  8
0
100
AcDbCircle
 10
336.957171
 20
435.787534
 30
0.0
 40
1.25
  0
CIRCLE
  5
3F1
100
AcDbEntity
  8
0
100
AcDbCircle
 10
339.457171
 20
435.787534
 30
0.0
 40
1.25
  0
CIRCLE
  5
3F2
100
AcDbEntity
  8
0
100
AcDbCircle
 10
341.957171
 20
435.787534
 30
0.0
 40
1.25
  0
CIRCLE
  5
3F3
100
AcDbEntity
  8
0
100
AcDbCircle
 10
344.457171
 20
435.787534
 30
0.0
 40
1.25
  0
CIRCLE
  5
3F4
100
AcDbEntity
  8
0
100
AcDbCircle
 10
346.957171
 20
435.787534
 30
0.0
 40
1.25
  0
CIRCLE
  5
3F5
100
AcDbEntity
  8
0
100
AcDbCircle
 10
349.457171
 20
435.787534
 30
0.0
 40
1.25
  0
CIRCLE
  5
3F6
100
AcDbEntity
  8
0
100
AcDbCircle
 10
351.957171
 20
435.787534
 30
0.0
 40
1.25
  0
CIRCLE
  5
3F7
100
AcDbEntity
  8
0
100
AcDbCircle
 10
354.457171
 20
435.787534
 30
0.0
 40
1.25
  0
CIRCLE
  5
3F8
100
AcDbEntity
  8
0
100
AcDbCircle
 10
356.957171
 20
435.787534
 30
0.0
 40
1.25
  0
CIRCLE
  5
3F9
100
AcDbEntity
  8
0
100
AcDbCircle
 10
359.457171
 20
435.787534
 30
0.0
 40
1.25
  0
CIRCLE
  5
3FA
100
AcDbEntity
  8
0
100
AcDbCircle
 10
361.957171
 20
435.787534
 30
0.0
 40
1.25
  0
CIRCLE
  5
3FB
100
AcDbEntity
  8
0
100
AcDbCircle
 10
364.457171
 20
435.787534
 30
0.0
 40
1.25
  0
CIRCLE
  5
3FC
100
AcDbEntity
  8
0
100
AcDbCircle
 10
366.957171
 20
435.787534
 30
0.0
 40
1.25
  0
CIRCLE
  5
3FD
100
AcDbEntity
  8
0
100
AcDbCircle
 10
369.457171
 20
435.787534
 30
0.0
 40
1.25
  0
CIRCLE
  5
3FE
100
AcDbEntity
  8
0
100
AcDbCircle
 10
371.957171
 20
435.787534
 30
0.0
 40
1.25
  0
CIRCLE
  5
3FF
100
AcDbEntity
  8
0
100
AcDbCircle
 10
374.457171
 20
435.787534
 30
0.0
 40
1.25
  0
CIRCLE
  5
400
100
AcDbEntity
  8
0
100
AcDbCircle
 10
315.967725
 20
428.973865
 30
0.0
 40
1.25
  0
CIRCLE
  5
401
100
AcDbEntity
  8
0
100
AcDbCircle
 10
318.467725
 20
428.973865
 30
0.0
 40
1.25
  0
CIRCLE
  5
402
100
AcDbEntity
  8
0
100
AcDbCircle
 10
320.967725
 20
428.973865
 30
0.0
 40
1.25
  0
CIRCLE
  5
403
100
AcDbEntity
  8
0
100
AcDbCircle
 10
323.467725
 20
428.973865
 30
0.0
 40
1.25
  0
CIRCLE
  5
404
100
AcDbEntity
  8
0
100
AcDbCircle
 10
325.967725
 20
428.973865
 30
0.0
 40
1.25
  0
CIRCLE
  5
405
100
AcDbEntity
  8
0
100
AcDbCircle
 10
328.467725
 20
428.973865
 30
0.0
 40
1.25
  0
CIRCLE
  5
406
100
AcDbEntity
  8
0
100
AcDbCircle
 10
330.967725
 20
428.973865
 30
0.0
 40
1.25
  0
CIRCLE
  5
407
100
AcDbEntity
  8
0
100
AcDbCircle
 10
333.467725
 20
428.973865
 30
0.0
 40
1.25
  0
CIRCLE
  5
408
100
AcDbEntity
  8
0
100
AcDbCircle
 10
335.967725
 20
428.973865
 30
0.0
 40
1.25
  0
CIRCLE
  5
409
100
AcDbEntity
  8
0
100
AcDbCircle
 10
338.467725
 20
428.973865
 30
0.0
 40
1.25
  0
CIRCLE
  5
40A
100
AcDbEntity
  8
0
100
AcDbCircle
 10
340.967725
 20
428.973865
 30
0.0
 40
1.25
  0
CIRCLE
  5
40B
100
AcDbEntity
  8
0
100
AcDbCircle
 10
343.467725
 20
428.973865
 30
0.0
 40
1.25
  0
CIRCLE
  5
40C
100
AcDbEntity
  8
0
100
AcDbCircle
 10
345.967725
 20
428.973865
 30
0.0
 40
1.25
  0
CIRCLE
  5
40D
100
AcDbEntity
  8
0
100
AcDbCircle
 10
348.467725
 20
428.973865
 30
0.0
 40
1.25
  0
CIRCLE
  5
40E
100
AcDbEntity
  8
0
100
AcDbCircle
 10
350.967725
 20
428.973865
 30
0.0
 40
1.25
  0
CIRCLE
  5
40F
100
AcDbEntity
  8
0
100
AcDbCircle
 10
353.467725
 20
428.973865
 30
0.0
 40
1.25
  0
CIRCLE
  5
410
100
AcDbEntity
  8
0
100
AcDbCircle
 10
355.967725
 20
428.973865
 30
0.0
 40
1.25
  0
CIRCLE
  5
411
100
AcDbEntity
  8
0
100
AcDbCircle
 10
358.467725
 20
428.973865
 30
0.0
 40
1.25
  0
CIRCLE
  5
412
100
AcDbEntity
  8
0
100
AcDbCircle
 10
360.967725
 20
428.973865
 30
0.0
 40
1.25
  0
CIRCLE
  5
413
100
AcDbEntity
  8
0
100
AcDbCircle
 10
368.467725
 20
428.973865
 30
0.0
 40
1.25
  0
CIRCLE
  5
414
100
AcDbEntity
  8
0
100
AcDbCircle
 10
365.967725
 20
428.973865
 30
0.0
 40
1.25
  0
CIRCLE
  5
415
100
AcDbEntity
  8
0
100
AcDbCircle
 10
363.467725
 20
428.973865
 30
0.0
 40
1.25
  0
CIRCLE
  5
416
100
AcDbEntity
  8
0
100
AcDbCircle
 10
318.066382
 20
422.317777
 30
0.0
 40
1.25
  0
CIRCLE
  5
417
100
AcDbEntity
  8
0
100
AcDbCircle
 10
320.566382
 20
422.317777
 30
0.0
 40
1.25
  0
CIRCLE
  5
418
100
AcDbEntity
  8
0
100
AcDbCircle
 10
323.066382
 20
422.317777
 30
0.0
 40
1.25
  0
CIRCLE
  5
419
100
AcDbEntity
  8
0
100
AcDbCircle
 10
325.566382
 20
422.317777
 30
0.0
 40
1.25
  0
CIRCLE
  5
41A
100
AcDbEntity
  8
0
100
AcDbCircle
 10
328.066382
 20
422.317777
 30
0.0
 40
1.25
  0
CIRCLE
  5
41B
100
AcDbEntity
  8
0
100
AcDbCircle
 10
330.566382
 20
422.317777
 30
0.0
 40
1.25
  0
CIRCLE
  5
41C
100
AcDbEntity
  8
0
100
AcDbCircle
 10
333.066382
 20
422.317777
 30
0.0
 40
1.25
  0
CIRCLE
  5
41D
100
AcDbEntity
  8
0
100
AcDbCircle
 10
335.566382
 20
422.317777
 30
0.0
 40
1.25
  0
CIRCLE
  5
41E
100
AcDbEntity
  8
0
100
AcDbCircle
 10
338.066382
 20
422.317777
 30
0.0
 40
1.25
  0
CIRCLE
  5
41F
100
AcDbEntity
  8
0
100
AcDbCircle
 10
340.566382
 20
422.317777
 30
0.0
 40
1.25
  0
CIRCLE
  5
420
100
AcDbEntity
  8
0
100
AcDbCircle
 10
343.066382
 20
422.317777
 30
0.0
 40
1.25
  0
CIRCLE
  5
421
100
AcDbEntity
  8
0
100
AcDbCircle
 10
345.566382
 20
422.317777
 30
0.0
 40
1.25
  0
CIRCLE
  5
422
100
AcDbEntity
  8
0
100
AcDbCircle
 10
348.066382
 20
422.317777
 30
0.0
 40
1.25
  0
CIRCLE
  5
423
100
AcDbEntity
  8
0
100
AcDbCircle
 10
350.566382
 20
422.317777
 30
0.0
 40
1.25
  0
CIRCLE
  5
424
100
AcDbEntity
  8
0
100
AcDbCircle
 10
353.066382
 20
422.317777
 30
0.0
 40
1.25
  0
CIRCLE
  5
425
100
AcDbEntity
  8
0
100
AcDbCircle
 10
355.566382
 20
422.317777
 30
0.0
 40
1.25
  0
CIRCLE
  5
426
100
AcDbEntity
  8
0
100
AcDbCircle
 10
358.066382
 20
422.317777
 30
0.0
 40
1.25
  0
CIRCLE
  5
427
100
AcDbEntity
  8
0
100
AcDbCircle
 10
360.566382
 20
422.317777
 30
0.0
 40
1.25
  0
CIRCLE
  5
428
100
AcDbEntity
  8
0
100
AcDbCircle
 10
363.066382
 20
422.317777
 30
0.0
 40
1.25
  0
CIRCLE
  5
429
100
AcDbEntity
  8
0
100
AcDbCircle
 10
320.737169
 20
415.869927
 30
0.0
 40
1.25
  0
CIRCLE
  5
42A
100
AcDbEntity
  8
0
100
AcDbCircle
 10
323.237169
 20
415.869927
 30
0.0
 40
1.25
  0
CIRCLE
  5
42B
100
AcDbEntity
  8
0
100
AcDbCircle
 10
325.737169
 20
415.869927
 30
0.0
 40
1.25
  0
CIRCLE
  5
42C
100
AcDbEntity
  8
0
100
AcDbCircle
 10
328.237169
 20
415.869927
 30
0.0
 40
1.25
  0
CIRCLE
  5
42D
100
AcDbEntity
  8
0
100
AcDbCircle
 10
330.737169
 20
415.869927
 30
0.0
 40
1.25
  0
CIRCLE
  5
42E
100
AcDbEntity
  8
0
100
AcDbCircle
 10
333.237169
 20
415.869927
 30
0.0
 40
1.25
  0
CIRCLE
  5
42F
100
AcDbEntity
  8
0
100
AcDbCircle
 10
335.737169
 20
415.869927
 30
0.0
 40
1.25
  0
CIRCLE
  5
430
100
AcDbEntity
  8
0
100
AcDbCircle
 10
338.237169
 20
415.869927
 30
0.0
 40
1.25
  0
CIRCLE
  5
431
100
AcDbEntity
  8
0
100
AcDbCircle
 10
340.737169
 20
415.869927
 30
0.0
 40
1.25
  0
CIRCLE
  5
432
100
AcDbEntity
  8
0
100
AcDbCircle
 10
343.237169
 20
415.869927
 30
0.0
 40
1.25
  0
CIRCLE
  5
433
100
AcDbEntity
  8
0
100
AcDbCircle
 10
345.737169
 20
415.869927
 30
0.0
 40
1.25
  0
CIRCLE
  5
434
100
AcDbEntity
  8
0
100
AcDbCircle
 10
348.237169
 20
415.869927
 30
0.0
 40
1.25
  0
CIRCLE
  5
435
100
AcDbEntity
  8
0
100
AcDbCircle
 10
350.737169
 20
415.869927
 30
0.0
 40
1.25
  0
CIRCLE
  5
436
100
AcDbEntity
  8
0
100
AcDbCircle
 10
353.237169
 20
415.869927
 30
0.0
 40
1.25
  0
CIRCLE
  5
437
100
AcDbEntity
  8
0
100
AcDbCircle
 10
355.737169
 20
415.869927
 30
0.0
 40
1.25
  0
CIRCLE
  5
438
100
AcDbEntity
  8
0
100
AcDbCircle
 10
323.959759
 20
409.679388
 30
0.0
 40
1.25
  0
CIRCLE
  5
439
100
AcDbEntity
  8
0
100
AcDbCircle
 10
326.459759
 20
409.679388
 30
0.0
 40
1.25
  0
CIRCLE
  5
43A
100
AcDbEntity
  8
0
100
AcDbCircle
 10
328.959759
 20
409.679388
 30
0.0
 40
1.25
  0
CIRCLE
  5
43B
100
AcDbEntity
  8
0
100
AcDbCircle
 10
331.459759
 20
409.679388
 30
0.0
 40
1.25
  0
CIRCLE
  5
43C
100
AcDbEntity
  8
0
100
AcDbCircle
 10
333.959759
 20
409.679388
 30
0.0
 40
1.25
  0
CIRCLE
  5
43D
100
AcDbEntity
  8
0
100
AcDbCircle
 10
336.459759
 20
409.679388
 30
0.0
 40
1.25
  0
CIRCLE
  5
43E
100
AcDbEntity
  8
0
100
AcDbCircle
 10
338.959759
 20
409.679388
 30
0.0
 40
1.25
  0
CIRCLE
  5
43F
100
AcDbEntity
  8
0
100
AcDbCircle
 10
341.459759
 20
409.679388
 30
0.0
 40
1.25
  0
CIRCLE
  5
440
100
AcDbEntity
  8
0
100
AcDbCircle
 10
343.959759
 20
409.679388
 30
0.0
 40
1.25
  0
CIRCLE
  5
441
100
AcDbEntity
  8
0
100
AcDbCircle
 10
346.459759
 20
409.679388
 30
0.0
 40
1.25
  0
CIRCLE
  5
442
100
AcDbEntity
  8
0
100
AcDbCircle
 10
348.959759
 20
409.679388
 30
0.0
 40
1.25
  0
CIRCLE
  5
443
100
AcDbEntity
  8
0
100
AcDbCircle
 10
327.709628
 20
403.793273
 30
0.0
 40
1.25
  0
CIRCLE
  5
444
100
AcDbEntity
  8
0
100
AcDbCircle
 10
330.209628
 20
403.793273
 30
0.0
 40
1.25
  0
CIRCLE
  5
445
100
AcDbEntity
  8
0
100
AcDbCircle
 10
332.709628
 20
403.793273
 30
0.0
 40
1.25
  0
CIRCLE
  5
446
100
AcDbEntity
  8
0
100
AcDbCircle
 10
335.209628
 20
403.793273
 30
0.0
 40
1.25
  0
CIRCLE
  5
447
100
AcDbEntity
  8
0
100
AcDbCircle
 10
337.709628
 20
403.793273
 30
0.0
 40
1.25
  0
CIRCLE
  5
448
100
AcDbEntity
  8
0
100
AcDbCircle
 10
340.209628
 20
403.793273
 30
0.0
 40
1.25
  0
CIRCLE
  5
449
100
AcDbEntity
  8
0
100
AcDbCircle
 10
342.709628
 20
403.793273
 30
0.0
 40
1.25
  0
CIRCLE
  5
44A
100
AcDbEntity
  8
0
100
AcDbCircle
 10
348.959759
 20
489.679388
 30
0.0
 40
1.25
  0
CIRCLE
  5
44B
100
AcDbEntity
  8
0
100
AcDbCircle
 10
346.459759
 20
489.679388
 30
0.0
 40
1.25
  0
CIRCLE
  5
44C
100
AcDbEntity
  8
0
100
AcDbCircle
 10
343.959759
 20
489.679388
 30
0.0
 40
1.25
  0
CIRCLE
  5
44D
100
AcDbEntity
  8
0
100
AcDbCircle
 10
341.459759
 20
489.679388
 30
0.0
 40
1.25
  0
CIRCLE
  5
44E
100
AcDbEntity
  8
0
100
AcDbCircle
 10
338.959759
 20
489.679388
 30
0.0
 40
1.25
  0
CIRCLE
  5
44F
100
AcDbEntity
  8
0
100
AcDbCircle
 10
336.459759
 20
489.679388
 30
0.0
 40
1.25
  0
CIRCLE
  5
450
100
AcDbEntity
  8
0
100
AcDbCircle
 10
333.959759
 20
489.679388
 30
0.0
 40
1.25
  0
CIRCLE
  5
451
100
AcDbEntity
  8
0
100
AcDbCircle
 10
331.459759
 20
489.679388
 30
0.0
 40
1.25
  0
CIRCLE
  5
452
100
AcDbEntity
  8
0
100
AcDbCircle
 10
328.959759
 20
489.679388
 30
0.0
 40
1.25
  0
CIRCLE
  5
453
100
AcDbEntity
  8
0
100
AcDbCircle
 10
326.459759
 20
489.679388
 30
0.0
 40
1.25
  0
CIRCLE
  5
454
100
AcDbEntity
  8
0
100
AcDbCircle
 10
323.959759
 20
489.679388
 30
0.0
 40
1.25
  0
CIRCLE
  5
455
100
AcDbEntity
  8
0
100
AcDbCircle
 10
355.737169
 20
483.488849
 30
0.0
 40
1.25
  0
CIRCLE
  5
456
100
AcDbEntity
  8
0
100
AcDbCircle
 10
353.237169
 20
483.488849
 30
0.0
 40
1.25
  0
CIRCLE
  5
457
100
AcDbEntity
  8
0
100
AcDbCircle
 10
350.737169
 20
483.488849
 30
0.0
 40
1.25
  0
CIRCLE
  5
458
100
AcDbEntity
  8
0
100
AcDbCircle
 10
348.237169
 20
483.488849
 30
0.0
 40
1.25
  0
CIRCLE
  5
459
100
AcDbEntity
  8
0
100
AcDbCircle
 10
345.737169
 20
483.488849
 30
0.0
 40
1.25
  0
CIRCLE
  5
45A
100
AcDbEntity
  8
0
100
AcDbCircle
 10
343.237169
 20
483.488849
 30
0.0
 40
1.25
  0
CIRCLE
  5
45B
100
AcDbEntity
  8
0
100
AcDbCircle
 10
340.737169
 20
483.488849
 30
0.0
 40
1.25
  0
CIRCLE
  5
45C
100
AcDbEntity
  8
0
100
AcDbCircle
 10
338.237169
 20
483.488849
 30
0.0
 40
1.25
  0
CIRCLE
  5
45D
100
AcDbEntity
  8
0
100
AcDbCircle
 10
335.737169
 20
483.488849
 30
0.0
 40
1.25
  0
CIRCLE
  5
45E
100
AcDbEntity
  8
0
100
AcDbCircle
 10
333.237169
 20
483.488849
 30
0.0
 40
1.25
  0
CIRCLE
  5
45F
100
AcDbEntity
  8
0
100
AcDbCircle
 10
330.737169
 20
483.488849
 30
0.0
 40
1.25
  0
CIRCLE
  5
460
100
AcDbEntity
  8
0
100
AcDbCircle
 10
328.237169
 20
483.488849
 30
0.0
 40
1.25
  0
CIRCLE
  5
461
100
AcDbEntity
  8
0
100
AcDbCircle
 10
325.737169
 20
483.488849
 30
0.0
 40
1.25
  0
CIRCLE
  5
462
100
AcDbEntity
  8
0
100
AcDbCircle
 10
323.237169
 20
483.488849
 30
0.0
 40
1.25
  0
CIRCLE
  5
463
100
AcDbEntity
  8
0
100
AcDbCircle
 10
320.737169
 20
483.488849
 30
0.0
 40
1.25
  0
CIRCLE
  5
464
100
AcDbEntity
  8
0
100
AcDbCircle
 10
363.066382
 20
477.041
 30
0.0
 40
1.25
  0
CIRCLE
  5
465
100
AcDbEntity
  8
0
100
AcDbCircle
 10
360.566382
 20
477.041
 30
0.0
 40
1.25
  0
CIRCLE
  5
466
100
AcDbEntity
  8
0
100
AcDbCircle
 10
358.066382
 20
477.041
 30
0.0
 40
1.25
  0
CIRCLE
  5
467
100
AcDbEntity
  8
0
100
AcDbCircle
 10
355.566382
 20
477.041
 30
0.0
 40
1.25
  0
CIRCLE
  5
468
100
AcDbEntity
  8
0
100
AcDbCircle
 10
353.066382
 20
477.041
 30
0.0
 40
1.25
  0
CIRCLE
  5
469
100
AcDbEntity
  8
0
100
AcDbCircle
 10
350.566382
 20
477.041
 30
0.0
 40
1.25
  0
CIRCLE
  5
46A
100
AcDbEntity
  8
0
100
AcDbCircle
 10
348.066382
 20
477.041
 30
0.0
 40
1.25
  0
CIRCLE
  5
46B
100
AcDbEntity
  8
0
100
AcDbCircle
 10
345.566382
 20
477.041
 30
0.0
 40
1.25
  0
CIRCLE
  5
46C
100
AcDbEntity
  8
0
100
AcDbCircle
 10
343.066382
 20
477.041
 30
0.0
 40
1.25
  0
CIRCLE
  5
46D
100
AcDbEntity
  8
0
100
AcDbCircle
 10
340.566382
 20
477.041
 30
0.0
 40
1.25
  0
CIRCLE
  5
46E
100
AcDbEntity
  8
0
100
AcDbCircle
 10
338.066382
 20
477.041
 30
0.0
 40
1.25
  0
CIRCLE
  5
46F
100
AcDbEntity
  8
0
100
AcDbCircle
 10
335.566382
 20
477.041
 30
0.0
 40
1.25
  0
CIRCLE
  5
470
100
AcDbEntity
  8
0
100
AcDbCircle
 10
333.066382
 20
477.041
 30
0.0
 40
1.25
  0
CIRCLE
  5
471
100
AcDbEntity
  8
0
100
AcDbCircle
 10
330.566382
 20
477.041
 30
0.0
 40
1.25
  0
CIRCLE
  5
472
100
AcDbEntity
  8
0
100
AcDbCircle
 10
328.066382
 20
477.041
 30
0.0
 40
1.25
  0
CIRCLE
  5
473
100
AcDbEntity
  8
0
100
AcDbCircle
 10
325.566382
 20
477.041
 30
0.0
 40
1.25
  0
CIRCLE
  5
474
100
AcDbEntity
  8
0
100
AcDbCircle
 10
323.066382
 20
477.041
 30
0.0
 40
1.25
  0
CIRCLE
  5
475
100
AcDbEntity
  8
0
100
AcDbCircle
 10
320.566382
 20
477.041
 30
0.0
 40
1.25
  0
CIRCLE
  5
476
100
AcDbEntity
  8
0
100
AcDbCircle
 10
318.066382
 20
477.041
 30
0.0
 40
1.25
  0
CIRCLE
  5
477
100
AcDbEntity
  8
0
100
AcDbCircle
 10
363.467725
 20
470.384912
 30
0.0
 40
1.25
  0
CIRCLE
  5
478
100
AcDbEntity
  8
0
100
AcDbCircle
 10
365.967725
 20
470.384912
 30
0.0
 40
1.25
  0
CIRCLE
  5
479
100
AcDbEntity
  8
0
100
AcDbCircle
 10
368.467725
 20
470.384912
 30
0.0
 40
1.25
  0
CIRCLE
  5
47A
100
AcDbEntity
  8
0
100
AcDbCircle
 10
360.967725
 20
470.384912
 30
0.0
 40
1.25
  0
CIRCLE
  5
47B
100
AcDbEntity
  8
0
100
AcDbCircle
 10
358.467725
 20
470.384912
 30
0.0
 40
1.25
  0
CIRCLE
  5
47C
100
AcDbEntity
  8
0
100
AcDbCircle
 10
355.967725
 20
470.384912
 30
0.0
 40
1.25
  0
CIRCLE
  5
47D
100
AcDbEntity
  8
0
100
AcDbCircle
 10
353.467725
 20
470.384912
 30
0.0
 40
1.25
  0
CIRCLE
  5
47E
100
AcDbEntity
  8
0
100
AcDbCircle
 10
350.967725
 20
470.384912
 30
0.0
 40
1.25
  0
CIRCLE
  5
47F
100
AcDbEntity
  8
0
100
AcDbCircle
 10
348.467725
 20
470.384912
 30
0.0
 40
1.25
  0
CIRCLE
  5
480
100
AcDbEntity
  8
0
100
AcDbCircle
 10
345.967725
 20
470.384912
 30
0.0
 40
1.25
  0
CIRCLE
  5
481
100
AcDbEntity
  8
0
100
AcDbCircle
 10
343.467725
 20
470.384912
 30
0.0
 40
1.25
  0
CIRCLE
  5
482
100
AcDbEntity
  8
0
100
AcDbCircle
 10
340.967725
 20
470.384912
 30
0.0
 40
1.25
  0
CIRCLE
  5
483
100
AcDbEntity
  8
0
100
AcDbCircle
 10
338.467725
 20
470.384912
 30
0.0
 40
1.25
  0
CIRCLE
  5
484
100
AcDbEntity
  8
0
100
AcDbCircle
 10
335.967725
 20
470.384912
 30
0.0
 40
1.25
  0
CIRCLE
  5
485
100
AcDbEntity
  8
0
100
AcDbCircle
 10
333.467725
 20
470.384912
 30
0.0
 40
1.25
  0
CIRCLE
  5
486
100
AcDbEntity
  8
0
100
AcDbCircle
 10
330.967725
 20
470.384912
 30
0.0
 40
1.25
  0
CIRCLE
  5
487
100
AcDbEntity
  8
0
100
AcDbCircle
 10
328.467725
 20
470.384912
 30
0.0
 40
1.25
  0
CIRCLE
  5
488
100
AcDbEntity
  8
0
100
AcDbCircle
 10
325.967725
 20
470.384912
 30
0.0
 40
1.25
  0
CIRCLE
  5
489
100
AcDbEntity
  8
0
100
AcDbCircle
 10
323.467725
 20
470.384912
 30
0.0
 40
1.25
  0
CIRCLE
  5
48A
100
AcDbEntity
  8
0
100
AcDbCircle
 10
320.967725
 20
470.384912
 30
0.0
 40
1.25
  0
CIRCLE
  5
48B
100
AcDbEntity
  8
0
100
AcDbCircle
 10
318.467725
 20
470.384912
 30
0.0
 40
1.25
  0
CIRCLE
  5
48C
100
AcDbEntity
  8
0
100
AcDbCircle
 10
315.967725
 20
470.384912
 30
0.0
 40
1.25
  0
CIRCLE
  5
48D
100
AcDbEntity
  8
0
100
AcDbCircle
 10
374.457171
 20
463.571243
 30
0.0
 40
1.25
  0
CIRCLE
  5
48E
100
AcDbEntity
  8
0
100
AcDbCircle
 10
371.957171
 20
463.571243
 30
0.0
 40
1.25
  0
CIRCLE
  5
48F
100
AcDbEntity
  8
0
100
AcDbCircle
 10
369.457171
 20
463.571243
 30
0.0
 40
1.25
  0
CIRCLE
  5
490
100
AcDbEntity
  8
0
100
AcDbCircle
 10
366.957171
 20
463.571243
 30
0.0
 40
1.25
  0
CIRCLE
  5
491
100
AcDbEntity
  8
0
100
AcDbCircle
 10
364.457171
 20
463.571243
 30
0.0
 40
1.25
  0
CIRCLE
  5
492
100
AcDbEntity
  8
0
100
AcDbCircle
 10
361.957171
 20
463.571243
 30
0.0
 40
1.25
  0
CIRCLE
  5
493
100
AcDbEntity
  8
0
100
AcDbCircle
 10
359.457171
 20
463.571243
 30
0.0
 40
1.25
  0
CIRCLE
  5
494
100
AcDbEntity
  8
0
100
AcDbCircle
 10
356.957171
 20
463.571243
 30
0.0
 40
1.25
  0
CIRCLE
  5
495
100
AcDbEntity
  8
0
100
AcDbCircle
 10
354.457171
 20
463.571243
 30
0.0
 40
1.25
  0
CIRCLE
  5
496
100
AcDbEntity
  8
0
100
AcDbCircle
 10
351.957171
 20
463.571243
 30
0.0
 40
1.25
  0
CIRCLE
  5
497
100
AcDbEntity
  8
0
100
AcDbCircle
 10
349.457171
 20
463.571243
 30
0.0
 40
1.25
  0
CIRCLE
  5
498
100
AcDbEntity
  8
0
100
AcDbCircle
 10
346.957171
 20
463.571243
 30
0.0
 40
1.25
  0
CIRCLE
  5
499
100
AcDbEntity
  8
0
100
AcDbCircle
 10
344.457171
 20
463.571243
 30
0.0
 40
1.25
  0
CIRCLE
  5
49A
100
AcDbEntity
  8
0
100
AcDbCircle
 10
341.957171
 20
463.571243
 30
0.0
 40
1.25
  0
CIRCLE
  5
49B
100
AcDbEntity
  8
0
100
AcDbCircle
 10
339.457171
 20
463.571243
 30
0.0
 40
1.25
  0
CIRCLE
  5
49C
100
AcDbEntity
  8
0
100
AcDbCircle
 10
336.957171
 20
463.571243
 30
0.0
 40
1.25
  0
CIRCLE
  5
49D
100
AcDbEntity
  8
0
100
AcDbCircle
 10
334.457171
 20
463.571243
 30
0.0
 40
1.25
  0
CIRCLE
  5
49E
100
AcDbEntity
  8
0
100
AcDbCircle
 10
331.957171
 20
463.571243
 30
0.0
 40
1.25
  0
CIRCLE
  5
49F
100
AcDbEntity
  8
0
100
AcDbCircle
 10
329.457171
 20
463.571243
 30
0.0
 40
1.25
  0
CIRCLE
  5
4A0
100
AcDbEntity
  8
0
100
AcDbCircle
 10
326.957171
 20
463.571243
 30
0.0
 40
1.25
  0
CIRCLE
  5
4A1
100
AcDbEntity
  8
0
100
AcDbCircle
 10
324.457171
 20
463.571243
 30
0.0
 40
1.25
  0
CIRCLE
  5
4A2
100
AcDbEntity
  8
0
100
AcDbCircle
 10
321.957171
 20
463.571243
 30
0.0
 40
1.25
  0
CIRCLE
  5
4A3
100
AcDbEntity
  8
0
100
AcDbCircle
 10
319.457171
 20
463.571243
 30
0.0
 40
1.25
  0
CIRCLE
  5
4A4
100
AcDbEntity
  8
0
100
AcDbCircle
 10
316.957171
 20
463.571243
 30
0.0
 40
1.25
  0
CIRCLE
  5
4A5
100
AcDbEntity
  8
0
100
AcDbCircle
 10
314.457171
 20
463.571243
 30
0.0
 40
1.25
  0
CIRCLE
  5
4A6
100
AcDbEntity
  8
0
100
AcDbCircle
 10
381.046216
 20
456.651848
 30
0.0
 40
1.25
  0
CIRCLE
  5
4A7
100
AcDbEntity
  8
0
100
AcDbCircle
 10
378.546216
 20
456.651848
 30
0.0
 40
1.25
  0
CIRCLE
  5
4A8
100
AcDbEntity
  8
0
100
AcDbCircle
 10
376.046216
 20
456.651848
 30
0.0
 40
1.25
  0
CIRCLE
  5
4A9
100
AcDbEntity
  8
0
100
AcDbCircle
 10
373.546216
 20
456.651848
 30
0.0
 40
1.25
  0
CIRCLE
  5
4AA
100
AcDbEntity
  8
0
100
AcDbCircle
 10
371.046216
 20
456.651848
 30
0.0
 40
1.25
  0
CIRCLE
  5
4AB
100
AcDbEntity
  8
0
100
AcDbCircle
 10
368.546216
 20
456.651848
 30
0.0
 40
1.25
  0
CIRCLE
  5
4AC
100
AcDbEntity
  8
0
100
AcDbCircle
 10
366.046216
 20
456.651848
 30
0.0
 40
1.25
  0
CIRCLE
  5
4AD
100
AcDbEntity
  8
0
100
AcDbCircle
 10
363.546216
 20
456.651848
 30
0.0
 40
1.25
  0
CIRCLE
  5
4AE
100
AcDbEntity
  8
0
100
AcDbCircle
 10
361.046216
 20
456.651848
 30
0.0
 40
1.25
  0
CIRCLE
  5
4AF
100
AcDbEntity
  8
0
100
AcDbCircle
 10
358.546216
 20
456.651848
 30
0.0
 40
1.25
  0
CIRCLE
  5
4B0
100
AcDbEntity
  8
0
100
AcDbCircle
 10
356.046216
 20
456.651848
 30
0.0
 40
1.25
  0
CIRCLE
  5
4B1
100
AcDbEntity
  8
0
100
AcDbCircle
 10
353.546216
 20
456.651848
 30
0.0
 40
1.25
  0
CIRCLE
  5
4B2
100
AcDbEntity
  8
0
100
AcDbCircle
 10
351.046216
 20
456.651848
 30
0.0
 40
1.25
  0
CIRCLE
  5
4B3
100
AcDbEntity
  8
0
100
AcDbCircle
 10
348.546216
 20
456.651848
 30
0.0
 40
1.25
  0
CIRCLE
  5
4B4
100
AcDbEntity
  8
0
100
AcDbCircle
 10
346.046216
 20
456.651848
 30
0.0
 40
1.25
  0
CIRCLE
  5
4B5
100
AcDbEntity
  8
0
100
AcDbCircle
 10
343.546216
 20
456.651848
 30
0.0
 40
1.25
  0
CIRCLE
  5
4B6
100
AcDbEntity
  8
0
100
AcDbCircle
 10
341.046216
 20
456.651848
 30
0.0
 40
1.25
  0
CIRCLE
  5
4B7
100
AcDbEntity
  8
0
100
AcDbCircle
 10
338.546216
 20
456.651848
 30
0.0
 40
1.25
  0
CIRCLE
  5
4B8
100
AcDbEntity
  8
0
100
AcDbCircle
 10
336.046216
 20
456.651848
 30
0.0
 40
1.25
  0
CIRCLE
  5
4B9
100
AcDbEntity
  8
0
100
AcDbCircle
 10
333.546216
 20
456.651848
 30
0.0
 40
1.25
  0
CIRCLE
  5
4BA
100
AcDbEntity
  8
0
100
AcDbCircle
 10
331.046216
 20
456.651848
 30
0.0
 40
1.25
  0
CIRCLE
  5
4BB
100
AcDbEntity
  8
0
100
AcDbCircle
 10
328.546216
 20
456.651848
 30
0.0
 40
1.25
  0
CIRCLE
  5
4BC
100
AcDbEntity
  8
0
100
AcDbCircle
 10
326.046216
 20
456.651848
 30
0.0
 40
1.25
  0
CIRCLE
  5
4BD
100
AcDbEntity
  8
0
100
AcDbCircle
 10
323.546216
 20
456.651848
 30
0.0
 40
1.25
  0
CIRCLE
  5
4BE
100
AcDbEntity
  8
0
100
AcDbCircle
 10
321.046216
 20
456.651848
 30
0.0
 40
1.25
  0
CIRCLE
  5
4BF
100
AcDbEntity
  8
0
100
AcDbCircle
 10
318.546216
 20
456.651848
 30
0.0
 40
1.25
  0
CIRCLE
  5
4C0
100
AcDbEntity
  8
0
100
AcDbCircle
 10
316.046216
 20
456.651848
 30
0.0
 40
1.25
  0
CIRCLE
  5
4C1
100
AcDbEntity
  8
0
100
AcDbCircle
 10
313.546216
 20
456.651848
 30
0.0
 40
1.25
  0
CIRCLE
  5
4C2
100
AcDbEntity
  8
0
100
AcDbCircle
 10
467.937367
 20
456.651848
 30
0.0
 40
1.25
  0
CIRCLE
  5
4C3
100
AcDbEntity
  8
0
100
AcDbCircle
 10
465.437367
 20
456.651848
 30
0.0
 40
1.25
  0
CIRCLE
  5
4C4
100
AcDbEntity
  8
0
100
AcDbCircle
 10
462.937367
 20
456.651848
 30
0.0
 40
1.25
  0
CIRCLE
  5
4C5
100
AcDbEntity
  8
0
100
AcDbCircle
 10
460.437367
 20
456.651848
 30
0.0
 40
1.25
  0
CIRCLE
  5
4C6
100
AcDbEntity
  8
0
100
AcDbCircle
 10
457.937367
 20
456.651848
 30
0.0
 40
1.25
  0
CIRCLE
  5
4C7
100
AcDbEntity
  8
0
100
AcDbCircle
 10
455.437367
 20
456.651848
 30
0.0
 40
1.25
  0
CIRCLE
  5
4C8
100
AcDbEntity
  8
0
100
AcDbCircle
 10
452.937367
 20
456.651848
 30
0.0
 40
1.25
  0
CIRCLE
  5
4C9
100
AcDbEntity
  8
0
100
AcDbCircle
 10
450.437367
 20
456.651848
 30
0.0
 40
1.25
  0
CIRCLE
  5
4CA
100
AcDbEntity
  8
0
100
AcDbCircle
 10
447.937367
 20
456.651848
 30
0.0
 40
1.25
  0
CIRCLE
  5
4CB
100
AcDbEntity
  8
0
100
AcDbCircle
 10
445.437367
 20
456.651848
 30
0.0
 40
1.25
  0
CIRCLE
  5
4CC
100
AcDbEntity
  8
0
100
AcDbCircle
 10
442.937367
 20
456.651848
 30
0.0
 40
1.25
  0
CIRCLE
  5
4CD
100
AcDbEntity
  8
0
100
AcDbCircle
 10
440.437367
 20
456.651848
 30
0.0
 40
1.25
  0
CIRCLE
  5
4CE
100
AcDbEntity
  8
0
100
AcDbCircle
 10
437.937367
 20
456.651848
 30
0.0
 40
1.25
  0
CIRCLE
  5
4CF
100
AcDbEntity
  8
0
100
AcDbCircle
 10
435.437367
 20
456.651848
 30
0.0
 40
1.25
  0
CIRCLE
  5
4D0
100
AcDbEntity
  8
0
100
AcDbCircle
 10
432.937367
 20
456.651848
 30
0.0
 40
1.25
  0
CIRCLE
  5
4D1
100
AcDbEntity
  8
0
100
AcDbCircle
 10
430.437367
 20
456.651848
 30
0.0
 40
1.25
  0
CIRCLE
  5
4D2
100
AcDbEntity
  8
0
100
AcDbCircle
 10
427.937367
 20
456.651848
 30
0.0
 40
1.25
  0
CIRCLE
  5
4D3
100
AcDbEntity
  8
0
100
AcDbCircle
 10
425.437367
 20
456.651848
 30
0.0
 40
1.25
  0
CIRCLE
  5
4D4
100
AcDbEntity
  8
0
100
AcDbCircle
 10
422.937367
 20
456.651848
 30
0.0
 40
1.25
  0
CIRCLE
  5
4D5
100
AcDbEntity
  8
0
100
AcDbCircle
 10
420.437367
 20
456.651848
 30
0.0
 40
1.25
  0
CIRCLE
  5
4D6
100
AcDbEntity
  8
0
100
AcDbCircle
 10
417.937367
 20
456.651848
 30
0.0
 40
1.25
  0
CIRCLE
  5
4D7
100
AcDbEntity
  8
0
100
AcDbCircle
 10
415.437367
 20
456.651848
 30
0.0
 40
1.25
  0
CIRCLE
  5
4D8
100
AcDbEntity
  8
0
100
AcDbCircle
 10
412.937367
 20
456.651848
 30
0.0
 40
1.25
  0
CIRCLE
  5
4D9
100
AcDbEntity
  8
0
100
AcDbCircle
 10
410.437367
 20
456.651848
 30
0.0
 40
1.25
  0
CIRCLE
  5
4DA
100
AcDbEntity
  8
0
100
AcDbCircle
 10
407.937367
 20
456.651848
 30
0.0
 40
1.25
  0
CIRCLE
  5
4DB
100
AcDbEntity
  8
0
100
AcDbCircle
 10
405.437367
 20
456.651848
 30
0.0
 40
1.25
  0
CIRCLE
  5
4DC
100
AcDbEntity
  8
0
100
AcDbCircle
 10
402.937367
 20
456.651848
 30
0.0
 40
1.25
  0
CIRCLE
  5
4DD
100
AcDbEntity
  8
0
100
AcDbCircle
 10
400.437367
 20
456.651848
 30
0.0
 40
1.25
  0
CIRCLE
  5
4DE
100
AcDbEntity
  8
0
100
AcDbCircle
 10
467.026412
 20
463.571243
 30
0.0
 40
1.25
  0
CIRCLE
  5
4DF
100
AcDbEntity
  8
0
100
AcDbCircle
 10
464.526412
 20
463.571243
 30
0.0
 40
1.25
  0
CIRCLE
  5
4E0
100
AcDbEntity
  8
0
100
AcDbCircle
 10
462.026412
 20
463.571243
 30
0.0
 40
1.25
  0
CIRCLE
  5
4E1
100
AcDbEntity
  8
0
100
AcDbCircle
 10
459.526412
 20
463.571243
 30
0.0
 40
1.25
  0
CIRCLE
  5
4E2
100
AcDbEntity
  8
0
100
AcDbCircle
 10
457.026412
 20
463.571243
 30
0.0
 40
1.25
  0
CIRCLE
  5
4E3
100
AcDbEntity
  8
0
100
AcDbCircle
 10
454.526412
 20
463.571243
 30
0.0
 40
1.25
  0
CIRCLE
  5
4E4
100
AcDbEntity
  8
0
100
AcDbCircle
 10
452.026412
 20
463.571243
 30
0.0
 40
1.25
  0
CIRCLE
  5
4E5
100
AcDbEntity
  8
0
100
AcDbCircle
 10
449.526412
 20
463.571243
 30
0.0
 40
1.25
  0
CIRCLE
  5
4E6
100
AcDbEntity
  8
0
100
AcDbCircle
 10
447.026412
 20
463.571243
 30
0.0
 40
1.25
  0
CIRCLE
  5
4E7
100
AcDbEntity
  8
0
100
AcDbCircle
 10
444.526412
 20
463.571243
 30
0.0
 40
1.25
  0
CIRCLE
  5
4E8
100
AcDbEntity
  8
0
100
AcDbCircle
 10
442.026412
 20
463.571243
 30
0.0
 40
1.25
  0
CIRCLE
  5
4E9
100
AcDbEntity
  8
0
100
AcDbCircle
 10
439.526412
 20
463.571243
 30
0.0
 40
1.25
  0
CIRCLE
  5
4EA
100
AcDbEntity
  8
0
100
AcDbCircle
 10
437.026412
 20
463.571243
 30
0.0
 40
1.25
  0
CIRCLE
  5
4EB
100
AcDbEntity
  8
0
100
AcDbCircle
 10
434.526412
 20
463.571243
 30
0.0
 40
1.25
  0
CIRCLE
  5
4EC
100
AcDbEntity
  8
0
100
AcDbCircle
 10
432.026412
 20
463.571243
 30
0.0
 40
1.25
  0
CIRCLE
  5
4ED
100
AcDbEntity
  8
0
100
AcDbCircle
 10
429.526412
 20
463.571243
 30
0.0
 40
1.25
  0
CIRCLE
  5
4EE
100
AcDbEntity
  8
0
100
AcDbCircle
 10
427.026412
 20
463.571243
 30
0.0
 40
1.25
  0
CIRCLE
  5
4EF
100
AcDbEntity
  8
0
100
AcDbCircle
 10
424.526412
 20
463.571243
 30
0.0
 40
1.25
  0
CIRCLE
  5
4F0
100
AcDbEntity
  8
0
100
AcDbCircle
 10
422.026412
 20
463.571243
 30
0.0
 40
1.25
  0
CIRCLE
  5
4F1
100
AcDbEntity
  8
0
100
AcDbCircle
 10
419.526412
 20
463.571243
 30
0.0
 40
1.25
  0
CIRCLE
  5
4F2
100
AcDbEntity
  8
0
100
AcDbCircle
 10
417.026412
 20
463.571243
 30
0.0
 40
1.25
  0
CIRCLE
  5
4F3
100
AcDbEntity
  8
0
100
AcDbCircle
 10
414.526412
 20
463.571243
 30
0.0
 40
1.25
  0
CIRCLE
  5
4F4
100
AcDbEntity
  8
0
100
AcDbCircle
 10
412.026412
 20
463.571243
 30
0.0
 40
1.25
  0
CIRCLE
  5
4F5
100
AcDbEntity
  8
0
100
AcDbCircle
 10
409.526412
 20
463.571243
 30
0.0
 40
1.25
  0
CIRCLE
  5
4F6
100
AcDbEntity
  8
0
100
AcDbCircle
 10
407.026412
 20
463.571243
 30
0.0
 40
1.25
  0
CIRCLE
  5
4F7
100
AcDbEntity
  8
0
100
AcDbCircle
 10
465.515858
 20
470.384912
 30
0.0
 40
1.25
  0
CIRCLE
  5
4F8
100
AcDbEntity
  8
0
100
AcDbCircle
 10
463.015858
 20
470.384912
 30
0.0
 40
1.25
  0
CIRCLE
  5
4F9
100
AcDbEntity
  8
0
100
AcDbCircle
 10
460.515858
 20
470.384912
 30
0.0
 40
1.25
  0
CIRCLE
  5
4FA
100
AcDbEntity
  8
0
100
AcDbCircle
 10
458.015858
 20
470.384912
 30
0.0
 40
1.25
  0
CIRCLE
  5
4FB
100
AcDbEntity
  8
0
100
AcDbCircle
 10
455.515858
 20
470.384912
 30
0.0
 40
1.25
  0
CIRCLE
  5
4FC
100
AcDbEntity
  8
0
100
AcDbCircle
 10
453.015858
 20
470.384912
 30
0.0
 40
1.25
  0
CIRCLE
  5
4FD
100
AcDbEntity
  8
0
100
AcDbCircle
 10
450.515858
 20
470.384912
 30
0.0
 40
1.25
  0
CIRCLE
  5
4FE
100
AcDbEntity
  8
0
100
AcDbCircle
 10
448.015858
 20
470.384912
 30
0.0
 40
1.25
  0
CIRCLE
  5
4FF
100
AcDbEntity
  8
0
100
AcDbCircle
 10
445.515858
 20
470.384912
 30
0.0
 40
1.25
  0
CIRCLE
  5
500
100
AcDbEntity
  8
0
100
AcDbCircle
 10
443.015858
 20
470.384912
 30
0.0
 40
1.25
  0
CIRCLE
  5
501
100
AcDbEntity
  8
0
100
AcDbCircle
 10
440.515858
 20
470.384912
 30
0.0
 40
1.25
  0
CIRCLE
  5
502
100
AcDbEntity
  8
0
100
AcDbCircle
 10
438.015858
 20
470.384912
 30
0.0
 40
1.25
  0
CIRCLE
  5
503
100
AcDbEntity
  8
0
100
AcDbCircle
 10
435.515858
 20
470.384912
 30
0.0
 40
1.25
  0
CIRCLE
  5
504
100
AcDbEntity
  8
0
100
AcDbCircle
 10
433.015858
 20
470.384912
 30
0.0
 40
1.25
  0
CIRCLE
  5
505
100
AcDbEntity
  8
0
100
AcDbCircle
 10
430.515858
 20
470.384912
 30
0.0
 40
1.25
  0
CIRCLE
  5
506
100
AcDbEntity
  8
0
100
AcDbCircle
 10
428.015858
 20
470.384912
 30
0.0
 40
1.25
  0
CIRCLE
  5
507
100
AcDbEntity
  8
0
100
AcDbCircle
 10
425.515858
 20
470.384912
 30
0.0
 40
1.25
  0
CIRCLE
  5
508
100
AcDbEntity
  8
0
100
AcDbCircle
 10
423.015858
 20
470.384912
 30
0.0
 40
1.25
  0
CIRCLE
  5
509
100
AcDbEntity
  8
0
100
AcDbCircle
 10
420.515858
 20
470.384912
 30
0.0
 40
1.25
  0
CIRCLE
  5
50A
100
AcDbEntity
  8
0
100
AcDbCircle
 10
413.015858
 20
470.384912
 30
0.0
 40
1.25
  0
CIRCLE
  5
50B
100
AcDbEntity
  8
0
100
AcDbCircle
 10
415.515858
 20
470.384912
 30
0.0
 40
1.25
  0
CIRCLE
  5
50C
100
AcDbEntity
  8
0
100
AcDbCircle
 10
418.015858
 20
470.384912
 30
0.0
 40
1.25
  0
CIRCLE
  5
50D
100
AcDbEntity
  8
0
100
AcDbCircle
 10
463.417201
 20
477.041
 30
0.0
 40
1.25
  0
CIRCLE
  5
50E
100
AcDbEntity
  8
0
100
AcDbCircle
 10
460.917201
 20
477.041
 30
0.0
 40
1.25
  0
CIRCLE
  5
50F
100
AcDbEntity
  8
0
100
AcDbCircle
 10
458.417201
 20
477.041
 30
0.0
 40
1.25
  0
CIRCLE
  5
510
100
AcDbEntity
  8
0
100
AcDbCircle
 10
455.917201
 20
477.041
 30
0.0
 40
1.25
  0
CIRCLE
  5
511
100
AcDbEntity
  8
0
100
AcDbCircle
 10
453.417201
 20
477.041
 30
0.0
 40
1.25
  0
CIRCLE
  5
512
100
AcDbEntity
  8
0
100
AcDbCircle
 10
450.917201
 20
477.041
 30
0.0
 40
1.25
  0
CIRCLE
  5
513
100
AcDbEntity
  8
0
100
AcDbCircle
 10
448.417201
 20
477.041
 30
0.0
 40
1.25
  0
CIRCLE
  5
514
100
AcDbEntity
  8
0
100
AcDbCircle
 10
445.917201
 20
477.041
 30
0.0
 40
1.25
  0
CIRCLE
  5
515
100
AcDbEntity
  8
0
100
AcDbCircle
 10
443.417201
 20
477.041
 30
0.0
 40
1.25
  0
CIRCLE
  5
516
100
AcDbEntity
  8
0
100
AcDbCircle
 10
440.917201
 20
477.041
 30
0.0
 40
1.25
  0
CIRCLE
  5
517
100
AcDbEntity
  8
0
100
AcDbCircle
 10
438.417201
 20
477.041
 30
0.0
 40
1.25
  0
CIRCLE
  5
518
100
AcDbEntity
  8
0
100
AcDbCircle
 10
435.917201
 20
477.041
 30
0.0
 40
1.25
  0
CIRCLE
  5
519
100
AcDbEntity
  8
0
100
AcDbCircle
 10
433.417201
 20
477.041
 30
0.0
 40
1.25
  0
CIRCLE
  5
51A
100
AcDbEntity
  8
0
100
AcDbCircle
 10
430.917201
 20
477.041
 30
0.0
 40
1.25
  0
CIRCLE
  5
51B
100
AcDbEntity
  8
0
100
AcDbCircle
 10
428.417201
 20
477.041
 30
0.0
 40
1.25
  0
CIRCLE
  5
51C
100
AcDbEntity
  8
0
100
AcDbCircle
 10
425.917201
 20
477.041
 30
0.0
 40
1.25
  0
CIRCLE
  5
51D
100
AcDbEntity
  8
0
100
AcDbCircle
 10
423.417201
 20
477.041
 30
0.0
 40
1.25
  0
CIRCLE
  5
51E
100
AcDbEntity
  8
0
100
AcDbCircle
 10
420.917201
 20
477.041
 30
0.0
 40
1.25
  0
CIRCLE
  5
51F
100
AcDbEntity
  8
0
100
AcDbCircle
 10
418.417201
 20
477.041
 30
0.0
 40
1.25
  0
CIRCLE
  5
520
100
AcDbEntity
  8
0
100
AcDbCircle
 10
460.746414
 20
483.488849
 30
0.0
 40
1.25
  0
CIRCLE
  5
521
100
AcDbEntity
  8
0
100
AcDbCircle
 10
458.246414
 20
483.488849
 30
0.0
 40
1.25
  0
CIRCLE
  5
522
100
AcDbEntity
  8
0
100
AcDbCircle
 10
455.746414
 20
483.488849
 30
0.0
 40
1.25
  0
CIRCLE
  5
523
100
AcDbEntity
  8
0
100
AcDbCircle
 10
453.246414
 20
483.488849
 30
0.0
 40
1.25
  0
CIRCLE
  5
524
100
AcDbEntity
  8
0
100
AcDbCircle
 10
450.746414
 20
483.488849
 30
0.0
 40
1.25
  0
CIRCLE
  5
525
100
AcDbEntity
  8
0
100
AcDbCircle
 10
448.246414
 20
483.488849
 30
0.0
 40
1.25
  0
CIRCLE
  5
526
100
AcDbEntity
  8
0
100
AcDbCircle
 10
445.746414
 20
483.488849
 30
0.0
 40
1.25
  0
CIRCLE
  5
527
100
AcDbEntity
  8
0
100
AcDbCircle
 10
443.246414
 20
483.488849
 30
0.0
 40
1.25
  0
CIRCLE
  5
528
100
AcDbEntity
  8
0
100
AcDbCircle
 10
440.746414
 20
483.488849
 30
0.0
 40
1.25
  0
CIRCLE
  5
529
100
AcDbEntity
  8
0
100
AcDbCircle
 10
438.246414
 20
483.488849
 30
0.0
 40
1.25
  0
CIRCLE
  5
52A
100
AcDbEntity
  8
0
100
AcDbCircle
 10
435.746414
 20
483.488849
 30
0.0
 40
1.25
  0
CIRCLE
  5
52B
100
AcDbEntity
  8
0
100
AcDbCircle
 10
433.246414
 20
483.488849
 30
0.0
 40
1.25
  0
CIRCLE
  5
52C
100
AcDbEntity
  8
0
100
AcDbCircle
 10
430.746414
 20
483.488849
 30
0.0
 40
1.25
  0
CIRCLE
  5
52D
100
AcDbEntity
  8
0
100
AcDbCircle
 10
428.246414
 20
483.488849
 30
0.0
 40
1.25
  0
CIRCLE
  5
52E
100
AcDbEntity
  8
0
100
AcDbCircle
 10
425.746414
 20
483.488849
 30
0.0
 40
1.25
  0
CIRCLE
  5
52F
100
AcDbEntity
  8
0
100
AcDbCircle
 10
457.523824
 20
489.679388
 30
0.0
 40
1.25
  0
CIRCLE
  5
530
100
AcDbEntity
  8
0
100
AcDbCircle
 10
455.023824
 20
489.679388
 30
0.0
 40
1.25
  0
CIRCLE
  5
531
100
AcDbEntity
  8
0
100
AcDbCircle
 10
452.523824
 20
489.679388
 30
0.0
 40
1.25
  0
CIRCLE
  5
532
100
AcDbEntity
  8
0
100
AcDbCircle
 10
450.023824
 20
489.679388
 30
0.0
 40
1.25
  0
CIRCLE
  5
533
100
AcDbEntity
  8
0
100
AcDbCircle
 10
447.523824
 20
489.679388
 30
0.0
 40
1.25
  0
CIRCLE
  5
534
100
AcDbEntity
  8
0
100
AcDbCircle
 10
445.023824
 20
489.679388
 30
0.0
 40
1.25
  0
CIRCLE
  5
535
100
AcDbEntity
  8
0
100
AcDbCircle
 10
442.523824
 20
489.679388
 30
0.0
 40
1.25
  0
CIRCLE
  5
536
100
AcDbEntity
  8
0
100
AcDbCircle
 10
440.023824
 20
489.679388
 30
0.0
 40
1.25
  0
CIRCLE
  5
537
100
AcDbEntity
  8
0
100
AcDbCircle
 10
437.523824
 20
489.679388
 30
0.0
 40
1.25
  0
CIRCLE
  5
538
100
AcDbEntity
  8
0
100
AcDbCircle
 10
435.023824
 20
489.679388
 30
0.0
 40
1.25
  0
CIRCLE
  5
539
100
AcDbEntity
  8
0
100
AcDbCircle
 10
432.523824
 20
489.679388
 30
0.0
 40
1.25
  0
CIRCLE
  5
53A
100
AcDbEntity
  8
0
100
AcDbCircle
 10
453.773955
 20
495.565503
 30
0.0
 40
1.25
  0
CIRCLE
  5
53B
100
AcDbEntity
  8
0
100
AcDbCircle
 10
451.273955
 20
495.565503
 30
0.0
 40
1.25
  0
CIRCLE
  5
53C
100
AcDbEntity
  8
0
100
AcDbCircle
 10
448.773955
 20
495.565503
 30
0.0
 40
1.25
  0
CIRCLE
  5
53D
100
AcDbEntity
  8
0
100
AcDbCircle
 10
446.273955
 20
495.565503
 30
0.0
 40
1.25
  0
CIRCLE
  5
53E
100
AcDbEntity
  8
0
100
AcDbCircle
 10
443.773955
 20
495.565503
 30
0.0
 40
1.25
  0
CIRCLE
  5
53F
100
AcDbEntity
  8
0
100
AcDbCircle
 10
441.273955
 20
495.565503
 30
0.0
 40
1.25
  0
CIRCLE
  5
540
100
AcDbEntity
  8
0
100
AcDbCircle
 10
438.773955
 20
495.565503
 30
0.0
 40
1.25
  0
CIRCLE
  5
541
100
AcDbEntity
  8
0
100
AcDbCircle
 10
449.525347
 20
501.102397
 30
0.0
 40
1.25
  0
CIRCLE
  5
542
100
AcDbEntity
  8
0
100
AcDbCircle
 10
447.025347
 20
501.102397
 30
0.0
 40
1.25
  0
CIRCLE
  5
543
100
AcDbEntity
  8
0
100
AcDbCircle
 10
444.525347
 20
501.102397
 30
0.0
 40
1.25
  0
CIRCLE
  5
544
100
AcDbEntity
  8
0
100
AcDbCircle
 10
444.525347
 20
398.25638
 30
0.0
 40
1.25
  0
CIRCLE
  5
545
100
AcDbEntity
  8
0
100
AcDbCircle
 10
447.025347
 20
398.25638
 30
0.0
 40
1.25
  0
CIRCLE
  5
546
100
AcDbEntity
  8
0
100
AcDbCircle
 10
449.525347
 20
398.25638
 30
0.0
 40
1.25
  0
CIRCLE
  5
547
100
AcDbEntity
  8
0
100
AcDbCircle
 10
438.773955
 20
403.793273
 30
0.0
 40
1.25
  0
CIRCLE
  5
548
100
AcDbEntity
  8
0
100
AcDbCircle
 10
441.273955
 20
403.793273
 30
0.0
 40
1.25
  0
CIRCLE
  5
549
100
AcDbEntity
  8
0
100
AcDbCircle
 10
443.773955
 20
403.793273
 30
0.0
 40
1.25
  0
CIRCLE
  5
54A
100
AcDbEntity
  8
0
100
AcDbCircle
 10
446.273955
 20
403.793273
 30
0.0
 40
1.25
  0
CIRCLE
  5
54B
100
AcDbEntity
  8
0
100
AcDbCircle
 10
448.773955
 20
403.793273
 30
0.0
 40
1.25
  0
CIRCLE
  5
54C
100
AcDbEntity
  8
0
100
AcDbCircle
 10
451.273955
 20
403.793273
 30
0.0
 40
1.25
  0
CIRCLE
  5
54D
100
AcDbEntity
  8
0
100
AcDbCircle
 10
453.773955
 20
403.793273
 30
0.0
 40
1.25
  0
CIRCLE
  5
54E
100
AcDbEntity
  8
0
100
AcDbCircle
 10
432.523824
 20
409.679388
 30
0.0
 40
1.25
  0
CIRCLE
  5
54F
100
AcDbEntity
  8
0
100
AcDbCircle
 10
435.023824
 20
409.679388
 30
0.0
 40
1.25
  0
CIRCLE
  5
550
100
AcDbEntity
  8
0
100
AcDbCircle
 10
437.523824
 20
409.679388
 30
0.0
 40
1.25
  0
CIRCLE
  5
551
100
AcDbEntity
  8
0
100
AcDbCircle
 10
440.023824
 20
409.679388
 30
0.0
 40
1.25
  0
CIRCLE
  5
552
100
AcDbEntity
  8
0
100
AcDbCircle
 10
442.523824
 20
409.679388
 30
0.0
 40
1.25
  0
CIRCLE
  5
553
100
AcDbEntity
  8
0
100
AcDbCircle
 10
445.023824
 20
409.679388
 30
0.0
 40
1.25
  0
CIRCLE
  5
554
100
AcDbEntity
  8
0
100
AcDbCircle
 10
447.523824
 20
409.679388
 30
0.0
 40
1.25
  0
CIRCLE
  5
555
100
AcDbEntity
  8
0
100
AcDbCircle
 10
450.023824
 20
409.679388
 30
0.0
 40
1.25
  0
CIRCLE
  5
556
100
AcDbEntity
  8
0
100
AcDbCircle
 10
452.523824
 20
409.679388
 30
0.0
 40
1.25
  0
CIRCLE
  5
557
100
AcDbEntity
  8
0
100
AcDbCircle
 10
455.023824
 20
409.679388
 30
0.0
 40
1.25
  0
CIRCLE
  5
558
100
AcDbEntity
  8
0
100
AcDbCircle
 10
457.523824
 20
409.679388
 30
0.0
 40
1.25
  0
CIRCLE
  5
559
100
AcDbEntity
  8
0
100
AcDbCircle
 10
425.746414
 20
415.869927
 30
0.0
 40
1.25
  0
CIRCLE
  5
55A
100
AcDbEntity
  8
0
100
AcDbCircle
 10
428.246414
 20
415.869927
 30
0.0
 40
1.25
  0
CIRCLE
  5
55B
100
AcDbEntity
  8
0
100
AcDbCircle
 10
430.746414
 20
415.869927
 30
0.0
 40
1.25
  0
CIRCLE
  5
55C
100
AcDbEntity
  8
0
100
AcDbCircle
 10
433.246414
 20
415.869927
 30
0.0
 40
1.25
  0
CIRCLE
  5
55D
100
AcDbEntity
  8
0
100
AcDbCircle
 10
435.746414
 20
415.869927
 30
0.0
 40
1.25
  0
CIRCLE
  5
55E
100
AcDbEntity
  8
0
100
AcDbCircle
 10
438.246414
 20
415.869927
 30
0.0
 40
1.25
  0
CIRCLE
  5
55F
100
AcDbEntity
  8
0
100
AcDbCircle
 10
440.746414
 20
415.869927
 30
0.0
 40
1.25
  0
CIRCLE
  5
560
100
AcDbEntity
  8
0
100
AcDbCircle
 10
443.246414
 20
415.869927
 30
0.0
 40
1.25
  0
CIRCLE
  5
561
100
AcDbEntity
  8
0
100
AcDbCircle
 10
445.746414
 20
415.869927
 30
0.0
 40
1.25
  0
CIRCLE
  5
562
100
AcDbEntity
  8
0
100
AcDbCircle
 10
448.246414
 20
415.869927
 30
0.0
 40
1.25
  0
CIRCLE
  5
563
100
AcDbEntity
  8
0
100
AcDbCircle
 10
450.746414
 20
415.869927
 30
0.0
 40
1.25
  0
CIRCLE
  5
564
100
AcDbEntity
  8
0
100
AcDbCircle
 10
453.246414
 20
415.869927
 30
0.0
 40
1.25
  0
CIRCLE
  5
565
100
AcDbEntity
  8
0
100
AcDbCircle
 10
455.746414
 20
415.869927
 30
0.0
 40
1.25
  0
CIRCLE
  5
566
100
AcDbEntity
  8
0
100
AcDbCircle
 10
458.246414
 20
415.869927
 30
0.0
 40
1.25
  0
CIRCLE
  5
567
100
AcDbEntity
  8
0
100
AcDbCircle
 10
460.746414
 20
415.869927
 30
0.0
 40
1.25
  0
CIRCLE
  5
568
100
AcDbEntity
  8
0
100
AcDbCircle
 10
418.417201
 20
422.317777
 30
0.0
 40
1.25
  0
CIRCLE
  5
569
100
AcDbEntity
  8
0
100
AcDbCircle
 10
420.917201
 20
422.317777
 30
0.0
 40
1.25
  0
CIRCLE
  5
56A
100
AcDbEntity
  8
0
100
AcDbCircle
 10
423.417201
 20
422.317777
 30
0.0
 40
1.25
  0
CIRCLE
  5
56B
100
AcDbEntity
  8
0
100
AcDbCircle
 10
425.917201
 20
422.317777
 30
0.0
 40
1.25
  0
CIRCLE
  5
56C
100
AcDbEntity
  8
0
100
AcDbCircle
 10
428.417201
 20
422.317777
 30
0.0
 40
1.25
  0
CIRCLE
  5
56D
100
AcDbEntity
  8
0
100
AcDbCircle
 10
430.917201
 20
422.317777
 30
0.0
 40
1.25
  0
CIRCLE
  5
56E
100
AcDbEntity
  8
0
100
AcDbCircle
 10
433.417201
 20
422.317777
 30
0.0
 40
1.25
  0
CIRCLE
  5
56F
100
AcDbEntity
  8
0
100
AcDbCircle
 10
435.917201
 20
422.317777
 30
0.0
 40
1.25
  0
CIRCLE
  5
570
100
AcDbEntity
  8
0
100
AcDbCircle
 10
438.417201
 20
422.317777
 30
0.0
 40
1.25
  0
CIRCLE
  5
571
100
AcDbEntity
  8
0
100
AcDbCircle
 10
440.917201
 20
422.317777
 30
0.0
 40
1.25
  0
CIRCLE
  5
572
100
AcDbEntity
  8
0
100
AcDbCircle
 10
443.417201
 20
422.317777
 30
0.0
 40
1.25
  0
CIRCLE
  5
573
100
AcDbEntity
  8
0
100
AcDbCircle
 10
445.917201
 20
422.317777
 30
0.0
 40
1.25
  0
CIRCLE
  5
574
100
AcDbEntity
  8
0
100
AcDbCircle
 10
448.417201
 20
422.317777
 30
0.0
 40
1.25
  0
CIRCLE
  5
575
100
AcDbEntity
  8
0
100
AcDbCircle
 10
450.917201
 20
422.317777
 30
0.0
 40
1.25
  0
CIRCLE
  5
576
100
AcDbEntity
  8
0
100
AcDbCircle
 10
453.417201
 20
422.317777
 30
0.0
 40
1.25
  0
CIRCLE
  5
577
100
AcDbEntity
  8
0
100
AcDbCircle
 10
455.917201
 20
422.317777
 30
0.0
 40
1.25
  0
CIRCLE
  5
578
100
AcDbEntity
  8
0
100
AcDbCircle
 10
458.417201
 20
422.317777
 30
0.0
 40
1.25
  0
CIRCLE
  5
579
100
AcDbEntity
  8
0
100
AcDbCircle
 10
460.917201
 20
422.317777
 30
0.0
 40
1.25
  0
CIRCLE
  5
57A
100
AcDbEntity
  8
0
100
AcDbCircle
 10
463.417201
 20
422.317777
 30
0.0
 40
1.25
  0
CIRCLE
  5
57B
100
AcDbEntity
  8
0
100
AcDbCircle
 10
418.015858
 20
428.973865
 30
0.0
 40
1.25
  0
CIRCLE
  5
57C
100
AcDbEntity
  8
0
100
AcDbCircle
 10
415.515858
 20
428.973865
 30
0.0
 40
1.25
  0
CIRCLE
  5
57D
100
AcDbEntity
  8
0
100
AcDbCircle
 10
413.015858
 20
428.973865
 30
0.0
 40
1.25
  0
CIRCLE
  5
57E
100
AcDbEntity
  8
0
100
AcDbCircle
 10
420.515858
 20
428.973865
 30
0.0
 40
1.25
  0
CIRCLE
  5
57F
100
AcDbEntity
  8
0
100
AcDbCircle
 10
423.015858
 20
428.973865
 30
0.0
 40
1.25
  0
CIRCLE
  5
580
100
AcDbEntity
  8
0
100
AcDbCircle
 10
425.515858
 20
428.973865
 30
0.0
 40
1.25
  0
CIRCLE
  5
581
100
AcDbEntity
  8
0
100
AcDbCircle
 10
428.015858
 20
428.973865
 30
0.0
 40
1.25
  0
CIRCLE
  5
582
100
AcDbEntity
  8
0
100
AcDbCircle
 10
430.515858
 20
428.973865
 30
0.0
 40
1.25
  0
CIRCLE
  5
583
100
AcDbEntity
  8
0
100
AcDbCircle
 10
433.015858
 20
428.973865
 30
0.0
 40
1.25
  0
CIRCLE
  5
584
100
AcDbEntity
  8
0
100
AcDbCircle
 10
435.515858
 20
428.973865
 30
0.0
 40
1.25
  0
CIRCLE
  5
585
100
AcDbEntity
  8
0
100
AcDbCircle
 10
438.015858
 20
428.973865
 30
0.0
 40
1.25
  0
CIRCLE
  5
586
100
AcDbEntity
  8
0
100
AcDbCircle
 10
440.515858
 20
428.973865
 30
0.0
 40
1.25
  0
CIRCLE
  5
587
100
AcDbEntity
  8
0
100
AcDbCircle
 10
443.015858
 20
428.973865
 30
0.0
 40
1.25
  0
CIRCLE
  5
588
100
AcDbEntity
  8
0
100
AcDbCircle
 10
445.515858
 20
428.973865
 30
0.0
 40
1.25
  0
CIRCLE
  5
589
100
AcDbEntity
  8
0
100
AcDbCircle
 10
448.015858
 20
428.973865
 30
0.0
 40
1.25
  0
CIRCLE
  5
58A
100
AcDbEntity
  8
0
100
AcDbCircle
 10
450.515858
 20
428.973865
 30
0.0
 40
1.25
  0
CIRCLE
  5
58B
100
AcDbEntity
  8
0
100
AcDbCircle
 10
453.015858
 20
428.973865
 30
0.0
 40
1.25
  0
CIRCLE
  5
58C
100
AcDbEntity
  8
0
100
AcDbCircle
 10
455.515858
 20
428.973865
 30
0.0
 40
1.25
  0
CIRCLE
  5
58D
100
AcDbEntity
  8
0
100
AcDbCircle
 10
458.015858
 20
428.973865
 30
0.0
 40
1.25
  0
CIRCLE
  5
58E
100
AcDbEntity
  8
0
100
AcDbCircle
 10
460.515858
 20
428.973865
 30
0.0
 40
1.25
  0
CIRCLE
  5
58F
100
AcDbEntity
  8
0
100
AcDbCircle
 10
463.015858
 20
428.973865
 30
0.0
 40
1.25
  0
CIRCLE
  5
590
100
AcDbEntity
  8
0
100
AcDbCircle
 10
465.515858
 20
428.973865
 30
0.0
 40
1.25
  0
CIRCLE
  5
591
100
AcDbEntity
  8
0
100
AcDbCircle
 10
407.026412
 20
435.787534
 30
0.0
 40
1.25
  0
CIRCLE
  5
592
100
AcDbEntity
  8
0
100
AcDbCircle
 10
409.526412
 20
435.787534
 30
0.0
 40
1.25
  0
CIRCLE
  5
593
100
AcDbEntity
  8
0
100
AcDbCircle
 10
412.026412
 20
435.787534
 30
0.0
 40
1.25
  0
CIRCLE
  5
594
100
AcDbEntity
  8
0
100
AcDbCircle
 10
414.526412
 20
435.787534
 30
0.0
 40
1.25
  0
CIRCLE
  5
595
100
AcDbEntity
  8
0
100
AcDbCircle
 10
417.026412
 20
435.787534
 30
0.0
 40
1.25
  0
CIRCLE
  5
596
100
AcDbEntity
  8
0
100
AcDbCircle
 10
419.526412
 20
435.787534
 30
0.0
 40
1.25
  0
CIRCLE
  5
597
100
AcDbEntity
  8
0
100
AcDbCircle
 10
422.026412
 20
435.787534
 30
0.0
 40
1.25
  0
CIRCLE
  5
598
100
AcDbEntity
  8
0
100
AcDbCircle
 10
424.526412
 20
435.787534
 30
0.0
 40
1.25
  0
CIRCLE
  5
599
100
AcDbEntity
  8
0
100
AcDbCircle
 10
427.026412
 20
435.787534
 30
0.0
 40
1.25
  0
CIRCLE
  5
59A
100
AcDbEntity
  8
0
100
AcDbCircle
 10
429.526412
 20
435.787534
 30
0.0
 40
1.25
  0
CIRCLE
  5
59B
100
AcDbEntity
  8
0
100
AcDbCircle
 10
432.026412
 20
435.787534
 30
0.0
 40
1.25
  0
CIRCLE
  5
59C
100
AcDbEntity
  8
0
100
AcDbCircle
 10
434.526412
 20
435.787534
 30
0.0
 40
1.25
  0
CIRCLE
  5
59D
100
AcDbEntity
  8
0
100
AcDbCircle
 10
437.026412
 20
435.787534
 30
0.0
 40
1.25
  0
CIRCLE
  5
59E
100
AcDbEntity
  8
0
100
AcDbCircle
 10
439.526412
 20
435.787534
 30
0.0
 40
1.25
  0
CIRCLE
  5
59F
100
AcDbEntity
  8
0
100
AcDbCircle
 10
442.026412
 20
435.787534
 30
0.0
 40
1.25
  0
CIRCLE
  5
5A0
100
AcDbEntity
  8
0
100
AcDbCircle
 10
444.526412
 20
435.787534
 30
0.0
 40
1.25
  0
CIRCLE
  5
5A1
100
AcDbEntity
  8
0
100
AcDbCircle
 10
447.026412
 20
435.787534
 30
0.0
 40
1.25
  0
CIRCLE
  5
5A2
100
AcDbEntity
  8
0
100
AcDbCircle
 10
449.526412
 20
435.787534
 30
0.0
 40
1.25
  0
CIRCLE
  5
5A3
100
AcDbEntity
  8
0
100
AcDbCircle
 10
452.026412
 20
435.787534
 30
0.0
 40
1.25
  0
CIRCLE
  5
5A4
100
AcDbEntity
  8
0
100
AcDbCircle
 10
454.526412
 20
435.787534
 30
0.0
 40
1.25
  0
CIRCLE
  5
5A5
100
AcDbEntity
  8
0
100
AcDbCircle
 10
457.026412
 20
435.787534
 30
0.0
 40
1.25
  0
CIRCLE
  5
5A6
100
AcDbEntity
  8
0
100
AcDbCircle
 10
459.526412
 20
435.787534
 30
0.0
 40
1.25
  0
CIRCLE
  5
5A7
100
AcDbEntity
  8
0
100
AcDbCircle
 10
462.026412
 20
435.787534
 30
0.0
 40
1.25
  0
CIRCLE
  5
5A8
100
AcDbEntity
  8
0
100
AcDbCircle
 10
464.526412
 20
435.787534
 30
0.0
 40
1.25
  0
CIRCLE
  5
5A9
100
AcDbEntity
  8
0
100
AcDbCircle
 10
467.026412
 20
435.787534
 30
0.0
 40
1.25
  0
CIRCLE
  5
5AA
100
AcDbEntity
  8
0
100
AcDbCircle
 10
400.437367
 20
442.706929
 30
0.0
 40
1.25
  0
CIRCLE
  5
5AB
100
AcDbEntity
  8
0
100
AcDbCircle
 10
402.937367
 20
442.706929
 30
0.0
 40
1.25
  0
CIRCLE
  5
5AC
100
AcDbEntity
  8
0
100
AcDbCircle
 10
405.437367
 20
442.706929
 30
0.0
 40
1.25
  0
CIRCLE
  5
5AD
100
AcDbEntity
  8
0
100
AcDbCircle
 10
407.937367
 20
442.706929
 30
0.0
 40
1.25
  0
CIRCLE
  5
5AE
100
AcDbEntity
  8
0
100
AcDbCircle
 10
410.437367
 20
442.706929
 30
0.0
 40
1.25
  0
CIRCLE
  5
5AF
100
AcDbEntity
  8
0
100
AcDbCircle
 10
412.937367
 20
442.706929
 30
0.0
 40
1.25
  0
CIRCLE
  5
5B0
100
AcDbEntity
  8
0
100
AcDbCircle
 10
415.437367
 20
442.706929
 30
0.0
 40
1.25
  0
CIRCLE
  5
5B1
100
AcDbEntity
  8
0
100
AcDbCircle
 10
417.937367
 20
442.706929
 30
0.0
 40
1.25
  0
CIRCLE
  5
5B2
100
AcDbEntity
  8
0
100
AcDbCircle
 10
420.437367
 20
442.706929
 30
0.0
 40
1.25
  0
CIRCLE
  5
5B3
100
AcDbEntity
  8
0
100
AcDbCircle
 10
422.937367
 20
442.706929
 30
0.0
 40
1.25
  0
CIRCLE
  5
5B4
100
AcDbEntity
  8
0
100
AcDbCircle
 10
425.437367
 20
442.706929
 30
0.0
 40
1.25
  0
CIRCLE
  5
5B5
100
AcDbEntity
  8
0
100
AcDbCircle
 10
427.937367
 20
442.706929
 30
0.0
 40
1.25
  0
CIRCLE
  5
5B6
100
AcDbEntity
  8
0
100
AcDbCircle
 10
430.437367
 20
442.706929
 30
0.0
 40
1.25
  0
CIRCLE
  5
5B7
100
AcDbEntity
  8
0
100
AcDbCircle
 10
432.937367
 20
442.706929
 30
0.0
 40
1.25
  0
CIRCLE
  5
5B8
100
AcDbEntity
  8
0
100
AcDbCircle
 10
435.437367
 20
442.706929
 30
0.0
 40
1.25
  0
CIRCLE
  5
5B9
100
AcDbEntity
  8
0
100
AcDbCircle
 10
437.937367
 20
442.706929
 30
0.0
 40
1.25
  0
CIRCLE
  5
5BA
100
AcDbEntity
  8
0
100
AcDbCircle
 10
440.437367
 20
442.706929
 30
0.0
 40
1.25
  0
CIRCLE
  5
5BB
100
AcDbEntity
  8
0
100
AcDbCircle
 10
442.937367
 20
442.706929
 30
0.0
 40
1.25
  0
CIRCLE
  5
5BC
100
AcDbEntity
  8
0
100
AcDbCircle
 10
445.437367
 20
442.706929
 30
0.0
 40
1.25
  0
CIRCLE
  5
5BD
100
AcDbEntity
  8
0
100
AcDbCircle
 10
447.937367
 20
442.706929
 30
0.0
 40
1.25
  0
CIRCLE
  5
5BE
100
AcDbEntity
  8
0
100
AcDbCircle
 10
450.437367
 20
442.706929
 30
0.0
 40
1.25
  0
CIRCLE
  5
5BF
100
AcDbEntity
  8
0
100
AcDbCircle
 10
452.937367
 20
442.706929
 30
0.0
 40
1.25
  0
CIRCLE
  5
5C0
100
AcDbEntity
  8
0
100
AcDbCircle
 10
455.437367
 20
442.706929
 30
0.0
 40
1.25
  0
CIRCLE
  5
5C1
100
AcDbEntity
  8
0
100
AcDbCircle
 10
457.937367
 20
442.706929
 30
0.0
 40
1.25
  0
CIRCLE
  5
5C2
100
AcDbEntity
  8
0
100
AcDbCircle
 10
460.437367
 20
442.706929
 30
0.0
 40
1.25
  0
CIRCLE
  5
5C3
100
AcDbEntity
  8
0
100
AcDbCircle
 10
462.937367
 20
442.706929
 30
0.0
 40
1.25
  0
CIRCLE
  5
5C4
100
AcDbEntity
  8
0
100
AcDbCircle
 10
465.437367
 20
442.706929
 30
0.0
 40
1.25
  0
CIRCLE
  5
5C5
100
AcDbEntity
  8
0
100
AcDbCircle
 10
467.937367
 20
442.706929
 30
0.0
 40
1.25
  0
CIRCLE
  5
5C6
100
AcDbEntity
  8
0
100
AcDbCircle
 10
395.741791
 20
449.679388
 30
0.0
 40
1.25
  0
CIRCLE
  5
5C7
100
AcDbEntity
  8
0
100
AcDbCircle
 10
393.241791
 20
449.679388
 30
0.0
 40
1.25
  0
CIRCLE
  5
5C8
100
AcDbEntity
  8
0
100
AcDbCircle
 10
398.241791
 20
449.679388
 30
0.0
 40
1.25
  0
CIRCLE
  5
5C9
100
AcDbEntity
  8
0
100
AcDbCircle
 10
400.741791
 20
449.679388
 30
0.0
 40
1.25
  0
CIRCLE
  5
5CA
100
AcDbEntity
  8
0
100
AcDbCircle
 10
403.241791
 20
449.679388
 30
0.0
 40
1.25
  0
CIRCLE
  5
5CB
100
AcDbEntity
  8
0
100
AcDbCircle
 10
405.741791
 20
449.679388
 30
0.0
 40
1.25
  0
CIRCLE
  5
5CC
100
AcDbEntity
  8
0
100
AcDbCircle
 10
408.241791
 20
449.679388
 30
0.0
 40
1.25
  0
CIRCLE
  5
5CD
100
AcDbEntity
  8
0
100
AcDbCircle
 10
410.741791
 20
449.679388
 30
0.0
 40
1.25
  0
CIRCLE
  5
5CE
100
AcDbEntity
  8
0
100
AcDbCircle
 10
413.241791
 20
449.679388
 30
0.0
 40
1.25
  0
CIRCLE
  5
5CF
100
AcDbEntity
  8
0
100
AcDbCircle
 10
415.741791
 20
449.679388
 30
0.0
 40
1.25
  0
CIRCLE
  5
5D0
100
AcDbEntity
  8
0
100
AcDbCircle
 10
418.241791
 20
449.679388
 30
0.0
 40
1.25
  0
CIRCLE
  5
5D1
100
AcDbEntity
  8
0
100
AcDbCircle
 10
420.741791
 20
449.679388
 30
0.0
 40
1.25
  0
CIRCLE
  5
5D2
100
AcDbEntity
  8
0
100
AcDbCircle
 10
423.241791
 20
449.679388
 30
0.0
 40
1.25
  0
CIRCLE
  5
5D3
100
AcDbEntity
  8
0
100
AcDbCircle
 10
425.741791
 20
449.679388
 30
0.0
 40
1.25
  0
CIRCLE
  5
5D4
100
AcDbEntity
  8
0
100
AcDbCircle
 10
428.241791
 20
449.679388
 30
0.0
 40
1.25
  0
CIRCLE
  5
5D5
100
AcDbEntity
  8
0
100
AcDbCircle
 10
430.741791
 20
449.679388
 30
0.0
 40
1.25
  0
CIRCLE
  5
5D6
100
AcDbEntity
  8
0
100
AcDbCircle
 10
433.241791
 20
449.679388
 30
0.0
 40
1.25
  0
CIRCLE
  5
5D7
100
AcDbEntity
  8
0
100
AcDbCircle
 10
435.741791
 20
449.679388
 30
0.0
 40
1.25
  0
CIRCLE
  5
5D8
100
AcDbEntity
  8
0
100
AcDbCircle
 10
438.241791
 20
449.679388
 30
0.0
 40
1.25
  0
CIRCLE
  5
5D9
100
AcDbEntity
  8
0
100
AcDbCircle
 10
440.741791
 20
449.679388
 30
0.0
 40
1.25
  0
CIRCLE
  5
5DA
100
AcDbEntity
  8
0
100
AcDbCircle
 10
443.241791
 20
449.679388
 30
0.0
 40
1.25
  0
CIRCLE
  5
5DB
100
AcDbEntity
  8
0
100
AcDbCircle
 10
445.741791
 20
449.679388
 30
0.0
 40
1.25
  0
CIRCLE
  5
5DC
100
AcDbEntity
  8
0
100
AcDbCircle
 10
448.241791
 20
449.679388
 30
0.0
 40
1.25
  0
CIRCLE
  5
5DD
100
AcDbEntity
  8
0
100
AcDbCircle
 10
450.741791
 20
449.679388
 30
0.0
 40
1.25
  0
CIRCLE
  5
5DE
100
AcDbEntity
  8
0
100
AcDbCircle
 10
453.241791
 20
449.679388
 30
0.0
 40
1.25
  0
CIRCLE
  5
5DF
100
AcDbEntity
  8
0
100
AcDbCircle
 10
455.741791
 20
449.679388
 30
0.0
 40
1.25
  0
CIRCLE
  5
5E0
100
AcDbEntity
  8
0
100
AcDbCircle
 10
458.241791
 20
449.679388
 30
0.0
 40
1.25
  0
CIRCLE
  5
5E1
100
AcDbEntity
  8
0
100
AcDbCircle
 10
460.741791
 20
449.679388
 30
0.0
 40
1.25
  0
CIRCLE
  5
5E2
100
AcDbEntity
  8
0
100
AcDbCircle
 10
463.241791
 20
449.679388
 30
0.0
 40
1.25
  0
CIRCLE
  5
5E3
100
AcDbEntity
  8
0
100
AcDbCircle
 10
465.741791
 20
449.679388
 30
0.0
 40
1.25
  0
CIRCLE
  5
5E4
100
AcDbEntity
  8
0
100
AcDbCircle
 10
468.241791
 20
449.679388
 30
0.0
 40
1.25
  0
CIRCLE
  5
5E5
100
AcDbEntity
  8
0
100
AcDbCircle
 10
447.310334
 20
506.247931
 30
0.0
 40
1.25
  0
CIRCLE
  5
5E6
100
AcDbEntity
  8
0
100
AcDbCircle
 10
452.025347
 20
501.102397
 30
0.0
 40
1.25
  0
CIRCLE
  5
5E7
100
AcDbEntity
  8
0
100
AcDbCircle
 10
456.273955
 20
495.565503
 30
0.0
 40
1.25
  0
CIRCLE
  5
5E8
100
AcDbEntity
  8
0
100
AcDbCircle
 10
460.023824
 20
489.679388
 30
0.0
 40
1.25
  0
CIRCLE
  5
5E9
100
AcDbEntity
  8
0
100
AcDbCircle
 10
463.246414
 20
483.488849
 30
0.0
 40
1.25
  0
CIRCLE
  5
5EA
100
AcDbEntity
  8
0
100
AcDbCircle
 10
465.917201
 20
477.041
 30
0.0
 40
1.25
  0
CIRCLE
  5
5EB
100
AcDbEntity
  8
0
100
AcDbCircle
 10
468.015858
 20
470.384912
 30
0.0
 40
1.25
  0
CIRCLE
  5
5EC
100
AcDbEntity
  8
0
100
AcDbCircle
 10
469.526412
 20
463.571243
 30
0.0
 40
1.25
  0
CIRCLE
  5
5ED
100
AcDbEntity
  8
0
100
AcDbCircle
 10
470.437367
 20
456.651848
 30
0.0
 40
1.25
  0
CIRCLE
  5
5EE
100
AcDbEntity
  8
0
100
AcDbCircle
 10
470.741791
 20
449.679388
 30
0.0
 40
1.25
  0
CIRCLE
  5
5EF
100
AcDbEntity
  8
0
100
AcDbCircle
 10
470.437367
 20
442.706929
 30
0.0
 40
1.25
  0
CIRCLE
  5
5F0
100
AcDbEntity
  8
0
100
AcDbCircle
 10
469.526412
 20
435.787534
 30
0.0
 40
1.25
  0
CIRCLE
  5
5F1
100
AcDbEntity
  8
0
100
AcDbCircle
 10
468.015858
 20
428.973865
 30
0.0
 40
1.25
  0
CIRCLE
  5
5F2
100
AcDbEntity
  8
0
100
AcDbCircle
 10
465.917201
 20
422.317777
 30
0.0
 40
1.25
  0
CIRCLE
  5
5F3
100
AcDbEntity
  8
0
100
AcDbCircle
 10
463.246414
 20
415.869927
 30
0.0
 40
1.25
  0
CIRCLE
  5
5F4
100
AcDbEntity
  8
0
100
AcDbCircle
 10
460.023824
 20
409.679388
 30
0.0
 40
1.25
  0
CIRCLE
  5
5F5
100
AcDbEntity
  8
0
100
AcDbCircle
 10
456.273955
 20
403.793273
 30
0.0
 40
1.25
  0
CIRCLE
  5
5F6
100
AcDbEntity
  8
0
100
AcDbCircle
 10
452.025347
 20
398.25638
 30
0.0
 40
1.25
  0
CIRCLE
  5
5F7
100
AcDbEntity
  8
0
100
AcDbCircle
 10
447.310334
 20
393.110846
 30
0.0
 40
1.25
  0
CIRCLE
  5
5F8
100
AcDbEntity
  8
0
100
AcDbCircle
 10
334.173249
 20
393.110846
 30
0.0
 40
1.25
  0
CIRCLE
  5
5F9
100
AcDbEntity
  8
0
100
AcDbCircle
 10
329.458236
 20
398.25638
 30
0.0
 40
1.25
  0
CIRCLE
  5
5FA
100
AcDbEntity
  8
0
100
AcDbCircle
 10
325.209628
 20
403.793273
 30
0.0
 40
1.25
  0
CIRCLE
  5
5FB
100
AcDbEntity
  8
0
100
AcDbCircle
 10
321.459759
 20
409.679388
 30
0.0
 40
1.25
  0
CIRCLE
  5
5FC
100
AcDbEntity
  8
0
100
AcDbCircle
 10
318.237169
 20
415.869927
 30
0.0
 40
1.25
  0
CIRCLE
  5
5FD
100
AcDbEntity
  8
0
100
AcDbCircle
 10
315.566382
 20
422.317777
 30
0.0
 40
1.25
  0
CIRCLE
  5
5FE
100
AcDbEntity
  8
0
100
AcDbCircle
 10
313.467725
 20
428.973865
 30
0.0
 40
1.25
  0
CIRCLE
  5
5FF
100
AcDbEntity
  8
0
100
AcDbCircle
 10
311.957171
 20
435.787534
 30
0.0
 40
1.25
  0
CIRCLE
  5
600
100
AcDbEntity
  8
0
100
AcDbCircle
 10
311.046216
 20
442.706929
 30
0.0
 40
1.25
  0
CIRCLE
  5
601
100
AcDbEntity
  8
0
100
AcDbCircle
 10
310.741791
 20
449.679388
 30
0.0
 40
1.25
  0
CIRCLE
  5
602
100
AcDbEntity
  8
0
100
AcDbCircle
 10
311.046216
 20
456.651848
 30
0.0
 40
1.25
  0
CIRCLE
  5
603
100
AcDbEntity
  8
0
100
AcDbCircle
 10
311.957171
 20
463.571243
 30
0.0
 40
1.25
  0
CIRCLE
  5
604
100
AcDbEntity
  8
0
100
AcDbCircle
 10
313.467725
 20
470.384912
 30
0.0
 40
1.25
  0
CIRCLE
  5
605
100
AcDbEntity
  8
0
100
AcDbCircle
 10
315.566382
 20
477.041
 30
0.0
 40
1.25
  0
CIRCLE
  5
606
100
AcDbEntity
  8
0
100
AcDbCircle
 10
318.237169
 20
483.488849
 30
0.0
 40
1.25
  0
CIRCLE
  5
607
100
AcDbEntity
  8
0
100
AcDbCircle
 10
321.459759
 20
489.679388
 30
0.0
 40
1.25
  0
CIRCLE
  5
608
100
AcDbEntity
  8
0
100
AcDbCircle
 10
325.209628
 20
495.565503
 30
0.0
 40
1.25
  0
CIRCLE
  5
609
100
AcDbEntity
  8
0
100
AcDbCircle
 10
329.458236
 20
501.102397
 30
0.0
 40
1.25
  0
CIRCLE
  5
60A
100
AcDbEntity
  8
0
100
AcDbCircle
 10
334.173249
 20
506.247931
 30
0.0
 40
1.25
  0
TEXT
  5
61A
100
AcDbEntity
  8
1
100
AcDbText
 10
742.150292
 20
129.663257
 30
0.0
 40
12.5
  1
1.Baffle
 41
0.8
  7
UT7
100
AcDbText
  0
TEXT
  5
61B
100
AcDbEntity
  8
1
100
AcDbText
 10
742.150292
 20
111.913257
 30
0.0
 40
12.5
  1
2.Speaker
 41
0.8
  7
UT7
100
AcDbText
  0
TEXT
  5
61C
100
AcDbEntity
  8
1
100
AcDbText
 10
742.150292
 20
94.163257
 30
0.0
 40
12.5
  1
3.Transformer
 41
0.8
  7
UT7
100
AcDbText
  0
TEXT
  5
61D
100
AcDbEntity
  8
1
100
AcDbText
 10
194.41783
 20
189.037829
 30
0.0
 40
10.6
  1
0.5W
 41
0.8
  7
UT7
100
AcDbText
  0
TEXT
  5
61E
100
AcDbEntity
  8
1
100
AcDbText
 10
207.945268
 20
173.643659
 30
0.0
 40
10.6
  1
1W
 41
0.8
  7
UT7
100
AcDbText
  0
TEXT
  5
61F
100
AcDbEntity
  8
1
100
AcDbText
 10
205.92622
 20
157.643659
 30
0.0
 40
10.6
  1
2W
 41
0.8
  7
UT7
100
AcDbText
  0
TEXT
  5
620
100
AcDbEntity
  8
1
100
AcDbText
 10
205.92622
 20
141.643659
 30
0.0
 40
10.6
  1
3W
 41
0.8
  7
UT7
100
AcDbText
  0
TEXT
  5
621
100
AcDbEntity
  8
1
100
AcDbText
 10
205.92622
 20
125.643659
 30
0.0
 40
10.6
  1
6W
 41
0.8
  7
UT7
100
AcDbText
  0
TEXT
  5
622
100
AcDbEntity
  8
1
100
AcDbText
 10
196.335744
 20
109.643659
 30
0.0
 40
10.6
  1
COM
 41
0.8
  7
UT7
100
AcDbText
  0
TEXT
  5
623
100
AcDbEntity
  8
1
100
AcDbText
 10
265.124963
 20
69.313716
 30
0.0
 40
10.6
  1
(Transformer)
 41
0.8
  7
UT7
100
AcDbText
  0
TEXT
  5
624
100
AcDbEntity
  8
1
100
AcDbText
 10
378.869781
 20
205.736169
 30
0.0
 40
10.6
  1
25V
 41
0.8
  7
UT7
100
AcDbText
  0
TEXT
  5
625
100
AcDbEntity
  8
1
100
AcDbText
 10
363.204898
 20
176.063948
 30
0.0
 40
10.6
  1
8 ohm
 41
0.8
  7
UT7
100
AcDbText
  0
TEXT
  5
626
100
AcDbEntity
  8
1
100
AcDbText
 10
361.547936
 20
158.786976
 30
0.0
 40
10.6
  1
70.7V
 41
0.8
  7
UT7
100
AcDbText
  0
TEXT
  5
627
100
AcDbEntity
  8
1
100
AcDbText
 10
360.83781
 20
132.060728
 30
0.0
 40
10.6
  1
8 ohm
 41
0.8
  7
UT7
100
AcDbText
  0
TEXT
  5
628
100
AcDbEntity
  8
1
100
AcDbText
 10
360.894169
 20
93.299053
 30
0.0
 40
10.6
  1
COM
 41
0.8
  7
UT7
100
AcDbText
  0
TEXT
  5
629
100
AcDbEntity
  8
1
100
AcDbText
 10
402.659774
 20
130.685335
 30
0.0
 40
10.6
  1
(White)
 41
0.8
  7
UT7
100
AcDbText
  0
TEXT
  5
62A
100
AcDbEntity
  8
1
100
AcDbText
 10
402.659774
 20
90.685335
 30
0.0
 40
10.6
  1
(Black)
 41
0.8
  7
UT7
100
AcDbText
  0
TEXT
  5
62B
100
AcDbEntity
  8
1
100
AcDbText
 10
543.985606
 20
90.825142
 30
0.0
 40
10.6
  1
(Speaker)
 41
0.8
  7
UT7
100
AcDbText
  0
TEXT
  5
62C
100
AcDbEntity
  8
1
100
AcDbText
 10
539.080008
 20
277.18744
 30
0.0
 40
12.5
  1
4-%%C5
 41
0.8
  7
UT7
100
AcDbText
  0
ENDSEC
  0
SECTION
  2
OBJECTS
  0
DICTIONARY
  5
73B
100
AcDbDictionary
  3
ACAD_GROUP
350
73C
  3
ACAD_MLINESTYLE
350
73D
  0
DICTIONARY
  5
73C
102
{ACAD_REACTORS
330
73B
102
}
100
AcDbDictionary
  0
DICTIONARY
  5
73D
102
{ACAD_REACTORS
330
73B
102
}
100
AcDbDictionary
  3
STANDARD
350
73E
  0
MLINESTYLE
  5
73E
102
{ACAD_REACTORS
330
73D
102
}
100
AcDbMlineStyle
  2
STANDARD
 70
     0
  3

 62
     0
 51
90.0
 52
90.0
 71
     2
 49
0.5
 62
   256
  6
BYLAYER
 49
-0.5
 62
   256
  6
BYLAYER
  0
ENDSEC
  0
EOF
