  0
SECTION
  2
HEADER
  9
$ACADVER
  1
AC1014
  9
$ACADMAINTVER
 70
     0
  9
$DWGCODEPAGE
  3
DOS850
  9
$INSBASE
 10
0.0
 20
0.0
 30
0.0
  9
$EXTMIN
 10
0.0
 20
0.0
 30
0.0
  9
$EXTMAX
 10
885.964736
 20
805.816969
 30
0.0
  9
$LIMMIN
 10
0.0
 20
0.0
  9
$LIMMAX
 10
1.0
 20
1.0
  9
$ORTHOMODE
 70
     1
  9
$REGENMODE
 70
     0
  9
$FILLMODE
 70
     1
  9
$QTEXTMODE
 70
     0
  9
$MIRRTEXT
 70
     0
  9
$DRAGMODE
 70
     2
  9
$LTSCALE
 40
1.0
  9
$OSMODE
 70
     0
  9
$ATTMODE
 70
     1
  9
$TEXTSIZE
 40
3.0
  9
$TRACEWID
 40
0.05
  9
$TEXTSTYLE
  7
STANDARD
  9
$CLAYER
  8
SCALE
  9
$CELTYPE
  6
BYLAYER
  9
$CECOLOR
 62
   256
  9
$CELTSCALE
 40
1.0
  9
$DELOBJ
 70
     1
  9
$DISPSILH
 70
     0
  9
$DIMSCALE
 40
5.0
  9
$DIMASZ
 40
1.5
  9
$DIMEXO
 40
2.0
  9
$DIMDLI
 40
10.0
  9
$DIMRND
 40
0.0
  9
$DIMDLE
 40
0.0
  9
$DIMEXE
 40
1.5
  9
$DIMTP
 40
0.0
  9
$DIMTM
 40
0.0
  9
$DIMTXT
 40
2.2
  9
$DIMCEN
 40
0.09
  9
$DIMTSZ
 40
0.0
  9
$DIMTOL
 70
     0
  9
$DIMLIM
 70
     0
  9
$DIMTIH
 70
     0
  9
$DIMTOH
 70
     0
  9
$DIMSE1
 70
     0
  9
$DIMSE2
 70
     0
  9
$DIMTAD
 70
     0
  9
$DIMZIN
 70
     0
  9
$DIMBLK
  1
YAZ3
  9
$DIMASO
 70
     1
  9
$DIMSHO
 70
     0
  9
$DIMPOST
  1

  9
$DIMAPOST
  1

  9
$DIMALT
 70
     0
  9
$DIMALTD
 70
     2
  9
$DIMALTF
 40
25.4
  9
$DIMLFAC
 40
1.0
  9
$DIMTOFL
 70
     1
  9
$DIMTVP
 40
1.0
  9
$DIMTIX
 70
     0
  9
$DIMSOXD
 70
     0
  9
$DIMSAH
 70
     0
  9
$DIMBLK1
  1

  9
$DIMBLK2
  1

  9
$DIMSTYLE
  2
STANDARD
  9
$DIMCLRD
 70
     0
  9
$DIMCLRE
 70
     0
  9
$DIMCLRT
 70
     0
  9
$DIMTFAC
 40
1.0
  9
$DIMGAP
 40
0.09
  9
$DIMJUST
 70
     0
  9
$DIMSD1
 70
     0
  9
$DIMSD2
 70
     0
  9
$DIMTOLJ
 70
     1
  9
$DIMTZIN
 70
     0
  9
$DIMALTZ
 70
     0
  9
$DIMALTTZ
 70
     0
  9
$DIMFIT
 70
     3
  9
$DIMUPT
 70
     0
  9
$DIMUNIT
 70
     2
  9
$DIMDEC
 70
     4
  9
$DIMTDEC
 70
     4
  9
$DIMALTU
 70
     2
  9
$DIMALTTD
 70
     2
  9
$DIMTXSTY
  7
STANDARD
  9
$DIMAUNIT
 70
     0
  9
$LUNITS
 70
     2
  9
$LUPREC
 70
     3
  9
$SKETCHINC
 40
0.1
  9
$FILLETRAD
 40
0.0
  9
$AUNITS
 70
     0
  9
$AUPREC
 70
     0
  9
$MENU
  1
AMECEX
  9
$ELEVATION
 40
0.0
  9
$PELEVATION
 40
0.0
  9
$THICKNESS
 40
0.0
  9
$LIMCHECK
 70
     0
  9
$BLIPMODE
 70
     0
  9
$CHAMFERA
 40
0.0
  9
$CHAMFERB
 40
0.0
  9
$CHAMFERC
 40
0.0
  9
$CHAMFERD
 40
0.0
  9
$SKPOLY
 70
     0
  9
$TDCREATE
 40
2451285.671157408
  9
$TDUPDATE
 40
2452076.644907408
  9
$TDINDWG
 40
0.0050925810
  9
$TDUSRTIMER
 40
0.0050925810
  9
$USRTIMER
 70
     1
  9
$ANGBASE
 50
0.0
  9
$ANGDIR
 70
     0
  9
$PDMODE
 70
     0
  9
$PDSIZE
 40
0.0
  9
$PLINEWID
 40
0.0
  9
$COORDS
 70
     2
  9
$SPLFRAME
 70
     0
  9
$SPLINETYPE
 70
     6
  9
$SPLINESEGS
 70
     8
  9
$ATTDIA
 70
     0
  9
$ATTREQ
 70
     1
  9
$HANDLING
 70
     1
  9
$HANDSEED
  5
8BD
  9
$SURFTAB1
 70
     6
  9
$SURFTAB2
 70
     6
  9
$SURFTYPE
 70
     6
  9
$SURFU
 70
     6
  9
$SURFV
 70
     6
  9
$UCSNAME
  2

  9
$UCSORG
 10
0.0
 20
0.0
 30
0.0
  9
$UCSXDIR
 10
1.0
 20
0.0
 30
0.0
  9
$UCSYDIR
 10
0.0
 20
1.0
 30
0.0
  9
$PUCSNAME
  2

  9
$PUCSORG
 10
0.0
 20
0.0
 30
0.0
  9
$PUCSXDIR
 10
1.0
 20
0.0
 30
0.0
  9
$PUCSYDIR
 10
0.0
 20
1.0
 30
0.0
  9
$USERI1
 70
     0
  9
$USERI2
 70
     0
  9
$USERI3
 70
     0
  9
$USERI4
 70
     0
  9
$USERI5
 70
     0
  9
$USERR1
 40
30.0
  9
$USERR2
 40
0.0
  9
$USERR3
 40
0.0
  9
$USERR4
 40
0.0
  9
$USERR5
 40
0.0
  9
$WORLDVIEW
 70
     1
  9
$SHADEDGE
 70
     3
  9
$SHADEDIF
 70
    70
  9
$TILEMODE
 70
     1
  9
$MAXACTVP
 70
    16
  9
$PINSBASE
 10
0.0
 20
0.0
 30
0.0
  9
$PLIMCHECK
 70
     0
  9
$PEXTMIN
 10
1.000000E+20
 20
1.000000E+20
 30
1.000000E+20
  9
$PEXTMAX
 10
-1.000000E+20
 20
-1.000000E+20
 30
-1.000000E+20
  9
$PLIMMIN
 10
0.0
 20
0.0
  9
$PLIMMAX
 10
12.0
 20
9.0
  9
$UNITMODE
 70
     0
  9
$VISRETAIN
 70
     0
  9
$PLINEGEN
 70
     0
  9
$PSLTSCALE
 70
     0
  9
$TREEDEPTH
 70
  3020
  9
$PICKSTYLE
 70
     1
  9
$CMLSTYLE
  2
STANDARD
  9
$CMLJUST
 70
     0
  9
$CMLSCALE
 40
1.0
  9
$PROXYGRAPHICS
 70
     0
  9
$MEASUREMENT
 70
     0
  0
ENDSEC
  0
SECTION
  2
CLASSES
  0
CLASS
  1
LWPOLYLINE
  2
AcDbPolyline
  3
"AutoCAD"
 90
        0
280
     0
281
     1
  0
CLASS
  1
IMAGE
  2
AcDbRasterImage
  3
ISM
 90
      127
280
     0
281
     1
  0
CLASS
  1
OLE2FRAME
  2
AcDbOle2Frame
  3
""
 90
        0
280
     0
281
     1
  0
CLASS
  1
HATCH
  2
AcDbHatch
  3
"ACAD_SEDONA"
 90
        0
280
     0
281
     1
  0
CLASS
  1
DICTIONARYVAR
  2
AcDbDictionaryVar
  3
"AutoCAD"
 90
        0
280
     0
281
     0
  0
CLASS
  1
RASTERVARIABLES
  2
AcDbRasterVariables
  3
ISM
 90
        0
280
     0
281
     0
  0
CLASS
  1
IMAGEDEF
  2
AcDbRasterImageDef
  3
ISM
 90
        0
280
     0
281
     0
  0
CLASS
  1
IMAGEDEF_REACTOR
  2
AcDbRasterImageDefReactor
  3
ISM
 90
        1
280
     0
281
     0
  0
CLASS
  1
IDBUFFER
  2
AcDbIdBuffer
  3
"Acad"
 90
        0
280
     0
281
     0
  0
CLASS
  1
SPATIAL_FILTER
  2
AcDbSpatialFilter
  3
"Acad"
 90
        0
280
     0
281
     0
  0
CLASS
  1
XRECORD
  2
AcDbXrecord
  3
"<Built In>"
 90
        0
280
     0
281
     0
  0
CLASS
  1
SORTENTSTABLE
  2
AcDbSortentsTable
  3
"AutoCAD"
 90
        0
280
     0
281
     0
  0
CLASS
  1
LAYER_INDEX
  2
AcDbLayerIndex
  3
"Acad"
 90
        0
280
     0
281
     0
  0
CLASS
  1
SPATIAL_INDEX
  2
AcDbSpatialIndex
  3
"Acad"
 90
        0
280
     0
281
     0
  0
CLASS
  1
OBJECT_PTR
  2
CAseDLPNTableRecord
  3
"ASE-LPNTableRecord"
 90
        1
280
     0
281
     0
  0
CLASS
  1
LAYOUT
  2
AcDbLayout
  3
"AutoCAD 2000"
 90
        1
280
     0
281
     0
  0
CLASS
  1
PLOTSETTINGS
  2
AcDbPlotSettings
  3
"AutoCAD 2000"
 90
        1
280
     0
281
     0
  0
CLASS
  1
ACDBDICTIONARYWDFLT
  2
AcDbDictionaryWithDefault
  3
"AutoCAD 2000"
 90
        1
280
     0
281
     0
  0
CLASS
  1
ACDBPLACEHOLDER
  2
AcDbPlaceHolder
  3
"AutoCAD 2000"
 90
        1
280
     0
281
     0
  0
CLASS
  1
VBA_PROJECT
  2
AcDbVbaProject
  3
"acadvba"
 90
        1
280
     0
281
     0
  0
CLASS
  1
WIPEOUT
  2
AcDbWipeout
  3
WipeOut|AutoCAD Express Tool|expresstools@autodesk.com
 90
      127
280
     0
281
     1
  0
CLASS
  1
WIPEOUTVARIABLES
  2
AcDbWipeoutVariables
  3
WipeOut|AutoCAD Express Tool|expresstools@autodesk.com
 90
        0
280
     0
281
     0
  0
CLASS
  1
RTEXT
  2
RText
  3
RText|AutoCAD Express Tool|expresstools@autodesk.com
 90
        0
280
     0
281
     1
  0
CLASS
  1
ARCALIGNEDTEXT
  2
AcDbArcAlignedText
  3
ATEXT|AutoCAD Express Tool|expresstools@autodesk.com
 90
        0
280
     0
281
     1
  0
ENDSEC
  0
SECTION
  2
TABLES
  0
TABLE
  2
VPORT
  5
887
100
AcDbSymbolTable
 70
     1
  0
VPORT
  5
899
100
AcDbSymbolTableRecord
100
AcDbViewportTableRecord
  2
*ACTIVE
 70
     0
 10
0.0
 20
0.0
 11
1.0
 21
1.0
 12
442.982368
 22
402.908485
 13
0.0
 23
0.0
 14
1.0
 24
1.0
 15
0.0
 25
0.0
 16
0.0
 26
0.0
 36
1.0
 17
0.0
 27
0.0
 37
0.0
 40
821.933309
 41
1.63407
 42
50.0
 43
0.0
 44
0.0
 50
0.0
 51
0.0
 71
     0
 72
   100
 73
     1
 74
     0
 75
     0
 76
     0
 77
     0
 78
     0
  0
ENDTAB
  0
TABLE
  2
LTYPE
  5
884
100
AcDbSymbolTable
 70
     6
  0
LTYPE
  5
88D
100
AcDbSymbolTableRecord
100
AcDbLinetypeTableRecord
  2
BYBLOCK
 70
    64
  3

 72
    65
 73
     0
 40
0.0
  0
LTYPE
  5
88E
100
AcDbSymbolTableRecord
100
AcDbLinetypeTableRecord
  2
BYLAYER
 70
    64
  3

 72
    65
 73
     0
 40
0.0
  0
LTYPE
  5
88F
100
AcDbSymbolTableRecord
100
AcDbLinetypeTableRecord
  2
CONTINUOUS
 70
    64
  3
Solid line
 72
    65
 73
     0
 40
0.0
  0
LTYPE
  5
890
100
AcDbSymbolTableRecord
100
AcDbLinetypeTableRecord
  2
CENTER
 70
    64
  3
____ _ ____ _
 72
    65
 73
     4
 40
53.263158
 49
33.289474
 74
     0
 49
-6.657895
 74
     0
 49
6.657895
 74
     0
 49
-6.657895
 74
     0
  0
LTYPE
  5
891
100
AcDbSymbolTableRecord
100
AcDbLinetypeTableRecord
  2
DOT
 70
    64
  3
..............
 72
    65
 73
     4
 40
13.315789
 49
0.0
 74
     0
 49
-6.657895
 74
     0
 49
0.0
 74
     0
 49
-6.657895
 74
     0
  0
LTYPE
  5
892
100
AcDbSymbolTableRecord
100
AcDbLinetypeTableRecord
  2
HIDDEN
 70
    64
  3
_ _ _ _ _ _ _
 72
    65
 73
     2
 40
9.986842
 49
6.657895
 74
     0
 49
-3.328947
 74
     0
  0
ENDTAB
  0
TABLE
  2
LAYER
  5
882
100
AcDbSymbolTable
 70
     6
  0
LAYER
  5
893
100
AcDbSymbolTableRecord
100
AcDbLayerTableRecord
  2
0
 70
    64
 62
     7
  6
CONTINUOUS
  0
LAYER
  5
894
100
AcDbSymbolTableRecord
100
AcDbLayerTableRecord
  2
1
 70
    64
 62
     3
  6
CONTINUOUS
  0
LAYER
  5
895
100
AcDbSymbolTableRecord
100
AcDbLayerTableRecord
  2
SILK
 70
    64
 62
     5
  6
CONTINUOUS
  0
LAYER
  5
896
100
AcDbSymbolTableRecord
100
AcDbLayerTableRecord
  2
CENTER
 70
    64
 62
     1
  6
CENTER
  0
LAYER
  5
897
100
AcDbSymbolTableRecord
100
AcDbLayerTableRecord
  2
SCALE
 70
    64
 62
     4
  6
CONTINUOUS
  0
LAYER
  5
898
100
AcDbSymbolTableRecord
100
AcDbLayerTableRecord
  2
DEFPOINTS
 70
    64
 62
     7
  6
CONTINUOUS
  0
ENDTAB
  0
TABLE
  2
STYLE
  5
883
100
AcDbSymbolTable
 70
     2
  0
STYLE
  5
89B
100
AcDbSymbolTableRecord
100
AcDbTextStyleTableRecord
  2
STANDARD
 70
    64
 40
0.0
 41
1.0
 50
0.0
 71
     0
 42
3.0
  3
SIMPLEX
  4

  0
STYLE
  5
89C
100
AcDbSymbolTableRecord
100
AcDbTextStyleTableRecord
  2
UT7
 70
    64
 40
11.0
 41
1.0
 50
0.0
 71
     0
 42
12.5
  3
TOAFONT
  4

  0
ENDTAB
  0
TABLE
  2
VIEW
  5
885
100
AcDbSymbolTable
 70
     0
  0
ENDTAB
  0
TABLE
  2
UCS
  5
886
100
AcDbSymbolTable
 70
     0
  0
ENDTAB
  0
TABLE
  2
APPID
  5
888
100
AcDbSymbolTable
 70
     1
  0
APPID
  5
89A
100
AcDbSymbolTableRecord
100
AcDbRegAppTableRecord
  2
ACAD
 70
    64
  0
ENDTAB
  0
TABLE
  2
DIMSTYLE
  5
889
100
AcDbSymbolTable
 70
     1
  0
DIMSTYLE
105
8B1
100
AcDbSymbolTableRecord
100
AcDbDimStyleTableRecord
  2
STANDARD
 70
    64
  3

  4

  5

  6

  7

 40
5.0
 41
1.5
 42
2.0
 43
10.0
 44
1.5
 45
0.0
 46
0.0
 47
0.0
 48
0.0
 71
     0
 72
     0
 73
     0
 74
     0
 75
     0
 76
     0
 77
     0
 78
     0
140
2.2
141
0.09
142
0.0
143
25.4
144
1.0
145
1.0
146
1.0
147
0.09
170
     0
171
     2
172
     1
173
     0
174
     0
175
     0
176
     0
177
     0
178
     0
270
     2
271
     4
272
     4
273
     2
274
     2
275
     0
280
     0
281
     0
282
     0
283
     1
284
     0
285
     0
286
     0
287
     0
288
     0
340
89B
  0
ENDTAB
  0
TABLE
  2
BLOCK_RECORD
  5
8AC
100
AcDbSymbolTable
 70
    13
  0
BLOCK_RECORD
  5
8AA
100
AcDbSymbolTableRecord
100
AcDbBlockTableRecord
  2
*MODEL_SPACE
  0
BLOCK_RECORD
  5
8AB
100
AcDbSymbolTableRecord
100
AcDbBlockTableRecord
  2
*PAPER_SPACE
  0
BLOCK_RECORD
  5
89D
100
AcDbSymbolTableRecord
100
AcDbBlockTableRecord
  2
INSLYTXT
  0
BLOCK_RECORD
  5
89E
100
AcDbSymbolTableRecord
100
AcDbBlockTableRecord
  2
YAZ3
  0
BLOCK_RECORD
  5
89F
100
AcDbSymbolTableRecord
100
AcDbBlockTableRecord
  2
YAZ1
  0
BLOCK_RECORD
  5
8A0
100
AcDbSymbolTableRecord
100
AcDbBlockTableRecord
  2
*D3
  0
BLOCK_RECORD
  5
8A1
100
AcDbSymbolTableRecord
100
AcDbBlockTableRecord
  2
*D4
  0
BLOCK_RECORD
  5
8A2
100
AcDbSymbolTableRecord
100
AcDbBlockTableRecord
  2
*D5
  0
BLOCK_RECORD
  5
8A3
100
AcDbSymbolTableRecord
100
AcDbBlockTableRecord
  2
*D6
  0
BLOCK_RECORD
  5
8A4
100
AcDbSymbolTableRecord
100
AcDbBlockTableRecord
  2
*D7
  0
BLOCK_RECORD
  5
8A5
100
AcDbSymbolTableRecord
100
AcDbBlockTableRecord
  2
*D8
  0
BLOCK_RECORD
  5
8A6
100
AcDbSymbolTableRecord
100
AcDbBlockTableRecord
  2
*D9
  0
BLOCK_RECORD
  5
8A7
100
AcDbSymbolTableRecord
100
AcDbBlockTableRecord
  2
*D10
  0
BLOCK_RECORD
  5
8A8
100
AcDbSymbolTableRecord
100
AcDbBlockTableRecord
  2
*D11
  0
BLOCK_RECORD
  5
8A9
100
AcDbSymbolTableRecord
100
AcDbBlockTableRecord
  2
*D12
  0
ENDTAB
  0
ENDSEC
  0
SECTION
  2
BLOCKS
  0
BLOCK
  5
8AD
100
AcDbEntity
  8
0
100
AcDbBlockBegin
  2
*MODEL_SPACE
 70
     0
 10
0.0
 20
0.0
 30
0.0
  3
*MODEL_SPACE
  1

  0
ENDBLK
  5
8AE
100
AcDbEntity
  8
0
100
AcDbBlockEnd
  0
BLOCK
  5
8AF
100
AcDbEntity
 67
     1
  8
0
100
AcDbBlockBegin
  2
*PAPER_SPACE
 70
     0
 10
0.0
 20
0.0
 30
0.0
  3
*PAPER_SPACE
  1

  0
ENDBLK
  5
8B0
100
AcDbEntity
 67
     1
  8
0
100
AcDbBlockEnd
  0
BLOCK
  5
7D8
100
AcDbEntity
  8
0
100
AcDbBlockBegin
  2
INSLYTXT
 70
    64
 10
0.0
 20
0.0
 30
0.0
  3
INSLYTXT
  1

  0
ENDBLK
  5
7D9
100
AcDbEntity
  8
0
100
AcDbBlockEnd
  0
BLOCK
  5
7E1
100
AcDbEntity
  8
0
100
AcDbBlockBegin
  2
YAZ3
 70
    64
 10
0.0
 20
0.0
 30
0.0
  3
YAZ3
  1

  0
INSERT
  5
7E2
100
AcDbEntity
  8
0
100
AcDbBlockReference
  2
YAZ1
 10
0.0
 20
0.0
 30
0.0
  0
LINE
  5
7E3
100
AcDbEntity
  8
0
100
AcDbLine
 10
-0.999365
 20
0.04706
 30
0.0
 11
-0.175629
 21
0.04706
 31
0.0
  0
LINE
  5
7E4
100
AcDbEntity
  8
0
100
AcDbLine
 10
-0.999365
 20
0.09706
 30
0.0
 11
-0.362232
 21
0.09706
 31
0.0
  0
LINE
  5
7E5
100
AcDbEntity
  8
0
100
AcDbLine
 10
-0.999365
 20
0.14706
 30
0.0
 11
-0.548834
 21
0.14706
 31
0.0
  0
LINE
  5
7E6
100
AcDbEntity
  8
0
100
AcDbLine
 10
-0.999365
 20
0.19706
 30
0.0
 11
-0.735437
 21
0.19706
 31
0.0
  0
LINE
  5
7E7
100
AcDbEntity
  8
0
100
AcDbLine
 10
-0.999365
 20
0.24706
 30
0.0
 11
-0.922039
 21
0.24706
 31
0.0
  0
LINE
  5
7E8
100
AcDbEntity
  8
0
100
AcDbLine
 10
-0.999365
 20
-0.05294
 30
0.0
 11
-0.197576
 21
-0.05294
 31
0.0
  0
LINE
  5
7E9
100
AcDbEntity
  8
0
100
AcDbLine
 10
-0.999365
 20
-0.10294
 30
0.0
 11
-0.384179
 21
-0.10294
 31
0.0
  0
LINE
  5
7EA
100
AcDbEntity
  8
0
100
AcDbLine
 10
-0.999365
 20
-0.15294
 30
0.0
 11
-0.570781
 21
-0.15294
 31
0.0
  0
LINE
  5
7EB
100
AcDbEntity
  8
0
100
AcDbLine
 10
-0.999365
 20
-0.20294
 30
0.0
 11
-0.757384
 21
-0.20294
 31
0.0
  0
LINE
  5
7EC
100
AcDbEntity
  8
0
100
AcDbLine
 10
-0.999365
 20
-0.25294
 30
0.0
 11
-0.943986
 21
-0.25294
 31
0.0
  0
SOLID
  5
7ED
100
AcDbEntity
  8
0
100
AcDbTrace
 10
0.0
 20
0.0
 30
0.0
 11
-1.0
 21
0.267949
 31
0.0
 12
-1.0
 22
-0.267949
 32
0.0
 13
-1.0
 23
-0.267949
 33
0.0
  0
ENDBLK
  5
7EE
100
AcDbEntity
  8
0
100
AcDbBlockEnd
  0
BLOCK
  5
7EF
100
AcDbEntity
  8
0
100
AcDbBlockBegin
  2
YAZ1
 70
    64
 10
184.0
 20
133.0
 30
0.0
  3
YAZ1
  1

  0
LINE
  5
7F0
100
AcDbEntity
  8
0
100
AcDbLine
 10
184.0
 20
133.0
 30
0.0
 11
183.0
 21
132.732051
 31
0.0
  0
LINE
  5
7F1
100
AcDbEntity
  8
0
100
AcDbLine
 10
184.0
 20
133.0
 30
0.0
 11
183.0
 21
133.267949
 31
0.0
  0
LINE
  5
7F2
100
AcDbEntity
  8
0
100
AcDbLine
 10
183.0
 20
133.0
 30
0.0
 11
184.0
 21
133.0
 31
0.0
  0
ENDBLK
  5
7F3
100
AcDbEntity
  8
0
100
AcDbBlockEnd
  0
BLOCK
  5
7F4
100
AcDbEntity
  8
SCALE
100
AcDbBlockBegin
  2
*D3
 70
    65
 10
0.0
 20
0.0
 30
0.0
  3
*D3
  1

  0
LINE
  5
7F5
100
AcDbEntity
  8
0
  6
BYBLOCK
 62
     0
100
AcDbLine
 10
235.683105
 20
559.606918
 30
0.0
 11
434.946566
 21
559.606918
 31
0.0
  0
LINE
  5
7F6
100
AcDbEntity
  8
0
  6
BYBLOCK
 62
     0
100
AcDbLine
 10
363.546529
 20
448.606918
 30
0.0
 11
434.946566
 21
448.606918
 31
0.0
  0
LINE
  5
7F7
100
AcDbEntity
  8
0
  6
BYBLOCK
 62
     0
100
AcDbLine
 10
427.446566
 20
552.106918
 30
0.0
 11
427.446566
 21
456.106918
 31
0.0
  0
INSERT
  5
7F8
100
AcDbEntity
  8
0
  6
BYBLOCK
 62
     0
100
AcDbBlockReference
  2
YAZ3
 10
427.446566
 20
559.606918
 30
0.0
 41
7.5
 42
7.5
 43
7.5
 50
90.0
  0
INSERT
  5
7F9
100
AcDbEntity
  8
0
  6
BYBLOCK
 62
     0
100
AcDbBlockReference
  2
YAZ3
 10
427.446566
 20
448.606918
 30
0.0
 41
7.5
 42
7.5
 43
7.5
 50
270.0
  0
TEXT
  5
7FA
100
AcDbEntity
  8
0
  6
BYBLOCK
 62
     0
100
AcDbText
 10
421.946566
 20
494.416441
 30
0.0
 40
11.0
  1
111
 50
90.0
 72
     1
 11
416.446566
 21
504.106918
 31
0.0
100
AcDbText
 73
     2
  0
POINT
  5
7FB
100
AcDbEntity
  8
DEFPOINTS
  6
BYBLOCK
 62
     0
100
AcDbPoint
 10
225.683105
 20
559.606918
 30
0.0
  0
POINT
  5
7FC
100
AcDbEntity
  8
DEFPOINTS
  6
BYBLOCK
 62
     0
100
AcDbPoint
 10
353.546529
 20
448.606918
 30
0.0
  0
POINT
  5
7FD
100
AcDbEntity
  8
DEFPOINTS
  6
BYBLOCK
 62
     0
100
AcDbPoint
 10
427.446566
 20
448.606918
 30
0.0
  0
ENDBLK
  5
7FE
100
AcDbEntity
  8
SCALE
100
AcDbBlockEnd
  0
BLOCK
  5
7FF
100
AcDbEntity
  8
SCALE
100
AcDbBlockBegin
  2
*D4
 70
    65
 10
0.0
 20
0.0
 30
0.0
  3
*D4
  1

  0
LINE
  5
800
100
AcDbEntity
  8
0
  6
BYBLOCK
 62
     0
100
AcDbLine
 10
779.029091
 20
158.962636
 30
0.0
 11
779.029091
 21
138.304721
 31
0.0
  0
LINE
  5
801
100
AcDbEntity
  8
0
  6
BYBLOCK
 62
     0
100
AcDbLine
 10
784.625381
 20
170.462636
 30
0.0
 11
784.625381
 21
138.304721
 31
0.0
  0
LINE
  5
802
100
AcDbEntity
  8
0
  6
BYBLOCK
 62
     0
100
AcDbLine
 10
771.529091
 20
145.804721
 30
0.0
 11
764.029091
 21
145.804721
 31
0.0
  0
LINE
  5
803
100
AcDbEntity
  8
0
  6
BYBLOCK
 62
     0
100
AcDbLine
 10
792.125381
 20
145.804721
 30
0.0
 11
799.625381
 21
145.804721
 31
0.0
  0
LINE
  5
804
100
AcDbEntity
  8
0
  6
BYBLOCK
 62
     0
100
AcDbLine
 10
799.625381
 20
145.804721
 30
0.0
 11
822.599191
 21
145.804721
 31
0.0
  0
INSERT
  5
805
100
AcDbEntity
  8
0
  6
BYBLOCK
 62
     0
100
AcDbBlockReference
  2
YAZ3
 10
779.029091
 20
145.804721
 30
0.0
 41
7.5
 42
7.5
 43
7.5
  0
INSERT
  5
806
100
AcDbEntity
  8
0
  6
BYBLOCK
 62
     0
100
AcDbBlockReference
  2
YAZ3
 10
784.625381
 20
145.804721
 30
0.0
 41
7.5
 42
7.5
 43
7.5
 50
180.0
  0
LINE
  5
807
100
AcDbEntity
  8
0
  6
BYBLOCK
 62
     0
100
AcDbLine
 10
779.029091
 20
145.804721
 30
0.0
 11
784.625381
 21
145.804721
 31
0.0
  0
TEXT
  5
808
100
AcDbEntity
  8
0
  6
BYBLOCK
 62
     0
100
AcDbText
 10
800.075381
 20
151.304721
 30
0.0
 40
11.0
  1
5.6
 72
     1
 11
811.337286
 21
156.804721
 31
0.0
100
AcDbText
 73
     2
  0
POINT
  5
809
100
AcDbEntity
  8
DEFPOINTS
  6
BYBLOCK
 62
     0
100
AcDbPoint
 10
779.029091
 20
168.962636
 30
0.0
  0
POINT
  5
80A
100
AcDbEntity
  8
DEFPOINTS
  6
BYBLOCK
 62
     0
100
AcDbPoint
 10
784.625381
 20
180.462636
 30
0.0
  0
POINT
  5
80B
100
AcDbEntity
  8
DEFPOINTS
  6
BYBLOCK
 62
     0
100
AcDbPoint
 10
784.625381
 20
145.804721
 30
0.0
  0
ENDBLK
  5
80C
100
AcDbEntity
  8
SCALE
100
AcDbBlockEnd
  0
BLOCK
  5
80D
100
AcDbEntity
  8
SCALE
100
AcDbBlockBegin
  2
*D5
 70
    65
 10
0.0
 20
0.0
 30
0.0
  3
*D5
  1

  0
LINE
  5
80E
100
AcDbEntity
  8
0
  6
BYBLOCK
 62
     0
100
AcDbLine
 10
779.029091
 20
359.962636
 30
0.0
 11
779.029091
 21
372.441937
 31
0.0
  0
LINE
  5
80F
100
AcDbEntity
  8
0
  6
BYBLOCK
 62
     0
100
AcDbLine
 10
780.629091
 20
359.962636
 30
0.0
 11
780.629091
 21
372.441937
 31
0.0
  0
LINE
  5
810
100
AcDbEntity
  8
0
  6
BYBLOCK
 62
     0
100
AcDbLine
 10
771.529091
 20
364.941937
 30
0.0
 11
764.029091
 21
364.941937
 31
0.0
  0
LINE
  5
811
100
AcDbEntity
  8
0
  6
BYBLOCK
 62
     0
100
AcDbLine
 10
788.129091
 20
364.941937
 30
0.0
 11
795.629091
 21
364.941937
 31
0.0
  0
LINE
  5
812
100
AcDbEntity
  8
0
  6
BYBLOCK
 62
     0
100
AcDbLine
 10
795.629091
 20
364.941937
 30
0.0
 11
816.507662
 21
364.941937
 31
0.0
  0
INSERT
  5
813
100
AcDbEntity
  8
0
  6
BYBLOCK
 62
     0
100
AcDbBlockReference
  2
YAZ3
 10
779.029091
 20
364.941937
 30
0.0
 41
7.5
 42
7.5
 43
7.5
  0
INSERT
  5
814
100
AcDbEntity
  8
0
  6
BYBLOCK
 62
     0
100
AcDbBlockReference
  2
YAZ3
 10
780.629091
 20
364.941937
 30
0.0
 41
7.5
 42
7.5
 43
7.5
 50
180.0
  0
LINE
  5
815
100
AcDbEntity
  8
0
  6
BYBLOCK
 62
     0
100
AcDbLine
 10
779.029091
 20
364.941937
 30
0.0
 11
780.629091
 21
364.941937
 31
0.0
  0
TEXT
  5
816
100
AcDbEntity
  8
0
  6
BYBLOCK
 62
     0
100
AcDbText
 10
796.079091
 20
370.441937
 30
0.0
 40
11.0
  1
1.6
 72
     1
 11
806.293377
 21
375.941937
 31
0.0
100
AcDbText
 73
     2
  0
POINT
  5
817
100
AcDbEntity
  8
DEFPOINTS
  6
BYBLOCK
 62
     0
100
AcDbPoint
 10
779.029091
 20
349.962636
 30
0.0
  0
POINT
  5
818
100
AcDbEntity
  8
DEFPOINTS
  6
BYBLOCK
 62
     0
100
AcDbPoint
 10
780.629091
 20
349.962636
 30
0.0
  0
POINT
  5
819
100
AcDbEntity
  8
DEFPOINTS
  6
BYBLOCK
 62
     0
100
AcDbPoint
 10
780.629091
 20
364.941937
 30
0.0
  0
ENDBLK
  5
81A
100
AcDbEntity
  8
SCALE
100
AcDbBlockEnd
  0
BLOCK
  5
81B
100
AcDbEntity
  8
SCALE
100
AcDbBlockBegin
  2
*D6
 70
    65
 10
0.0
 20
0.0
 30
0.0
  3
*D6
  1

  0
LINE
  5
81C
100
AcDbEntity
  8
0
  6
BYBLOCK
 62
     0
100
AcDbLine
 10
91.693518
 20
416.96017
 30
0.0
 11
91.693518
 21
372.530698
 31
0.0
  0
LINE
  5
81D
100
AcDbEntity
  8
0
  6
BYBLOCK
 62
     0
100
AcDbLine
 10
359.672692
 20
416.96017
 30
0.0
 11
359.672692
 21
372.530698
 31
0.0
  0
LINE
  5
81E
100
AcDbEntity
  8
0
  6
BYBLOCK
 62
     0
100
AcDbLine
 10
99.193518
 20
380.030698
 30
0.0
 11
352.172692
 21
380.030698
 31
0.0
  0
INSERT
  5
81F
100
AcDbEntity
  8
0
  6
BYBLOCK
 62
     0
100
AcDbBlockReference
  2
YAZ3
 10
91.693518
 20
380.030698
 30
0.0
 41
7.5
 42
7.5
 43
7.5
 50
180.0
  0
INSERT
  5
820
100
AcDbEntity
  8
0
  6
BYBLOCK
 62
     0
100
AcDbBlockReference
  2
YAZ3
 10
359.672692
 20
380.030698
 30
0.0
 41
7.5
 42
7.5
 43
7.5
  0
TEXT
  5
821
100
AcDbEntity
  8
0
  6
BYBLOCK
 62
     0
100
AcDbText
 10
206.564057
 20
385.530698
 30
0.0
 40
11.0
  1
%%C268
  7
UT7
 72
     1
 11
225.683105
 21
391.030698
 31
0.0
100
AcDbText
 73
     2
  0
POINT
  5
822
100
AcDbEntity
  8
DEFPOINTS
  6
BYBLOCK
 62
     0
100
AcDbPoint
 10
91.693518
 20
426.96017
 30
0.0
  0
POINT
  5
823
100
AcDbEntity
  8
DEFPOINTS
  6
BYBLOCK
 62
     0
100
AcDbPoint
 10
359.672692
 20
426.96017
 30
0.0
  0
POINT
  5
824
100
AcDbEntity
  8
DEFPOINTS
  6
BYBLOCK
 62
     0
100
AcDbPoint
 10
359.672692
 20
380.030698
 30
0.0
  0
ENDBLK
  5
825
100
AcDbEntity
  8
SCALE
100
AcDbBlockEnd
  0
BLOCK
  5
826
100
AcDbEntity
  8
SCALE
100
AcDbBlockBegin
  2
*D7
 70
    65
 10
0.0
 20
0.0
 30
0.0
  3
*D7
  1

  0
LINE
  5
827
100
AcDbEntity
  8
0
  6
BYBLOCK
 62
     0
100
AcDbLine
 10
583.943661
 20
299.339062
 30
0.0
 11
629.982894
 21
345.378295
 31
0.0
  0
LINE
  5
828
100
AcDbEntity
  8
0
  6
BYBLOCK
 62
     0
100
AcDbLine
 10
637.966619
 20
245.316104
 30
0.0
 11
684.005852
 21
291.355336
 31
0.0
  0
LINE
  5
829
100
AcDbEntity
  8
0
  6
BYBLOCK
 62
     0
100
AcDbLine
 10
629.982894
 20
334.771693
 30
0.0
 11
673.39925
 21
291.355336
 31
0.0
  0
INSERT
  5
82A
100
AcDbEntity
  8
0
  6
BYBLOCK
 62
     0
100
AcDbBlockReference
  2
YAZ3
 10
624.679593
 20
340.074994
 30
0.0
 41
7.5
 42
7.5
 43
7.5
 50
135.0
  0
INSERT
  5
82B
100
AcDbEntity
  8
0
  6
BYBLOCK
 62
     0
100
AcDbBlockReference
  2
YAZ3
 10
678.702551
 20
286.052036
 30
0.0
 41
7.5
 42
7.5
 43
7.5
 50
315.0
  0
TEXT
  5
82C
100
AcDbEntity
  8
0
  6
BYBLOCK
 62
     0
100
AcDbText
 10
632.245636
 20
340.287126
 30
0.0
 40
11.0
  1
76.4(3")
 50
315.0
 72
     1
 11
659.469247
 21
320.841689
 31
0.0
100
AcDbText
 73
     2
  0
POINT
  5
82D
100
AcDbEntity
  8
DEFPOINTS
  6
BYBLOCK
 62
     0
100
AcDbPoint
 10
576.872593
 20
292.267994
 30
0.0
  0
POINT
  5
82E
100
AcDbEntity
  8
DEFPOINTS
  6
BYBLOCK
 62
     0
100
AcDbPoint
 10
630.895552
 20
238.245036
 30
0.0
  0
POINT
  5
82F
100
AcDbEntity
  8
DEFPOINTS
  6
BYBLOCK
 62
     0
100
AcDbPoint
 10
678.702551
 20
286.052036
 30
0.0
  0
ENDBLK
  5
830
100
AcDbEntity
  8
SCALE
100
AcDbBlockEnd
  0
BLOCK
  5
831
100
AcDbEntity
  8
SCALE
100
AcDbBlockBegin
  2
*D8
 70
    65
 10
0.0
 20
0.0
 30
0.0
  3
*D8
  1

  0
LINE
  5
832
100
AcDbEntity
  8
0
  6
BYBLOCK
 62
     0
100
AcDbLine
 10
588.190613
 20
269.988055
 30
0.0
 11
732.61971
 21
269.988055
 31
0.0
  0
LINE
  5
833
100
AcDbEntity
  8
0
  6
BYBLOCK
 62
     0
100
AcDbLine
 10
588.190613
 20
200.138055
 30
0.0
 11
732.61971
 21
200.138055
 31
0.0
  0
LINE
  5
834
100
AcDbEntity
  8
0
  6
BYBLOCK
 62
     0
100
AcDbLine
 10
725.11971
 20
277.488055
 30
0.0
 11
725.11971
 21
284.988055
 31
0.0
  0
LINE
  5
835
100
AcDbEntity
  8
0
  6
BYBLOCK
 62
     0
100
AcDbLine
 10
725.11971
 20
192.638055
 30
0.0
 11
725.11971
 21
185.138055
 31
0.0
  0
LINE
  5
836
100
AcDbEntity
  8
0
  6
BYBLOCK
 62
     0
100
AcDbLine
 10
725.11971
 20
185.138055
 30
0.0
 11
725.11971
 21
88.307103
 31
0.0
  0
INSERT
  5
837
100
AcDbEntity
  8
0
  6
BYBLOCK
 62
     0
100
AcDbBlockReference
  2
YAZ3
 10
725.11971
 20
269.988055
 30
0.0
 41
7.5
 42
7.5
 43
7.5
 50
270.0
  0
INSERT
  5
838
100
AcDbEntity
  8
0
  6
BYBLOCK
 62
     0
100
AcDbBlockReference
  2
YAZ3
 10
725.11971
 20
200.138055
 30
0.0
 41
7.5
 42
7.5
 43
7.5
 50
90.0
  0
LINE
  5
839
100
AcDbEntity
  8
0
  6
BYBLOCK
 62
     0
100
AcDbLine
 10
725.11971
 20
269.988055
 30
0.0
 11
725.11971
 21
200.138055
 31
0.0
  0
TEXT
  5
83A
100
AcDbEntity
  8
0
  6
BYBLOCK
 62
     0
100
AcDbText
 10
719.61971
 20
88.307103
 30
0.0
 40
11.0
  1
69.85(2  ")
 50
90.0
 72
     1
 11
714.11971
 21
136.497579
 31
0.0
100
AcDbText
 73
     2
  0
POINT
  5
83B
100
AcDbEntity
  8
DEFPOINTS
  6
BYBLOCK
 62
     0
100
AcDbPoint
 10
578.190613
 20
269.988055
 30
0.0
  0
POINT
  5
83C
100
AcDbEntity
  8
DEFPOINTS
  6
BYBLOCK
 62
     0
100
AcDbPoint
 10
578.190613
 20
200.138055
 30
0.0
  0
POINT
  5
83D
100
AcDbEntity
  8
DEFPOINTS
  6
BYBLOCK
 62
     0
100
AcDbPoint
 10
725.11971
 20
200.138055
 30
0.0
  0
ENDBLK
  5
83E
100
AcDbEntity
  8
SCALE
100
AcDbBlockEnd
  0
BLOCK
  5
83F
100
AcDbEntity
  8
SCALE
100
AcDbBlockBegin
  2
*D9
 70
    65
 10
0.0
 20
0.0
 30
0.0
  3
*D9
  1

  0
LINE
  5
840
100
AcDbEntity
  8
0
  6
BYBLOCK
 62
     0
100
AcDbLine
 10
588.190613
 20
268.413055
 30
0.0
 11
702.996398
 21
268.413055
 31
0.0
  0
LINE
  5
841
100
AcDbEntity
  8
0
  6
BYBLOCK
 62
     0
100
AcDbLine
 10
588.190613
 20
201.713055
 30
0.0
 11
702.996398
 21
201.713055
 31
0.0
  0
LINE
  5
842
100
AcDbEntity
  8
0
  6
BYBLOCK
 62
     0
100
AcDbLine
 10
695.496398
 20
275.913055
 30
0.0
 11
695.496398
 21
283.413055
 31
0.0
  0
LINE
  5
843
100
AcDbEntity
  8
0
  6
BYBLOCK
 62
     0
100
AcDbLine
 10
695.496398
 20
194.213055
 30
0.0
 11
695.496398
 21
186.713055
 31
0.0
  0
LINE
  5
844
100
AcDbEntity
  8
0
  6
BYBLOCK
 62
     0
100
AcDbLine
 10
695.496398
 20
186.713055
 30
0.0
 11
695.496398
 21
100.358293
 31
0.0
  0
INSERT
  5
845
100
AcDbEntity
  8
0
  6
BYBLOCK
 62
     0
100
AcDbBlockReference
  2
YAZ3
 10
695.496398
 20
268.413055
 30
0.0
 41
7.5
 42
7.5
 43
7.5
 50
270.0
  0
INSERT
  5
846
100
AcDbEntity
  8
0
  6
BYBLOCK
 62
     0
100
AcDbBlockReference
  2
YAZ3
 10
695.496398
 20
201.713055
 30
0.0
 41
7.5
 42
7.5
 43
7.5
 50
90.0
  0
LINE
  5
847
100
AcDbEntity
  8
0
  6
BYBLOCK
 62
     0
100
AcDbLine
 10
695.496398
 20
268.413055
 30
0.0
 11
695.496398
 21
201.713055
 31
0.0
  0
TEXT
  5
848
100
AcDbEntity
  8
0
  6
BYBLOCK
 62
     0
100
AcDbText
 10
689.996398
 20
100.358293
 30
0.0
 40
11.0
  1
66.7(2  ")
 50
90.0
 72
     1
 11
684.496398
 21
143.310674
 31
0.0
100
AcDbText
 73
     2
  0
POINT
  5
849
100
AcDbEntity
  8
DEFPOINTS
  6
BYBLOCK
 62
     0
100
AcDbPoint
 10
578.190613
 20
268.413055
 30
0.0
  0
POINT
  5
84A
100
AcDbEntity
  8
DEFPOINTS
  6
BYBLOCK
 62
     0
100
AcDbPoint
 10
578.190613
 20
201.713055
 30
0.0
  0
POINT
  5
84B
100
AcDbEntity
  8
DEFPOINTS
  6
BYBLOCK
 62
     0
100
AcDbPoint
 10
695.496398
 20
201.713055
 30
0.0
  0
ENDBLK
  5
84C
100
AcDbEntity
  8
SCALE
100
AcDbBlockEnd
  0
BLOCK
  5
84D
100
AcDbEntity
  8
SCALE
100
AcDbBlockBegin
  2
*D10
 70
    65
 10
0.0
 20
0.0
 30
0.0
  3
*D10
  1

  0
LINE
  5
84E
100
AcDbEntity
  8
0
  6
BYBLOCK
 62
     0
100
AcDbLine
 10
618.140613
 20
220.563055
 30
0.0
 11
618.140613
 21
91.328385
 31
0.0
  0
LINE
  5
84F
100
AcDbEntity
  8
0
  6
BYBLOCK
 62
     0
100
AcDbLine
 10
529.240613
 20
220.563055
 30
0.0
 11
529.240613
 21
91.328385
 31
0.0
  0
LINE
  5
850
100
AcDbEntity
  8
0
  6
BYBLOCK
 62
     0
100
AcDbLine
 10
625.640613
 20
98.828385
 30
0.0
 11
633.140613
 21
98.828385
 31
0.0
  0
LINE
  5
851
100
AcDbEntity
  8
0
  6
BYBLOCK
 62
     0
100
AcDbLine
 10
521.740613
 20
98.828385
 30
0.0
 11
514.240613
 21
98.828385
 31
0.0
  0
LINE
  5
852
100
AcDbEntity
  8
0
  6
BYBLOCK
 62
     0
100
AcDbLine
 10
514.240613
 20
98.828385
 30
0.0
 11
427.885851
 21
98.828385
 31
0.0
  0
INSERT
  5
853
100
AcDbEntity
  8
0
  6
BYBLOCK
 62
     0
100
AcDbBlockReference
  2
YAZ3
 10
618.140613
 20
98.828385
 30
0.0
 41
7.5
 42
7.5
 43
7.5
 50
180.0
  0
INSERT
  5
854
100
AcDbEntity
  8
0
  6
BYBLOCK
 62
     0
100
AcDbBlockReference
  2
YAZ3
 10
529.240613
 20
98.828385
 30
0.0
 41
7.5
 42
7.5
 43
7.5
  0
LINE
  5
855
100
AcDbEntity
  8
0
  6
BYBLOCK
 62
     0
100
AcDbLine
 10
618.140613
 20
98.828385
 30
0.0
 11
529.240613
 21
98.828385
 31
0.0
  0
TEXT
  5
856
100
AcDbEntity
  8
0
  6
BYBLOCK
 62
     0
100
AcDbText
 10
427.885851
 20
104.328385
 30
0.0
 40
11.0
  1
88.9(3  ")
 72
     1
 11
470.838232
 21
109.828385
 31
0.0
100
AcDbText
 73
     2
  0
POINT
  5
857
100
AcDbEntity
  8
DEFPOINTS
  6
BYBLOCK
 62
     0
100
AcDbPoint
 10
618.140613
 20
230.563055
 30
0.0
  0
POINT
  5
858
100
AcDbEntity
  8
DEFPOINTS
  6
BYBLOCK
 62
     0
100
AcDbPoint
 10
529.240613
 20
230.563055
 30
0.0
  0
POINT
  5
859
100
AcDbEntity
  8
DEFPOINTS
  6
BYBLOCK
 62
     0
100
AcDbPoint
 10
529.240613
 20
98.828385
 30
0.0
  0
ENDBLK
  5
85A
100
AcDbEntity
  8
SCALE
100
AcDbBlockEnd
  0
BLOCK
  5
85B
100
AcDbEntity
  8
SCALE
100
AcDbBlockBegin
  2
*D11
 70
    65
 10
0.0
 20
0.0
 30
0.0
  3
*D11
  1

  0
LINE
  5
85C
100
AcDbEntity
  8
0
  6
BYBLOCK
 62
     0
100
AcDbLine
 10
563.690613
 20
325.563055
 30
0.0
 11
394.596887
 21
325.563055
 31
0.0
  0
LINE
  5
85D
100
AcDbEntity
  8
0
  6
BYBLOCK
 62
     0
100
AcDbLine
 10
563.690613
 20
144.563055
 30
0.0
 11
394.596887
 21
144.563055
 31
0.0
  0
LINE
  5
85E
100
AcDbEntity
  8
0
  6
BYBLOCK
 62
     0
100
AcDbLine
 10
402.096887
 20
318.063055
 30
0.0
 11
402.096887
 21
152.063055
 31
0.0
  0
INSERT
  5
85F
100
AcDbEntity
  8
0
  6
BYBLOCK
 62
     0
100
AcDbBlockReference
  2
YAZ3
 10
402.096887
 20
325.563055
 30
0.0
 41
7.5
 42
7.5
 43
7.5
 50
90.0
  0
INSERT
  5
860
100
AcDbEntity
  8
0
  6
BYBLOCK
 62
     0
100
AcDbBlockReference
  2
YAZ3
 10
402.096887
 20
144.563055
 30
0.0
 41
7.5
 42
7.5
 43
7.5
 50
270.0
  0
TEXT
  5
861
100
AcDbEntity
  8
0
  6
BYBLOCK
 62
     0
100
AcDbText
 10
396.596887
 20
219.34877
 30
0.0
 40
11.0
  1
%%C181
 50
90.0
  7
UT7
 72
     1
 11
391.096887
 21
235.063055
 31
0.0
100
AcDbText
 73
     2
  0
POINT
  5
862
100
AcDbEntity
  8
DEFPOINTS
  6
BYBLOCK
 62
     0
100
AcDbPoint
 10
573.690613
 20
325.563055
 30
0.0
  0
POINT
  5
863
100
AcDbEntity
  8
DEFPOINTS
  6
BYBLOCK
 62
     0
100
AcDbPoint
 10
573.690613
 20
144.563055
 30
0.0
  0
POINT
  5
864
100
AcDbEntity
  8
DEFPOINTS
  6
BYBLOCK
 62
     0
100
AcDbPoint
 10
402.096887
 20
144.563055
 30
0.0
  0
ENDBLK
  5
865
100
AcDbEntity
  8
SCALE
100
AcDbBlockEnd
  0
BLOCK
  5
866
100
AcDbEntity
  8
SCALE
100
AcDbBlockBegin
  2
*D12
 70
    65
 10
0.0
 20
0.0
 30
0.0
  3
*D12
  1

  0
LINE
  5
867
100
AcDbEntity
  8
0
  6
BYBLOCK
 62
     0
100
AcDbLine
 10
615.360613
 20
220.563055
 30
0.0
 11
615.360613
 21
113.905141
 31
0.0
  0
LINE
  5
868
100
AcDbEntity
  8
0
  6
BYBLOCK
 62
     0
100
AcDbLine
 10
532.020613
 20
220.563055
 30
0.0
 11
532.020613
 21
113.905141
 31
0.0
  0
LINE
  5
869
100
AcDbEntity
  8
0
  6
BYBLOCK
 62
     0
100
AcDbLine
 10
622.860613
 20
121.405141
 30
0.0
 11
630.360613
 21
121.405141
 31
0.0
  0
LINE
  5
86A
100
AcDbEntity
  8
0
  6
BYBLOCK
 62
     0
100
AcDbLine
 10
524.520613
 20
121.405141
 30
0.0
 11
517.020613
 21
121.405141
 31
0.0
  0
LINE
  5
86B
100
AcDbEntity
  8
0
  6
BYBLOCK
 62
     0
100
AcDbLine
 10
517.020613
 20
121.405141
 30
0.0
 11
420.189661
 21
121.405141
 31
0.0
  0
INSERT
  5
86C
100
AcDbEntity
  8
0
  6
BYBLOCK
 62
     0
100
AcDbBlockReference
  2
YAZ3
 10
615.360613
 20
121.405141
 30
0.0
 41
7.5
 42
7.5
 43
7.5
 50
180.0
  0
INSERT
  5
86D
100
AcDbEntity
  8
0
  6
BYBLOCK
 62
     0
100
AcDbBlockReference
  2
YAZ3
 10
532.020613
 20
121.405141
 30
0.0
 41
7.5
 42
7.5
 43
7.5
  0
LINE
  5
86E
100
AcDbEntity
  8
0
  6
BYBLOCK
 62
     0
100
AcDbLine
 10
615.360613
 20
121.405141
 30
0.0
 11
532.020613
 21
121.405141
 31
0.0
  0
TEXT
  5
86F
100
AcDbEntity
  8
0
  6
BYBLOCK
 62
     0
100
AcDbText
 10
420.189661
 20
126.905141
 30
0.0
 40
11.0
  1
83.34(3  ")
 72
     1
 11
468.380137
 21
132.405141
 31
0.0
100
AcDbText
 73
     2
  0
POINT
  5
870
100
AcDbEntity
  8
DEFPOINTS
  6
BYBLOCK
 62
     0
100
AcDbPoint
 10
615.360613
 20
230.563055
 30
0.0
  0
POINT
  5
871
100
AcDbEntity
  8
DEFPOINTS
  6
BYBLOCK
 62
     0
100
AcDbPoint
 10
532.020613
 20
230.563055
 30
0.0
  0
POINT
  5
872
100
AcDbEntity
  8
DEFPOINTS
  6
BYBLOCK
 62
     0
100
AcDbPoint
 10
532.020613
 20
121.405141
 30
0.0
  0
ENDBLK
  5
873
100
AcDbEntity
  8
SCALE
100
AcDbBlockEnd
  0
ENDSEC
  0
SECTION
  2
ENTITIES
  0
INSERT
  5
3D
100
AcDbEntity
  8
0
100
AcDbBlockReference
  2
INSLYTXT
 10
0.0
 20
0.0
 30
0.0
 41
5.0
 42
5.0
 43
5.0
  0
TEXT
  5
3E
100
AcDbEntity
  8
1
100
AcDbText
 10
134.13921
 20
52.92887
 30
0.0
 40
12.5
  1
SCALE:1/5
 41
0.8
  7
UT7
100
AcDbText
  0
TEXT
  5
3F
100
AcDbEntity
  8
1
100
AcDbText
 10
34.184505
 20
52.16887
 30
0.0
 40
12.5
  1
UNIT:mm
 41
0.8
  7
UT7
100
AcDbText
  0
POINT
  5
54
100
AcDbEntity
  8
0
100
AcDbPoint
 10
0.0
 20
0.0
 30
0.0
  0
LINE
  5
55
100
AcDbEntity
  8
CENTER
100
AcDbLine
 10
516.485674
 20
238.245036
 30
0.0
 11
522.849635
 21
231.881075
 31
0.0
  0
LINE
  5
56
100
AcDbEntity
  8
CENTER
100
AcDbLine
 10
516.485674
 20
231.881075
 30
0.0
 11
522.849635
 21
238.245036
 31
0.0
  0
LINE
  5
57
100
AcDbEntity
  8
CENTER
100
AcDbLine
 10
570.508632
 20
184.222078
 30
0.0
 11
576.872593
 21
177.858117
 31
0.0
  0
LINE
  5
58
100
AcDbEntity
  8
CENTER
100
AcDbLine
 10
570.508632
 20
177.858117
 30
0.0
 11
576.872593
 21
184.222078
 31
0.0
  0
LINE
  5
59
100
AcDbEntity
  8
CENTER
100
AcDbLine
 10
624.53159
 20
238.245036
 30
0.0
 11
630.895552
 21
231.881075
 31
0.0
  0
LINE
  5
5A
100
AcDbEntity
  8
CENTER
100
AcDbLine
 10
624.53159
 20
231.881075
 30
0.0
 11
630.895552
 21
238.245036
 31
0.0
  0
LINE
  5
5B
100
AcDbEntity
  8
CENTER
100
AcDbLine
 10
570.508632
 20
292.267994
 30
0.0
 11
576.872593
 21
285.904033
 31
0.0
  0
LINE
  5
5C
100
AcDbEntity
  8
CENTER
100
AcDbLine
 10
570.508632
 20
285.904033
 30
0.0
 11
576.872593
 21
292.267994
 31
0.0
  0
CIRCLE
  5
5D
100
AcDbEntity
  8
SILK
100
AcDbCircle
 10
321.716849
 20
444.230016
 30
0.0
 40
1.5
  0
CIRCLE
  5
5E
100
AcDbEntity
  8
SILK
100
AcDbCircle
 10
325.716849
 20
444.230016
 30
0.0
 40
1.5
  0
CIRCLE
  5
5F
100
AcDbEntity
  8
SILK
100
AcDbCircle
 10
329.716849
 20
444.230016
 30
0.0
 40
1.5
  0
CIRCLE
  5
60
100
AcDbEntity
  8
SILK
100
AcDbCircle
 10
333.716849
 20
444.230016
 30
0.0
 40
1.5
  0
CIRCLE
  5
61
100
AcDbEntity
  8
SILK
100
AcDbCircle
 10
337.716849
 20
444.230016
 30
0.0
 40
1.5
  0
CIRCLE
  5
62
100
AcDbEntity
  8
SILK
100
AcDbCircle
 10
341.716849
 20
444.230016
 30
0.0
 40
1.5
  0
CIRCLE
  5
63
100
AcDbEntity
  8
SILK
100
AcDbCircle
 10
339.716849
 20
447.694117
 30
0.0
 40
1.5
  0
CIRCLE
  5
64
100
AcDbEntity
  8
SILK
100
AcDbCircle
 10
335.716849
 20
447.694117
 30
0.0
 40
1.5
  0
CIRCLE
  5
65
100
AcDbEntity
  8
SILK
100
AcDbCircle
 10
331.716849
 20
447.694117
 30
0.0
 40
1.5
  0
CIRCLE
  5
66
100
AcDbEntity
  8
SILK
100
AcDbCircle
 10
327.716849
 20
447.694117
 30
0.0
 40
1.5
  0
CIRCLE
  5
67
100
AcDbEntity
  8
SILK
100
AcDbCircle
 10
323.716849
 20
447.694117
 30
0.0
 40
1.5
  0
CIRCLE
  5
68
100
AcDbEntity
  8
SILK
100
AcDbCircle
 10
319.716849
 20
447.694117
 30
0.0
 40
1.5
  0
CIRCLE
  5
69
100
AcDbEntity
  8
SILK
100
AcDbCircle
 10
337.716849
 20
451.158219
 30
0.0
 40
1.5
  0
CIRCLE
  5
6A
100
AcDbEntity
  8
SILK
100
AcDbCircle
 10
333.716849
 20
451.158219
 30
0.0
 40
1.5
  0
CIRCLE
  5
6B
100
AcDbEntity
  8
SILK
100
AcDbCircle
 10
329.716849
 20
451.158219
 30
0.0
 40
1.5
  0
CIRCLE
  5
6C
100
AcDbEntity
  8
SILK
100
AcDbCircle
 10
325.716849
 20
451.158219
 30
0.0
 40
1.5
  0
CIRCLE
  5
6D
100
AcDbEntity
  8
SILK
100
AcDbCircle
 10
321.716849
 20
451.158219
 30
0.0
 40
1.5
  0
CIRCLE
  5
6E
100
AcDbEntity
  8
SILK
100
AcDbCircle
 10
317.716849
 20
451.158219
 30
0.0
 40
1.5
  0
CIRCLE
  5
6F
100
AcDbEntity
  8
SILK
100
AcDbCircle
 10
335.716849
 20
454.62232
 30
0.0
 40
1.5
  0
CIRCLE
  5
70
100
AcDbEntity
  8
SILK
100
AcDbCircle
 10
331.716849
 20
454.62232
 30
0.0
 40
1.5
  0
CIRCLE
  5
71
100
AcDbEntity
  8
SILK
100
AcDbCircle
 10
327.716849
 20
454.62232
 30
0.0
 40
1.5
  0
CIRCLE
  5
72
100
AcDbEntity
  8
SILK
100
AcDbCircle
 10
323.716849
 20
454.62232
 30
0.0
 40
1.5
  0
CIRCLE
  5
73
100
AcDbEntity
  8
SILK
100
AcDbCircle
 10
319.716849
 20
454.62232
 30
0.0
 40
1.5
  0
CIRCLE
  5
74
100
AcDbEntity
  8
SILK
100
AcDbCircle
 10
315.716849
 20
454.62232
 30
0.0
 40
1.5
  0
CIRCLE
  5
75
100
AcDbEntity
  8
SILK
100
AcDbCircle
 10
494.136368
 20
739.157028
 30
0.0
 40
1.5
  0
CIRCLE
  5
76
100
AcDbEntity
  8
SILK
100
AcDbCircle
 10
494.136368
 20
743.157028
 30
0.0
 40
1.5
  0
CIRCLE
  5
77
100
AcDbEntity
  8
SILK
100
AcDbCircle
 10
494.136368
 20
747.157028
 30
0.0
 40
1.5
  0
CIRCLE
  5
78
100
AcDbEntity
  8
SILK
100
AcDbCircle
 10
494.136368
 20
751.157028
 30
0.0
 40
1.5
  0
CIRCLE
  5
79
100
AcDbEntity
  8
SILK
100
AcDbCircle
 10
494.136368
 20
755.157028
 30
0.0
 40
1.5
  0
CIRCLE
  5
7A
100
AcDbEntity
  8
SILK
100
AcDbCircle
 10
494.136368
 20
759.157028
 30
0.0
 40
1.5
  0
CIRCLE
  5
7B
100
AcDbEntity
  8
SILK
100
AcDbCircle
 10
497.600469
 20
741.157028
 30
0.0
 40
1.5
  0
CIRCLE
  5
7C
100
AcDbEntity
  8
SILK
100
AcDbCircle
 10
497.600469
 20
745.157028
 30
0.0
 40
1.5
  0
CIRCLE
  5
7D
100
AcDbEntity
  8
SILK
100
AcDbCircle
 10
497.600469
 20
749.157028
 30
0.0
 40
1.5
  0
CIRCLE
  5
7E
100
AcDbEntity
  8
SILK
100
AcDbCircle
 10
497.600469
 20
753.157028
 30
0.0
 40
1.5
  0
CIRCLE
  5
7F
100
AcDbEntity
  8
SILK
100
AcDbCircle
 10
497.600469
 20
757.157028
 30
0.0
 40
1.5
  0
CIRCLE
  5
80
100
AcDbEntity
  8
SILK
100
AcDbCircle
 10
497.600469
 20
761.157028
 30
0.0
 40
1.5
  0
CIRCLE
  5
81
100
AcDbEntity
  8
SILK
100
AcDbCircle
 10
501.064571
 20
743.157028
 30
0.0
 40
1.5
  0
CIRCLE
  5
82
100
AcDbEntity
  8
SILK
100
AcDbCircle
 10
501.064571
 20
747.157028
 30
0.0
 40
1.5
  0
CIRCLE
  5
83
100
AcDbEntity
  8
SILK
100
AcDbCircle
 10
501.064571
 20
751.157028
 30
0.0
 40
1.5
  0
CIRCLE
  5
84
100
AcDbEntity
  8
SILK
100
AcDbCircle
 10
501.064571
 20
755.157028
 30
0.0
 40
1.5
  0
CIRCLE
  5
85
100
AcDbEntity
  8
SILK
100
AcDbCircle
 10
501.064571
 20
759.157028
 30
0.0
 40
1.5
  0
CIRCLE
  5
86
100
AcDbEntity
  8
SILK
100
AcDbCircle
 10
501.064571
 20
763.157028
 30
0.0
 40
1.5
  0
CIRCLE
  5
87
100
AcDbEntity
  8
SILK
100
AcDbCircle
 10
504.528673
 20
765.157028
 30
0.0
 40
1.5
  0
CIRCLE
  5
88
100
AcDbEntity
  8
SILK
100
AcDbCircle
 10
504.528673
 20
761.157028
 30
0.0
 40
1.5
  0
CIRCLE
  5
89
100
AcDbEntity
  8
SILK
100
AcDbCircle
 10
504.528673
 20
757.157028
 30
0.0
 40
1.5
  0
CIRCLE
  5
8A
100
AcDbEntity
  8
SILK
100
AcDbCircle
 10
504.528673
 20
753.157028
 30
0.0
 40
1.5
  0
CIRCLE
  5
8B
100
AcDbEntity
  8
SILK
100
AcDbCircle
 10
504.528673
 20
749.157028
 30
0.0
 40
1.5
  0
CIRCLE
  5
8C
100
AcDbEntity
  8
SILK
100
AcDbCircle
 10
504.528673
 20
745.157028
 30
0.0
 40
1.5
  0
CIRCLE
  5
8D
100
AcDbEntity
  8
SILK
100
AcDbCircle
 10
281.666733
 20
741.72981
 30
0.0
 40
1.5
  0
CIRCLE
  5
8E
100
AcDbEntity
  8
SILK
100
AcDbCircle
 10
285.666733
 20
741.72981
 30
0.0
 40
1.5
  0
CIRCLE
  5
8F
100
AcDbEntity
  8
SILK
100
AcDbCircle
 10
289.666733
 20
741.72981
 30
0.0
 40
1.5
  0
CIRCLE
  5
90
100
AcDbEntity
  8
SILK
100
AcDbCircle
 10
293.666733
 20
741.72981
 30
0.0
 40
1.5
  0
CIRCLE
  5
91
100
AcDbEntity
  8
SILK
100
AcDbCircle
 10
297.666733
 20
741.72981
 30
0.0
 40
1.5
  0
CIRCLE
  5
92
100
AcDbEntity
  8
SILK
100
AcDbCircle
 10
301.666733
 20
741.72981
 30
0.0
 40
1.5
  0
CIRCLE
  5
93
100
AcDbEntity
  8
SILK
100
AcDbCircle
 10
299.666733
 20
745.193911
 30
0.0
 40
1.5
  0
CIRCLE
  5
94
100
AcDbEntity
  8
SILK
100
AcDbCircle
 10
295.666733
 20
745.193911
 30
0.0
 40
1.5
  0
CIRCLE
  5
95
100
AcDbEntity
  8
SILK
100
AcDbCircle
 10
291.666733
 20
745.193911
 30
0.0
 40
1.5
  0
CIRCLE
  5
96
100
AcDbEntity
  8
SILK
100
AcDbCircle
 10
287.666733
 20
745.193911
 30
0.0
 40
1.5
  0
CIRCLE
  5
97
100
AcDbEntity
  8
SILK
100
AcDbCircle
 10
283.666733
 20
745.193911
 30
0.0
 40
1.5
  0
CIRCLE
  5
98
100
AcDbEntity
  8
SILK
100
AcDbCircle
 10
279.666733
 20
745.193911
 30
0.0
 40
1.5
  0
CIRCLE
  5
99
100
AcDbEntity
  8
SILK
100
AcDbCircle
 10
297.666733
 20
748.658013
 30
0.0
 40
1.5
  0
CIRCLE
  5
9A
100
AcDbEntity
  8
SILK
100
AcDbCircle
 10
293.666733
 20
748.658013
 30
0.0
 40
1.5
  0
CIRCLE
  5
9B
100
AcDbEntity
  8
SILK
100
AcDbCircle
 10
289.666733
 20
748.658013
 30
0.0
 40
1.5
  0
CIRCLE
  5
9C
100
AcDbEntity
  8
SILK
100
AcDbCircle
 10
285.666733
 20
748.658013
 30
0.0
 40
1.5
  0
CIRCLE
  5
9D
100
AcDbEntity
  8
SILK
100
AcDbCircle
 10
281.666733
 20
748.658013
 30
0.0
 40
1.5
  0
CIRCLE
  5
9E
100
AcDbEntity
  8
SILK
100
AcDbCircle
 10
277.666733
 20
748.658013
 30
0.0
 40
1.5
  0
CIRCLE
  5
9F
100
AcDbEntity
  8
SILK
100
AcDbCircle
 10
295.666733
 20
752.122114
 30
0.0
 40
1.5
  0
CIRCLE
  5
A0
100
AcDbEntity
  8
SILK
100
AcDbCircle
 10
291.666733
 20
752.122114
 30
0.0
 40
1.5
  0
CIRCLE
  5
A1
100
AcDbEntity
  8
SILK
100
AcDbCircle
 10
287.666733
 20
752.122114
 30
0.0
 40
1.5
  0
CIRCLE
  5
A2
100
AcDbEntity
  8
SILK
100
AcDbCircle
 10
283.666733
 20
752.122114
 30
0.0
 40
1.5
  0
CIRCLE
  5
A3
100
AcDbEntity
  8
SILK
100
AcDbCircle
 10
279.666733
 20
752.122114
 30
0.0
 40
1.5
  0
CIRCLE
  5
A4
100
AcDbEntity
  8
SILK
100
AcDbCircle
 10
275.666733
 20
752.122114
 30
0.0
 40
1.5
  0
ARC
  5
A5
100
AcDbEntity
  8
0
100
AcDbCircle
 10
583.359612
 20
487.99239
 30
0.0
 40
12.547245
100
AcDbArc
 50
180.000751
 51
182.382409
  0
ARC
  5
A6
100
AcDbEntity
  8
0
100
AcDbCircle
 10
582.927929
 20
487.974365
 30
0.0
 40
12.115186
100
AcDbArc
 50
182.382103
 51
187.257974
  0
ARC
  5
A7
100
AcDbEntity
  8
0
100
AcDbCircle
 10
581.730446
 20
487.821842
 30
0.0
 40
10.908029
100
AcDbArc
 50
187.257901
 51
192.485792
  0
ARC
  5
A8
100
AcDbEntity
  8
0
100
AcDbCircle
 10
580.004777
 20
487.439746
 30
0.0
 40
9.140565
100
AcDbArc
 50
192.485954
 51
198.365489
  0
ARC
  5
A9
100
AcDbEntity
  8
0
100
AcDbCircle
 10
578.083139
 20
486.801885
 30
0.0
 40
7.115828
100
AcDbArc
 50
198.36623
 51
205.311623
  0
ARC
  5
AA
100
AcDbEntity
  8
0
100
AcDbCircle
 10
576.30416
 20
485.960754
 30
0.0
 40
5.148019
100
AcDbArc
 50
205.313941
 51
213.934096
  0
ARC
  5
AB
100
AcDbEntity
  8
0
100
AcDbCircle
 10
574.929937
 20
485.036616
 30
0.0
 40
3.491965
100
AcDbArc
 50
213.940758
 51
225.128955
  0
ARC
  5
AC
100
AcDbEntity
  8
0
100
AcDbCircle
 10
574.08287
 20
484.186628
 30
0.0
 40
2.291964
100
AcDbArc
 50
225.144825
 51
240.055006
  0
ARC
  5
AD
100
AcDbEntity
  8
0
100
AcDbCircle
 10
573.731755
 20
483.577679
 30
0.0
 40
1.589041
100
AcDbArc
 50
240.064918
 51
259.310166
  0
ARC
  5
AE
100
AcDbEntity
  8
0
100
AcDbCircle
 10
573.690613
 20
483.354858
 30
0.0
 40
1.362456
100
AcDbArc
 50
259.27219
 51
280.72781
  0
ARC
  5
AF
100
AcDbEntity
  8
0
100
AcDbCircle
 10
573.650819
 20
483.574035
 30
0.0
 40
1.58521
100
AcDbArc
 50
280.666355
 51
299.958562
  0
ARC
  5
B0
100
AcDbEntity
  8
0
100
AcDbCircle
 10
573.301727
 20
484.182218
 30
0.0
 40
2.28646
100
AcDbArc
 50
299.926947
 51
314.873222
  0
ARC
  5
B1
100
AcDbEntity
  8
0
100
AcDbCircle
 10
572.454941
 20
485.033602
 30
0.0
 40
3.487251
100
AcDbArc
 50
314.863459
 51
326.066827
  0
ARC
  5
B2
100
AcDbEntity
  8
0
100
AcDbCircle
 10
571.080172
 20
485.958988
 30
0.0
 40
5.144457
100
AcDbArc
 50
326.062914
 51
334.689049
  0
ARC
  5
B3
100
AcDbEntity
  8
0
100
AcDbCircle
 10
569.300463
 20
486.800932
 30
0.0
 40
7.113273
100
AcDbArc
 50
334.687128
 51
341.635019
  0
ARC
  5
B4
100
AcDbEntity
  8
0
100
AcDbCircle
 10
567.378128
 20
487.439283
 30
0.0
 40
9.138825
100
AcDbArc
 50
341.633951
 51
347.514606
  0
ARC
  5
B5
100
AcDbEntity
  8
0
100
AcDbCircle
 10
565.651844
 20
487.821657
 30
0.0
 40
10.90695
100
AcDbArc
 50
347.51395
 51
352.742358
  0
ARC
  5
B6
100
AcDbEntity
  8
0
100
AcDbCircle
 10
564.453812
 20
487.974321
 30
0.0
 40
12.11467
100
AcDbArc
 50
352.741922
 51
357.618001
  0
ARC
  5
B7
100
AcDbEntity
  8
0
100
AcDbCircle
 10
564.027037
 20
487.992277
 30
0.0
 40
12.541823
100
AcDbArc
 50
357.617076
 51
359.999764
  0
ARC
  5
B8
100
AcDbEntity
  8
0
100
AcDbCircle
 10
473.000322
 20
413.284296
 30
0.0
 40
180.461254
100
AcDbArc
 50
23.325189
 51
24.270856
  0
ARC
  5
B9
100
AcDbEntity
  8
0
100
AcDbCircle
 10
2851.190176
 20
1442.272695
 30
0.0
 40
2410.794213
100
AcDbArc
 50
203.40241
 51
203.438829
  0
ARC
  5
BA
100
AcDbEntity
  8
0
100
AcDbCircle
 10
735.232617
 20
524.771396
 30
0.0
 40
104.480134
100
AcDbArc
 50
203.367543
 51
204.224899
  0
ARC
  5
BB
100
AcDbEntity
  8
0
100
AcDbCircle
 10
690.020477
 20
504.488643
 30
0.0
 40
54.92691
100
AcDbArc
 50
204.281983
 51
205.953995
  0
ARC
  5
BC
100
AcDbEntity
  8
0
100
AcDbCircle
 10
656.349988
 20
488.006559
 30
0.0
 40
17.439062
100
AcDbArc
 50
205.678246
 51
209.227231
  0
ARC
  5
BD
100
AcDbEntity
  8
0
100
AcDbCircle
 10
649.538822
 20
484.124747
 30
0.0
 40
9.599835
100
AcDbArc
 50
208.857778
 51
214.331347
  0
ARC
  5
BE
100
AcDbEntity
  8
0
100
AcDbCircle
 10
647.102249
 20
482.351157
 30
0.0
 40
6.588093
100
AcDbArc
 50
213.544786
 51
219.297578
  0
ARC
  5
BF
100
AcDbEntity
  8
0
100
AcDbCircle
 10
644.296912
 20
480.016204
 30
0.0
 40
2.938452
100
AcDbArc
 50
218.708955
 51
230.635325
  0
ARC
  5
C0
100
AcDbEntity
  8
0
100
AcDbCircle
 10
643.150625
 20
478.565727
 30
0.0
 40
1.090538
100
AcDbArc
 50
228.86195
 51
255.475665
  0
ARC
  5
C1
100
AcDbEntity
  8
0
100
AcDbCircle
 10
643.012944
 20
478.11257
 30
0.0
 40
0.617646
100
AcDbArc
 50
257.297286
 51
298.446879
  0
ARC
  5
C2
100
AcDbEntity
  8
0
100
AcDbCircle
 10
642.598348
 20
478.793738
 30
0.0
 40
1.414627
100
AcDbArc
 50
300.069876
 51
321.054403
  0
ARC
  5
C3
100
AcDbEntity
  8
0
100
AcDbCircle
 10
641.405894
 20
479.76276
 30
0.0
 40
2.951162
100
AcDbArc
 50
320.974915
 51
332.735917
  0
ARC
  5
C4
100
AcDbEntity
  8
0
100
AcDbCircle
 10
640.672657
 20
480.163305
 30
0.0
 40
3.78648
100
AcDbArc
 50
332.430922
 51
341.813745
  0
ARC
  5
C5
100
AcDbEntity
  8
0
100
AcDbCircle
 10
640.647886
 20
480.159112
 30
0.0
 40
3.808723
100
AcDbArc
 50
341.989974
 51
357.145205
  0
ARC
  5
C6
100
AcDbEntity
  8
0
100
AcDbCircle
 10
624.132735
 20
480.842441
 30
0.0
 40
20.337893
100
AcDbArc
 50
357.539772
 51
360.927021
  0
ARC
  5
C7
100
AcDbEntity
  8
0
100
AcDbCircle
 10
632.710028
 20
480.975035
 30
0.0
 40
11.75958
100
AcDbArc
 50
0.957201
 51
8.041705
  0
ARC
  5
C8
100
AcDbEntity
  8
0
100
AcDbCircle
 10
628.201471
 20
480.305012
 30
0.0
 40
16.317567
100
AcDbArc
 50
8.156575
 51
13.224555
  0
ARC
  5
C9
100
AcDbEntity
  8
0
100
AcDbCircle
 10
624.211523
 20
479.237726
 30
0.0
 40
20.446255
100
AcDbArc
 50
13.578232
 51
18.315387
  0
ARC
  5
CA
100
AcDbEntity
  8
0
100
AcDbCircle
 10
624.948039
 20
479.328221
 30
0.0
 40
19.71915
100
AcDbArc
 50
18.738263
 51
24.364062
  0
ARC
  5
CB
100
AcDbEntity
  8
0
100
AcDbCircle
 10
674.380904
 20
413.284296
 30
0.0
 40
180.461254
100
AcDbArc
 50
155.729144
 51
156.674811
  0
ARC
  5
CC
100
AcDbEntity
  8
0
100
AcDbCircle
 10
-1703.80895
 20
1442.272695
 30
0.0
 40
2410.794213
100
AcDbArc
 50
336.561171
 51
336.59759
  0
ARC
  5
CD
100
AcDbEntity
  8
0
100
AcDbCircle
 10
412.148609
 20
524.771396
 30
0.0
 40
104.480134
100
AcDbArc
 50
335.775101
 51
336.632457
  0
ARC
  5
CE
100
AcDbEntity
  8
0
100
AcDbCircle
 10
457.360749
 20
504.488643
 30
0.0
 40
54.92691
100
AcDbArc
 50
334.046005
 51
335.718017
  0
ARC
  5
CF
100
AcDbEntity
  8
0
100
AcDbCircle
 10
491.031238
 20
488.006559
 30
0.0
 40
17.439062
100
AcDbArc
 50
330.772769
 51
334.321754
  0
ARC
  5
D0
100
AcDbEntity
  8
0
100
AcDbCircle
 10
497.842404
 20
484.124747
 30
0.0
 40
9.599835
100
AcDbArc
 50
325.668653
 51
331.142222
  0
ARC
  5
D1
100
AcDbEntity
  8
0
100
AcDbCircle
 10
500.278977
 20
482.351157
 30
0.0
 40
6.588093
100
AcDbArc
 50
320.702422
 51
326.455214
  0
ARC
  5
D2
100
AcDbEntity
  8
0
100
AcDbCircle
 10
503.084314
 20
480.016204
 30
0.0
 40
2.938452
100
AcDbArc
 50
309.364675
 51
321.291045
  0
ARC
  5
D3
100
AcDbEntity
  8
0
100
AcDbCircle
 10
504.230601
 20
478.565727
 30
0.0
 40
1.090538
100
AcDbArc
 50
284.524335
 51
311.13805
  0
ARC
  5
D4
100
AcDbEntity
  8
0
100
AcDbCircle
 10
504.368282
 20
478.11257
 30
0.0
 40
0.617646
100
AcDbArc
 50
241.553121
 51
282.702714
  0
ARC
  5
D5
100
AcDbEntity
  8
0
100
AcDbCircle
 10
504.782877
 20
478.793738
 30
0.0
 40
1.414627
100
AcDbArc
 50
218.945597
 51
239.930124
  0
ARC
  5
D6
100
AcDbEntity
  8
0
100
AcDbCircle
 10
505.975332
 20
479.76276
 30
0.0
 40
2.951162
100
AcDbArc
 50
207.264083
 51
219.025085
  0
ARC
  5
D7
100
AcDbEntity
  8
0
100
AcDbCircle
 10
506.708569
 20
480.163305
 30
0.0
 40
3.78648
100
AcDbArc
 50
198.186255
 51
207.569078
  0
ARC
  5
D8
100
AcDbEntity
  8
0
100
AcDbCircle
 10
506.73334
 20
480.159112
 30
0.0
 40
3.808723
100
AcDbArc
 50
182.854795
 51
198.010026
  0
ARC
  5
D9
100
AcDbEntity
  8
0
100
AcDbCircle
 10
523.248491
 20
480.842441
 30
0.0
 40
20.337893
100
AcDbArc
 50
179.072979
 51
182.460228
  0
ARC
  5
DA
100
AcDbEntity
  8
0
100
AcDbCircle
 10
514.671198
 20
480.975035
 30
0.0
 40
11.75958
100
AcDbArc
 50
171.958295
 51
179.042799
  0
ARC
  5
DB
100
AcDbEntity
  8
0
100
AcDbCircle
 10
519.179755
 20
480.305012
 30
0.0
 40
16.317567
100
AcDbArc
 50
166.775445
 51
171.843425
  0
ARC
  5
DC
100
AcDbEntity
  8
0
100
AcDbCircle
 10
523.169703
 20
479.237726
 30
0.0
 40
20.446255
100
AcDbArc
 50
161.684613
 51
166.421768
  0
ARC
  5
DD
100
AcDbEntity
  8
0
100
AcDbCircle
 10
522.433187
 20
479.328221
 30
0.0
 40
19.71915
100
AcDbArc
 50
155.635938
 51
161.261737
  0
LINE
  5
DE
100
AcDbEntity
  8
1
100
AcDbLine
 10
665.836098
 20
487.992225
 30
0.0
 11
669.690613
 21
491.84674
 31
0.0
  0
LINE
  5
DF
100
AcDbEntity
  8
1
100
AcDbLine
 10
661.593458
 20
487.992225
 30
0.0
 11
669.690613
 21
496.089381
 31
0.0
  0
LINE
  5
E0
100
AcDbEntity
  8
1
100
AcDbLine
 10
657.350817
 20
487.992225
 30
0.0
 11
666.875817
 21
497.517225
 31
0.0
  0
LINE
  5
E1
100
AcDbEntity
  8
1
100
AcDbLine
 10
653.108176
 20
487.992225
 30
0.0
 11
662.633176
 21
497.517225
 31
0.0
  0
LINE
  5
E2
100
AcDbEntity
  8
1
100
AcDbLine
 10
648.865536
 20
487.992225
 30
0.0
 11
658.390536
 21
497.517225
 31
0.0
  0
LINE
  5
E3
100
AcDbEntity
  8
1
100
AcDbLine
 10
644.622895
 20
487.992225
 30
0.0
 11
654.147895
 21
497.517225
 31
0.0
  0
LINE
  5
E4
100
AcDbEntity
  8
1
100
AcDbLine
 10
640.380254
 20
487.992225
 30
0.0
 11
649.905254
 21
497.517225
 31
0.0
  0
LINE
  5
E5
100
AcDbEntity
  8
1
100
AcDbLine
 10
636.137614
 20
487.992225
 30
0.0
 11
645.662614
 21
497.517225
 31
0.0
  0
LINE
  5
E6
100
AcDbEntity
  8
1
100
AcDbLine
 10
631.894973
 20
487.992225
 30
0.0
 11
641.419973
 21
497.517225
 31
0.0
  0
LINE
  5
E7
100
AcDbEntity
  8
1
100
AcDbLine
 10
627.652332
 20
487.992225
 30
0.0
 11
637.177332
 21
497.517225
 31
0.0
  0
LINE
  5
E8
100
AcDbEntity
  8
1
100
AcDbLine
 10
623.409692
 20
487.992225
 30
0.0
 11
632.934692
 21
497.517225
 31
0.0
  0
LINE
  5
E9
100
AcDbEntity
  8
1
100
AcDbLine
 10
619.167051
 20
487.992225
 30
0.0
 11
628.692051
 21
497.517225
 31
0.0
  0
LINE
  5
EA
100
AcDbEntity
  8
1
100
AcDbLine
 10
614.92441
 20
487.992225
 30
0.0
 11
624.44941
 21
497.517225
 31
0.0
  0
LINE
  5
EB
100
AcDbEntity
  8
1
100
AcDbLine
 10
610.68177
 20
487.992225
 30
0.0
 11
620.20677
 21
497.517225
 31
0.0
  0
LINE
  5
EC
100
AcDbEntity
  8
1
100
AcDbLine
 10
606.439129
 20
487.992225
 30
0.0
 11
615.964129
 21
497.517225
 31
0.0
  0
LINE
  5
ED
100
AcDbEntity
  8
1
100
AcDbLine
 10
602.196488
 20
487.992225
 30
0.0
 11
611.721488
 21
497.517225
 31
0.0
  0
LINE
  5
EE
100
AcDbEntity
  8
1
100
AcDbLine
 10
597.953847
 20
487.992225
 30
0.0
 11
607.478847
 21
497.517225
 31
0.0
  0
LINE
  5
EF
100
AcDbEntity
  8
1
100
AcDbLine
 10
593.711207
 20
487.992225
 30
0.0
 11
603.236207
 21
497.517225
 31
0.0
  0
LINE
  5
F0
100
AcDbEntity
  8
1
100
AcDbLine
 10
589.468566
 20
487.992225
 30
0.0
 11
598.993566
 21
497.517225
 31
0.0
  0
LINE
  5
F1
100
AcDbEntity
  8
1
100
AcDbLine
 10
585.225925
 20
487.992225
 30
0.0
 11
594.750925
 21
497.517225
 31
0.0
  0
LINE
  5
F2
100
AcDbEntity
  8
1
100
AcDbLine
 10
580.983285
 20
487.992225
 30
0.0
 11
590.508285
 21
497.517225
 31
0.0
  0
LINE
  5
F3
100
AcDbEntity
  8
1
100
AcDbLine
 10
576.740644
 20
487.992225
 30
0.0
 11
586.265644
 21
497.517225
 31
0.0
  0
LINE
  5
F4
100
AcDbEntity
  8
1
100
AcDbLine
 10
572.498003
 20
487.992225
 30
0.0
 11
582.023003
 21
497.517225
 31
0.0
  0
LINE
  5
F5
100
AcDbEntity
  8
1
100
AcDbLine
 10
568.255363
 20
487.992225
 30
0.0
 11
577.780363
 21
497.517225
 31
0.0
  0
LINE
  5
F6
100
AcDbEntity
  8
1
100
AcDbLine
 10
564.012722
 20
487.992225
 30
0.0
 11
573.537722
 21
497.517225
 31
0.0
  0
LINE
  5
F7
100
AcDbEntity
  8
1
100
AcDbLine
 10
559.770081
 20
487.992225
 30
0.0
 11
569.295081
 21
497.517225
 31
0.0
  0
LINE
  5
F8
100
AcDbEntity
  8
1
100
AcDbLine
 10
555.527441
 20
487.992225
 30
0.0
 11
565.052441
 21
497.517225
 31
0.0
  0
LINE
  5
F9
100
AcDbEntity
  8
1
100
AcDbLine
 10
551.2848
 20
487.992225
 30
0.0
 11
560.8098
 21
497.517225
 31
0.0
  0
LINE
  5
FA
100
AcDbEntity
  8
1
100
AcDbLine
 10
547.042159
 20
487.992225
 30
0.0
 11
556.567159
 21
497.517225
 31
0.0
  0
LINE
  5
FB
100
AcDbEntity
  8
1
100
AcDbLine
 10
542.799519
 20
487.992225
 30
0.0
 11
552.324519
 21
497.517225
 31
0.0
  0
LINE
  5
FC
100
AcDbEntity
  8
1
100
AcDbLine
 10
538.556878
 20
487.992225
 30
0.0
 11
548.081878
 21
497.517225
 31
0.0
  0
LINE
  5
FD
100
AcDbEntity
  8
1
100
AcDbLine
 10
534.314237
 20
487.992225
 30
0.0
 11
543.839237
 21
497.517225
 31
0.0
  0
LINE
  5
FE
100
AcDbEntity
  8
1
100
AcDbLine
 10
530.071596
 20
487.992225
 30
0.0
 11
539.596596
 21
497.517225
 31
0.0
  0
LINE
  5
FF
100
AcDbEntity
  8
1
100
AcDbLine
 10
525.828956
 20
487.992225
 30
0.0
 11
535.353956
 21
497.517225
 31
0.0
  0
LINE
  5
100
100
AcDbEntity
  8
1
100
AcDbLine
 10
521.586315
 20
487.992225
 30
0.0
 11
531.111315
 21
497.517225
 31
0.0
  0
LINE
  5
101
100
AcDbEntity
  8
1
100
AcDbLine
 10
517.343674
 20
487.992225
 30
0.0
 11
526.868674
 21
497.517225
 31
0.0
  0
LINE
  5
102
100
AcDbEntity
  8
1
100
AcDbLine
 10
513.101034
 20
487.992225
 30
0.0
 11
522.626034
 21
497.517225
 31
0.0
  0
LINE
  5
103
100
AcDbEntity
  8
1
100
AcDbLine
 10
508.858393
 20
487.992225
 30
0.0
 11
518.383393
 21
497.517225
 31
0.0
  0
LINE
  5
104
100
AcDbEntity
  8
1
100
AcDbLine
 10
504.615752
 20
487.992225
 30
0.0
 11
514.140752
 21
497.517225
 31
0.0
  0
LINE
  5
105
100
AcDbEntity
  8
1
100
AcDbLine
 10
500.373112
 20
487.992225
 30
0.0
 11
509.898112
 21
497.517225
 31
0.0
  0
LINE
  5
106
100
AcDbEntity
  8
1
100
AcDbLine
 10
496.130471
 20
487.992225
 30
0.0
 11
505.655471
 21
497.517225
 31
0.0
  0
LINE
  5
107
100
AcDbEntity
  8
1
100
AcDbLine
 10
491.88783
 20
487.992225
 30
0.0
 11
501.41283
 21
497.517225
 31
0.0
  0
LINE
  5
108
100
AcDbEntity
  8
1
100
AcDbLine
 10
487.64519
 20
487.992225
 30
0.0
 11
497.17019
 21
497.517225
 31
0.0
  0
LINE
  5
109
100
AcDbEntity
  8
1
100
AcDbLine
 10
483.402549
 20
487.992225
 30
0.0
 11
492.927549
 21
497.517225
 31
0.0
  0
LINE
  5
10A
100
AcDbEntity
  8
1
100
AcDbLine
 10
479.159908
 20
487.992225
 30
0.0
 11
488.684908
 21
497.517225
 31
0.0
  0
LINE
  5
10B
100
AcDbEntity
  8
1
100
AcDbLine
 10
477.690613
 20
490.765571
 30
0.0
 11
484.442268
 21
497.517225
 31
0.0
  0
LINE
  5
10C
100
AcDbEntity
  8
1
100
AcDbLine
 10
477.690613
 20
495.008211
 30
0.0
 11
480.199627
 21
497.517225
 31
0.0
  0
ARC
  5
10D
100
AcDbEntity
  8
0
100
AcDbCircle
 10
653.48449
 20
474.192225
 30
0.0
 40
0.6
100
AcDbArc
 50
270.0
 51
361.169383
  0
ARC
  5
10E
100
AcDbEntity
  8
0
100
AcDbCircle
 10
493.896736
 20
474.192225
 30
0.0
 40
0.6
100
AcDbArc
 50
178.830617
 51
270.0
  0
ARC
  5
10F
100
AcDbEntity
  8
0
100
AcDbCircle
 10
523.290613
 20
473.592225
 30
0.0
 40
30.0
100
AcDbArc
 50
151.314598
 51
178.830617
  0
ARC
  5
110
100
AcDbEntity
  8
0
100
AcDbCircle
 10
624.090613
 20
473.592225
 30
0.0
 40
30.0
100
AcDbArc
 50
1.169383
 51
28.685402
  0
ARC
  5
111
100
AcDbEntity
  8
0
100
AcDbCircle
 10
573.690613
 20
519.5766
 30
0.0
 40
98.184375
100
AcDbArc
 50
224.865982
 51
270.0
  0
ARC
  5
112
100
AcDbEntity
  8
0
100
AcDbCircle
 10
527.490613
 20
473.592225
 30
0.0
 40
33.0
100
AcDbArc
 50
180.0
 51
224.865982
  0
ARC
  5
113
100
AcDbEntity
  8
0
100
AcDbCircle
 10
573.690613
 20
519.5766
 30
0.0
 40
98.184375
100
AcDbArc
 50
270.0
 51
315.134018
  0
ARC
  5
114
100
AcDbEntity
  8
0
100
AcDbCircle
 10
619.890613
 20
473.592225
 30
0.0
 40
33.0
100
AcDbArc
 50
315.134018
 51
360.0
  0
LINE
  5
115
100
AcDbEntity
  8
1
100
AcDbLine
 10
477.690613
 20
487.992225
 30
0.0
 11
669.690613
 21
487.992225
 31
0.0
  0
LINE
  5
116
100
AcDbEntity
  8
0
100
AcDbLine
 10
493.896736
 20
473.592225
 30
0.0
 11
653.48449
 21
473.592225
 31
0.0
  0
LINE
  5
117
100
AcDbEntity
  8
0
100
AcDbLine
 10
498.868697
 20
487.992225
 30
0.0
 11
573.690613
 21
487.992225
 31
0.0
  0
LINE
  5
118
100
AcDbEntity
  8
0
100
AcDbLine
 10
573.690613
 20
487.992225
 30
0.0
 11
648.512529
 21
487.992225
 31
0.0
  0
LINE
  5
119
100
AcDbEntity
  8
0
100
AcDbLine
 10
496.972558
 20
487.992225
 30
0.0
 11
498.868697
 21
487.992225
 31
0.0
  0
LINE
  5
11A
100
AcDbEntity
  8
0
100
AcDbLine
 10
648.512529
 20
487.992225
 30
0.0
 11
650.408668
 21
487.992225
 31
0.0
  0
LINE
  5
11B
100
AcDbEntity
  8
0
100
AcDbLine
 10
637.511053
 20
487.463024
 30
0.0
 11
642.911053
 21
487.463024
 31
0.0
  0
LINE
  5
11C
100
AcDbEntity
  8
0
100
AcDbLine
 10
638.111808
 20
486.116063
 30
0.0
 11
643.46232
 21
486.116063
 31
0.0
  0
LINE
  5
11D
100
AcDbEntity
  8
0
100
AcDbLine
 10
643.907155
 20
484.737792
 30
0.0
 11
638.712911
 21
484.737792
 31
0.0
  0
LINE
  5
11E
100
AcDbEntity
  8
0
100
AcDbLine
 10
639.322001
 20
483.331657
 30
0.0
 11
644.235899
 21
483.331657
 31
0.0
  0
LINE
  5
11F
100
AcDbEntity
  8
0
100
AcDbLine
 10
644.432966
 20
481.901452
 30
0.0
 11
639.956182
 21
481.893708
 31
0.0
  0
LINE
  5
120
100
AcDbEntity
  8
0
100
AcDbLine
 10
640.63318
 20
480.449918
 30
0.0
 11
644.468979
 21
480.449918
 31
0.0
  0
LINE
  5
121
100
AcDbEntity
  8
0
100
AcDbLine
 10
641.435718
 20
478.981518
 30
0.0
 11
644.269991
 21
478.981518
 31
0.0
  0
LINE
  5
122
100
AcDbEntity
  8
0
100
AcDbLine
 10
504.470173
 20
487.463024
 30
0.0
 11
509.870173
 21
487.463024
 31
0.0
  0
LINE
  5
123
100
AcDbEntity
  8
0
100
AcDbLine
 10
503.918905
 20
486.116063
 30
0.0
 11
509.269418
 21
486.116063
 31
0.0
  0
LINE
  5
124
100
AcDbEntity
  8
0
100
AcDbLine
 10
508.668315
 20
484.737792
 30
0.0
 11
503.474071
 21
484.737792
 31
0.0
  0
LINE
  5
125
100
AcDbEntity
  8
0
100
AcDbLine
 10
503.145327
 20
483.331657
 30
0.0
 11
508.059225
 21
483.331657
 31
0.0
  0
LINE
  5
126
100
AcDbEntity
  8
0
100
AcDbLine
 10
507.425044
 20
481.893708
 30
0.0
 11
502.94826
 21
481.901452
 31
0.0
  0
LINE
  5
127
100
AcDbEntity
  8
0
100
AcDbLine
 10
502.912247
 20
480.449918
 30
0.0
 11
506.748046
 21
480.449918
 31
0.0
  0
LINE
  5
128
100
AcDbEntity
  8
0
100
AcDbLine
 10
503.111235
 20
478.981518
 30
0.0
 11
505.945508
 21
478.981518
 31
0.0
  0
LINE
  5
129
100
AcDbEntity
  8
1
  6
HIDDEN
100
AcDbLine
 10
538.143329
 20
550.476777
 30
0.0
 11
537.713101
 21
544.966271
 31
0.0
  0
LINE
  5
12A
100
AcDbEntity
  8
1
  6
HIDDEN
100
AcDbLine
 10
455.564037
 20
657.709016
 30
0.0
 11
454.512122
 21
656.455393
 31
0.0
  0
ARC
  5
12B
100
AcDbEntity
  8
1
  6
HIDDEN
100
AcDbCircle
 10
455.79385
 20
657.51618
 30
0.0
 40
0.3
100
AcDbArc
 50
50.0
 51
140.0
  0
LINE
  5
12C
100
AcDbEntity
  8
1
  6
HIDDEN
100
AcDbLine
 10
455.986686
 20
657.745993
 30
0.0
 11
458.026579
 21
656.03432
 31
0.0
  0
ARC
  5
12D
100
AcDbEntity
  8
1
  6
HIDDEN
100
AcDbCircle
 10
459.340581
 20
657.542555
 30
0.0
 40
2.0
100
AcDbArc
 50
230.0
 51
320.0
  0
LINE
  5
12E
100
AcDbEntity
  8
1
  6
HIDDEN
100
AcDbLine
 10
462.158245
 20
657.789069
 30
0.0
 11
460.87267
 21
656.25698
 31
0.0
  0
LINE
  5
12F
100
AcDbEntity
  8
1
  6
HIDDEN
100
AcDbLine
 10
511.97372
 20
566.562397
 30
0.0
 11
517.326801
 21
567.943918
 31
0.0
  0
LINE
  5
130
100
AcDbEntity
  8
1
  6
HIDDEN
100
AcDbLine
 10
532.137731
 20
599.460931
 30
0.0
 11
509.85678
 21
572.907529
 31
0.0
  0
LINE
  5
131
100
AcDbEntity
  8
1
  6
HIDDEN
100
AcDbLine
 10
537.713101
 20
542.813776
 30
0.0
 11
543.513101
 21
542.813776
 31
0.0
  0
LINE
  5
132
100
AcDbEntity
  8
1
  6
HIDDEN
100
AcDbLine
 10
537.713101
 20
542.813776
 30
0.0
 11
537.713101
 21
544.966271
 31
0.0
  0
LINE
  5
133
100
AcDbEntity
  8
1
  6
HIDDEN
100
AcDbLine
 10
545.013101
 20
542.801557
 30
0.0
 11
561.713101
 21
543.093057
 31
0.0
  0
LINE
  5
134
100
AcDbEntity
  8
1
  6
HIDDEN
100
AcDbLine
 10
543.513101
 20
543.313776
 30
0.0
 11
545.013101
 21
543.313776
 31
0.0
  0
LINE
  5
135
100
AcDbEntity
  8
1
  6
HIDDEN
100
AcDbLine
 10
511.97372
 20
566.562397
 30
0.0
 11
510.288288
 21
567.976525
 31
0.0
  0
ARC
  5
136
100
AcDbEntity
  8
1
  6
HIDDEN
100
AcDbCircle
 10
512.537936
 20
570.657772
 30
0.0
 40
3.5
100
AcDbArc
 50
140.0
 51
230.002324
  0
LINE
  5
137
100
AcDbEntity
  8
1
  6
HIDDEN
100
AcDbLine
 10
454.512122
 20
656.455393
 30
0.0
 11
453.493799
 21
657.309868
 31
0.0
  0
ARC
  5
138
100
AcDbEntity
  8
1
  6
HIDDEN
100
AcDbCircle
 10
614.353726
 20
666.816969
 30
0.0
 40
161.140625
100
AcDbArc
 50
180.0
 51
183.382346
  0
LINE
  5
139
100
AcDbEntity
  8
1
  6
HIDDEN
100
AcDbLine
 10
543.513101
 20
790.820163
 30
0.0
 11
543.513101
 21
542.813776
 31
0.0
  0
LINE
  5
13A
100
AcDbEntity
  8
1
  6
HIDDEN
100
AcDbLine
 10
537.713101
 20
544.966271
 30
0.0
 11
537.713101
 21
790.820163
 31
0.0
  0
LINE
  5
13B
100
AcDbEntity
  8
1
  6
HIDDEN
100
AcDbLine
 10
543.513101
 20
790.820163
 30
0.0
 11
537.713101
 21
790.820163
 31
0.0
  0
LINE
  5
13C
100
AcDbEntity
  8
1
  6
HIDDEN
100
AcDbLine
 10
537.713101
 20
790.450953
 30
0.0
 11
513.768503
 21
790.032998
 31
0.0
  0
LINE
  5
13D
100
AcDbEntity
  8
1
  6
HIDDEN
100
AcDbLine
 10
546.713101
 20
790.802708
 30
0.0
 11
546.713101
 21
790.220712
 31
0.0
  0
LINE
  5
13E
100
AcDbEntity
  8
1
  6
HIDDEN
100
AcDbLine
 10
561.713101
 20
789.958886
 30
0.0
 11
546.713101
 21
790.220712
 31
0.0
  0
LINE
  5
13F
100
AcDbEntity
  8
1
  6
HIDDEN
100
AcDbLine
 10
546.713101
 20
790.802708
 30
0.0
 11
545.013101
 21
790.832382
 31
0.0
  0
LINE
  5
140
100
AcDbEntity
  8
1
  6
HIDDEN
100
AcDbLine
 10
545.013101
 20
790.832382
 30
0.0
 11
545.013101
 21
542.801557
 31
0.0
  0
LINE
  5
141
100
AcDbEntity
  8
1
  6
HIDDEN
100
AcDbLine
 10
543.513101
 20
790.320163
 30
0.0
 11
545.013101
 21
790.320163
 31
0.0
  0
ARC
  5
142
100
AcDbEntity
  8
1
  6
HIDDEN
100
AcDbCircle
 10
614.353726
 20
666.816969
 30
0.0
 40
161.140625
100
AcDbArc
 50
134.865982
 51
180.0
  0
ARC
  5
143
100
AcDbEntity
  8
1
  6
HIDDEN
100
AcDbCircle
 10
537.713101
 20
743.816969
 30
0.0
 40
52.5
100
AcDbArc
 50
119.489475
 51
134.865982
  0
ARC
  5
144
100
AcDbEntity
  8
1
  6
HIDDEN
100
AcDbCircle
 10
513.838313
 20
786.033607
 30
0.0
 40
4.0
100
AcDbArc
 50
91.0
 51
119.489475
  0
CIRCLE
  5
145
100
AcDbEntity
  8
1
  6
HIDDEN
100
AcDbCircle
 10
225.683105
 20
666.816969
 30
0.0
 40
124.003194
  0
ARC
  5
146
100
AcDbEntity
  8
1
  6
HIDDEN
100
AcDbCircle
 10
229.506813
 20
438.759438
 30
0.0
 40
10.709978
100
AcDbArc
 50
317.386293
 51
323.129025
  0
ARC
  5
147
100
AcDbEntity
  8
1
  6
HIDDEN
100
AcDbCircle
 10
227.226118
 20
441.285117
 30
0.0
 40
14.12623
100
AcDbArc
 50
301.875867
 51
307.291713
  0
ARC
  5
148
100
AcDbEntity
  8
1
  6
HIDDEN
100
AcDbCircle
 10
228.315054
 20
439.85551
 30
0.0
 40
12.329133
100
AcDbArc
 50
307.290994
 51
317.387431
  0
ARC
  5
149
100
AcDbEntity
  8
1
  6
HIDDEN
100
AcDbCircle
 10
223.370912
 20
443.415419
 30
0.0
 40
15.71308
100
AcDbArc
 50
234.989971
 51
237.309259
  0
ARC
  5
14A
100
AcDbEntity
  8
1
  6
HIDDEN
100
AcDbCircle
 10
223.05636
 20
442.300798
 30
0.0
 40
10.325464
100
AcDbArc
 50
107.042294
 51
107.583819
  0
ARC
  5
14B
100
AcDbEntity
  8
1
  6
HIDDEN
100
AcDbCircle
 10
227.99486
 20
436.6849
 30
0.0
 40
15.71308
100
AcDbArc
 50
54.988907
 51
57.309259
  0
ARC
  5
14C
100
AcDbEntity
  8
1
  6
HIDDEN
100
AcDbCircle
 10
225.621719
 20
447.476569
 30
0.0
 40
48.113551
100
AcDbArc
 50
100.483986
 51
101.545594
  0
ARC
  5
14D
100
AcDbEntity
  8
1
  6
HIDDEN
100
AcDbCircle
 10
225.744859
 20
447.479294
 30
0.0
 40
48.110807
100
AcDbArc
 50
84.852427
 51
86.184456
  0
ARC
  5
14E
100
AcDbEntity
  8
1
  6
HIDDEN
100
AcDbCircle
 10
194.753035
 20
464.02308
 30
0.0
 40
43.368181
100
AcDbArc
 50
111.749328
 51
123.768395
  0
ARC
  5
14F
100
AcDbEntity
  8
1
  6
HIDDEN
100
AcDbCircle
 10
197.185624
 20
460.444739
 30
0.0
 40
47.694959
100
AcDbArc
 50
129.268535
 51
140.232341
  0
ARC
  5
150
100
AcDbEntity
  8
1
  6
HIDDEN
100
AcDbCircle
 10
200.025883
 20
454.570201
 30
0.0
 40
52.949542
100
AcDbArc
 50
172.00482
 51
181.786869
  0
ARC
  5
151
100
AcDbEntity
  8
1
  6
HIDDEN
100
AcDbCircle
 10
205.802817
 20
453.505298
 30
0.0
 40
58.836973
100
AcDbArc
 50
158.339342
 51
167.297444
  0
ARC
  5
152
100
AcDbEntity
  8
1
  6
HIDDEN
100
AcDbCircle
 10
204.245471
 20
454.293852
 30
0.0
 40
57.091501
100
AcDbArc
 50
144.612651
 51
153.866717
  0
ARC
  5
153
100
AcDbEntity
  8
1
  6
HIDDEN
100
AcDbCircle
 10
225.683105
 20
351.339953
 30
0.0
 40
161.140625
100
AcDbArc
 50
90.0
 51
135.134018
  0
ARC
  5
154
100
AcDbEntity
  8
1
  6
HIDDEN
100
AcDbCircle
 10
148.683105
 20
427.980578
 30
0.0
 40
52.5
100
AcDbArc
 50
135.134018
 51
150.510525
  0
ARC
  5
155
100
AcDbEntity
  8
1
  6
HIDDEN
100
AcDbCircle
 10
106.466467
 20
451.855366
 30
0.0
 40
4.0
100
AcDbArc
 50
150.510525
 51
179.0
  0
LINE
  5
156
100
AcDbEntity
  8
1
  6
HIDDEN
100
AcDbLine
 10
102.183105
 20
422.180578
 30
0.0
 11
102.183105
 21
420.680578
 31
0.0
  0
LINE
  5
157
100
AcDbEntity
  8
1
  6
HIDDEN
100
AcDbLine
 10
102.467077
 20
451.925176
 30
0.0
 11
102.049122
 21
427.980578
 31
0.0
  0
LINE
  5
158
100
AcDbEntity
  8
1
  6
HIDDEN
100
AcDbLine
 10
101.679911
 20
427.980578
 30
0.0
 11
101.679911
 21
422.180578
 31
0.0
  0
LINE
  5
159
100
AcDbEntity
  8
1
  6
HIDDEN
100
AcDbLine
 10
101.667693
 20
420.680578
 30
0.0
 11
101.959192
 21
403.980578
 31
0.0
  0
LINE
  5
15A
100
AcDbEntity
  8
1
  6
HIDDEN
100
AcDbLine
 10
102.183105
 20
422.180578
 30
0.0
 11
102.183105
 21
420.680578
 31
0.0
  0
ARC
  5
15B
100
AcDbEntity
  8
1
  6
HIDDEN
100
AcDbCircle
 10
225.683105
 20
351.339953
 30
0.0
 40
161.140625
100
AcDbArc
 50
44.865982
 51
90.0
  0
ARC
  5
15C
100
AcDbEntity
  8
1
  6
HIDDEN
100
AcDbCircle
 10
302.683105
 20
427.980578
 30
0.0
 40
52.5
100
AcDbArc
 50
29.489475
 51
44.865982
  0
LINE
  5
15D
100
AcDbEntity
  8
1
  6
HIDDEN
100
AcDbLine
 10
101.679911
 20
427.980578
 30
0.0
 11
349.686299
 21
427.980578
 31
0.0
  0
LINE
  5
15E
100
AcDbEntity
  8
1
  6
HIDDEN
100
AcDbLine
 10
349.686299
 20
422.180578
 30
0.0
 11
101.679911
 21
422.180578
 31
0.0
  0
LINE
  5
15F
100
AcDbEntity
  8
1
  6
HIDDEN
100
AcDbLine
 10
101.667693
 20
420.680578
 30
0.0
 11
349.698518
 21
420.680578
 31
0.0
  0
LINE
  5
160
100
AcDbEntity
  8
1
  6
HIDDEN
100
AcDbLine
 10
349.183105
 20
422.180578
 30
0.0
 11
349.183105
 21
420.680578
 31
0.0
  0
LINE
  5
161
100
AcDbEntity
  8
1
  6
HIDDEN
100
AcDbLine
 10
349.698518
 20
420.680578
 30
0.0
 11
349.407018
 21
403.980578
 31
0.0
  0
LINE
  5
162
100
AcDbEntity
  8
1
  6
HIDDEN
100
AcDbLine
 10
349.183105
 20
422.180578
 30
0.0
 11
349.183105
 21
420.680578
 31
0.0
  0
LINE
  5
163
100
AcDbEntity
  8
1
  6
HIDDEN
100
AcDbLine
 10
348.899134
 20
451.925176
 30
0.0
 11
349.317088
 21
427.980578
 31
0.0
  0
ARC
  5
164
100
AcDbEntity
  8
1
  6
HIDDEN
100
AcDbCircle
 10
344.899743
 20
451.855366
 30
0.0
 40
4.0
100
AcDbArc
 50
1.0
 51
29.489475
  0
LINE
  5
165
100
AcDbEntity
  8
1
  6
HIDDEN
100
AcDbLine
 10
349.686299
 20
427.980578
 30
0.0
 11
349.686299
 21
422.180578
 31
0.0
  0
CIRCLE
  5
166
100
AcDbEntity
  8
0
100
AcDbCircle
 10
225.683105
 20
666.816969
 30
0.0
 40
134.0
  0
CIRCLE
  5
167
100
AcDbEntity
  8
0
100
AcDbCircle
 10
225.683105
 20
666.816969
 30
0.0
 40
132.5
  0
POINT
  5
168
100
AcDbEntity
  8
1
  6
DOT
 62
     1
100
AcDbPoint
 10
573.690613
 20
181.040097
 30
0.0
  0
POINT
  5
169
100
AcDbEntity
  8
1
  6
DOT
 62
     1
100
AcDbPoint
 10
573.690613
 20
181.040097
 30
0.0
  0
POINT
  5
16A
100
AcDbEntity
  8
1
  6
DOT
 62
     1
100
AcDbPoint
 10
573.690613
 20
289.086013
 30
0.0
  0
POINT
  5
16B
100
AcDbEntity
  8
1
  6
DOT
 62
     1
100
AcDbPoint
 10
519.667655
 20
235.063055
 30
0.0
  0
POINT
  5
16C
100
AcDbEntity
  8
1
  6
DOT
 62
     1
100
AcDbPoint
 10
627.713571
 20
235.063055
 30
0.0
  0
POINT
  5
16D
100
AcDbEntity
  8
1
  6
DOT
 62
     1
100
AcDbPoint
 10
519.667655
 20
235.063055
 30
0.0
  0
POINT
  5
16E
100
AcDbEntity
  8
1
  6
DOT
 62
     1
100
AcDbPoint
 10
561.713101
 20
666.816969
 30
0.0
  0
POINT
  5
16F
100
AcDbEntity
  8
1
  6
DOT
 62
     1
100
AcDbPoint
 10
225.683105
 20
666.816969
 30
0.0
  0
POINT
  5
170
100
AcDbEntity
  8
1
  6
DOT
 62
     1
100
AcDbPoint
 10
225.683105
 20
666.816969
 30
0.0
  0
POINT
  5
171
100
AcDbEntity
  8
1
  6
DOT
 62
     1
100
AcDbPoint
 10
225.683105
 20
666.816969
 30
0.0
  0
LINE
  5
172
100
AcDbEntity
  8
1
100
AcDbLine
 10
170.198181
 20
140.047387
 30
0.0
 11
173.168029
 21
143.017236
 31
0.0
  0
LINE
  5
173
100
AcDbEntity
  8
1
100
AcDbLine
 10
170.198181
 20
143.017236
 30
0.0
 11
173.168029
 21
140.047387
 31
0.0
  0
LINE
  5
174
100
AcDbEntity
  8
1
100
AcDbLine
 10
278.198181
 20
140.047387
 30
0.0
 11
281.168029
 21
143.017236
 31
0.0
  0
LINE
  5
175
100
AcDbEntity
  8
1
100
AcDbLine
 10
278.198181
 20
143.017236
 30
0.0
 11
281.168029
 21
140.047387
 31
0.0
  0
LINE
  5
176
100
AcDbEntity
  8
1
  6
HIDDEN
100
AcDbLine
 10
640.190613
 20
215.063055
 30
0.0
 11
600.690613
 21
215.063055
 31
0.0
  0
LINE
  5
177
100
AcDbEntity
  8
1
  6
HIDDEN
100
AcDbLine
 10
600.690613
 20
225.063055
 30
0.0
 11
640.190613
 21
225.063055
 31
0.0
  0
LINE
  5
178
100
AcDbEntity
  8
1
  6
HIDDEN
100
AcDbLine
 10
600.690613
 20
255.063055
 30
0.0
 11
640.190613
 21
255.063055
 31
0.0
  0
LINE
  5
179
100
AcDbEntity
  8
1
  6
HIDDEN
100
AcDbLine
 10
640.190613
 20
245.063055
 30
0.0
 11
600.690613
 21
245.063055
 31
0.0
  0
LINE
  5
17A
100
AcDbEntity
  8
1
  6
HIDDEN
100
AcDbLine
 10
593.690613
 20
301.563055
 30
0.0
 11
593.690613
 21
262.063055
 31
0.0
  0
LINE
  5
17B
100
AcDbEntity
  8
1
  6
HIDDEN
100
AcDbLine
 10
583.690613
 20
262.063055
 30
0.0
 11
583.690613
 21
301.563055
 31
0.0
  0
LINE
  5
17C
100
AcDbEntity
  8
1
  6
HIDDEN
100
AcDbLine
 10
553.690613
 20
262.063055
 30
0.0
 11
553.690613
 21
301.563055
 31
0.0
  0
LINE
  5
17D
100
AcDbEntity
  8
1
  6
HIDDEN
100
AcDbLine
 10
563.690613
 20
301.563055
 30
0.0
 11
563.690613
 21
262.063055
 31
0.0
  0
LINE
  5
17E
100
AcDbEntity
  8
1
  6
HIDDEN
100
AcDbLine
 10
507.190613
 20
255.063055
 30
0.0
 11
546.690613
 21
255.063055
 31
0.0
  0
LINE
  5
17F
100
AcDbEntity
  8
1
  6
HIDDEN
100
AcDbLine
 10
546.690613
 20
245.063055
 30
0.0
 11
507.190613
 21
245.063055
 31
0.0
  0
LINE
  5
180
100
AcDbEntity
  8
1
  6
HIDDEN
100
AcDbLine
 10
546.690613
 20
215.063055
 30
0.0
 11
507.190613
 21
215.063055
 31
0.0
  0
LINE
  5
181
100
AcDbEntity
  8
1
  6
HIDDEN
100
AcDbLine
 10
507.190613
 20
225.063055
 30
0.0
 11
546.690613
 21
225.063055
 31
0.0
  0
LINE
  5
182
100
AcDbEntity
  8
1
  6
HIDDEN
100
AcDbLine
 10
593.690613
 20
208.063055
 30
0.0
 11
593.690613
 21
168.563055
 31
0.0
  0
LINE
  5
183
100
AcDbEntity
  8
1
  6
HIDDEN
100
AcDbLine
 10
583.690613
 20
168.563055
 30
0.0
 11
583.690613
 21
208.063055
 31
0.0
  0
LINE
  5
184
100
AcDbEntity
  8
0
100
AcDbLine
 10
571.190613
 20
268.413055
 30
0.0
 11
571.190613
 21
269.988055
 31
0.0
  0
LINE
  5
185
100
AcDbEntity
  8
0
100
AcDbLine
 10
576.190613
 20
269.988055
 30
0.0
 11
576.190613
 21
268.413055
 31
0.0
  0
LINE
  5
186
100
AcDbEntity
  8
0
100
AcDbLine
 10
571.190613
 20
200.138055
 30
0.0
 11
571.190613
 21
201.713055
 31
0.0
  0
LINE
  5
187
100
AcDbEntity
  8
0
100
AcDbLine
 10
576.190613
 20
201.713055
 30
0.0
 11
576.190613
 21
200.138055
 31
0.0
  0
LINE
  5
188
100
AcDbEntity
  8
0
100
AcDbLine
 10
532.018738
 20
237.563055
 30
0.0
 11
529.240613
 21
237.563055
 31
0.0
  0
LINE
  5
189
100
AcDbEntity
  8
0
100
AcDbLine
 10
532.018738
 20
232.563055
 30
0.0
 11
529.240613
 21
232.563055
 31
0.0
  0
LINE
  5
18A
100
AcDbEntity
  8
1
  6
HIDDEN
100
AcDbLine
 10
553.690613
 20
168.563055
 30
0.0
 11
553.690613
 21
208.063055
 31
0.0
  0
LINE
  5
18B
100
AcDbEntity
  8
1
  6
HIDDEN
100
AcDbLine
 10
563.690613
 20
208.063055
 30
0.0
 11
563.690613
 21
168.563055
 31
0.0
  0
LINE
  5
18C
100
AcDbEntity
  8
0
100
AcDbLine
 10
253.683105
 20
219.132266
 30
0.0
 11
197.683105
 21
219.132266
 31
0.0
  0
LINE
  5
18D
100
AcDbEntity
  8
SILK
100
AcDbLine
 10
236.683105
 20
211.063208
 30
0.0
 11
235.843105
 21
211.063208
 31
0.0
  0
LINE
  5
18E
100
AcDbEntity
  8
SILK
100
AcDbLine
 10
237.683105
 20
210.063208
 30
0.0
 11
237.683105
 21
194.563208
 31
0.0
  0
LINE
  5
18F
100
AcDbEntity
  8
SILK
100
AcDbLine
 10
238.683105
 20
193.563208
 30
0.0
 11
247.683105
 21
193.563208
 31
0.0
  0
LINE
  5
190
100
AcDbEntity
  8
SILK
100
AcDbLine
 10
213.683105
 20
210.063208
 30
0.0
 11
213.683105
 21
195.443208
 31
0.0
  0
LINE
  5
191
100
AcDbEntity
  8
SILK
100
AcDbLine
 10
210.083105
 20
193.563208
 30
0.0
 11
203.683105
 21
193.563208
 31
0.0
  0
LINE
  5
192
100
AcDbEntity
  8
0
100
AcDbLine
 10
248.683105
 20
224.132266
 30
0.0
 11
248.683105
 21
248.769181
 31
0.0
  0
LINE
  5
193
100
AcDbEntity
  8
0
100
AcDbLine
 10
257.683105
 20
219.132266
 30
0.0
 11
253.683105
 21
219.132266
 31
0.0
  0
LINE
  5
194
100
AcDbEntity
  8
0
100
AcDbLine
 10
197.683105
 20
219.132266
 30
0.0
 11
193.683105
 21
219.132266
 31
0.0
  0
LINE
  5
195
100
AcDbEntity
  8
0
100
AcDbLine
 10
202.683105
 20
248.769181
 30
0.0
 11
202.683105
 21
224.132266
 31
0.0
  0
LINE
  5
196
100
AcDbEntity
  8
0
100
AcDbLine
 10
202.683105
 20
237.230922
 30
0.0
 11
248.683105
 21
237.230922
 31
0.0
  0
LINE
  5
197
100
AcDbEntity
  8
0
100
AcDbLine
 10
247.683105
 20
249.769181
 30
0.0
 11
203.683105
 21
249.769181
 31
0.0
  0
LINE
  5
198
100
AcDbEntity
  8
0
100
AcDbLine
 10
257.683105
 20
176.063208
 30
0.0
 11
193.683105
 21
176.063208
 31
0.0
  0
LINE
  5
199
100
AcDbEntity
  8
0
100
AcDbLine
 10
188.683105
 20
214.132266
 30
0.0
 11
188.683105
 21
181.063208
 31
0.0
  0
LINE
  5
19A
100
AcDbEntity
  8
0
100
AcDbLine
 10
262.683105
 20
181.063208
 30
0.0
 11
262.683105
 21
214.132266
 31
0.0
  0
LINE
  5
19B
100
AcDbEntity
  8
SILK
100
AcDbLine
 10
202.683105
 20
192.563208
 30
0.0
 11
202.683105
 21
177.063208
 31
0.0
  0
LINE
  5
19C
100
AcDbEntity
  8
SILK
100
AcDbLine
 10
248.683105
 20
177.063208
 30
0.0
 11
248.683105
 21
192.563208
 31
0.0
  0
LINE
  5
19D
100
AcDbEntity
  8
0
100
AcDbLine
 10
196.183105
 20
179.563208
 30
0.0
 11
188.913409
 21
179.563208
 31
0.0
  0
LINE
  5
19E
100
AcDbEntity
  8
0
100
AcDbLine
 10
196.183105
 20
192.563208
 30
0.0
 11
188.683105
 21
192.563208
 31
0.0
  0
LINE
  5
19F
100
AcDbEntity
  8
0
100
AcDbLine
 10
262.452801
 20
179.563208
 30
0.0
 11
255.183105
 21
179.563208
 31
0.0
  0
LINE
  5
1A0
100
AcDbEntity
  8
0
100
AcDbLine
 10
262.683105
 20
192.563208
 30
0.0
 11
255.183105
 21
192.563208
 31
0.0
  0
LINE
  5
1A1
100
AcDbEntity
  8
1
  6
HIDDEN
100
AcDbLine
 10
490.823667
 20
668.459758
 30
0.0
 11
500.0162
 21
660.746307
 31
0.0
  0
LINE
  5
1A2
100
AcDbEntity
  8
1
  6
HIDDEN
100
AcDbLine
 10
513.964691
 20
677.369472
 30
0.0
 11
500.0162
 21
660.746307
 31
0.0
  0
LINE
  5
1A3
100
AcDbEntity
  8
1
  6
HIDDEN
100
AcDbLine
 10
541.542291
 20
654.229118
 30
0.0
 11
513.964691
 21
677.369472
 31
0.0
  0
LINE
  5
1A4
100
AcDbEntity
  8
1
  6
HIDDEN
100
AcDbLine
 10
527.5938
 20
637.605953
 30
0.0
 11
541.542291
 21
654.229118
 31
0.0
  0
LINE
  5
1A5
100
AcDbEntity
  8
1
  6
HIDDEN
100
AcDbLine
 10
458.52086
 20
661.232821
 30
0.0
 11
462.268273
 21
658.088367
 31
0.0
  0
LINE
  5
1A6
100
AcDbEntity
  8
1
  6
HIDDEN
100
AcDbLine
 10
462.885589
 20
660.833896
 30
0.0
 11
460.127829
 21
663.147932
 31
0.0
  0
LINE
  5
1A7
100
AcDbEntity
  8
1
  6
HIDDEN
100
AcDbLine
 10
535.278513
 20
596.825502
 30
0.0
 11
531.531099
 21
599.969955
 31
0.0
  0
LINE
  5
1A8
100
AcDbEntity
  8
1
  6
HIDDEN
100
AcDbLine
 10
534.127722
 20
601.054649
 30
0.0
 11
536.885482
 21
598.740613
 31
0.0
  0
LINE
  5
1A9
100
AcDbEntity
  8
1
  6
HIDDEN
100
AcDbLine
 10
538.434399
 20
606.187146
 30
0.0
 11
534.127722
 21
601.054649
 31
0.0
  0
LINE
  5
1AA
100
AcDbEntity
  8
1
  6
HIDDEN
100
AcDbLine
 10
467.192266
 20
665.966394
 30
0.0
 11
462.885589
 21
660.833896
 31
0.0
  0
LINE
  5
1AB
100
AcDbEntity
  8
1
  6
HIDDEN
100
AcDbLine
 10
487.802565
 20
664.85935
 30
0.0
 11
490.823667
 21
668.459758
 31
0.0
  0
LINE
  5
1AC
100
AcDbEntity
  8
1
  6
HIDDEN
100
AcDbLine
 10
467.192266
 20
665.966394
 30
0.0
 11
487.802565
 21
664.85935
 31
0.0
  0
LINE
  5
1AD
100
AcDbEntity
  8
1
  6
HIDDEN
100
AcDbLine
 10
533.765232
 20
626.292093
 30
0.0
 11
536.786334
 21
629.892502
 31
0.0
  0
LINE
  5
1AE
100
AcDbEntity
  8
1
  6
HIDDEN
100
AcDbLine
 10
538.434399
 20
606.187146
 30
0.0
 11
533.765232
 21
626.292093
 31
0.0
  0
LINE
  5
1AF
100
AcDbEntity
  8
1
  6
HIDDEN
100
AcDbLine
 10
460.127829
 20
663.147932
 30
0.0
 11
458.52086
 21
661.232821
 31
0.0
  0
LINE
  5
1B0
100
AcDbEntity
  8
1
  6
HIDDEN
100
AcDbLine
 10
536.885482
 20
598.740613
 30
0.0
 11
535.278513
 21
596.825502
 31
0.0
  0
LINE
  5
1B1
100
AcDbEntity
  8
1
  6
HIDDEN
100
AcDbLine
 10
527.5938
 20
637.605953
 30
0.0
 11
536.786334
 21
629.892502
 31
0.0
  0
LINE
  5
1B2
100
AcDbEntity
  8
1
  6
HIDDEN
100
AcDbLine
 10
463.501873
 20
653.789736
 30
0.0
 11
527.083562
 21
600.438364
 31
0.0
  0
LINE
  5
1B3
100
AcDbEntity
  8
1
  6
HIDDEN
100
AcDbLine
 10
514.329334
 20
570.459092
 30
0.0
 11
541.14089
 21
547.961525
 31
0.0
  0
LINE
  5
1B4
100
AcDbEntity
  8
1
  6
HIDDEN
100
AcDbLine
 10
541.14089
 20
547.961525
 30
0.0
 11
552.325394
 21
561.290699
 31
0.0
  0
LINE
  5
1B5
100
AcDbEntity
  8
1
  6
HIDDEN
100
AcDbLine
 10
525.513838
 20
583.788265
 30
0.0
 11
514.329334
 21
570.459092
 31
0.0
  0
LINE
  5
1B6
100
AcDbEntity
  8
1
  6
HIDDEN
100
AcDbLine
 10
527.42895
 20
582.181296
 30
0.0
 11
525.513838
 21
583.788265
 31
0.0
  0
LINE
  5
1B7
100
AcDbEntity
  8
1
  6
HIDDEN
100
AcDbLine
 10
529.100197
 20
584.173012
 30
0.0
 11
527.42895
 21
582.181296
 31
0.0
  0
LINE
  5
1B8
100
AcDbEntity
  8
1
  6
HIDDEN
100
AcDbLine
 10
552.081531
 20
564.889383
 30
0.0
 11
529.100197
 21
584.173012
 31
0.0
  0
LINE
  5
1B9
100
AcDbEntity
  8
1
  6
HIDDEN
100
AcDbLine
 10
550.410283
 20
562.897668
 30
0.0
 11
552.081531
 21
564.889383
 31
0.0
  0
LINE
  5
1BA
100
AcDbEntity
  8
1
  6
HIDDEN
100
AcDbLine
 10
552.325394
 20
561.290699
 30
0.0
 11
550.410283
 21
562.897668
 31
0.0
  0
LINE
  5
1BB
100
AcDbEntity
  8
0
100
AcDbLine
 10
112.774596
 20
418.998424
 30
0.0
 11
108.050808
 21
418.998424
 31
0.0
  0
LINE
  5
1BC
100
AcDbEntity
  8
0
100
AcDbLine
 10
114.11216
 20
416.551091
 30
0.0
 11
107.719162
 21
416.551091
 31
0.0
  0
LINE
  5
1BD
100
AcDbEntity
  8
0
100
AcDbLine
 10
107.779183
 20
414.131867
 30
0.0
 11
115.240491
 21
414.144773
 31
0.0
  0
LINE
  5
1BE
100
AcDbEntity
  8
0
100
AcDbLine
 10
116.297459
 20
411.748192
 30
0.0
 11
108.107629
 21
411.748192
 31
0.0
  0
LINE
  5
1BF
100
AcDbEntity
  8
0
100
AcDbLine
 10
108.655535
 20
409.404634
 30
0.0
 11
117.312608
 21
409.404634
 31
0.0
  0
LINE
  5
1C0
100
AcDbEntity
  8
0
100
AcDbLine
 10
118.314446
 20
407.107516
 30
0.0
 11
109.396926
 21
407.107516
 31
0.0
  0
LINE
  5
1C1
100
AcDbEntity
  8
0
100
AcDbLine
 10
119.315706
 20
404.86258
 30
0.0
 11
110.315706
 21
404.86258
 31
0.0
  0
LINE
  5
1C2
100
AcDbEntity
  8
0
100
AcDbLine
 10
343.315402
 20
418.998424
 30
0.0
 11
338.591614
 21
418.998424
 31
0.0
  0
LINE
  5
1C3
100
AcDbEntity
  8
0
100
AcDbLine
 10
343.647048
 20
416.551091
 30
0.0
 11
337.25405
 21
416.551091
 31
0.0
  0
LINE
  5
1C4
100
AcDbEntity
  8
0
100
AcDbLine
 10
336.12572
 20
414.144773
 30
0.0
 11
343.587027
 21
414.131867
 31
0.0
  0
LINE
  5
1C5
100
AcDbEntity
  8
0
100
AcDbLine
 10
343.258581
 20
411.748192
 30
0.0
 11
335.068751
 21
411.748192
 31
0.0
  0
LINE
  5
1C6
100
AcDbEntity
  8
0
100
AcDbLine
 10
334.053602
 20
409.404634
 30
0.0
 11
342.710675
 21
409.404634
 31
0.0
  0
LINE
  5
1C7
100
AcDbEntity
  8
0
100
AcDbLine
 10
341.969284
 20
407.107516
 30
0.0
 11
333.051764
 21
407.107516
 31
0.0
  0
LINE
  5
1C8
100
AcDbEntity
  8
0
100
AcDbLine
 10
341.050505
 20
404.86258
 30
0.0
 11
332.050505
 21
404.86258
 31
0.0
  0
LINE
  5
1C9
100
AcDbEntity
  8
0
100
AcDbLine
 10
353.546529
 20
403.980578
 30
0.0
 11
97.819681
 21
403.980578
 31
0.0
  0
LINE
  5
1CA
100
AcDbEntity
  8
0
100
AcDbLine
 10
358.6729
 20
427.980578
 30
0.0
 11
92.69331
 21
427.980578
 31
0.0
  0
LINE
  5
1CB
100
AcDbEntity
  8
0
100
AcDbLine
 10
307.58264
 20
311.215287
 30
0.0
 11
317.300055
 21
316.82564
 31
0.0
  0
LINE
  5
1CC
100
AcDbEntity
  8
0
100
AcDbLine
 10
118.78357
 20
267.914017
 30
0.0
 11
109.066155
 21
273.524369
 31
0.0
  0
LINE
  5
1CD
100
AcDbEntity
  8
0
100
AcDbLine
 10
250.683105
 20
126.059861
 30
0.0
 11
250.683105
 21
114.839157
 31
0.0
  0
LINE
  5
1CE
100
AcDbEntity
  8
0
100
AcDbLine
 10
331.711805
 20
282.422347
 30
0.0
 11
337.610388
 21
285.827896
 31
0.0
  0
LINE
  5
1CF
100
AcDbEntity
  8
0
100
AcDbLine
 10
331.028793
 20
282.60536
 30
0.0
 11
330.528793
 21
283.471386
 31
0.0
  0
LINE
  5
1D0
100
AcDbEntity
  8
0
100
AcDbLine
 10
311.401604
 20
273.005648
 30
0.0
 11
329.84578
 21
283.654398
 31
0.0
  0
LINE
  5
1D1
100
AcDbEntity
  8
0
100
AcDbLine
 10
131.654405
 20
303.206957
 30
0.0
 11
125.755822
 21
306.612506
 31
0.0
  0
LINE
  5
1D2
100
AcDbEntity
  8
0
100
AcDbLine
 10
131.837418
 20
302.523944
 30
0.0
 11
131.337418
 21
301.657919
 31
0.0
  0
LINE
  5
1D3
100
AcDbEntity
  8
0
100
AcDbLine
 10
149.964606
 20
290.326156
 30
0.0
 11
131.52043
 21
300.974906
 31
0.0
  0
LINE
  5
1D4
100
AcDbEntity
  8
0
100
AcDbLine
 10
213.683105
 20
119.559861
 30
0.0
 11
213.683105
 21
112.748765
 31
0.0
  0
LINE
  5
1D5
100
AcDbEntity
  8
0
100
AcDbLine
 10
214.183105
 20
120.059861
 30
0.0
 11
215.183105
 21
120.059861
 31
0.0
  0
LINE
  5
1D6
100
AcDbEntity
  8
0
100
AcDbLine
 10
215.683105
 20
141.857361
 30
0.0
 11
215.683105
 21
120.559861
 31
0.0
  0
LINE
  5
1D7
100
AcDbEntity
  8
0
100
AcDbLine
 10
211.183105
 20
111.91054
 30
0.0
 11
211.183105
 21
109.695611
 31
0.0
  0
LINE
  5
1D8
100
AcDbEntity
  8
0
100
AcDbLine
 10
209.683105
 20
112.096425
 30
0.0
 11
209.683105
 21
111.390558
 31
0.0
  0
LINE
  5
1D9
100
AcDbEntity
  8
0
100
AcDbLine
 10
240.183105
 20
109.695611
 30
0.0
 11
240.183105
 21
111.91054
 31
0.0
  0
LINE
  5
1DA
100
AcDbEntity
  8
0
100
AcDbLine
 10
339.586312
 20
284.081945
 30
0.0
 11
341.504497
 21
285.189409
 31
0.0
  0
LINE
  5
1DB
100
AcDbEntity
  8
0
100
AcDbLine
 10
324.206996
 20
310.421059
 30
0.0
 11
324.786629
 21
310.75571
 31
0.0
  0
LINE
  5
1DC
100
AcDbEntity
  8
0
100
AcDbLine
 10
340.175331
 20
282.689964
 30
0.0
 11
340.786629
 21
283.042898
 31
0.0
  0
LINE
  5
1DD
100
AcDbEntity
  8
0
100
AcDbLine
 10
327.004497
 20
310.304146
 30
0.0
 11
325.086312
 21
309.196682
 31
0.0
  0
LINE
  5
1DE
100
AcDbEntity
  8
0
100
AcDbLine
 10
127.19088
 20
310.402777
 30
0.0
 11
126.579581
 21
310.75571
 31
0.0
  0
LINE
  5
1DF
100
AcDbEntity
  8
0
100
AcDbLine
 10
109.861713
 20
285.189409
 30
0.0
 11
111.779898
 21
284.081945
 31
0.0
  0
LINE
  5
1E0
100
AcDbEntity
  8
0
100
AcDbLine
 10
125.619709
 20
309.577842
 30
0.0
 11
124.361713
 21
310.304146
 31
0.0
  0
LINE
  5
1E1
100
AcDbEntity
  8
0
100
AcDbLine
 10
126.279898
 20
309.196682
 30
0.0
 11
125.619709
 21
309.577842
 31
0.0
  0
LINE
  5
1E2
100
AcDbEntity
  8
0
100
AcDbLine
 10
544.225466
 20
800.391046
 30
0.0
 11
544.225466
 21
800.011046
 31
0.0
  0
LINE
  5
1E3
100
AcDbEntity
  8
0
100
AcDbLine
 10
544.225466
 20
800.011046
 30
0.0
 11
546.695255
 21
800.003562
 31
0.0
  0
LINE
  5
1E4
100
AcDbEntity
  8
0
100
AcDbLine
 10
546.695255
 20
800.003562
 30
0.0
 11
546.695255
 21
799.631046
 31
0.0
  0
LINE
  5
1E5
100
AcDbEntity
  8
0
100
AcDbLine
 10
546.695255
 20
799.631046
 30
0.0
 11
549.142588
 21
799.493112
 31
0.0
  0
LINE
  5
1E6
100
AcDbEntity
  8
0
100
AcDbLine
 10
549.142588
 20
799.493112
 30
0.0
 11
549.142588
 21
799.113112
 31
0.0
  0
LINE
  5
1E7
100
AcDbEntity
  8
0
100
AcDbLine
 10
549.142588
 20
799.113112
 30
0.0
 11
551.561348
 21
798.860971
 31
0.0
  0
LINE
  5
1E8
100
AcDbEntity
  8
0
100
AcDbLine
 10
551.561348
 20
798.860971
 30
0.0
 11
551.561348
 21
798.480971
 31
0.0
  0
LINE
  5
1E9
100
AcDbEntity
  8
0
100
AcDbLine
 10
551.561348
 20
798.480971
 30
0.0
 11
553.945487
 21
798.10872
 31
0.0
  0
LINE
  5
1EA
100
AcDbEntity
  8
0
100
AcDbLine
 10
553.945487
 20
798.10872
 30
0.0
 11
553.945487
 21
797.72872
 31
0.0
  0
LINE
  5
1EB
100
AcDbEntity
  8
0
100
AcDbLine
 10
553.945487
 20
797.72872
 30
0.0
 11
556.289045
 21
797.238239
 31
0.0
  0
LINE
  5
1EC
100
AcDbEntity
  8
0
100
AcDbLine
 10
556.289045
 20
797.238239
 30
0.0
 11
556.289045
 21
796.858239
 31
0.0
  0
LINE
  5
1ED
100
AcDbEntity
  8
0
100
AcDbLine
 10
556.289045
 20
796.858239
 30
0.0
 11
558.586163
 21
796.251706
 31
0.0
  0
LINE
  5
1EE
100
AcDbEntity
  8
0
100
AcDbLine
 10
558.586163
 20
796.251706
 30
0.0
 11
558.586163
 21
795.871706
 31
0.0
  0
LINE
  5
1EF
100
AcDbEntity
  8
0
100
AcDbLine
 10
558.586163
 20
795.871706
 30
0.0
 11
560.831098
 21
795.151586
 31
0.0
  0
LINE
  5
1F0
100
AcDbEntity
  8
0
100
AcDbLine
 10
561.713101
 20
793.020163
 30
0.0
 11
561.713101
 21
791.520163
 31
0.0
  0
LINE
  5
1F1
100
AcDbEntity
  8
0
100
AcDbLine
 10
537.713101
 20
799.806764
 30
0.0
 11
537.713101
 21
533.827175
 31
0.0
  0
LINE
  5
1F2
100
AcDbEntity
  8
0
100
AcDbLine
 10
561.713101
 20
791.520163
 30
0.0
 11
561.713101
 21
535.453545
 31
0.0
  0
LINE
  5
1F3
100
AcDbEntity
  8
0
100
AcDbLine
 10
561.713101
 20
794.680394
 30
0.0
 11
561.713101
 21
793.020163
 31
0.0
  0
LINE
  5
1F4
100
AcDbEntity
  8
0
100
AcDbLine
 10
561.713101
 20
535.453545
 30
0.0
 11
551.713101
 21
534.816969
 31
0.0
  0
LINE
  5
1F5
100
AcDbEntity
  8
0
100
AcDbLine
 10
560.831098
 20
610.601875
 30
0.0
 11
560.831098
 21
595.013418
 31
0.0
  0
LINE
  5
1F6
100
AcDbEntity
  8
0
100
AcDbLine
 10
558.586163
 20
594.53058
 30
0.0
 11
558.586163
 21
609.976178
 31
0.0
  0
LINE
  5
1F7
100
AcDbEntity
  8
0
100
AcDbLine
 10
556.289045
 20
609.247398
 30
0.0
 11
556.289045
 21
594.252907
 31
0.0
  0
LINE
  5
1F8
100
AcDbEntity
  8
0
100
AcDbLine
 10
553.945487
 20
594.206336
 30
0.0
 11
553.945487
 21
608.391538
 31
0.0
  0
LINE
  5
1F9
100
AcDbEntity
  8
0
100
AcDbLine
 10
551.561348
 20
607.367201
 30
0.0
 11
551.561348
 21
594.434031
 31
0.0
  0
LINE
  5
1FA
100
AcDbEntity
  8
0
100
AcDbLine
 10
549.142588
 20
595.019456
 30
0.0
 11
549.142588
 21
606.092454
 31
0.0
  0
LINE
  5
1FB
100
AcDbEntity
  8
0
100
AcDbLine
 10
546.695255
 20
604.356492
 30
0.0
 11
546.695255
 21
596.174651
 31
0.0
  0
LINE
  5
1FC
100
AcDbEntity
  8
1
  6
HIDDEN
100
AcDbLine
 10
178.683105
 20
589.561011
 30
0.0
 11
178.683105
 21
650.404568
 31
0.0
  0
LINE
  5
1FD
100
AcDbEntity
  8
1
  6
HIDDEN
100
AcDbLine
 10
157.052812
 20
563.980961
 30
0.0
 11
178.683105
 21
589.561011
 31
0.0
  0
LINE
  5
1FE
100
AcDbEntity
  8
1
  6
HIDDEN
100
AcDbLine
 10
178.683105
 20
589.561011
 30
0.0
 11
191.683551
 21
589.561011
 31
0.0
  0
LINE
  5
1FF
100
AcDbEntity
  8
1
  6
HIDDEN
100
AcDbLine
 10
259.683105
 20
589.561011
 30
0.0
 11
272.683105
 21
589.561011
 31
0.0
  0
LINE
  5
200
100
AcDbEntity
  8
1
  6
HIDDEN
100
AcDbLine
 10
272.683105
 20
650.404568
 30
0.0
 11
272.683105
 21
589.561011
 31
0.0
  0
LINE
  5
201
100
AcDbEntity
  8
1
  6
HIDDEN
100
AcDbLine
 10
272.683105
 20
589.561011
 30
0.0
 11
294.313398
 21
563.980961
 31
0.0
  0
LINE
  5
202
100
AcDbEntity
  8
1
  6
HIDDEN
100
AcDbLine
 10
259.683105
 20
591.396753
 30
0.0
 11
259.683105
 21
564.545299
 31
0.0
  0
LINE
  5
203
100
AcDbEntity
  8
1
  6
HIDDEN
100
AcDbLine
 10
191.683551
 20
564.545299
 30
0.0
 11
191.683551
 21
591.396753
 31
0.0
  0
LINE
  5
204
100
AcDbEntity
  8
1
  6
HIDDEN
100
AcDbLine
 10
196.683551
 20
596.396753
 30
0.0
 11
225.683551
 21
596.396753
 31
0.0
  0
LINE
  5
205
100
AcDbEntity
  8
1
  6
HIDDEN
100
AcDbLine
 10
225.683105
 20
596.396753
 30
0.0
 11
254.683105
 21
596.396753
 31
0.0
  0
LINE
  5
206
100
AcDbEntity
  8
1
  6
HIDDEN
100
AcDbLine
 10
244.683105
 20
544.966271
 30
0.0
 11
225.683105
 21
544.966271
 31
0.0
  0
LINE
  5
207
100
AcDbEntity
  8
1
  6
HIDDEN
100
AcDbLine
 10
225.683551
 20
544.966271
 30
0.0
 11
206.683551
 21
544.966271
 31
0.0
  0
LINE
  5
208
100
AcDbEntity
  8
1
  6
HIDDEN
100
AcDbLine
 10
304.264122
 20
452.919144
 30
0.0
 11
294.313398
 21
427.980578
 31
0.0
  0
LINE
  5
209
100
AcDbEntity
  8
1
  6
HIDDEN
100
AcDbLine
 10
272.683105
 20
502.494901
 30
0.0
 11
272.683105
 21
427.980578
 31
0.0
  0
LINE
  5
20A
100
AcDbEntity
  8
1
  6
HIDDEN
100
AcDbLine
 10
211.683105
 20
457.286746
 30
0.0
 11
239.682659
 21
457.286746
 31
0.0
  0
LINE
  5
20B
100
AcDbEntity
  8
1
  6
HIDDEN
100
AcDbLine
 10
259.682659
 20
437.286746
 30
0.0
 11
259.682659
 21
427.980578
 31
0.0
  0
LINE
  5
20C
100
AcDbEntity
  8
1
  6
HIDDEN
100
AcDbLine
 10
191.683105
 20
427.980578
 30
0.0
 11
191.683105
 21
437.286746
 31
0.0
  0
LINE
  5
20D
100
AcDbEntity
  8
1
  6
HIDDEN
100
AcDbLine
 10
157.052812
 20
427.980578
 30
0.0
 11
147.102088
 21
452.919144
 31
0.0
  0
LINE
  5
20E
100
AcDbEntity
  8
1
  6
HIDDEN
100
AcDbLine
 10
178.683105
 20
427.980578
 30
0.0
 11
178.683105
 21
502.494901
 31
0.0
  0
LINE
  5
20F
100
AcDbEntity
  8
SILK
100
AcDbLine
 10
235.843105
 20
202.263208
 30
0.0
 11
235.843105
 21
217.463208
 31
0.0
  0
LINE
  5
210
100
AcDbEntity
  8
SILK
100
AcDbLine
 10
235.843105
 20
202.263208
 30
0.0
 11
215.523105
 21
202.263208
 31
0.0
  0
LINE
  5
211
100
AcDbEntity
  8
SILK
100
AcDbLine
 10
235.303105
 20
204.063208
 30
0.0
 11
235.303105
 21
208.063208
 31
0.0
  0
LINE
  5
212
100
AcDbEntity
  8
SILK
100
AcDbLine
 10
235.303105
 20
208.063208
 30
0.0
 11
231.303105
 21
208.063208
 31
0.0
  0
LINE
  5
213
100
AcDbEntity
  8
SILK
100
AcDbLine
 10
231.303105
 20
208.063208
 30
0.0
 11
231.303105
 21
204.063208
 31
0.0
  0
LINE
  5
214
100
AcDbEntity
  8
SILK
100
AcDbLine
 10
231.303105
 20
204.063208
 30
0.0
 11
235.303105
 21
204.063208
 31
0.0
  0
LINE
  5
215
100
AcDbEntity
  8
SILK
100
AcDbLine
 10
230.223105
 20
204.063208
 30
0.0
 11
230.223105
 21
208.063208
 31
0.0
  0
LINE
  5
216
100
AcDbEntity
  8
SILK
100
AcDbLine
 10
226.223105
 20
204.063208
 30
0.0
 11
230.223105
 21
204.063208
 31
0.0
  0
LINE
  5
217
100
AcDbEntity
  8
SILK
100
AcDbLine
 10
225.143105
 20
204.063208
 30
0.0
 11
225.143105
 21
208.063208
 31
0.0
  0
LINE
  5
218
100
AcDbEntity
  8
SILK
100
AcDbLine
 10
221.143105
 20
204.063208
 30
0.0
 11
225.143105
 21
204.063208
 31
0.0
  0
LINE
  5
219
100
AcDbEntity
  8
SILK
100
AcDbLine
 10
220.063105
 20
204.063208
 30
0.0
 11
220.063105
 21
208.063208
 31
0.0
  0
LINE
  5
21A
100
AcDbEntity
  8
SILK
100
AcDbLine
 10
216.063105
 20
204.063208
 30
0.0
 11
220.063105
 21
204.063208
 31
0.0
  0
LINE
  5
21B
100
AcDbEntity
  8
SILK
100
AcDbLine
 10
230.223105
 20
208.063208
 30
0.0
 11
226.223105
 21
208.063208
 31
0.0
  0
LINE
  5
21C
100
AcDbEntity
  8
SILK
100
AcDbLine
 10
226.223105
 20
208.063208
 30
0.0
 11
226.223105
 21
204.063208
 31
0.0
  0
LINE
  5
21D
100
AcDbEntity
  8
SILK
100
AcDbLine
 10
225.143105
 20
208.063208
 30
0.0
 11
221.143105
 21
208.063208
 31
0.0
  0
LINE
  5
21E
100
AcDbEntity
  8
SILK
100
AcDbLine
 10
221.143105
 20
208.063208
 30
0.0
 11
221.143105
 21
204.063208
 31
0.0
  0
LINE
  5
21F
100
AcDbEntity
  8
SILK
100
AcDbLine
 10
220.063105
 20
208.063208
 30
0.0
 11
216.063105
 21
208.063208
 31
0.0
  0
LINE
  5
220
100
AcDbEntity
  8
SILK
100
AcDbLine
 10
216.063105
 20
208.063208
 30
0.0
 11
216.063105
 21
204.063208
 31
0.0
  0
LINE
  5
221
100
AcDbEntity
  8
SILK
100
AcDbLine
 10
215.523105
 20
217.463208
 30
0.0
 11
215.523105
 21
202.263208
 31
0.0
  0
LINE
  5
222
100
AcDbEntity
  8
SILK
100
AcDbLine
 10
235.843105
 20
217.463208
 30
0.0
 11
215.523105
 21
217.463208
 31
0.0
  0
LINE
  5
223
100
AcDbEntity
  8
SILK
100
AcDbLine
 10
231.283105
 20
191.093208
 30
0.0
 11
231.283105
 21
195.443208
 31
0.0
  0
LINE
  5
224
100
AcDbEntity
  8
SILK
100
AcDbLine
 10
225.083105
 20
180.193208
 30
0.0
 11
225.083105
 21
177.743208
 31
0.0
  0
LINE
  5
225
100
AcDbEntity
  8
SILK
100
AcDbLine
 10
231.283105
 20
185.993208
 30
0.0
 11
231.283105
 21
191.093208
 31
0.0
  0
LINE
  5
226
100
AcDbEntity
  8
SILK
100
AcDbLine
 10
225.083105
 20
185.293208
 30
0.0
 11
225.083105
 21
180.193208
 31
0.0
  0
LINE
  5
227
100
AcDbEntity
  8
SILK
100
AcDbLine
 10
231.283105
 20
185.293208
 30
0.0
 11
231.283105
 21
185.993208
 31
0.0
  0
LINE
  5
228
100
AcDbEntity
  8
SILK
100
AcDbLine
 10
225.083105
 20
185.993208
 30
0.0
 11
225.083105
 21
185.293208
 31
0.0
  0
LINE
  5
229
100
AcDbEntity
  8
SILK
100
AcDbLine
 10
231.283105
 20
180.193208
 30
0.0
 11
231.283105
 21
185.293208
 31
0.0
  0
LINE
  5
22A
100
AcDbEntity
  8
SILK
100
AcDbLine
 10
225.083105
 20
191.093208
 30
0.0
 11
225.083105
 21
185.993208
 31
0.0
  0
LINE
  5
22B
100
AcDbEntity
  8
SILK
100
AcDbLine
 10
231.283105
 20
195.443208
 30
0.0
 11
225.083105
 21
195.443208
 31
0.0
  0
LINE
  5
22C
100
AcDbEntity
  8
SILK
100
AcDbLine
 10
225.083105
 20
195.443208
 30
0.0
 11
225.083105
 21
191.093208
 31
0.0
  0
LINE
  5
22D
100
AcDbEntity
  8
SILK
100
AcDbLine
 10
225.083105
 20
177.743208
 30
0.0
 11
231.283105
 21
177.743208
 31
0.0
  0
LINE
  5
22E
100
AcDbEntity
  8
SILK
100
AcDbLine
 10
231.283105
 20
177.743208
 30
0.0
 11
231.283105
 21
180.193208
 31
0.0
  0
LINE
  5
22F
100
AcDbEntity
  8
SILK
100
AcDbLine
 10
226.033105
 20
191.093208
 30
0.0
 11
230.333105
 21
191.093208
 31
0.0
  0
LINE
  5
230
100
AcDbEntity
  8
SILK
100
AcDbLine
 10
230.333105
 20
191.093208
 30
0.0
 11
230.333105
 21
185.993208
 31
0.0
  0
LINE
  5
231
100
AcDbEntity
  8
SILK
100
AcDbLine
 10
230.333105
 20
185.993208
 30
0.0
 11
229.183105
 21
185.993208
 31
0.0
  0
LINE
  5
232
100
AcDbEntity
  8
SILK
100
AcDbLine
 10
226.033105
 20
185.993208
 30
0.0
 11
226.033105
 21
191.093208
 31
0.0
  0
LINE
  5
233
100
AcDbEntity
  8
SILK
100
AcDbLine
 10
230.333105
 20
185.293208
 30
0.0
 11
229.183105
 21
185.293208
 31
0.0
  0
LINE
  5
234
100
AcDbEntity
  8
SILK
100
AcDbLine
 10
226.033105
 20
185.293208
 30
0.0
 11
226.033105
 21
180.193208
 31
0.0
  0
LINE
  5
235
100
AcDbEntity
  8
SILK
100
AcDbLine
 10
226.033105
 20
180.193208
 30
0.0
 11
230.333105
 21
180.193208
 31
0.0
  0
LINE
  5
236
100
AcDbEntity
  8
SILK
100
AcDbLine
 10
230.333105
 20
180.193208
 30
0.0
 11
230.333105
 21
185.293208
 31
0.0
  0
LINE
  5
237
100
AcDbEntity
  8
SILK
100
AcDbLine
 10
231.283105
 20
191.543208
 30
0.0
 11
225.083105
 21
191.543208
 31
0.0
  0
LINE
  5
238
100
AcDbEntity
  8
SILK
100
AcDbLine
 10
232.258105
 20
183.843208
 30
0.0
 11
232.258105
 21
184.483208
 31
0.0
  0
LINE
  5
239
100
AcDbEntity
  8
SILK
100
AcDbLine
 10
224.108105
 20
184.483208
 30
0.0
 11
224.108105
 21
183.843208
 31
0.0
  0
LINE
  5
23A
100
AcDbEntity
  8
SILK
100
AcDbLine
 10
232.258105
 20
189.643208
 30
0.0
 11
232.258105
 21
190.283208
 31
0.0
  0
LINE
  5
23B
100
AcDbEntity
  8
SILK
100
AcDbLine
 10
224.108105
 20
190.283208
 30
0.0
 11
224.108105
 21
189.643208
 31
0.0
  0
LINE
  5
23C
100
AcDbEntity
  8
SILK
100
AcDbLine
 10
229.183105
 20
182.743208
 30
0.0
 11
229.183105
 21
188.543208
 31
0.0
  0
LINE
  5
23D
100
AcDbEntity
  8
SILK
100
AcDbLine
 10
227.183105
 20
188.543208
 30
0.0
 11
227.183105
 21
182.743208
 31
0.0
  0
LINE
  5
23E
100
AcDbEntity
  8
SILK
100
AcDbLine
 10
227.183105
 20
185.993208
 30
0.0
 11
226.033105
 21
185.993208
 31
0.0
  0
LINE
  5
23F
100
AcDbEntity
  8
SILK
100
AcDbLine
 10
227.183105
 20
185.293208
 30
0.0
 11
226.033105
 21
185.293208
 31
0.0
  0
LINE
  5
240
100
AcDbEntity
  8
SILK
100
AcDbLine
 10
210.083105
 20
180.193208
 30
0.0
 11
210.083105
 21
177.743208
 31
0.0
  0
LINE
  5
241
100
AcDbEntity
  8
SILK
100
AcDbLine
 10
216.283105
 20
191.093208
 30
0.0
 11
216.283105
 21
195.443208
 31
0.0
  0
LINE
  5
242
100
AcDbEntity
  8
SILK
100
AcDbLine
 10
210.083105
 20
185.293208
 30
0.0
 11
210.083105
 21
180.193208
 31
0.0
  0
LINE
  5
243
100
AcDbEntity
  8
SILK
100
AcDbLine
 10
216.283105
 20
185.993208
 30
0.0
 11
216.283105
 21
191.093208
 31
0.0
  0
LINE
  5
244
100
AcDbEntity
  8
SILK
100
AcDbLine
 10
210.083105
 20
185.993208
 30
0.0
 11
210.083105
 21
185.293208
 31
0.0
  0
LINE
  5
245
100
AcDbEntity
  8
SILK
100
AcDbLine
 10
216.283105
 20
185.293208
 30
0.0
 11
216.283105
 21
185.993208
 31
0.0
  0
LINE
  5
246
100
AcDbEntity
  8
SILK
100
AcDbLine
 10
210.083105
 20
191.093208
 30
0.0
 11
210.083105
 21
185.993208
 31
0.0
  0
LINE
  5
247
100
AcDbEntity
  8
SILK
100
AcDbLine
 10
216.283105
 20
180.193208
 30
0.0
 11
216.283105
 21
185.293208
 31
0.0
  0
LINE
  5
248
100
AcDbEntity
  8
SILK
100
AcDbLine
 10
210.083105
 20
193.56336
 30
0.0
 11
210.083105
 21
191.093208
 31
0.0
  0
LINE
  5
249
100
AcDbEntity
  8
SILK
100
AcDbLine
 10
213.683105
 20
195.443208
 30
0.0
 11
210.083105
 21
195.443208
 31
0.0
  0
LINE
  5
24A
100
AcDbEntity
  8
SILK
100
AcDbLine
 10
217.258105
 20
183.843208
 30
0.0
 11
217.258105
 21
184.483208
 31
0.0
  0
LINE
  5
24B
100
AcDbEntity
  8
SILK
100
AcDbLine
 10
209.108105
 20
184.483208
 30
0.0
 11
209.108105
 21
183.843208
 31
0.0
  0
LINE
  5
24C
100
AcDbEntity
  8
SILK
100
AcDbLine
 10
217.258105
 20
189.643208
 30
0.0
 11
217.258105
 21
190.283208
 31
0.0
  0
LINE
  5
24D
100
AcDbEntity
  8
SILK
100
AcDbLine
 10
209.108105
 20
190.283208
 30
0.0
 11
209.108105
 21
189.643208
 31
0.0
  0
LINE
  5
24E
100
AcDbEntity
  8
SILK
100
AcDbLine
 10
216.283105
 20
191.543208
 30
0.0
 11
210.083105
 21
191.543208
 31
0.0
  0
LINE
  5
24F
100
AcDbEntity
  8
SILK
100
AcDbLine
 10
215.333105
 20
180.193208
 30
0.0
 11
215.333105
 21
185.293208
 31
0.0
  0
LINE
  5
250
100
AcDbEntity
  8
SILK
100
AcDbLine
 10
211.033105
 20
180.193208
 30
0.0
 11
215.333105
 21
180.193208
 31
0.0
  0
LINE
  5
251
100
AcDbEntity
  8
SILK
100
AcDbLine
 10
211.033105
 20
185.293208
 30
0.0
 11
211.033105
 21
180.193208
 31
0.0
  0
LINE
  5
252
100
AcDbEntity
  8
SILK
100
AcDbLine
 10
215.333105
 20
185.293208
 30
0.0
 11
214.183105
 21
185.293208
 31
0.0
  0
LINE
  5
253
100
AcDbEntity
  8
SILK
100
AcDbLine
 10
211.033105
 20
185.993208
 30
0.0
 11
211.033105
 21
191.093208
 31
0.0
  0
LINE
  5
254
100
AcDbEntity
  8
SILK
100
AcDbLine
 10
215.333105
 20
185.993208
 30
0.0
 11
214.183105
 21
185.993208
 31
0.0
  0
LINE
  5
255
100
AcDbEntity
  8
SILK
100
AcDbLine
 10
215.333105
 20
191.093208
 30
0.0
 11
215.333105
 21
185.993208
 31
0.0
  0
LINE
  5
256
100
AcDbEntity
  8
SILK
100
AcDbLine
 10
211.033105
 20
191.093208
 30
0.0
 11
215.333105
 21
191.093208
 31
0.0
  0
LINE
  5
257
100
AcDbEntity
  8
SILK
100
AcDbLine
 10
216.283105
 20
177.743208
 30
0.0
 11
216.283105
 21
180.193208
 31
0.0
  0
LINE
  5
258
100
AcDbEntity
  8
SILK
100
AcDbLine
 10
210.083105
 20
177.743208
 30
0.0
 11
216.283105
 21
177.743208
 31
0.0
  0
LINE
  5
259
100
AcDbEntity
  8
SILK
100
AcDbLine
 10
210.083105
 20
195.443208
 30
0.0
 11
210.083105
 21
193.56336
 31
0.0
  0
LINE
  5
25A
100
AcDbEntity
  8
SILK
100
AcDbLine
 10
216.283105
 20
195.443208
 30
0.0
 11
213.683105
 21
195.443208
 31
0.0
  0
LINE
  5
25B
100
AcDbEntity
  8
SILK
100
AcDbLine
 10
214.183105
 20
182.743208
 30
0.0
 11
214.183105
 21
188.543208
 31
0.0
  0
LINE
  5
25C
100
AcDbEntity
  8
SILK
100
AcDbLine
 10
212.183105
 20
188.543208
 30
0.0
 11
212.183105
 21
182.743208
 31
0.0
  0
LINE
  5
25D
100
AcDbEntity
  8
SILK
100
AcDbLine
 10
212.183105
 20
185.293208
 30
0.0
 11
211.033105
 21
185.293208
 31
0.0
  0
LINE
  5
25E
100
AcDbEntity
  8
SILK
100
AcDbLine
 10
212.183105
 20
185.993208
 30
0.0
 11
211.033105
 21
185.993208
 31
0.0
  0
LINE
  5
25F
100
AcDbEntity
  8
SILK
100
AcDbLine
 10
216.283105
 20
192.943208
 30
0.0
 11
225.083105
 21
192.943208
 31
0.0
  0
LINE
  5
260
100
AcDbEntity
  8
SILK
100
AcDbLine
 10
216.283105
 20
192.143208
 30
0.0
 11
225.083105
 21
192.143208
 31
0.0
  0
LINE
  5
261
100
AcDbEntity
  8
SILK
100
AcDbLine
 10
216.283105
 20
179.143208
 30
0.0
 11
225.083105
 21
179.143208
 31
0.0
  0
LINE
  5
262
100
AcDbEntity
  8
SILK
100
AcDbLine
 10
231.283105
 20
192.143208
 30
0.0
 11
247.133105
 21
192.143208
 31
0.0
  0
LINE
  5
263
100
AcDbEntity
  8
SILK
100
AcDbLine
 10
231.283105
 20
192.943208
 30
0.0
 11
247.133105
 21
192.943208
 31
0.0
  0
LINE
  5
264
100
AcDbEntity
  8
SILK
100
AcDbLine
 10
231.283105
 20
179.143208
 30
0.0
 11
247.133105
 21
179.143208
 31
0.0
  0
LINE
  5
265
100
AcDbEntity
  8
SILK
100
AcDbLine
 10
204.233105
 20
192.143208
 30
0.0
 11
210.083105
 21
192.143208
 31
0.0
  0
LINE
  5
266
100
AcDbEntity
  8
SILK
100
AcDbLine
 10
245.333105
 20
180.193208
 30
0.0
 11
241.033105
 21
180.193208
 31
0.0
  0
LINE
  5
267
100
AcDbEntity
  8
SILK
100
AcDbLine
 10
245.333105
 20
185.293208
 30
0.0
 11
245.333105
 21
180.193208
 31
0.0
  0
LINE
  5
268
100
AcDbEntity
  8
SILK
100
AcDbLine
 10
240.333105
 20
180.193208
 30
0.0
 11
236.033105
 21
180.193208
 31
0.0
  0
LINE
  5
269
100
AcDbEntity
  8
SILK
100
AcDbLine
 10
240.333105
 20
185.293208
 30
0.0
 11
240.333105
 21
180.193208
 31
0.0
  0
LINE
  5
26A
100
AcDbEntity
  8
SILK
100
AcDbLine
 10
235.333105
 20
180.193208
 30
0.0
 11
231.283105
 21
180.193208
 31
0.0
  0
LINE
  5
26B
100
AcDbEntity
  8
SILK
100
AcDbLine
 10
235.333105
 20
185.293208
 30
0.0
 11
235.333105
 21
180.193208
 31
0.0
  0
LINE
  5
26C
100
AcDbEntity
  8
SILK
100
AcDbLine
 10
225.083105
 20
180.193208
 30
0.0
 11
221.033105
 21
180.193208
 31
0.0
  0
LINE
  5
26D
100
AcDbEntity
  8
SILK
100
AcDbLine
 10
220.333105
 20
180.193208
 30
0.0
 11
216.283105
 21
180.193208
 31
0.0
  0
LINE
  5
26E
100
AcDbEntity
  8
SILK
100
AcDbLine
 10
220.333105
 20
185.293208
 30
0.0
 11
220.333105
 21
180.193208
 31
0.0
  0
LINE
  5
26F
100
AcDbEntity
  8
SILK
100
AcDbLine
 10
241.033105
 20
180.193208
 30
0.0
 11
241.033105
 21
185.293208
 31
0.0
  0
LINE
  5
270
100
AcDbEntity
  8
SILK
100
AcDbLine
 10
241.033105
 20
185.293208
 30
0.0
 11
245.333105
 21
185.293208
 31
0.0
  0
LINE
  5
271
100
AcDbEntity
  8
SILK
100
AcDbLine
 10
236.033105
 20
180.193208
 30
0.0
 11
236.033105
 21
185.293208
 31
0.0
  0
LINE
  5
272
100
AcDbEntity
  8
SILK
100
AcDbLine
 10
236.033105
 20
185.293208
 30
0.0
 11
240.333105
 21
185.293208
 31
0.0
  0
LINE
  5
273
100
AcDbEntity
  8
SILK
100
AcDbLine
 10
231.283105
 20
185.293208
 30
0.0
 11
235.333105
 21
185.293208
 31
0.0
  0
LINE
  5
274
100
AcDbEntity
  8
SILK
100
AcDbLine
 10
221.033105
 20
180.193208
 30
0.0
 11
221.033105
 21
185.293208
 31
0.0
  0
LINE
  5
275
100
AcDbEntity
  8
SILK
100
AcDbLine
 10
221.033105
 20
185.293208
 30
0.0
 11
225.083105
 21
185.293208
 31
0.0
  0
LINE
  5
276
100
AcDbEntity
  8
SILK
100
AcDbLine
 10
216.283105
 20
185.293208
 30
0.0
 11
220.333105
 21
185.293208
 31
0.0
  0
LINE
  5
277
100
AcDbEntity
  8
SILK
100
AcDbLine
 10
245.333105
 20
185.993208
 30
0.0
 11
241.033105
 21
185.993208
 31
0.0
  0
LINE
  5
278
100
AcDbEntity
  8
SILK
100
AcDbLine
 10
245.333105
 20
191.093208
 30
0.0
 11
245.333105
 21
185.993208
 31
0.0
  0
LINE
  5
279
100
AcDbEntity
  8
SILK
100
AcDbLine
 10
240.333105
 20
185.993208
 30
0.0
 11
236.033105
 21
185.993208
 31
0.0
  0
LINE
  5
27A
100
AcDbEntity
  8
SILK
100
AcDbLine
 10
240.333105
 20
191.093208
 30
0.0
 11
240.333105
 21
185.993208
 31
0.0
  0
LINE
  5
27B
100
AcDbEntity
  8
SILK
100
AcDbLine
 10
235.333105
 20
185.993208
 30
0.0
 11
231.283105
 21
185.993208
 31
0.0
  0
LINE
  5
27C
100
AcDbEntity
  8
SILK
100
AcDbLine
 10
235.333105
 20
191.093208
 30
0.0
 11
235.333105
 21
185.993208
 31
0.0
  0
LINE
  5
27D
100
AcDbEntity
  8
SILK
100
AcDbLine
 10
225.083105
 20
185.993208
 30
0.0
 11
221.033105
 21
185.993208
 31
0.0
  0
LINE
  5
27E
100
AcDbEntity
  8
SILK
100
AcDbLine
 10
220.333105
 20
185.993208
 30
0.0
 11
216.283105
 21
185.993208
 31
0.0
  0
LINE
  5
27F
100
AcDbEntity
  8
SILK
100
AcDbLine
 10
220.333105
 20
191.093208
 30
0.0
 11
220.333105
 21
185.993208
 31
0.0
  0
LINE
  5
280
100
AcDbEntity
  8
SILK
100
AcDbLine
 10
241.033105
 20
185.993208
 30
0.0
 11
241.033105
 21
191.093208
 31
0.0
  0
LINE
  5
281
100
AcDbEntity
  8
SILK
100
AcDbLine
 10
241.033105
 20
191.093208
 30
0.0
 11
245.333105
 21
191.093208
 31
0.0
  0
LINE
  5
282
100
AcDbEntity
  8
SILK
100
AcDbLine
 10
236.033105
 20
185.993208
 30
0.0
 11
236.033105
 21
191.093208
 31
0.0
  0
LINE
  5
283
100
AcDbEntity
  8
SILK
100
AcDbLine
 10
236.033105
 20
191.093208
 30
0.0
 11
240.333105
 21
191.093208
 31
0.0
  0
LINE
  5
284
100
AcDbEntity
  8
SILK
100
AcDbLine
 10
231.283105
 20
191.093208
 30
0.0
 11
235.333105
 21
191.093208
 31
0.0
  0
LINE
  5
285
100
AcDbEntity
  8
SILK
100
AcDbLine
 10
221.033105
 20
185.993208
 30
0.0
 11
221.033105
 21
191.093208
 31
0.0
  0
LINE
  5
286
100
AcDbEntity
  8
SILK
100
AcDbLine
 10
221.033105
 20
191.093208
 30
0.0
 11
225.083105
 21
191.093208
 31
0.0
  0
LINE
  5
287
100
AcDbEntity
  8
SILK
100
AcDbLine
 10
216.283105
 20
191.093208
 30
0.0
 11
220.333105
 21
191.093208
 31
0.0
  0
LINE
  5
288
100
AcDbEntity
  8
SILK
100
AcDbLine
 10
210.083105
 20
180.193208
 30
0.0
 11
206.033105
 21
180.193208
 31
0.0
  0
LINE
  5
289
100
AcDbEntity
  8
SILK
100
AcDbLine
 10
206.033105
 20
180.193208
 30
0.0
 11
206.033105
 21
185.293208
 31
0.0
  0
LINE
  5
28A
100
AcDbEntity
  8
SILK
100
AcDbLine
 10
206.033105
 20
185.293208
 30
0.0
 11
210.083105
 21
185.293208
 31
0.0
  0
LINE
  5
28B
100
AcDbEntity
  8
SILK
100
AcDbLine
 10
206.033105
 20
185.993208
 30
0.0
 11
206.033105
 21
191.093208
 31
0.0
  0
LINE
  5
28C
100
AcDbEntity
  8
SILK
100
AcDbLine
 10
210.083105
 20
185.993208
 30
0.0
 11
206.033105
 21
185.993208
 31
0.0
  0
LINE
  5
28D
100
AcDbEntity
  8
SILK
100
AcDbLine
 10
206.033105
 20
191.093208
 30
0.0
 11
210.083105
 21
191.093208
 31
0.0
  0
LINE
  5
28E
100
AcDbEntity
  8
SILK
100
AcDbLine
 10
242.258105
 20
183.843208
 30
0.0
 11
244.108105
 21
183.843208
 31
0.0
  0
LINE
  5
28F
100
AcDbEntity
  8
SILK
100
AcDbLine
 10
242.258105
 20
184.483208
 30
0.0
 11
244.108105
 21
184.483208
 31
0.0
  0
LINE
  5
290
100
AcDbEntity
  8
SILK
100
AcDbLine
 10
244.108105
 20
184.483208
 30
0.0
 11
244.108105
 21
183.843208
 31
0.0
  0
LINE
  5
291
100
AcDbEntity
  8
SILK
100
AcDbLine
 10
242.258105
 20
183.843208
 30
0.0
 11
242.258105
 21
184.483208
 31
0.0
  0
LINE
  5
292
100
AcDbEntity
  8
SILK
100
AcDbLine
 10
237.258105
 20
183.843208
 30
0.0
 11
239.108105
 21
183.843208
 31
0.0
  0
LINE
  5
293
100
AcDbEntity
  8
SILK
100
AcDbLine
 10
237.258105
 20
184.483208
 30
0.0
 11
239.108105
 21
184.483208
 31
0.0
  0
LINE
  5
294
100
AcDbEntity
  8
SILK
100
AcDbLine
 10
239.108105
 20
184.483208
 30
0.0
 11
239.108105
 21
183.843208
 31
0.0
  0
LINE
  5
295
100
AcDbEntity
  8
SILK
100
AcDbLine
 10
237.258105
 20
183.843208
 30
0.0
 11
237.258105
 21
184.483208
 31
0.0
  0
LINE
  5
296
100
AcDbEntity
  8
SILK
100
AcDbLine
 10
232.258105
 20
183.843208
 30
0.0
 11
234.108105
 21
183.843208
 31
0.0
  0
LINE
  5
297
100
AcDbEntity
  8
SILK
100
AcDbLine
 10
232.258105
 20
184.483208
 30
0.0
 11
234.108105
 21
184.483208
 31
0.0
  0
LINE
  5
298
100
AcDbEntity
  8
SILK
100
AcDbLine
 10
234.108105
 20
184.483208
 30
0.0
 11
234.108105
 21
183.843208
 31
0.0
  0
LINE
  5
299
100
AcDbEntity
  8
SILK
100
AcDbLine
 10
222.258105
 20
183.843208
 30
0.0
 11
224.108105
 21
183.843208
 31
0.0
  0
LINE
  5
29A
100
AcDbEntity
  8
SILK
100
AcDbLine
 10
222.258105
 20
184.483208
 30
0.0
 11
224.108105
 21
184.483208
 31
0.0
  0
LINE
  5
29B
100
AcDbEntity
  8
SILK
100
AcDbLine
 10
222.258105
 20
183.843208
 30
0.0
 11
222.258105
 21
184.483208
 31
0.0
  0
LINE
  5
29C
100
AcDbEntity
  8
SILK
100
AcDbLine
 10
217.258105
 20
183.843208
 30
0.0
 11
219.108105
 21
183.843208
 31
0.0
  0
LINE
  5
29D
100
AcDbEntity
  8
SILK
100
AcDbLine
 10
217.258105
 20
184.483208
 30
0.0
 11
219.108105
 21
184.483208
 31
0.0
  0
LINE
  5
29E
100
AcDbEntity
  8
SILK
100
AcDbLine
 10
219.108105
 20
184.483208
 30
0.0
 11
219.108105
 21
183.843208
 31
0.0
  0
LINE
  5
29F
100
AcDbEntity
  8
SILK
100
AcDbLine
 10
207.258105
 20
183.843208
 30
0.0
 11
209.108105
 21
183.843208
 31
0.0
  0
LINE
  5
2A0
100
AcDbEntity
  8
SILK
100
AcDbLine
 10
207.258105
 20
184.483208
 30
0.0
 11
209.108105
 21
184.483208
 31
0.0
  0
LINE
  5
2A1
100
AcDbEntity
  8
SILK
100
AcDbLine
 10
207.258105
 20
183.843208
 30
0.0
 11
207.258105
 21
184.483208
 31
0.0
  0
LINE
  5
2A2
100
AcDbEntity
  8
SILK
100
AcDbLine
 10
242.258105
 20
189.643208
 30
0.0
 11
244.108105
 21
189.643208
 31
0.0
  0
LINE
  5
2A3
100
AcDbEntity
  8
SILK
100
AcDbLine
 10
242.258105
 20
190.283208
 30
0.0
 11
244.108105
 21
190.283208
 31
0.0
  0
LINE
  5
2A4
100
AcDbEntity
  8
SILK
100
AcDbLine
 10
244.108105
 20
190.283208
 30
0.0
 11
244.108105
 21
189.643208
 31
0.0
  0
LINE
  5
2A5
100
AcDbEntity
  8
SILK
100
AcDbLine
 10
242.258105
 20
189.643208
 30
0.0
 11
242.258105
 21
190.283208
 31
0.0
  0
LINE
  5
2A6
100
AcDbEntity
  8
SILK
100
AcDbLine
 10
237.258105
 20
189.643208
 30
0.0
 11
239.108105
 21
189.643208
 31
0.0
  0
LINE
  5
2A7
100
AcDbEntity
  8
SILK
100
AcDbLine
 10
237.258105
 20
190.283208
 30
0.0
 11
239.108105
 21
190.283208
 31
0.0
  0
LINE
  5
2A8
100
AcDbEntity
  8
SILK
100
AcDbLine
 10
239.108105
 20
190.283208
 30
0.0
 11
239.108105
 21
189.643208
 31
0.0
  0
LINE
  5
2A9
100
AcDbEntity
  8
SILK
100
AcDbLine
 10
237.258105
 20
189.643208
 30
0.0
 11
237.258105
 21
190.283208
 31
0.0
  0
LINE
  5
2AA
100
AcDbEntity
  8
SILK
100
AcDbLine
 10
232.258105
 20
189.643208
 30
0.0
 11
234.108105
 21
189.643208
 31
0.0
  0
LINE
  5
2AB
100
AcDbEntity
  8
SILK
100
AcDbLine
 10
232.258105
 20
190.283208
 30
0.0
 11
234.108105
 21
190.283208
 31
0.0
  0
LINE
  5
2AC
100
AcDbEntity
  8
SILK
100
AcDbLine
 10
234.108105
 20
190.283208
 30
0.0
 11
234.108105
 21
189.643208
 31
0.0
  0
LINE
  5
2AD
100
AcDbEntity
  8
SILK
100
AcDbLine
 10
222.258105
 20
189.643208
 30
0.0
 11
224.108105
 21
189.643208
 31
0.0
  0
LINE
  5
2AE
100
AcDbEntity
  8
SILK
100
AcDbLine
 10
222.258105
 20
190.283208
 30
0.0
 11
224.108105
 21
190.283208
 31
0.0
  0
LINE
  5
2AF
100
AcDbEntity
  8
SILK
100
AcDbLine
 10
222.258105
 20
189.643208
 30
0.0
 11
222.258105
 21
190.283208
 31
0.0
  0
LINE
  5
2B0
100
AcDbEntity
  8
SILK
100
AcDbLine
 10
217.258105
 20
189.643208
 30
0.0
 11
219.108105
 21
189.643208
 31
0.0
  0
LINE
  5
2B1
100
AcDbEntity
  8
SILK
100
AcDbLine
 10
217.258105
 20
190.283208
 30
0.0
 11
219.108105
 21
190.283208
 31
0.0
  0
LINE
  5
2B2
100
AcDbEntity
  8
SILK
100
AcDbLine
 10
219.108105
 20
190.283208
 30
0.0
 11
219.108105
 21
189.643208
 31
0.0
  0
LINE
  5
2B3
100
AcDbEntity
  8
SILK
100
AcDbLine
 10
207.258105
 20
189.643208
 30
0.0
 11
209.108105
 21
189.643208
 31
0.0
  0
LINE
  5
2B4
100
AcDbEntity
  8
SILK
100
AcDbLine
 10
204.233105
 20
179.143208
 30
0.0
 11
210.083105
 21
179.143208
 31
0.0
  0
LINE
  5
2B5
100
AcDbEntity
  8
SILK
100
AcDbLine
 10
204.233105
 20
192.943208
 30
0.0
 11
210.083105
 21
192.943208
 31
0.0
  0
LINE
  5
2B6
100
AcDbEntity
  8
SILK
100
AcDbLine
 10
204.233105
 20
179.143208
 30
0.0
 11
204.233105
 21
192.943208
 31
0.0
  0
LINE
  5
2B7
100
AcDbEntity
  8
SILK
100
AcDbLine
 10
247.133105
 20
192.943208
 30
0.0
 11
247.133105
 21
179.143208
 31
0.0
  0
LINE
  5
2B8
100
AcDbEntity
  8
SILK
100
AcDbLine
 10
207.258105
 20
190.283208
 30
0.0
 11
209.108105
 21
190.283208
 31
0.0
  0
LINE
  5
2B9
100
AcDbEntity
  8
SILK
100
AcDbLine
 10
207.258105
 20
189.643208
 30
0.0
 11
207.258105
 21
190.283208
 31
0.0
  0
LINE
  5
2BA
100
AcDbEntity
  8
SILK
100
AcDbLine
 10
215.523105
 20
211.063208
 30
0.0
 11
214.683105
 21
211.063208
 31
0.0
  0
LINE
  5
2BB
100
AcDbEntity
  8
0
100
AcDbLine
 10
782.029091
 20
312.463055
 30
0.0
 11
782.029091
 21
318.463055
 31
0.0
  0
LINE
  5
2BC
100
AcDbEntity
  8
0
100
AcDbLine
 10
783.629091
 20
314.063055
 30
0.0
 11
784.625381
 21
314.063055
 31
0.0
  0
LINE
  5
2BD
100
AcDbEntity
  8
0
100
AcDbLine
 10
784.625381
 20
314.063055
 30
0.0
 11
784.625381
 21
291.586013
 31
0.0
  0
LINE
  5
2BE
100
AcDbEntity
  8
0
100
AcDbLine
 10
783.025381
 20
312.463055
 30
0.0
 11
782.029091
 21
312.463055
 31
0.0
  0
LINE
  5
2BF
100
AcDbEntity
  8
0
100
AcDbLine
 10
779.029091
 20
318.463055
 30
0.0
 11
779.029091
 21
235.063055
 31
0.0
  0
LINE
  5
2C0
100
AcDbEntity
  8
0
100
AcDbLine
 10
780.525381
 20
301.563055
 30
0.0
 11
780.525381
 21
262.063055
 31
0.0
  0
LINE
  5
2C1
100
AcDbEntity
  8
0
100
AcDbLine
 10
784.625381
 20
245.863055
 30
0.0
 11
783.025381
 21
245.863055
 31
0.0
  0
LINE
  5
2C2
100
AcDbEntity
  8
0
100
AcDbLine
 10
784.625381
 20
255.063055
 30
0.0
 11
784.625381
 21
245.863055
 31
0.0
  0
LINE
  5
2C3
100
AcDbEntity
  8
0
100
AcDbLine
 10
783.025381
 20
245.863055
 30
0.0
 11
783.025381
 21
265.913055
 31
0.0
  0
LINE
  5
2C4
100
AcDbEntity
  8
0
100
AcDbLine
 10
784.625381
 20
286.586013
 30
0.0
 11
784.625381
 21
272.488055
 31
0.0
  0
LINE
  5
2C5
100
AcDbEntity
  8
0
100
AcDbLine
 10
783.025381
 20
291.586013
 30
0.0
 11
783.025381
 21
312.463055
 31
0.0
  0
LINE
  5
2C6
100
AcDbEntity
  8
0
100
AcDbLine
 10
779.029091
 20
318.463055
 30
0.0
 11
782.029091
 21
318.463055
 31
0.0
  0
LINE
  5
2C7
100
AcDbEntity
  8
0
100
AcDbLine
 10
783.629091
 20
320.063055
 30
0.0
 11
780.629091
 21
320.063055
 31
0.0
  0
LINE
  5
2C8
100
AcDbEntity
  8
0
100
AcDbLine
 10
780.629091
 20
320.063055
 30
0.0
 11
780.629091
 21
325.563055
 31
0.0
  0
LINE
  5
2C9
100
AcDbEntity
  8
0
100
AcDbLine
 10
779.029091
 20
325.563055
 30
0.0
 11
779.029091
 21
318.463055
 31
0.0
  0
LINE
  5
2CA
100
AcDbEntity
  8
0
100
AcDbLine
 10
780.629091
 20
325.563055
 30
0.0
 11
779.029091
 21
325.563055
 31
0.0
  0
LINE
  5
2CB
100
AcDbEntity
  8
0
100
AcDbLine
 10
783.629091
 20
320.063055
 30
0.0
 11
783.629091
 21
314.063055
 31
0.0
  0
LINE
  5
2CC
100
AcDbEntity
  8
0
100
AcDbLine
 10
784.625381
 20
291.586013
 30
0.0
 11
783.025381
 21
291.586013
 31
0.0
  0
LINE
  5
2CD
100
AcDbEntity
  8
0
100
AcDbLine
 10
784.625381
 20
291.586013
 30
0.0
 11
784.625381
 21
286.586013
 31
0.0
  0
LINE
  5
2CE
100
AcDbEntity
  8
0
100
AcDbLine
 10
783.025381
 20
286.586013
 30
0.0
 11
784.625381
 21
286.586013
 31
0.0
  0
LINE
  5
2CF
100
AcDbEntity
  8
0
100
AcDbLine
 10
784.625381
 20
286.586013
 30
0.0
 11
784.625381
 21
286.086013
 31
0.0
  0
LINE
  5
2D0
100
AcDbEntity
  8
0
100
AcDbLine
 10
784.625381
 20
292.086013
 30
0.0
 11
784.625381
 21
291.586013
 31
0.0
  0
LINE
  5
2D1
100
AcDbEntity
  8
0
100
AcDbLine
 10
783.025381
 20
291.586013
 30
0.0
 11
783.025381
 21
286.586013
 31
0.0
  0
LINE
  5
2D2
100
AcDbEntity
  8
0
100
AcDbLine
 10
783.025381
 20
245.863055
 30
0.0
 11
783.025381
 21
235.063055
 31
0.0
  0
LINE
  5
2D3
100
AcDbEntity
  8
0
100
AcDbLine
 10
784.625381
 20
245.863055
 30
0.0
 11
784.625381
 21
235.063055
 31
0.0
  0
LINE
  5
2D4
100
AcDbEntity
  8
0
100
AcDbLine
 10
784.625381
 20
272.488055
 30
0.0
 11
783.025381
 21
272.488055
 31
0.0
  0
LINE
  5
2D5
100
AcDbEntity
  8
0
100
AcDbLine
 10
784.625381
 20
272.488055
 30
0.0
 11
784.625381
 21
270.913055
 31
0.0
  0
LINE
  5
2D6
100
AcDbEntity
  8
0
100
AcDbLine
 10
783.025381
 20
265.913055
 30
0.0
 11
784.625381
 21
265.913055
 31
0.0
  0
LINE
  5
2D7
100
AcDbEntity
  8
0
100
AcDbLine
 10
784.625381
 20
265.913055
 30
0.0
 11
784.625381
 21
265.413055
 31
0.0
  0
LINE
  5
2D8
100
AcDbEntity
  8
0
100
AcDbLine
 10
783.025381
 20
265.913055
 30
0.0
 11
783.025381
 21
272.488055
 31
0.0
  0
LINE
  5
2D9
100
AcDbEntity
  8
0
100
AcDbLine
 10
784.625381
 20
272.488055
 30
0.0
 11
784.625381
 21
265.913055
 31
0.0
  0
LINE
  5
2DA
100
AcDbEntity
  8
0
100
AcDbLine
 10
784.625381
 20
265.913055
 30
0.0
 11
784.625381
 21
255.063055
 31
0.0
  0
LINE
  5
2DB
100
AcDbEntity
  8
0
100
AcDbLine
 10
783.025381
 20
272.488055
 30
0.0
 11
783.025381
 21
286.586013
 31
0.0
  0
LINE
  5
2DC
100
AcDbEntity
  8
0
100
AcDbLine
 10
782.029091
 20
151.663055
 30
0.0
 11
782.029091
 21
157.663055
 31
0.0
  0
LINE
  5
2DD
100
AcDbEntity
  8
0
100
AcDbLine
 10
784.625381
 20
156.063055
 30
0.0
 11
783.629091
 21
156.063055
 31
0.0
  0
LINE
  5
2DE
100
AcDbEntity
  8
0
100
AcDbLine
 10
784.625381
 20
178.540097
 30
0.0
 11
784.625381
 21
156.063055
 31
0.0
  0
LINE
  5
2DF
100
AcDbEntity
  8
0
100
AcDbLine
 10
782.029091
 20
157.663055
 30
0.0
 11
783.025381
 21
157.663055
 31
0.0
  0
LINE
  5
2E0
100
AcDbEntity
  8
0
100
AcDbLine
 10
779.029091
 20
235.063055
 30
0.0
 11
779.029091
 21
151.663055
 31
0.0
  0
LINE
  5
2E1
100
AcDbEntity
  8
0
100
AcDbLine
 10
780.525381
 20
208.063055
 30
0.0
 11
780.525381
 21
168.563055
 31
0.0
  0
LINE
  5
2E2
100
AcDbEntity
  8
0
100
AcDbLine
 10
783.025381
 20
224.263055
 30
0.0
 11
784.625381
 21
224.263055
 31
0.0
  0
LINE
  5
2E3
100
AcDbEntity
  8
0
100
AcDbLine
 10
784.625381
 20
224.263055
 30
0.0
 11
784.625381
 21
215.063055
 31
0.0
  0
LINE
  5
2E4
100
AcDbEntity
  8
0
100
AcDbLine
 10
783.025381
 20
204.213055
 30
0.0
 11
783.025381
 21
224.263055
 31
0.0
  0
LINE
  5
2E5
100
AcDbEntity
  8
0
100
AcDbLine
 10
784.625381
 20
197.638055
 30
0.0
 11
784.625381
 21
183.540097
 31
0.0
  0
LINE
  5
2E6
100
AcDbEntity
  8
0
100
AcDbLine
 10
783.025381
 20
157.663055
 30
0.0
 11
783.025381
 21
178.540097
 31
0.0
  0
LINE
  5
2E7
100
AcDbEntity
  8
0
100
AcDbLine
 10
782.029091
 20
151.663055
 30
0.0
 11
779.029091
 21
151.663055
 31
0.0
  0
LINE
  5
2E8
100
AcDbEntity
  8
0
100
AcDbLine
 10
780.629091
 20
150.063055
 30
0.0
 11
783.629091
 21
150.063055
 31
0.0
  0
LINE
  5
2E9
100
AcDbEntity
  8
0
100
AcDbLine
 10
780.629091
 20
144.563055
 30
0.0
 11
780.629091
 21
150.063055
 31
0.0
  0
LINE
  5
2EA
100
AcDbEntity
  8
0
100
AcDbLine
 10
779.029091
 20
151.663055
 30
0.0
 11
779.029091
 21
144.563055
 31
0.0
  0
LINE
  5
2EB
100
AcDbEntity
  8
0
100
AcDbLine
 10
779.029091
 20
144.563055
 30
0.0
 11
780.629091
 21
144.563055
 31
0.0
  0
LINE
  5
2EC
100
AcDbEntity
  8
0
100
AcDbLine
 10
783.629091
 20
156.063055
 30
0.0
 11
783.629091
 21
150.063055
 31
0.0
  0
LINE
  5
2ED
100
AcDbEntity
  8
0
100
AcDbLine
 10
783.025381
 20
178.540097
 30
0.0
 11
784.625381
 21
178.540097
 31
0.0
  0
LINE
  5
2EE
100
AcDbEntity
  8
0
100
AcDbLine
 10
784.625381
 20
183.540097
 30
0.0
 11
784.625381
 21
178.540097
 31
0.0
  0
LINE
  5
2EF
100
AcDbEntity
  8
0
100
AcDbLine
 10
784.625381
 20
183.540097
 30
0.0
 11
783.025381
 21
183.540097
 31
0.0
  0
LINE
  5
2F0
100
AcDbEntity
  8
0
100
AcDbLine
 10
784.625381
 20
184.040097
 30
0.0
 11
784.625381
 21
183.540097
 31
0.0
  0
LINE
  5
2F1
100
AcDbEntity
  8
0
100
AcDbLine
 10
784.625381
 20
178.540097
 30
0.0
 11
784.625381
 21
178.040097
 31
0.0
  0
LINE
  5
2F2
100
AcDbEntity
  8
0
100
AcDbLine
 10
783.025381
 20
183.540097
 30
0.0
 11
783.025381
 21
178.540097
 31
0.0
  0
LINE
  5
2F3
100
AcDbEntity
  8
0
100
AcDbLine
 10
783.025381
 20
235.063055
 30
0.0
 11
783.025381
 21
224.263055
 31
0.0
  0
LINE
  5
2F4
100
AcDbEntity
  8
0
100
AcDbLine
 10
784.625381
 20
235.063055
 30
0.0
 11
784.625381
 21
224.263055
 31
0.0
  0
LINE
  5
2F5
100
AcDbEntity
  8
0
100
AcDbLine
 10
783.025381
 20
197.638055
 30
0.0
 11
784.625381
 21
197.638055
 31
0.0
  0
LINE
  5
2F6
100
AcDbEntity
  8
0
100
AcDbLine
 10
784.625381
 20
199.213055
 30
0.0
 11
784.625381
 21
197.638055
 31
0.0
  0
LINE
  5
2F7
100
AcDbEntity
  8
0
100
AcDbLine
 10
784.625381
 20
204.213055
 30
0.0
 11
783.025381
 21
204.213055
 31
0.0
  0
LINE
  5
2F8
100
AcDbEntity
  8
0
100
AcDbLine
 10
784.625381
 20
204.713055
 30
0.0
 11
784.625381
 21
204.213055
 31
0.0
  0
LINE
  5
2F9
100
AcDbEntity
  8
0
100
AcDbLine
 10
783.025381
 20
197.638055
 30
0.0
 11
783.025381
 21
204.213055
 31
0.0
  0
LINE
  5
2FA
100
AcDbEntity
  8
0
100
AcDbLine
 10
784.625381
 20
204.213055
 30
0.0
 11
784.625381
 21
197.638055
 31
0.0
  0
LINE
  5
2FB
100
AcDbEntity
  8
0
100
AcDbLine
 10
784.625381
 20
215.063055
 30
0.0
 11
784.625381
 21
204.213055
 31
0.0
  0
LINE
  5
2FC
100
AcDbEntity
  8
0
100
AcDbLine
 10
783.025381
 20
183.540097
 30
0.0
 11
783.025381
 21
197.638055
 31
0.0
  0
LINE
  5
2FD
100
AcDbEntity
  8
0
100
AcDbLine
 10
151.092382
 20
277.874521
 30
0.0
 11
147.702154
 21
272.002474
 31
0.0
  0
LINE
  5
2FE
100
AcDbEntity
  8
0
100
AcDbLine
 10
111.659214
 20
283.574271
 30
0.0
 11
114.257291
 21
282.074271
 31
0.0
  0
LINE
  5
2FF
100
AcDbEntity
  8
0
100
AcDbLine
 10
126.78357
 20
281.770424
 30
0.0
 11
114.878479
 21
274.799668
 31
0.0
  0
LINE
  5
300
100
AcDbEntity
  8
0
100
AcDbLine
 10
111.659214
 20
283.574271
 30
0.0
 11
108.159214
 21
277.512093
 31
0.0
  0
LINE
  5
301
100
AcDbEntity
  8
0
100
AcDbLine
 10
142.192158
 20
293.658881
 30
0.0
 11
133.192158
 21
278.070424
 31
0.0
  0
LINE
  5
302
100
AcDbEntity
  8
0
100
AcDbLine
 10
112.867913
 20
274.793525
 30
0.0
 11
108.159214
 21
277.512093
 31
0.0
  0
LINE
  5
303
100
AcDbEntity
  8
0
100
AcDbLine
 10
116.989341
 20
282.806322
 30
0.0
 11
123.489341
 21
294.064652
 31
0.0
  0
LINE
  5
304
100
AcDbEntity
  8
0
100
AcDbLine
 10
135.78357
 20
297.358881
 30
0.0
 11
152.580701
 21
287.661053
 31
0.0
  0
LINE
  5
305
100
AcDbEntity
  8
0
100
AcDbLine
 10
144.970103
 20
271.270424
 30
0.0
 11
126.78357
 21
281.770424
 31
0.0
  0
LINE
  5
306
100
AcDbEntity
  8
0
100
AcDbLine
 10
153.488437
 20
285.328549
 30
0.0
 11
151.268067
 21
278.274069
 31
0.0
  0
LINE
  5
307
100
AcDbEntity
  8
0
100
AcDbLine
 10
305.311633
 20
272.452724
 30
0.0
 11
300.312459
 21
277.902862
 31
0.0
  0
LINE
  5
308
100
AcDbEntity
  8
0
100
AcDbLine
 10
297.396107
 20
286.858881
 30
0.0
 11
315.58264
 21
297.358881
 31
0.0
  0
LINE
  5
309
100
AcDbEntity
  8
0
100
AcDbLine
 10
324.58264
 20
281.770424
 30
0.0
 11
307.785509
 21
272.072595
 31
0.0
  0
LINE
  5
30A
100
AcDbEntity
  8
0
100
AcDbLine
 10
321.376869
 20
305.322983
 30
0.0
 11
327.876869
 21
294.064652
 31
0.0
  0
LINE
  5
30B
100
AcDbEntity
  8
0
100
AcDbLine
 10
316.498297
 20
312.898643
 30
0.0
 11
321.206996
 21
315.617211
 31
0.0
  0
LINE
  5
30C
100
AcDbEntity
  8
0
100
AcDbLine
 10
318.174052
 20
278.070424
 30
0.0
 11
309.174052
 21
293.658881
 31
0.0
  0
LINE
  5
30D
100
AcDbEntity
  8
0
100
AcDbLine
 10
324.706996
 20
309.555033
 30
0.0
 11
321.206996
 21
315.617211
 31
0.0
  0
LINE
  5
30E
100
AcDbEntity
  8
0
100
AcDbLine
 10
315.58264
 20
297.358881
 30
0.0
 11
315.498334
 21
311.15437
 31
0.0
  0
LINE
  5
30F
100
AcDbEntity
  8
0
100
AcDbLine
 10
324.706996
 20
309.555033
 30
0.0
 11
322.10892
 21
308.055033
 31
0.0
  0
LINE
  5
310
100
AcDbEntity
  8
0
100
AcDbLine
 10
300.054284
 20
278.254783
 30
0.0
 11
296.664056
 21
284.12683
 31
0.0
  0
LINE
  5
311
100
AcDbEntity
  8
0
100
AcDbLine
 10
222.219003
 20
124.059861
 30
0.0
 11
225.683105
 21
122.059861
 31
0.0
  0
LINE
  5
312
100
AcDbEntity
  8
0
100
AcDbLine
 10
222.219003
 20
128.059861
 30
0.0
 11
222.219003
 21
124.059861
 31
0.0
  0
LINE
  5
313
100
AcDbEntity
  8
0
100
AcDbLine
 10
225.683105
 20
130.059861
 30
0.0
 11
222.219003
 21
128.059861
 31
0.0
  0
LINE
  5
314
100
AcDbEntity
  8
0
100
AcDbLine
 10
229.147207
 20
128.059861
 30
0.0
 11
225.683105
 21
130.059861
 31
0.0
  0
LINE
  5
315
100
AcDbEntity
  8
0
100
AcDbLine
 10
229.147207
 20
124.059861
 30
0.0
 11
229.147207
 21
128.059861
 31
0.0
  0
LINE
  5
316
100
AcDbEntity
  8
0
100
AcDbLine
 10
225.683105
 20
122.059861
 30
0.0
 11
229.147207
 21
124.059861
 31
0.0
  0
LINE
  5
317
100
AcDbEntity
  8
0
100
AcDbLine
 10
225.902649
 20
149.059861
 30
0.0
 11
232.683105
 21
149.059861
 31
0.0
  0
LINE
  5
318
100
AcDbEntity
  8
0
100
AcDbLine
 10
240.683105
 20
112.059861
 30
0.0
 11
240.683105
 21
115.059861
 31
0.0
  0
LINE
  5
319
100
AcDbEntity
  8
0
100
AcDbLine
 10
234.683105
 20
126.059861
 30
0.0
 11
246.672502
 21
119.235128
 31
0.0
  0
LINE
  5
31A
100
AcDbEntity
  8
0
100
AcDbLine
 10
240.683105
 20
112.059861
 30
0.0
 11
247.683105
 21
112.059861
 31
0.0
  0
LINE
  5
31B
100
AcDbEntity
  8
0
100
AcDbLine
 10
216.683105
 20
133.459861
 30
0.0
 11
234.683105
 21
133.459861
 31
0.0
  0
LINE
  5
31C
100
AcDbEntity
  8
0
100
AcDbLine
 10
247.683105
 20
117.496998
 30
0.0
 11
247.683105
 21
112.059861
 31
0.0
  0
LINE
  5
31D
100
AcDbEntity
  8
0
100
AcDbLine
 10
238.683105
 20
117.059861
 30
0.0
 11
225.683105
 21
117.059861
 31
0.0
  0
LINE
  5
31E
100
AcDbEntity
  8
0
100
AcDbLine
 10
216.683105
 20
126.059861
 30
0.0
 11
216.683105
 21
145.455518
 31
0.0
  0
LINE
  5
31F
100
AcDbEntity
  8
0
100
AcDbLine
 10
234.683105
 20
147.059861
 30
0.0
 11
234.683105
 21
126.059861
 31
0.0
  0
LINE
  5
320
100
AcDbEntity
  8
0
100
AcDbLine
 10
218.249244
 20
147.407892
 30
0.0
 11
225.468789
 21
149.012235
 31
0.0
  0
LINE
  5
321
100
AcDbEntity
  8
0
100
AcDbLine
 10
111.159214
 20
282.708246
 30
0.0
 11
110.579581
 21
283.042898
 31
0.0
  0
LINE
  5
322
100
AcDbEntity
  8
0
100
AcDbLine
 10
241.683105
 20
112.059861
 30
0.0
 11
241.683105
 21
111.390558
 31
0.0
  0
LINE
  5
323
100
AcDbEntity
  8
CENTER
100
AcDbLine
 10
566.713101
 20
666.816969
 30
0.0
 11
445.713101
 21
666.816969
 31
0.0
  0
LINE
  5
324
100
AcDbEntity
  8
CENTER
100
AcDbLine
 10
225.683105
 20
805.816969
 30
0.0
 11
225.683105
 21
527.816969
 31
0.0
  0
LINE
  5
325
100
AcDbEntity
  8
CENTER
100
AcDbLine
 10
364.683105
 20
666.816969
 30
0.0
 11
86.683105
 21
666.816969
 31
0.0
  0
LINE
  5
326
100
AcDbEntity
  8
CENTER
100
AcDbLine
 10
225.683105
 20
519.980578
 30
0.0
 11
225.683105
 21
398.980578
 31
0.0
  0
LINE
  5
327
100
AcDbEntity
  8
CENTER
100
AcDbLine
 10
225.683105
 20
374.063055
 30
0.0
 11
225.683105
 21
96.063055
 31
0.0
  0
LINE
  5
328
100
AcDbEntity
  8
CENTER
100
AcDbLine
 10
86.683105
 20
235.063055
 30
0.0
 11
364.683105
 21
235.063055
 31
0.0
  0
LINE
  5
329
100
AcDbEntity
  8
CENTER
100
AcDbLine
 10
573.690613
 20
330.563055
 30
0.0
 11
573.690613
 21
139.563055
 31
0.0
  0
LINE
  5
32A
100
AcDbEntity
  8
CENTER
100
AcDbLine
 10
669.190613
 20
235.063055
 30
0.0
 11
478.190613
 21
235.063055
 31
0.0
  0
LINE
  5
32B
100
AcDbEntity
  8
1
100
AcDbLine
 10
330.557418
 20
252.332134
 30
0.0
 11
333.527267
 21
255.301983
 31
0.0
  0
LINE
  5
32C
100
AcDbEntity
  8
1
100
AcDbLine
 10
330.557418
 20
255.301983
 30
0.0
 11
333.527267
 21
252.332134
 31
0.0
  0
LINE
  5
32D
100
AcDbEntity
  8
1
100
AcDbLine
 10
290.68962
 20
318.683292
 30
0.0
 11
293.659469
 21
321.653141
 31
0.0
  0
LINE
  5
32E
100
AcDbEntity
  8
1
100
AcDbLine
 10
290.68962
 20
321.653141
 30
0.0
 11
293.659469
 21
318.683292
 31
0.0
  0
LINE
  5
32F
100
AcDbEntity
  8
1
100
AcDbLine
 10
157.706741
 20
318.683292
 30
0.0
 11
160.67659
 21
321.653141
 31
0.0
  0
LINE
  5
330
100
AcDbEntity
  8
1
100
AcDbLine
 10
157.706741
 20
321.653141
 30
0.0
 11
160.67659
 21
318.683292
 31
0.0
  0
LINE
  5
331
100
AcDbEntity
  8
1
100
AcDbLine
 10
116.198181
 20
233.578131
 30
0.0
 11
119.168029
 21
236.54798
 31
0.0
  0
LINE
  5
332
100
AcDbEntity
  8
1
100
AcDbLine
 10
116.198181
 20
236.54798
 30
0.0
 11
119.168029
 21
233.578131
 31
0.0
  0
LINE
  5
333
100
AcDbEntity
  8
0
100
AcDbLine
 10
322.08264
 20
286.100551
 30
0.0
 11
324.08264
 21
289.564652
 31
0.0
  0
LINE
  5
334
100
AcDbEntity
  8
0
100
AcDbLine
 10
324.08264
 20
289.564652
 30
0.0
 11
322.08264
 21
293.028754
 31
0.0
  0
LINE
  5
335
100
AcDbEntity
  8
0
100
AcDbLine
 10
322.08264
 20
293.028754
 30
0.0
 11
318.08264
 21
293.028754
 31
0.0
  0
LINE
  5
336
100
AcDbEntity
  8
0
100
AcDbLine
 10
318.08264
 20
293.028754
 30
0.0
 11
316.08264
 21
289.564652
 31
0.0
  0
LINE
  5
337
100
AcDbEntity
  8
0
100
AcDbLine
 10
316.08264
 20
289.564652
 30
0.0
 11
318.08264
 21
286.100551
 31
0.0
  0
LINE
  5
338
100
AcDbEntity
  8
0
100
AcDbLine
 10
318.08264
 20
286.100551
 30
0.0
 11
322.08264
 21
286.100551
 31
0.0
  0
LINE
  5
339
100
AcDbEntity
  8
0
100
AcDbLine
 10
135.28357
 20
289.564652
 30
0.0
 11
133.28357
 21
293.028754
 31
0.0
  0
LINE
  5
33A
100
AcDbEntity
  8
0
100
AcDbLine
 10
133.28357
 20
286.100551
 30
0.0
 11
135.28357
 21
289.564652
 31
0.0
  0
LINE
  5
33B
100
AcDbEntity
  8
0
100
AcDbLine
 10
129.28357
 20
286.100551
 30
0.0
 11
133.28357
 21
286.100551
 31
0.0
  0
LINE
  5
33C
100
AcDbEntity
  8
0
100
AcDbLine
 10
127.28357
 20
289.564652
 30
0.0
 11
129.28357
 21
286.100551
 31
0.0
  0
LINE
  5
33D
100
AcDbEntity
  8
0
100
AcDbLine
 10
129.28357
 20
293.028754
 30
0.0
 11
127.28357
 21
289.564652
 31
0.0
  0
LINE
  5
33E
100
AcDbEntity
  8
0
100
AcDbLine
 10
133.28357
 20
293.028754
 30
0.0
 11
129.28357
 21
293.028754
 31
0.0
  0
ARC
  5
33F
100
AcDbEntity
  8
0
100
AcDbCircle
 10
529.240613
 20
235.063055
 30
0.0
 40
2.5
100
AcDbArc
 50
90.0
 51
270.0
  0
ARC
  5
340
100
AcDbEntity
  8
0
100
AcDbCircle
 10
196.183105
 20
186.063208
 30
0.0
 40
6.5
100
AcDbArc
 50
0.0
 51
90.0
  0
ARC
  5
341
100
AcDbEntity
  8
0
100
AcDbCircle
 10
255.183105
 20
186.063208
 30
0.0
 40
6.5
100
AcDbArc
 50
90.0
 51
270.0
  0
ARC
  5
342
100
AcDbEntity
  8
0
100
AcDbCircle
 10
196.183105
 20
186.063208
 30
0.0
 40
6.5
100
AcDbArc
 50
270.0
 51
360.0
  0
ARC
  5
343
100
AcDbEntity
  8
1
  6
HIDDEN
100
AcDbCircle
 10
466.073023
 20
656.853914
 30
0.0
 40
4.0
100
AcDbArc
 50
162.024313
 51
230.0
  0
ARC
  5
344
100
AcDbEntity
  8
1
  6
HIDDEN
100
AcDbCircle
 10
529.654712
 20
603.502542
 30
0.0
 40
4.0
100
AcDbArc
 50
230.0
 51
297.975687
  0
ARC
  5
345
100
AcDbEntity
  8
0
100
AcDbCircle
 10
302.683105
 20
427.980578
 30
0.0
 40
55.0
100
AcDbArc
 50
0.0
 51
44.865982
  0
ARC
  5
346
100
AcDbEntity
  8
0
100
AcDbCircle
 10
225.683105
 20
351.339953
 30
0.0
 40
163.640625
100
AcDbArc
 50
44.865982
 51
90.0
  0
ARC
  5
347
100
AcDbEntity
  8
0
100
AcDbCircle
 10
148.683105
 20
427.980578
 30
0.0
 40
55.0
100
AcDbArc
 50
135.134018
 51
180.0
  0
ARC
  5
348
100
AcDbEntity
  8
0
100
AcDbCircle
 10
225.683105
 20
351.339953
 30
0.0
 40
163.640625
100
AcDbArc
 50
90.0
 51
135.134018
  0
ARC
  5
349
100
AcDbEntity
  8
0
100
AcDbCircle
 10
309.683105
 20
427.980578
 30
0.0
 40
50.0
100
AcDbArc
 50
331.314598
 51
358.830617
  0
ARC
  5
34A
100
AcDbEntity
  8
0
100
AcDbCircle
 10
141.683105
 20
427.980578
 30
0.0
 40
50.0
100
AcDbArc
 50
181.169383
 51
208.685402
  0
ARC
  5
34B
100
AcDbEntity
  8
0
100
AcDbCircle
 10
320.08264
 20
289.564652
 30
0.0
 40
25.0
100
AcDbArc
 50
120.0
 51
158.61348
  0
ARC
  5
34C
100
AcDbEntity
  8
0
100
AcDbCircle
 10
131.28357
 20
289.564652
 30
0.0
 40
25.0
100
AcDbArc
 50
240.0
 51
278.61348
  0
ARC
  5
34D
100
AcDbEntity
  8
0
100
AcDbCircle
 10
225.683105
 20
126.059861
 30
0.0
 40
25.0
100
AcDbArc
 50
0.0
 51
38.61348
  0
ARC
  5
34E
100
AcDbEntity
  8
0
100
AcDbCircle
 10
225.683105
 20
235.063055
 30
0.0
 40
124.003194
100
AcDbArc
 50
42.203038
 51
143.933175
  0
ARC
  5
34F
100
AcDbEntity
  8
0
100
AcDbCircle
 10
225.683105
 20
235.063055
 30
0.0
 40
119.714576
100
AcDbArc
 50
42.053799
 51
144.2471
  0
ARC
  5
350
100
AcDbEntity
  8
0
100
AcDbCircle
 10
225.683105
 20
235.063055
 30
0.0
 40
91.107924
100
AcDbArc
 50
43.443282
 51
142.059812
  0
ARC
  5
351
100
AcDbEntity
  8
0
100
AcDbCircle
 10
225.683105
 20
235.063055
 30
0.0
 40
124.003194
100
AcDbArc
 50
282.203038
 51
383.933175
  0
ARC
  5
352
100
AcDbEntity
  8
0
100
AcDbCircle
 10
225.683105
 20
235.063055
 30
0.0
 40
119.714576
100
AcDbArc
 50
282.053799
 51
384.2471
  0
ARC
  5
353
100
AcDbEntity
  8
0
100
AcDbCircle
 10
225.683105
 20
235.063055
 30
0.0
 40
91.107924
100
AcDbArc
 50
283.443282
 51
382.059812
  0
ARC
  5
354
100
AcDbEntity
  8
0
100
AcDbCircle
 10
225.683105
 20
235.063055
 30
0.0
 40
94.854826
100
AcDbArc
 50
35.444519
 51
41.633864
  0
ARC
  5
355
100
AcDbEntity
  8
0
100
AcDbCircle
 10
225.683105
 20
235.063055
 30
0.0
 40
124.003194
100
AcDbArc
 50
40.219214
 51
42.203038
  0
ARC
  5
356
100
AcDbEntity
  8
0
100
AcDbCircle
 10
225.683105
 20
235.063055
 30
0.0
 40
124.003194
100
AcDbArc
 50
160.219214
 51
162.203038
  0
ARC
  5
357
100
AcDbEntity
  8
0
100
AcDbCircle
 10
225.683105
 20
235.063055
 30
0.0
 40
94.854826
100
AcDbArc
 50
155.444519
 51
161.681212
  0
ARC
  5
358
100
AcDbEntity
  8
0
100
AcDbCircle
 10
225.683105
 20
235.063055
 30
0.0
 40
124.003194
100
AcDbArc
 50
162.203038
 51
263.933175
  0
ARC
  5
359
100
AcDbEntity
  8
0
100
AcDbCircle
 10
225.683105
 20
235.063055
 30
0.0
 40
119.714576
100
AcDbArc
 50
162.053799
 51
264.2471
  0
ARC
  5
35A
100
AcDbEntity
  8
0
100
AcDbCircle
 10
225.683105
 20
235.063055
 30
0.0
 40
91.107924
100
AcDbArc
 50
163.443282
 51
262.059812
  0
ARC
  5
35B
100
AcDbEntity
  8
0
100
AcDbCircle
 10
225.683105
 20
235.063055
 30
0.0
 40
94.854826
100
AcDbArc
 50
275.444519
 51
281.633864
  0
ARC
  5
35C
100
AcDbEntity
  8
0
100
AcDbCircle
 10
225.683105
 20
235.063055
 30
0.0
 40
124.003194
100
AcDbArc
 50
280.219214
 51
282.203038
  0
ARC
  5
35D
100
AcDbEntity
  8
0
100
AcDbCircle
 10
225.683105
 20
235.063055
 30
0.0
 40
133.186593
100
AcDbArc
 50
147.967439
 51
150.0
  0
ARC
  5
35E
100
AcDbEntity
  8
0
100
AcDbCircle
 10
225.683105
 20
235.063055
 30
0.0
 40
132.676142
100
AcDbArc
 50
147.238134
 51
150.0
  0
ARC
  5
35F
100
AcDbEntity
  8
0
100
AcDbCircle
 10
225.683105
 20
235.063055
 30
0.0
 40
132.044001
100
AcDbArc
 50
146.758246
 51
150.0
  0
ARC
  5
360
100
AcDbEntity
  8
0
100
AcDbCircle
 10
225.683105
 20
235.063055
 30
0.0
 40
131.29175
100
AcDbArc
 50
146.423632
 51
150.0
  0
ARC
  5
361
100
AcDbEntity
  8
0
100
AcDbCircle
 10
225.683105
 20
235.063055
 30
0.0
 40
130.42127
100
AcDbArc
 50
146.194036
 51
150.0
  0
ARC
  5
362
100
AcDbEntity
  8
0
100
AcDbCircle
 10
225.683105
 20
235.063055
 30
0.0
 40
129.434736
100
AcDbArc
 50
146.049427
 51
150.0
  0
ARC
  5
363
100
AcDbEntity
  8
0
100
AcDbCircle
 10
225.683105
 20
235.063055
 30
0.0
 40
128.334616
100
AcDbArc
 50
145.978594
 51
150.0
  0
ARC
  5
364
100
AcDbEntity
  8
0
100
AcDbCircle
 10
225.683105
 20
235.063055
 30
0.0
 40
133.186593
100
AcDbArc
 50
150.0
 51
152.032561
  0
ARC
  5
365
100
AcDbEntity
  8
0
100
AcDbCircle
 10
225.683105
 20
235.063055
 30
0.0
 40
132.676142
100
AcDbArc
 50
150.0
 51
152.761866
  0
ARC
  5
366
100
AcDbEntity
  8
0
100
AcDbCircle
 10
225.683105
 20
235.063055
 30
0.0
 40
132.044001
100
AcDbArc
 50
150.0
 51
153.241754
  0
ARC
  5
367
100
AcDbEntity
  8
0
100
AcDbCircle
 10
225.683105
 20
235.063055
 30
0.0
 40
131.29175
100
AcDbArc
 50
150.0
 51
153.576368
  0
ARC
  5
368
100
AcDbEntity
  8
0
100
AcDbCircle
 10
225.683105
 20
235.063055
 30
0.0
 40
130.42127
100
AcDbArc
 50
150.0
 51
153.805964
  0
ARC
  5
369
100
AcDbEntity
  8
0
100
AcDbCircle
 10
225.683105
 20
235.063055
 30
0.0
 40
129.434736
100
AcDbArc
 50
150.0
 51
153.950573
  0
ARC
  5
36A
100
AcDbEntity
  8
0
100
AcDbCircle
 10
225.683105
 20
235.063055
 30
0.0
 40
128.334616
100
AcDbArc
 50
150.0
 51
154.021406
  0
ARC
  5
36B
100
AcDbEntity
  8
0
100
AcDbCircle
 10
225.683105
 20
235.063055
 30
0.0
 40
133.186593
100
AcDbArc
 50
27.967439
 51
30.0
  0
ARC
  5
36C
100
AcDbEntity
  8
0
100
AcDbCircle
 10
225.683105
 20
235.063055
 30
0.0
 40
132.676142
100
AcDbArc
 50
27.238134
 51
30.0
  0
ARC
  5
36D
100
AcDbEntity
  8
0
100
AcDbCircle
 10
225.683105
 20
235.063055
 30
0.0
 40
132.044001
100
AcDbArc
 50
26.758246
 51
30.0
  0
ARC
  5
36E
100
AcDbEntity
  8
0
100
AcDbCircle
 10
225.683105
 20
235.063055
 30
0.0
 40
131.29175
100
AcDbArc
 50
26.423632
 51
30.0
  0
ARC
  5
36F
100
AcDbEntity
  8
0
100
AcDbCircle
 10
225.683105
 20
235.063055
 30
0.0
 40
130.42127
100
AcDbArc
 50
26.194036
 51
30.0
  0
ARC
  5
370
100
AcDbEntity
  8
0
100
AcDbCircle
 10
225.683105
 20
235.063055
 30
0.0
 40
129.434736
100
AcDbArc
 50
26.049427
 51
30.0
  0
ARC
  5
371
100
AcDbEntity
  8
0
100
AcDbCircle
 10
225.683105
 20
235.063055
 30
0.0
 40
128.334616
100
AcDbArc
 50
25.978594
 51
30.0
  0
ARC
  5
372
100
AcDbEntity
  8
0
100
AcDbCircle
 10
225.683105
 20
235.063055
 30
0.0
 40
133.186593
100
AcDbArc
 50
30.0
 51
32.032561
  0
ARC
  5
373
100
AcDbEntity
  8
0
100
AcDbCircle
 10
225.683105
 20
235.063055
 30
0.0
 40
132.676142
100
AcDbArc
 50
30.0
 51
32.761866
  0
ARC
  5
374
100
AcDbEntity
  8
0
100
AcDbCircle
 10
225.683105
 20
235.063055
 30
0.0
 40
132.044001
100
AcDbArc
 50
30.0
 51
33.241754
  0
ARC
  5
375
100
AcDbEntity
  8
0
100
AcDbCircle
 10
225.683105
 20
235.063055
 30
0.0
 40
131.29175
100
AcDbArc
 50
30.0
 51
33.576368
  0
ARC
  5
376
100
AcDbEntity
  8
0
100
AcDbCircle
 10
225.683105
 20
235.063055
 30
0.0
 40
130.42127
100
AcDbArc
 50
30.0
 51
33.805964
  0
ARC
  5
377
100
AcDbEntity
  8
0
100
AcDbCircle
 10
225.683105
 20
235.063055
 30
0.0
 40
129.434736
100
AcDbArc
 50
30.0
 51
33.950573
  0
ARC
  5
378
100
AcDbEntity
  8
0
100
AcDbCircle
 10
225.683105
 20
235.063055
 30
0.0
 40
128.334616
100
AcDbArc
 50
30.0
 51
34.021406
  0
ARC
  5
379
100
AcDbEntity
  8
0
100
AcDbCircle
 10
225.683105
 20
235.063055
 30
0.0
 40
127.863424
100
AcDbArc
 50
92.305076
 51
447.694924
  0
ARC
  5
37A
100
AcDbEntity
  8
0
100
AcDbCircle
 10
225.683105
 20
235.063055
 30
0.0
 40
133.186593
100
AcDbArc
 50
267.967439
 51
270.0
  0
ARC
  5
37B
100
AcDbEntity
  8
0
100
AcDbCircle
 10
225.683105
 20
235.063055
 30
0.0
 40
132.676142
100
AcDbArc
 50
267.238134
 51
270.0
  0
ARC
  5
37C
100
AcDbEntity
  8
0
100
AcDbCircle
 10
225.683105
 20
235.063055
 30
0.0
 40
132.044001
100
AcDbArc
 50
266.758246
 51
270.0
  0
ARC
  5
37D
100
AcDbEntity
  8
0
100
AcDbCircle
 10
225.683105
 20
235.063055
 30
0.0
 40
131.29175
100
AcDbArc
 50
266.423632
 51
270.0
  0
ARC
  5
37E
100
AcDbEntity
  8
0
100
AcDbCircle
 10
225.683105
 20
235.063055
 30
0.0
 40
130.42127
100
AcDbArc
 50
266.194036
 51
270.0
  0
ARC
  5
37F
100
AcDbEntity
  8
0
100
AcDbCircle
 10
225.683105
 20
235.063055
 30
0.0
 40
129.434736
100
AcDbArc
 50
266.049427
 51
270.0
  0
ARC
  5
380
100
AcDbEntity
  8
0
100
AcDbCircle
 10
225.683105
 20
235.063055
 30
0.0
 40
128.334616
100
AcDbArc
 50
265.978594
 51
270.0
  0
ARC
  5
381
100
AcDbEntity
  8
0
100
AcDbCircle
 10
225.683105
 20
235.063055
 30
0.0
 40
133.186593
100
AcDbArc
 50
270.0
 51
272.032561
  0
ARC
  5
382
100
AcDbEntity
  8
0
100
AcDbCircle
 10
225.683105
 20
235.063055
 30
0.0
 40
132.676142
100
AcDbArc
 50
270.0
 51
272.761866
  0
ARC
  5
383
100
AcDbEntity
  8
0
100
AcDbCircle
 10
225.683105
 20
235.063055
 30
0.0
 40
132.044001
100
AcDbArc
 50
270.0
 51
273.241754
  0
ARC
  5
384
100
AcDbEntity
  8
0
100
AcDbCircle
 10
225.683105
 20
235.063055
 30
0.0
 40
131.29175
100
AcDbArc
 50
270.0
 51
273.576368
  0
ARC
  5
385
100
AcDbEntity
  8
0
100
AcDbCircle
 10
225.683105
 20
235.063055
 30
0.0
 40
130.42127
100
AcDbArc
 50
270.0
 51
273.805964
  0
ARC
  5
386
100
AcDbEntity
  8
0
100
AcDbCircle
 10
225.683105
 20
235.063055
 30
0.0
 40
129.434736
100
AcDbArc
 50
270.0
 51
273.950573
  0
ARC
  5
387
100
AcDbEntity
  8
0
100
AcDbCircle
 10
225.683105
 20
235.063055
 30
0.0
 40
128.334616
100
AcDbArc
 50
270.0
 51
274.021406
  0
ARC
  5
388
100
AcDbEntity
  8
0
100
AcDbCircle
 10
225.683105
 20
235.063055
 30
0.0
 40
124.703194
100
AcDbArc
 50
160.16124
 51
263.322766
  0
ARC
  5
389
100
AcDbEntity
  8
0
100
AcDbCircle
 10
225.683105
 20
235.063055
 30
0.0
 40
124.703194
100
AcDbArc
 50
280.16124
 51
383.322766
  0
ARC
  5
38A
100
AcDbEntity
  8
0
100
AcDbCircle
 10
225.683105
 20
235.063055
 30
0.0
 40
124.703194
100
AcDbArc
 50
91.998023
 51
143.322766
  0
ARC
  5
38B
100
AcDbEntity
  8
0
100
AcDbCircle
 10
225.683105
 20
361.42648
 30
0.0
 40
5.0
100
AcDbArc
 50
20.166623
 51
159.833377
  0
ARC
  5
38C
100
AcDbEntity
  8
0
100
AcDbCircle
 10
225.683105
 20
235.063055
 30
0.0
 40
124.503194
100
AcDbArc
 50
263.311991
 51
276.688009
  0
ARC
  5
38D
100
AcDbEntity
  8
0
100
AcDbCircle
 10
225.683105
 20
235.063055
 30
0.0
 40
126.203194
100
AcDbArc
 50
263.402484
 51
276.597516
  0
ARC
  5
38E
100
AcDbEntity
  8
0
100
AcDbCircle
 10
225.683105
 20
235.063055
 30
0.0
 40
124.503194
100
AcDbArc
 50
23.311991
 51
36.688009
  0
ARC
  5
38F
100
AcDbEntity
  8
0
100
AcDbCircle
 10
225.683105
 20
235.063055
 30
0.0
 40
126.203194
100
AcDbArc
 50
23.402484
 51
36.597516
  0
ARC
  5
390
100
AcDbEntity
  8
0
100
AcDbCircle
 10
225.683105
 20
235.063055
 30
0.0
 40
124.503194
100
AcDbArc
 50
143.311991
 51
156.688009
  0
ARC
  5
391
100
AcDbEntity
  8
0
100
AcDbCircle
 10
225.683105
 20
235.063055
 30
0.0
 40
126.203194
100
AcDbArc
 50
143.402484
 51
156.597516
  0
ARC
  5
392
100
AcDbEntity
  8
0
100
AcDbCircle
 10
225.683105
 20
235.063055
 30
0.0
 40
124.703194
100
AcDbArc
 50
40.16124
 51
88.001977
  0
ARC
  5
393
100
AcDbEntity
  8
0
100
AcDbCircle
 10
225.683105
 20
361.42648
 30
0.0
 40
2.0
100
AcDbArc
 50
9.754666
 51
170.245334
  0
ARC
  5
394
100
AcDbEntity
  8
0
100
AcDbCircle
 10
537.713101
 20
589.816969
 30
0.0
 40
55.0
100
AcDbArc
 50
225.134018
 51
270.0
  0
ARC
  5
395
100
AcDbEntity
  8
0
100
AcDbCircle
 10
614.353726
 20
666.816969
 30
0.0
 40
163.640625
100
AcDbArc
 50
180.0
 51
225.134018
  0
ARC
  5
396
100
AcDbEntity
  8
0
100
AcDbCircle
 10
537.713101
 20
743.816969
 30
0.0
 40
55.0
100
AcDbArc
 50
90.0
 51
134.865982
  0
ARC
  5
397
100
AcDbEntity
  8
0
100
AcDbCircle
 10
614.353726
 20
666.816969
 30
0.0
 40
163.640625
100
AcDbArc
 50
134.865982
 51
180.0
  0
ARC
  5
398
100
AcDbEntity
  8
0
100
AcDbCircle
 10
537.713101
 20
750.816969
 30
0.0
 40
50.0
100
AcDbArc
 50
82.516116
 51
88.830617
  0
ARC
  5
399
100
AcDbEntity
  8
0
100
AcDbCircle
 10
537.713101
 20
750.816969
 30
0.0
 40
50.0
100
AcDbArc
 50
61.314598
 51
62.460504
  0
ARC
  5
39A
100
AcDbEntity
  8
0
100
AcDbCircle
 10
537.713101
 20
582.816969
 30
0.0
 40
50.0
100
AcDbArc
 50
271.169383
 51
298.685402
  0
ARC
  5
39B
100
AcDbEntity
  8
1
  6
HIDDEN
100
AcDbCircle
 10
225.683105
 20
477.745178
 30
0.0
 40
178.942071
100
AcDbArc
 50
73.764605
 51
106.235395
  0
ARC
  5
39C
100
AcDbEntity
  8
1
  6
HIDDEN
100
AcDbCircle
 10
254.683105
 20
591.396753
 30
0.0
 40
5.0
100
AcDbArc
 50
0.0
 51
90.0
  0
ARC
  5
39D
100
AcDbEntity
  8
1
  6
HIDDEN
100
AcDbCircle
 10
196.683551
 20
591.396753
 30
0.0
 40
5.0
100
AcDbArc
 50
90.0
 51
180.0
  0
ARC
  5
39E
100
AcDbEntity
  8
1
  6
HIDDEN
100
AcDbCircle
 10
225.683105
 20
351.339953
 30
0.0
 40
160.02192
100
AcDbArc
 50
72.919815
 51
90.0
  0
ARC
  5
39F
100
AcDbEntity
  8
1
  6
HIDDEN
100
AcDbCircle
 10
225.683105
 20
351.339953
 30
0.0
 40
160.02192
100
AcDbArc
 50
90.0
 51
107.080185
  0
ARC
  5
3A0
100
AcDbEntity
  8
SILK
100
AcDbCircle
 10
228.183105
 20
182.743208
 30
0.0
 40
1.0
100
AcDbArc
 50
180.0
 51
360.0
  0
ARC
  5
3A1
100
AcDbEntity
  8
SILK
100
AcDbCircle
 10
228.183105
 20
188.543208
 30
0.0
 40
1.0
100
AcDbArc
 50
0.0
 51
180.0
  0
ARC
  5
3A2
100
AcDbEntity
  8
SILK
100
AcDbCircle
 10
213.183105
 20
182.743208
 30
0.0
 40
1.0
100
AcDbArc
 50
180.0
 51
360.0
  0
ARC
  5
3A3
100
AcDbEntity
  8
SILK
100
AcDbCircle
 10
213.183105
 20
188.543208
 30
0.0
 40
1.0
100
AcDbArc
 50
0.0
 51
180.0
  0
ARC
  5
3A4
100
AcDbEntity
  8
0
100
AcDbCircle
 10
786.775381
 20
262.063055
 30
0.0
 40
6.25
100
AcDbArc
 50
180.0
 51
233.130102
  0
ARC
  5
3A5
100
AcDbEntity
  8
0
100
AcDbCircle
 10
786.775381
 20
301.563055
 30
0.0
 40
6.25
100
AcDbArc
 50
126.869898
 51
180.0
  0
ARC
  5
3A6
100
AcDbEntity
  8
0
100
AcDbCircle
 10
786.775381
 20
208.063055
 30
0.0
 40
6.25
100
AcDbArc
 50
126.869898
 51
180.0
  0
ARC
  5
3A7
100
AcDbEntity
  8
0
100
AcDbCircle
 10
786.775381
 20
168.563055
 30
0.0
 40
6.25
100
AcDbArc
 50
180.0
 51
233.130102
  0
ARC
  5
3A8
100
AcDbEntity
  8
0
100
AcDbCircle
 10
225.683105
 20
235.063055
 30
0.0
 40
94.854826
100
AcDbArc
 50
23.948389
 51
24.555481
  0
ARC
  5
3A9
100
AcDbEntity
  8
0
100
AcDbCircle
 10
225.683105
 20
235.063055
 30
0.0
 40
124.003194
100
AcDbArc
 50
23.933175
 51
37.281376
  0
ARC
  5
3AA
100
AcDbEntity
  8
0
100
AcDbCircle
 10
225.683105
 20
235.063055
 30
0.0
 40
124.703194
100
AcDbArc
 50
36.677234
 51
39.471481
  0
ARC
  5
3AB
100
AcDbEntity
  8
0
100
AcDbCircle
 10
225.683105
 20
235.063055
 30
0.0
 40
94.854826
100
AcDbArc
 50
143.948389
 51
144.555481
  0
ARC
  5
3AC
100
AcDbEntity
  8
0
100
AcDbCircle
 10
225.683105
 20
235.063055
 30
0.0
 40
124.703194
100
AcDbArc
 50
156.677234
 51
159.403409
  0
ARC
  5
3AD
100
AcDbEntity
  8
0
100
AcDbCircle
 10
225.683105
 20
235.063055
 30
0.0
 40
124.003194
100
AcDbArc
 50
143.933175
 51
157.281376
  0
ARC
  5
3AE
100
AcDbEntity
  8
0
100
AcDbCircle
 10
225.683105
 20
235.063055
 30
0.0
 40
94.854826
100
AcDbArc
 50
263.948389
 51
264.555481
  0
ARC
  5
3AF
100
AcDbEntity
  8
0
100
AcDbCircle
 10
225.683105
 20
235.063055
 30
0.0
 40
124.703194
100
AcDbArc
 50
276.677234
 51
279.471481
  0
ARC
  5
3B0
100
AcDbEntity
  8
0
100
AcDbCircle
 10
225.683105
 20
235.063055
 30
0.0
 40
124.003194
100
AcDbArc
 50
263.933175
 51
277.281376
  0
CIRCLE
  5
3B1
100
AcDbEntity
  8
0
100
AcDbCircle
 10
573.690613
 20
181.040097
 30
0.0
 40
2.5
  0
CIRCLE
  5
3B2
100
AcDbEntity
  8
0
100
AcDbCircle
 10
573.690613
 20
235.063055
 30
0.0
 40
10.8
  0
CIRCLE
  5
3B3
100
AcDbEntity
  8
0
100
AcDbCircle
 10
573.690613
 20
289.086013
 30
0.0
 40
2.5
  0
CIRCLE
  5
3B4
100
AcDbEntity
  8
0
100
AcDbCircle
 10
627.713571
 20
235.063055
 30
0.0
 40
2.5
  0
CIRCLE
  5
3B5
100
AcDbEntity
  8
0
100
AcDbCircle
 10
519.667655
 20
235.063055
 30
0.0
 40
2.5
  0
CIRCLE
  5
3B6
100
AcDbEntity
  8
0
100
AcDbCircle
 10
573.690613
 20
235.063055
 30
0.0
 40
90.5
  0
CIRCLE
  5
3B7
100
AcDbEntity
  8
0
100
AcDbCircle
 10
573.690613
 20
235.063055
 30
0.0
 40
77.4
  0
CIRCLE
  5
3B8
100
AcDbEntity
  8
0
100
AcDbCircle
 10
573.690613
 20
235.063055
 30
0.0
 40
83.4
  0
CIRCLE
  5
3B9
100
AcDbEntity
  8
0
100
AcDbCircle
 10
225.683105
 20
235.063055
 30
0.0
 40
81.003194
  0
CIRCLE
  5
3BA
100
AcDbEntity
  8
0
100
AcDbCircle
 10
225.683105
 20
235.063055
 30
0.0
 40
79.503194
  0
CIRCLE
  5
3BB
100
AcDbEntity
  8
SILK
100
AcDbCircle
 10
242.683105
 20
206.063208
 30
0.0
 40
4.2
  0
CIRCLE
  5
3BC
100
AcDbEntity
  8
SILK
100
AcDbCircle
 10
208.683105
 20
206.063208
 30
0.0
 40
4.2
  0
CIRCLE
  5
3BD
100
AcDbEntity
  8
1
100
AcDbCircle
 10
279.683105
 20
141.532312
 30
0.0
 40
4.1
  0
CIRCLE
  5
3BE
100
AcDbEntity
  8
1
100
AcDbCircle
 10
171.683105
 20
141.532312
 30
0.0
 40
4.1
  0
CIRCLE
  5
3BF
100
AcDbEntity
  8
0
100
AcDbCircle
 10
225.683105
 20
666.816969
 30
0.0
 40
132.0
  0
CIRCLE
  5
3C0
100
AcDbEntity
  8
0
100
AcDbCircle
 10
225.683105
 20
126.059861
 30
0.0
 40
3.464102
  0
CIRCLE
  5
3C1
100
AcDbEntity
  8
1
100
AcDbCircle
 10
332.042342
 20
253.817059
 30
0.0
 40
4.1
  0
CIRCLE
  5
3C2
100
AcDbEntity
  8
1
100
AcDbCircle
 10
292.174544
 20
320.168217
 30
0.0
 40
4.1
  0
CIRCLE
  5
3C3
100
AcDbEntity
  8
1
100
AcDbCircle
 10
159.191666
 20
320.168217
 30
0.0
 40
4.1
  0
CIRCLE
  5
3C4
100
AcDbEntity
  8
1
100
AcDbCircle
 10
117.683105
 20
235.063055
 30
0.0
 40
4.1
  0
CIRCLE
  5
3C5
100
AcDbEntity
  8
0
100
AcDbCircle
 10
320.08264
 20
289.564652
 30
0.0
 40
3.464102
  0
CIRCLE
  5
3C6
100
AcDbEntity
  8
0
100
AcDbCircle
 10
131.28357
 20
289.564652
 30
0.0
 40
3.464102
  0
ARC
  5
3C7
100
AcDbEntity
  8
1
  6
HIDDEN
100
AcDbCircle
 10
640.190613
 20
220.063055
 30
0.0
 40
5.0
100
AcDbArc
 50
270.0
 51
450.0
  0
ARC
  5
3C8
100
AcDbEntity
  8
1
  6
HIDDEN
100
AcDbCircle
 10
600.690613
 20
220.063055
 30
0.0
 40
5.0
100
AcDbArc
 50
90.0
 51
270.0
  0
ARC
  5
3C9
100
AcDbEntity
  8
1
  6
HIDDEN
100
AcDbCircle
 10
640.190613
 20
250.063055
 30
0.0
 40
5.0
100
AcDbArc
 50
270.0
 51
450.0
  0
ARC
  5
3CA
100
AcDbEntity
  8
1
  6
HIDDEN
100
AcDbCircle
 10
600.690613
 20
250.063055
 30
0.0
 40
5.0
100
AcDbArc
 50
90.0
 51
270.0
  0
ARC
  5
3CB
100
AcDbEntity
  8
1
  6
HIDDEN
100
AcDbCircle
 10
588.690613
 20
301.563055
 30
0.0
 40
5.0
100
AcDbArc
 50
0.0
 51
180.0
  0
ARC
  5
3CC
100
AcDbEntity
  8
1
  6
HIDDEN
100
AcDbCircle
 10
588.690613
 20
262.063055
 30
0.0
 40
5.0
100
AcDbArc
 50
180.0
 51
360.0
  0
ARC
  5
3CD
100
AcDbEntity
  8
1
  6
HIDDEN
100
AcDbCircle
 10
558.690613
 20
301.563055
 30
0.0
 40
5.0
100
AcDbArc
 50
0.0
 51
180.0
  0
ARC
  5
3CE
100
AcDbEntity
  8
1
  6
HIDDEN
100
AcDbCircle
 10
558.690613
 20
262.063055
 30
0.0
 40
5.0
100
AcDbArc
 50
180.0
 51
360.0
  0
ARC
  5
3CF
100
AcDbEntity
  8
1
  6
HIDDEN
100
AcDbCircle
 10
507.190613
 20
250.063055
 30
0.0
 40
5.0
100
AcDbArc
 50
90.0
 51
270.0
  0
ARC
  5
3D0
100
AcDbEntity
  8
1
  6
HIDDEN
100
AcDbCircle
 10
546.690613
 20
250.063055
 30
0.0
 40
5.0
100
AcDbArc
 50
270.0
 51
450.0
  0
ARC
  5
3D1
100
AcDbEntity
  8
1
  6
HIDDEN
100
AcDbCircle
 10
507.190613
 20
220.063055
 30
0.0
 40
5.0
100
AcDbArc
 50
90.0
 51
270.0
  0
ARC
  5
3D2
100
AcDbEntity
  8
1
  6
HIDDEN
100
AcDbCircle
 10
546.690613
 20
220.063055
 30
0.0
 40
5.0
100
AcDbArc
 50
270.0
 51
450.0
  0
ARC
  5
3D3
100
AcDbEntity
  8
1
  6
HIDDEN
100
AcDbCircle
 10
588.690613
 20
168.563055
 30
0.0
 40
5.0
100
AcDbArc
 50
180.0
 51
360.0
  0
ARC
  5
3D4
100
AcDbEntity
  8
1
  6
HIDDEN
100
AcDbCircle
 10
588.690613
 20
208.063055
 30
0.0
 40
5.0
100
AcDbArc
 50
0.0
 51
180.0
  0
ARC
  5
3D5
100
AcDbEntity
  8
0
100
AcDbCircle
 10
573.690613
 20
269.988055
 30
0.0
 40
2.5
100
AcDbArc
 50
0.0
 51
90.0
  0
ARC
  5
3D6
100
AcDbEntity
  8
0
100
AcDbCircle
 10
573.690613
 20
269.988055
 30
0.0
 40
2.5
100
AcDbArc
 50
90.0
 51
180.0
  0
ARC
  5
3D7
100
AcDbEntity
  8
0
100
AcDbCircle
 10
573.690613
 20
268.413055
 30
0.0
 40
2.5
100
AcDbArc
 50
180.0
 51
270.0
  0
ARC
  5
3D8
100
AcDbEntity
  8
0
100
AcDbCircle
 10
573.690613
 20
268.413055
 30
0.0
 40
2.5
100
AcDbArc
 50
270.0
 51
360.0
  0
ARC
  5
3D9
100
AcDbEntity
  8
0
100
AcDbCircle
 10
573.690613
 20
200.138055
 30
0.0
 40
2.5
100
AcDbArc
 50
270.0
 51
360.0
  0
ARC
  5
3DA
100
AcDbEntity
  8
0
100
AcDbCircle
 10
573.690613
 20
200.138055
 30
0.0
 40
2.5
100
AcDbArc
 50
180.0
 51
270.0
  0
ARC
  5
3DB
100
AcDbEntity
  8
0
100
AcDbCircle
 10
573.690613
 20
201.713055
 30
0.0
 40
2.5
100
AcDbArc
 50
90.0
 51
180.0
  0
ARC
  5
3DC
100
AcDbEntity
  8
0
100
AcDbCircle
 10
573.690613
 20
201.713055
 30
0.0
 40
2.5
100
AcDbArc
 50
0.0
 51
90.0
  0
ARC
  5
3DD
100
AcDbEntity
  8
1
  6
HIDDEN
100
AcDbCircle
 10
558.690613
 20
168.563055
 30
0.0
 40
5.0
100
AcDbArc
 50
180.0
 51
360.0
  0
ARC
  5
3DE
100
AcDbEntity
  8
1
  6
HIDDEN
100
AcDbCircle
 10
558.690613
 20
208.063055
 30
0.0
 40
5.0
100
AcDbArc
 50
0.0
 51
180.0
  0
ARC
  5
3DF
100
AcDbEntity
  8
0
100
AcDbCircle
 10
257.683105
 20
181.063208
 30
0.0
 40
5.0
100
AcDbArc
 50
270.0
 51
360.0
  0
ARC
  5
3E0
100
AcDbEntity
  8
0
100
AcDbCircle
 10
193.683105
 20
181.063208
 30
0.0
 40
5.0
100
AcDbArc
 50
180.0
 51
270.0
  0
ARC
  5
3E1
100
AcDbEntity
  8
0
100
AcDbCircle
 10
253.683105
 20
224.132266
 30
0.0
 40
5.0
100
AcDbArc
 50
180.0
 51
270.0
  0
ARC
  5
3E2
100
AcDbEntity
  8
0
100
AcDbCircle
 10
197.683105
 20
224.132266
 30
0.0
 40
5.0
100
AcDbArc
 50
270.0
 51
360.0
  0
ARC
  5
3E3
100
AcDbEntity
  8
0
100
AcDbCircle
 10
257.683105
 20
214.132266
 30
0.0
 40
5.0
100
AcDbArc
 50
0.0
 51
90.0
  0
ARC
  5
3E4
100
AcDbEntity
  8
0
100
AcDbCircle
 10
193.683105
 20
214.132266
 30
0.0
 40
5.0
100
AcDbArc
 50
90.0
 51
180.0
  0
ARC
  5
3E5
100
AcDbEntity
  8
SILK
100
AcDbCircle
 10
247.683105
 20
177.063208
 30
0.0
 40
1.0
100
AcDbArc
 50
270.0
 51
360.0
  0
ARC
  5
3E6
100
AcDbEntity
  8
SILK
100
AcDbCircle
 10
203.683105
 20
177.063208
 30
0.0
 40
1.0
100
AcDbArc
 50
180.0
 51
270.0
  0
ARC
  5
3E7
100
AcDbEntity
  8
SILK
100
AcDbCircle
 10
236.683105
 20
210.063208
 30
0.0
 40
1.0
100
AcDbArc
 50
0.0
 51
90.0
  0
ARC
  5
3E8
100
AcDbEntity
  8
SILK
100
AcDbCircle
 10
238.683105
 20
194.563208
 30
0.0
 40
1.0
100
AcDbArc
 50
180.0
 51
270.0
  0
ARC
  5
3E9
100
AcDbEntity
  8
SILK
100
AcDbCircle
 10
214.683105
 20
210.063208
 30
0.0
 40
1.0
100
AcDbArc
 50
90.0
 51
180.0
  0
ARC
  5
3EA
100
AcDbEntity
  8
SILK
100
AcDbCircle
 10
247.683105
 20
192.563208
 30
0.0
 40
1.0
100
AcDbArc
 50
0.0
 51
90.0
  0
ARC
  5
3EB
100
AcDbEntity
  8
SILK
100
AcDbCircle
 10
203.683105
 20
192.563208
 30
0.0
 40
1.0
100
AcDbArc
 50
90.0
 51
180.0
  0
ARC
  5
3EC
100
AcDbEntity
  8
0
100
AcDbCircle
 10
203.683105
 20
248.769181
 30
0.0
 40
1.0
100
AcDbArc
 50
90.0
 51
180.0
  0
ARC
  5
3ED
100
AcDbEntity
  8
0
100
AcDbCircle
 10
247.683105
 20
248.769181
 30
0.0
 40
1.0
100
AcDbArc
 50
0.0
 51
90.0
  0
ARC
  5
3EE
100
AcDbEntity
  8
0
100
AcDbCircle
 10
92.69331
 20
426.980578
 30
0.0
 40
1.0
100
AcDbArc
 50
90.0
 51
181.169383
  0
ARC
  5
3EF
100
AcDbEntity
  8
0
100
AcDbCircle
 10
358.6729
 20
426.980578
 30
0.0
 40
1.0
100
AcDbArc
 50
358.830617
 51
450.0
  0
ARC
  5
3F0
100
AcDbEntity
  8
0
100
AcDbCircle
 10
316.800055
 20
317.691665
 30
0.0
 40
1.0
100
AcDbArc
 50
300.0
 51
402.203038
  0
ARC
  5
3F1
100
AcDbEntity
  8
0
100
AcDbCircle
 10
294.010674
 20
299.775069
 30
0.0
 40
3.0
100
AcDbArc
 50
223.443282
 51
338.61348
  0
ARC
  5
3F2
100
AcDbEntity
  8
0
100
AcDbCircle
 10
108.566155
 20
272.658344
 30
0.0
 40
1.0
100
AcDbArc
 50
60.0
 51
162.203038
  0
ARC
  5
3F3
100
AcDbEntity
  8
0
100
AcDbCircle
 10
135.477073
 20
261.880459
 30
0.0
 40
3.0
100
AcDbArc
 50
343.443282
 51
458.61348
  0
ARC
  5
3F4
100
AcDbEntity
  8
0
100
AcDbCircle
 10
247.561568
 20
143.533638
 30
0.0
 40
3.0
100
AcDbArc
 50
103.443282
 51
218.61348
  0
ARC
  5
3F5
100
AcDbEntity
  8
0
100
AcDbCircle
 10
251.683105
 20
114.839157
 30
0.0
 40
1.0
100
AcDbArc
 50
180.0
 51
282.203038
  0
ARC
  5
3F6
100
AcDbEntity
  8
0
100
AcDbCircle
 10
312.901604
 20
270.407572
 30
0.0
 40
3.0
100
AcDbArc
 50
120.0
 51
202.059812
  0
ARC
  5
3F7
100
AcDbEntity
  8
0
100
AcDbCircle
 10
338.110388
 20
284.96187
 30
0.0
 40
1.0
100
AcDbArc
 50
23.933175
 51
120.0
  0
ARC
  5
3F8
100
AcDbEntity
  8
0
100
AcDbCircle
 10
331.461805
 20
282.85536
 30
0.0
 40
0.5
100
AcDbArc
 50
210.0
 51
300.0
  0
ARC
  5
3F9
100
AcDbEntity
  8
0
100
AcDbCircle
 10
330.09578
 20
283.221386
 30
0.0
 40
0.5
100
AcDbArc
 50
30.0
 51
120.0
  0
ARC
  5
3FA
100
AcDbEntity
  8
0
100
AcDbCircle
 10
151.464606
 20
292.924233
 30
0.0
 40
3.0
100
AcDbArc
 50
240.0
 51
322.059812
  0
ARC
  5
3FB
100
AcDbEntity
  8
0
100
AcDbCircle
 10
126.255822
 20
307.478531
 30
0.0
 40
1.0
100
AcDbArc
 50
143.933175
 51
240.0
  0
ARC
  5
3FC
100
AcDbEntity
  8
0
100
AcDbCircle
 10
131.404405
 20
302.773944
 30
0.0
 40
0.5
100
AcDbArc
 50
330.0
 51
420.0
  0
ARC
  5
3FD
100
AcDbEntity
  8
0
100
AcDbCircle
 10
131.77043
 20
301.407919
 30
0.0
 40
0.5
100
AcDbArc
 50
150.0
 51
240.0
  0
ARC
  5
3FE
100
AcDbEntity
  8
0
100
AcDbCircle
 10
212.683105
 20
141.857361
 30
0.0
 40
3.0
100
AcDbArc
 50
0.0
 51
82.059812
  0
ARC
  5
3FF
100
AcDbEntity
  8
0
100
AcDbCircle
 10
212.683105
 20
112.748765
 30
0.0
 40
1.0
100
AcDbArc
 50
263.933175
 51
360.0
  0
ARC
  5
400
100
AcDbEntity
  8
0
100
AcDbCircle
 10
214.183105
 20
119.559861
 30
0.0
 40
0.5
100
AcDbArc
 50
90.0
 51
180.0
  0
ARC
  5
401
100
AcDbEntity
  8
0
100
AcDbCircle
 10
215.183105
 20
120.559861
 30
0.0
 40
0.5
100
AcDbArc
 50
270.0
 51
360.0
  0
ARC
  5
402
100
AcDbEntity
  8
0
100
AcDbCircle
 10
220.520288
 20
363.322613
 30
0.0
 40
0.5
100
AcDbArc
 50
272.305076
 51
339.833377
  0
ARC
  5
403
100
AcDbEntity
  8
0
100
AcDbCircle
 10
230.845922
 20
363.322613
 30
0.0
 40
0.5
100
AcDbArc
 50
200.166623
 51
267.694924
  0
ARC
  5
404
100
AcDbEntity
  8
0
100
AcDbCircle
 10
221.248165
 20
362.188914
 30
0.0
 40
2.5
100
AcDbArc
 50
271.998023
 51
350.245334
  0
ARC
  5
405
100
AcDbEntity
  8
0
100
AcDbCircle
 10
230.118045
 20
362.188914
 30
0.0
 40
2.5
100
AcDbArc
 50
189.754666
 51
268.001977
  0
ARC
  5
406
100
AcDbEntity
  8
0
100
AcDbCircle
 10
538.713101
 20
799.806764
 30
0.0
 40
1.0
100
AcDbArc
 50
88.830617
 51
180.0
  0
ARC
  5
407
100
AcDbEntity
  8
0
100
AcDbCircle
 10
538.713101
 20
533.827175
 30
0.0
 40
1.0
100
AcDbArc
 50
180.0
 51
271.169383
  0
ARC
  5
408
100
AcDbEntity
  8
1
  6
HIDDEN
100
AcDbCircle
 10
239.682659
 20
437.286746
 30
0.0
 40
20.0
100
AcDbArc
 50
0.0
 51
90.0
  0
ARC
  5
409
100
AcDbEntity
  8
1
  6
HIDDEN
100
AcDbCircle
 10
211.683105
 20
437.286746
 30
0.0
 40
20.0
100
AcDbArc
 50
90.0
 51
180.0
  0
ARC
  5
40A
100
AcDbEntity
  8
0
100
AcDbCircle
 10
145.970103
 20
273.002474
 30
0.0
 40
2.0
100
AcDbArc
 50
240.0
 51
330.0
  0
ARC
  5
40B
100
AcDbEntity
  8
0
100
AcDbCircle
 10
113.867913
 20
276.525576
 30
0.0
 40
2.0
100
AcDbArc
 50
240.0
 51
300.350136
  0
ARC
  5
40C
100
AcDbEntity
  8
0
100
AcDbCircle
 10
115.257291
 20
283.806322
 30
0.0
 40
2.0
100
AcDbArc
 50
240.0
 51
330.0
  0
ARC
  5
40D
100
AcDbEntity
  8
0
100
AcDbCircle
 10
131.28357
 20
289.564652
 30
0.0
 40
9.0
100
AcDbArc
 50
60.0
 51
150.0
  0
ARC
  5
40E
100
AcDbEntity
  8
0
100
AcDbCircle
 10
151.580701
 20
285.929002
 30
0.0
 40
2.0
100
AcDbArc
 50
342.528808
 51
420.0
  0
ARC
  5
40F
100
AcDbEntity
  8
0
100
AcDbCircle
 10
149.360331
 20
278.874521
 30
0.0
 40
2.0
100
AcDbArc
 50
330.0
 51
342.528808
  0
ARC
  5
410
100
AcDbEntity
  8
0
100
AcDbCircle
 10
306.785509
 20
273.804646
 30
0.0
 40
2.0
100
AcDbArc
 50
222.528808
 51
300.0
  0
ARC
  5
411
100
AcDbEntity
  8
0
100
AcDbCircle
 10
320.08264
 20
289.564652
 30
0.0
 40
9.0
100
AcDbArc
 50
300.0
 51
390.0
  0
ARC
  5
412
100
AcDbEntity
  8
0
100
AcDbCircle
 10
323.10892
 20
306.322983
 30
0.0
 40
2.0
100
AcDbArc
 50
120.0
 51
210.0
  0
ARC
  5
413
100
AcDbEntity
  8
0
100
AcDbCircle
 10
317.498297
 20
311.166592
 30
0.0
 40
2.0
100
AcDbArc
 50
120.0
 51
180.350136
  0
ARC
  5
414
100
AcDbEntity
  8
0
100
AcDbCircle
 10
298.396107
 20
285.12683
 30
0.0
 40
2.0
100
AcDbArc
 50
120.0
 51
210.0
  0
ARC
  5
415
100
AcDbEntity
  8
0
100
AcDbCircle
 10
232.683105
 20
147.059861
 30
0.0
 40
2.0
100
AcDbArc
 50
0.0
 51
90.0
  0
ARC
  5
416
100
AcDbEntity
  8
0
100
AcDbCircle
 10
245.683105
 20
117.496998
 30
0.0
 40
2.0
100
AcDbArc
 50
0.0
 51
60.350136
  0
ARC
  5
417
100
AcDbEntity
  8
0
100
AcDbCircle
 10
238.683105
 20
115.059861
 30
0.0
 40
2.0
100
AcDbArc
 50
0.0
 51
90.0
  0
ARC
  5
418
100
AcDbEntity
  8
0
100
AcDbCircle
 10
225.683105
 20
126.059861
 30
0.0
 40
9.0
100
AcDbArc
 50
180.0
 51
270.0
  0
ARC
  5
419
100
AcDbEntity
  8
0
100
AcDbCircle
 10
218.683105
 20
145.455518
 30
0.0
 40
2.0
100
AcDbArc
 50
102.528808
 51
180.0
  0
LINE
  5
41A
100
AcDbEntity
  8
0
100
AcDbLine
 10
779.029091
 20
324.490177
 30
0.0
 11
780.101969
 21
325.563055
 31
0.0
  0
LINE
  5
41B
100
AcDbEntity
  8
0
100
AcDbLine
 10
779.029091
 20
323.075964
 30
0.0
 11
780.629091
 21
324.675964
 31
0.0
  0
LINE
  5
41C
100
AcDbEntity
  8
0
100
AcDbLine
 10
779.029091
 20
321.66175
 30
0.0
 11
780.629091
 21
323.26175
 31
0.0
  0
LINE
  5
41D
100
AcDbEntity
  8
0
100
AcDbLine
 10
779.029091
 20
320.247537
 30
0.0
 11
780.629091
 21
321.847537
 31
0.0
  0
LINE
  5
41E
100
AcDbEntity
  8
0
100
AcDbLine
 10
779.029091
 20
318.833323
 30
0.0
 11
780.629091
 21
320.433323
 31
0.0
  0
LINE
  5
41F
100
AcDbEntity
  8
0
100
AcDbLine
 10
780.073037
 20
318.463055
 30
0.0
 11
781.673037
 21
320.063055
 31
0.0
  0
LINE
  5
420
100
AcDbEntity
  8
0
100
AcDbLine
 10
781.48725
 20
318.463055
 30
0.0
 11
783.08725
 21
320.063055
 31
0.0
  0
LINE
  5
421
100
AcDbEntity
  8
0
100
AcDbLine
 10
782.029091
 20
317.590682
 30
0.0
 11
783.629091
 21
319.190682
 31
0.0
  0
LINE
  5
422
100
AcDbEntity
  8
0
100
AcDbLine
 10
782.029091
 20
316.176469
 30
0.0
 11
783.629091
 21
317.776469
 31
0.0
  0
LINE
  5
423
100
AcDbEntity
  8
0
100
AcDbLine
 10
782.029091
 20
314.762255
 30
0.0
 11
783.629091
 21
316.362255
 31
0.0
  0
LINE
  5
424
100
AcDbEntity
  8
0
100
AcDbLine
 10
782.029091
 20
313.348042
 30
0.0
 11
783.629091
 21
314.948042
 31
0.0
  0
LINE
  5
425
100
AcDbEntity
  8
0
100
AcDbLine
 10
782.558318
 20
312.463055
 30
0.0
 11
784.158318
 21
314.063055
 31
0.0
  0
LINE
  5
426
100
AcDbEntity
  8
0
100
AcDbLine
 10
783.025381
 20
311.515905
 30
0.0
 11
784.625381
 21
313.115905
 31
0.0
  0
LINE
  5
427
100
AcDbEntity
  8
0
100
AcDbLine
 10
783.025381
 20
310.101691
 30
0.0
 11
784.625381
 21
311.701691
 31
0.0
  0
LINE
  5
428
100
AcDbEntity
  8
0
100
AcDbLine
 10
783.025381
 20
308.687478
 30
0.0
 11
784.625381
 21
310.287478
 31
0.0
  0
LINE
  5
429
100
AcDbEntity
  8
0
100
AcDbLine
 10
783.025381
 20
307.273264
 30
0.0
 11
784.625381
 21
308.873264
 31
0.0
  0
LINE
  5
42A
100
AcDbEntity
  8
0
100
AcDbLine
 10
783.025381
 20
305.859051
 30
0.0
 11
784.625381
 21
307.459051
 31
0.0
  0
LINE
  5
42B
100
AcDbEntity
  8
0
100
AcDbLine
 10
783.025381
 20
304.444837
 30
0.0
 11
784.625381
 21
306.044837
 31
0.0
  0
LINE
  5
42C
100
AcDbEntity
  8
0
100
AcDbLine
 10
783.025381
 20
303.030624
 30
0.0
 11
784.625381
 21
304.630624
 31
0.0
  0
LINE
  5
42D
100
AcDbEntity
  8
0
100
AcDbLine
 10
783.025381
 20
301.61641
 30
0.0
 11
784.625381
 21
303.21641
 31
0.0
  0
LINE
  5
42E
100
AcDbEntity
  8
0
100
AcDbLine
 10
783.025381
 20
300.202196
 30
0.0
 11
784.625381
 21
301.802196
 31
0.0
  0
LINE
  5
42F
100
AcDbEntity
  8
0
100
AcDbLine
 10
783.025381
 20
298.787983
 30
0.0
 11
784.625381
 21
300.387983
 31
0.0
  0
LINE
  5
430
100
AcDbEntity
  8
0
100
AcDbLine
 10
783.025381
 20
297.373769
 30
0.0
 11
784.625381
 21
298.973769
 31
0.0
  0
LINE
  5
431
100
AcDbEntity
  8
0
100
AcDbLine
 10
783.025381
 20
295.959556
 30
0.0
 11
784.625381
 21
297.559556
 31
0.0
  0
LINE
  5
432
100
AcDbEntity
  8
0
100
AcDbLine
 10
783.025381
 20
294.545342
 30
0.0
 11
784.625381
 21
296.145342
 31
0.0
  0
LINE
  5
433
100
AcDbEntity
  8
0
100
AcDbLine
 10
783.025381
 20
293.131129
 30
0.0
 11
784.625381
 21
294.731129
 31
0.0
  0
LINE
  5
434
100
AcDbEntity
  8
0
100
AcDbLine
 10
783.025381
 20
291.716915
 30
0.0
 11
784.625381
 21
293.316915
 31
0.0
  0
LINE
  5
435
100
AcDbEntity
  8
0
100
AcDbLine
 10
784.308693
 20
291.586013
 30
0.0
 11
784.625381
 21
291.902701
 31
0.0
  0
LINE
  5
436
100
AcDbEntity
  8
0
100
AcDbLine
 10
783.025381
 20
264.846857
 30
0.0
 11
784.091579
 21
265.913055
 31
0.0
  0
LINE
  5
437
100
AcDbEntity
  8
0
100
AcDbLine
 10
783.025381
 20
263.432644
 30
0.0
 11
784.625381
 21
265.032644
 31
0.0
  0
LINE
  5
438
100
AcDbEntity
  8
0
100
AcDbLine
 10
783.025381
 20
262.01843
 30
0.0
 11
784.625381
 21
263.61843
 31
0.0
  0
LINE
  5
439
100
AcDbEntity
  8
0
100
AcDbLine
 10
783.025381
 20
260.604217
 30
0.0
 11
784.625381
 21
262.204217
 31
0.0
  0
LINE
  5
43A
100
AcDbEntity
  8
0
100
AcDbLine
 10
783.025381
 20
259.190003
 30
0.0
 11
784.625381
 21
260.790003
 31
0.0
  0
LINE
  5
43B
100
AcDbEntity
  8
0
100
AcDbLine
 10
783.025381
 20
257.77579
 30
0.0
 11
784.625381
 21
259.37579
 31
0.0
  0
LINE
  5
43C
100
AcDbEntity
  8
0
100
AcDbLine
 10
783.025381
 20
256.361576
 30
0.0
 11
784.625381
 21
257.961576
 31
0.0
  0
LINE
  5
43D
100
AcDbEntity
  8
0
100
AcDbLine
 10
783.025381
 20
254.947362
 30
0.0
 11
784.625381
 21
256.547362
 31
0.0
  0
LINE
  5
43E
100
AcDbEntity
  8
0
100
AcDbLine
 10
783.025381
 20
253.533149
 30
0.0
 11
784.625381
 21
255.133149
 31
0.0
  0
LINE
  5
43F
100
AcDbEntity
  8
0
100
AcDbLine
 10
783.025381
 20
252.118935
 30
0.0
 11
784.625381
 21
253.718935
 31
0.0
  0
LINE
  5
440
100
AcDbEntity
  8
0
100
AcDbLine
 10
783.025381
 20
250.704722
 30
0.0
 11
784.625381
 21
252.304722
 31
0.0
  0
LINE
  5
441
100
AcDbEntity
  8
0
100
AcDbLine
 10
783.025381
 20
249.290508
 30
0.0
 11
784.625381
 21
250.890508
 31
0.0
  0
LINE
  5
442
100
AcDbEntity
  8
0
100
AcDbLine
 10
783.025381
 20
247.876295
 30
0.0
 11
784.625381
 21
249.476295
 31
0.0
  0
LINE
  5
443
100
AcDbEntity
  8
0
100
AcDbLine
 10
783.025381
 20
246.462081
 30
0.0
 11
784.625381
 21
248.062081
 31
0.0
  0
LINE
  5
444
100
AcDbEntity
  8
0
100
AcDbLine
 10
783.840569
 20
245.863055
 30
0.0
 11
784.625381
 21
246.647867
 31
0.0
  0
LINE
  5
445
100
AcDbEntity
  8
0
100
AcDbLine
 10
783.025381
 20
177.165616
 30
0.0
 11
784.399862
 21
178.540097
 31
0.0
  0
LINE
  5
446
100
AcDbEntity
  8
0
100
AcDbLine
 10
783.025381
 20
175.751403
 30
0.0
 11
784.625381
 21
177.351403
 31
0.0
  0
LINE
  5
447
100
AcDbEntity
  8
0
100
AcDbLine
 10
783.025381
 20
174.337189
 30
0.0
 11
784.625381
 21
175.937189
 31
0.0
  0
LINE
  5
448
100
AcDbEntity
  8
0
100
AcDbLine
 10
783.025381
 20
172.922976
 30
0.0
 11
784.625381
 21
174.522976
 31
0.0
  0
LINE
  5
449
100
AcDbEntity
  8
0
100
AcDbLine
 10
783.025381
 20
171.508762
 30
0.0
 11
784.625381
 21
173.108762
 31
0.0
  0
LINE
  5
44A
100
AcDbEntity
  8
0
100
AcDbLine
 10
783.025381
 20
170.094549
 30
0.0
 11
784.625381
 21
171.694549
 31
0.0
  0
LINE
  5
44B
100
AcDbEntity
  8
0
100
AcDbLine
 10
783.025381
 20
168.680335
 30
0.0
 11
784.625381
 21
170.280335
 31
0.0
  0
LINE
  5
44C
100
AcDbEntity
  8
0
100
AcDbLine
 10
783.025381
 20
167.266122
 30
0.0
 11
784.625381
 21
168.866122
 31
0.0
  0
LINE
  5
44D
100
AcDbEntity
  8
0
100
AcDbLine
 10
783.025381
 20
165.851908
 30
0.0
 11
784.625381
 21
167.451908
 31
0.0
  0
LINE
  5
44E
100
AcDbEntity
  8
0
100
AcDbLine
 10
783.025381
 20
164.437694
 30
0.0
 11
784.625381
 21
166.037694
 31
0.0
  0
LINE
  5
44F
100
AcDbEntity
  8
0
100
AcDbLine
 10
783.025381
 20
163.023481
 30
0.0
 11
784.625381
 21
164.623481
 31
0.0
  0
LINE
  5
450
100
AcDbEntity
  8
0
100
AcDbLine
 10
783.025381
 20
161.609267
 30
0.0
 11
784.625381
 21
163.209267
 31
0.0
  0
LINE
  5
451
100
AcDbEntity
  8
0
100
AcDbLine
 10
783.025381
 20
160.195054
 30
0.0
 11
784.625381
 21
161.795054
 31
0.0
  0
LINE
  5
452
100
AcDbEntity
  8
0
100
AcDbLine
 10
783.025381
 20
158.78084
 30
0.0
 11
784.625381
 21
160.38084
 31
0.0
  0
LINE
  5
453
100
AcDbEntity
  8
0
100
AcDbLine
 10
782.029091
 20
156.370336
 30
0.0
 11
784.625381
 21
158.966627
 31
0.0
  0
LINE
  5
454
100
AcDbEntity
  8
0
100
AcDbLine
 10
782.029091
 20
154.956123
 30
0.0
 11
784.625381
 21
157.552413
 31
0.0
  0
LINE
  5
455
100
AcDbEntity
  8
0
100
AcDbLine
 10
784.550237
 20
156.063055
 30
0.0
 11
784.625381
 21
156.138199
 31
0.0
  0
LINE
  5
456
100
AcDbEntity
  8
0
100
AcDbLine
 10
782.029091
 20
153.541909
 30
0.0
 11
783.629091
 21
155.141909
 31
0.0
  0
LINE
  5
457
100
AcDbEntity
  8
0
100
AcDbLine
 10
779.029091
 20
150.541909
 30
0.0
 11
780.150237
 21
151.663055
 31
0.0
  0
LINE
  5
458
100
AcDbEntity
  8
0
100
AcDbLine
 10
782.029091
 20
152.127696
 30
0.0
 11
783.629091
 21
153.727696
 31
0.0
  0
LINE
  5
459
100
AcDbEntity
  8
0
100
AcDbLine
 10
779.029091
 20
149.127696
 30
0.0
 11
781.564451
 21
151.663055
 31
0.0
  0
LINE
  5
45A
100
AcDbEntity
  8
0
100
AcDbLine
 10
781.378664
 20
150.063055
 30
0.0
 11
783.629091
 21
152.313482
 31
0.0
  0
LINE
  5
45B
100
AcDbEntity
  8
0
100
AcDbLine
 10
779.029091
 20
147.713482
 30
0.0
 11
780.629091
 21
149.313482
 31
0.0
  0
LINE
  5
45C
100
AcDbEntity
  8
0
100
AcDbLine
 10
782.792878
 20
150.063055
 30
0.0
 11
783.629091
 21
150.899269
 31
0.0
  0
LINE
  5
45D
100
AcDbEntity
  8
0
100
AcDbLine
 10
779.029091
 20
146.299269
 30
0.0
 11
780.629091
 21
147.899269
 31
0.0
  0
LINE
  5
45E
100
AcDbEntity
  8
0
100
AcDbLine
 10
779.029091
 20
144.885055
 30
0.0
 11
780.629091
 21
146.485055
 31
0.0
  0
LINE
  5
45F
100
AcDbEntity
  8
0
100
AcDbLine
 10
780.121305
 20
144.563055
 30
0.0
 11
780.629091
 21
145.070841
 31
0.0
  0
LINE
  5
460
100
AcDbEntity
  8
0
100
AcDbLine
 10
783.025381
 20
223.834664
 30
0.0
 11
783.453773
 21
224.263055
 31
0.0
  0
LINE
  5
461
100
AcDbEntity
  8
0
100
AcDbLine
 10
783.025381
 20
222.42045
 30
0.0
 11
784.625381
 21
224.02045
 31
0.0
  0
LINE
  5
462
100
AcDbEntity
  8
0
100
AcDbLine
 10
783.025381
 20
221.006237
 30
0.0
 11
784.625381
 21
222.606237
 31
0.0
  0
LINE
  5
463
100
AcDbEntity
  8
0
100
AcDbLine
 10
783.025381
 20
219.592023
 30
0.0
 11
784.625381
 21
221.192023
 31
0.0
  0
LINE
  5
464
100
AcDbEntity
  8
0
100
AcDbLine
 10
783.025381
 20
218.17781
 30
0.0
 11
784.625381
 21
219.77781
 31
0.0
  0
LINE
  5
465
100
AcDbEntity
  8
0
100
AcDbLine
 10
783.025381
 20
216.763596
 30
0.0
 11
784.625381
 21
218.363596
 31
0.0
  0
LINE
  5
466
100
AcDbEntity
  8
0
100
AcDbLine
 10
783.025381
 20
215.349383
 30
0.0
 11
784.625381
 21
216.949383
 31
0.0
  0
LINE
  5
467
100
AcDbEntity
  8
0
100
AcDbLine
 10
783.025381
 20
213.935169
 30
0.0
 11
784.625381
 21
215.535169
 31
0.0
  0
LINE
  5
468
100
AcDbEntity
  8
0
100
AcDbLine
 10
783.025381
 20
212.520956
 30
0.0
 11
784.625381
 21
214.120956
 31
0.0
  0
LINE
  5
469
100
AcDbEntity
  8
0
100
AcDbLine
 10
783.025381
 20
211.106742
 30
0.0
 11
784.625381
 21
212.706742
 31
0.0
  0
LINE
  5
46A
100
AcDbEntity
  8
0
100
AcDbLine
 10
783.025381
 20
209.692528
 30
0.0
 11
784.625381
 21
211.292528
 31
0.0
  0
LINE
  5
46B
100
AcDbEntity
  8
0
100
AcDbLine
 10
783.025381
 20
208.278315
 30
0.0
 11
784.625381
 21
209.878315
 31
0.0
  0
LINE
  5
46C
100
AcDbEntity
  8
0
100
AcDbLine
 10
783.025381
 20
206.864101
 30
0.0
 11
784.625381
 21
208.464101
 31
0.0
  0
LINE
  5
46D
100
AcDbEntity
  8
0
100
AcDbLine
 10
783.025381
 20
205.449888
 30
0.0
 11
784.625381
 21
207.049888
 31
0.0
  0
LINE
  5
46E
100
AcDbEntity
  8
0
100
AcDbLine
 10
783.202762
 20
204.213055
 30
0.0
 11
784.625381
 21
205.635674
 31
0.0
  0
LINE
  5
46F
100
AcDbEntity
  8
0
100
AcDbLine
 10
784.616976
 20
204.213055
 30
0.0
 11
784.625381
 21
204.221461
 31
0.0
  0
LINE
  5
470
100
AcDbEntity
  8
0
100
AcDbLine
 10
783.025381
 20
286.060061
 30
0.0
 11
783.551334
 21
286.586013
 31
0.0
  0
LINE
  5
471
100
AcDbEntity
  8
0
100
AcDbLine
 10
783.025381
 20
284.645847
 30
0.0
 11
784.625381
 21
286.245847
 31
0.0
  0
LINE
  5
472
100
AcDbEntity
  8
0
100
AcDbLine
 10
783.025381
 20
283.231634
 30
0.0
 11
784.625381
 21
284.831634
 31
0.0
  0
LINE
  5
473
100
AcDbEntity
  8
0
100
AcDbLine
 10
783.025381
 20
281.81742
 30
0.0
 11
784.625381
 21
283.41742
 31
0.0
  0
LINE
  5
474
100
AcDbEntity
  8
0
100
AcDbLine
 10
783.025381
 20
280.403207
 30
0.0
 11
784.625381
 21
282.003207
 31
0.0
  0
LINE
  5
475
100
AcDbEntity
  8
0
100
AcDbLine
 10
783.025381
 20
278.988993
 30
0.0
 11
784.625381
 21
280.588993
 31
0.0
  0
LINE
  5
476
100
AcDbEntity
  8
0
100
AcDbLine
 10
783.025381
 20
277.574779
 30
0.0
 11
784.625381
 21
279.174779
 31
0.0
  0
LINE
  5
477
100
AcDbEntity
  8
0
100
AcDbLine
 10
783.025381
 20
276.160566
 30
0.0
 11
784.625381
 21
277.760566
 31
0.0
  0
LINE
  5
478
100
AcDbEntity
  8
0
100
AcDbLine
 10
783.025381
 20
274.746352
 30
0.0
 11
784.625381
 21
276.346352
 31
0.0
  0
LINE
  5
479
100
AcDbEntity
  8
0
100
AcDbLine
 10
783.025381
 20
273.332139
 30
0.0
 11
784.625381
 21
274.932139
 31
0.0
  0
LINE
  5
47A
100
AcDbEntity
  8
0
100
AcDbLine
 10
783.595511
 20
272.488055
 30
0.0
 11
784.625381
 21
273.517925
 31
0.0
  0
LINE
  5
47B
100
AcDbEntity
  8
0
100
AcDbLine
 10
783.025381
 20
196.964606
 30
0.0
 11
783.69883
 21
197.638055
 31
0.0
  0
LINE
  5
47C
100
AcDbEntity
  8
0
100
AcDbLine
 10
783.025381
 20
195.550393
 30
0.0
 11
784.625381
 21
197.150393
 31
0.0
  0
LINE
  5
47D
100
AcDbEntity
  8
0
100
AcDbLine
 10
783.025381
 20
194.136179
 30
0.0
 11
784.625381
 21
195.736179
 31
0.0
  0
LINE
  5
47E
100
AcDbEntity
  8
0
100
AcDbLine
 10
783.025381
 20
192.721966
 30
0.0
 11
784.625381
 21
194.321966
 31
0.0
  0
LINE
  5
47F
100
AcDbEntity
  8
0
100
AcDbLine
 10
783.025381
 20
191.307752
 30
0.0
 11
784.625381
 21
192.907752
 31
0.0
  0
LINE
  5
480
100
AcDbEntity
  8
0
100
AcDbLine
 10
783.025381
 20
189.893539
 30
0.0
 11
784.625381
 21
191.493539
 31
0.0
  0
LINE
  5
481
100
AcDbEntity
  8
0
100
AcDbLine
 10
783.025381
 20
188.479325
 30
0.0
 11
784.625381
 21
190.079325
 31
0.0
  0
LINE
  5
482
100
AcDbEntity
  8
0
100
AcDbLine
 10
783.025381
 20
187.065111
 30
0.0
 11
784.625381
 21
188.665111
 31
0.0
  0
LINE
  5
483
100
AcDbEntity
  8
0
100
AcDbLine
 10
783.025381
 20
185.650898
 30
0.0
 11
784.625381
 21
187.250898
 31
0.0
  0
LINE
  5
484
100
AcDbEntity
  8
0
100
AcDbLine
 10
783.025381
 20
184.236684
 30
0.0
 11
784.625381
 21
185.836684
 31
0.0
  0
LINE
  5
485
100
AcDbEntity
  8
0
100
AcDbLine
 10
783.743008
 20
183.540097
 30
0.0
 11
784.625381
 21
184.422471
 31
0.0
  0
ARC
  5
486
100
AcDbEntity
  8
1
  6
HIDDEN
100
AcDbCircle
 10
240.314464
 20
623.509733
 30
0.0
 40
31.594942
100
AcDbArc
 50
9.188519
 51
13.899494
  0
ARC
  5
487
100
AcDbEntity
  8
1
  6
HIDDEN
100
AcDbCircle
 10
256.052321
 20
627.356274
 30
0.0
 40
15.393968
100
AcDbArc
 50
14.073051
 51
24.138653
  0
ARC
  5
488
100
AcDbEntity
  8
1
  6
HIDDEN
100
AcDbCircle
 10
-48.435924
 20
478.039757
 30
0.0
 40
354.514192
100
AcDbArc
 50
26.036514
 51
26.488582
  0
ARC
  5
489
100
AcDbEntity
  8
1
  6
HIDDEN
100
AcDbCircle
 10
245.95181
 20
622.985751
 30
0.0
 40
26.428418
100
AcDbArc
 50
29.899973
 51
42.231717
  0
ARC
  5
48A
100
AcDbEntity
  8
1
  6
HIDDEN
100
AcDbCircle
 10
253.372988
 20
630.890504
 30
0.0
 40
15.644438
100
AcDbArc
 50
39.062379
 51
50.523203
  0
ARC
  5
48B
100
AcDbEntity
  8
1
  6
HIDDEN
100
AcDbCircle
 10
-57.352823
 20
260.683011
 30
0.0
 40
498.969885
100
AcDbArc
 50
50.008941
 51
50.382119
  0
ARC
  5
48C
100
AcDbEntity
  8
1
  6
HIDDEN
100
AcDbCircle
 10
235.601631
 20
611.809004
 30
0.0
 40
41.723298
100
AcDbArc
 50
52.808583
 51
61.903837
  0
ARC
  5
48D
100
AcDbEntity
  8
1
  6
HIDDEN
100
AcDbCircle
 10
242.837116
 20
627.496392
 30
0.0
 40
24.497595
100
AcDbArc
 50
59.55224
 51
67.987245
  0
ARC
  5
48E
100
AcDbEntity
  8
1
  6
HIDDEN
100
AcDbCircle
 10
-161.839231
 20
-359.772663
 30
0.0
 40
1091.485196
100
AcDbArc
 50
67.717724
 51
67.911943
  0
ARC
  5
48F
100
AcDbEntity
  8
1
  6
HIDDEN
100
AcDbCircle
 10
227.941371
 20
595.579865
 30
0.0
 40
59.710424
100
AcDbArc
 50
69.765325
 51
76.957908
  0
ARC
  5
490
100
AcDbEntity
  8
1
  6
HIDDEN
100
AcDbCircle
 10
232.982701
 20
622.015473
 30
0.0
 40
32.836005
100
AcDbArc
 50
75.117844
 51
81.981409
  0
ARC
  5
491
100
AcDbEntity
  8
1
  6
HIDDEN
100
AcDbCircle
 10
-315.226787
 20
-3225.16327
 30
0.0
 40
3918.877385
100
AcDbArc
 50
81.890914
 51
81.948909
  0
ARC
  5
492
100
AcDbEntity
  8
1
  6
HIDDEN
100
AcDbCircle
 10
225.721473
 20
584.970012
 30
0.0
 40
70.563212
100
AcDbArc
 50
83.560171
 51
90.031154
  0
ARC
  5
493
100
AcDbEntity
  8
1
  6
HIDDEN
100
AcDbCircle
 10
225.67991
 20
584.341757
 30
0.0
 40
71.191456
100
AcDbArc
 50
89.997428
 51
96.411247
  0
ARC
  5
494
100
AcDbEntity
  8
1
  6
HIDDEN
100
AcDbCircle
 10
220.713183
 20
619.966812
 30
0.0
 40
35.247607
100
AcDbArc
 50
94.854408
 51
101.30577
  0
ARC
  5
495
100
AcDbEntity
  8
1
  6
HIDDEN
100
AcDbCircle
 10
580.853131
 20
-1167.512034
 30
0.0
 40
1858.645881
100
AcDbArc
 50
101.389782
 51
101.510965
  0
ARC
  5
496
100
AcDbEntity
  8
1
  6
HIDDEN
100
AcDbCircle
 10
223.869769
 20
594.091023
 30
0.0
 40
61.261344
100
AcDbArc
 50
103.133252
 51
110.143515
  0
ARC
  5
497
100
AcDbEntity
  8
1
  6
HIDDEN
100
AcDbCircle
 10
212.021221
 20
624.027242
 30
0.0
 40
29.087324
100
AcDbArc
 50
108.538745
 51
115.831588
  0
ARC
  5
498
100
AcDbEntity
  8
1
  6
HIDDEN
100
AcDbCircle
 10
523.542212
 20
-11.84229
 30
0.0
 40
737.165677
100
AcDbArc
 50
116.090227
 51
116.370288
  0
ARC
  5
499
100
AcDbEntity
  8
1
  6
HIDDEN
100
AcDbCircle
 10
216.631535
 20
610.455663
 30
0.0
 40
43.325641
100
AcDbArc
 50
118.264686
 51
127.022894
  0
ARC
  5
49A
100
AcDbEntity
  8
1
  6
HIDDEN
100
AcDbCircle
 10
201.978104
 20
628.786511
 30
0.0
 40
19.878067
100
AcDbArc
 50
125.11558
 51
134.49336
  0
ARC
  5
49B
100
AcDbEntity
  8
1
  6
HIDDEN
100
AcDbCircle
 10
468.670442
 20
362.164031
 30
0.0
 40
396.987834
100
AcDbArc
 50
134.981761
 51
135.432656
  0
ARC
  5
49C
100
AcDbEntity
  8
1
  6
HIDDEN
100
AcDbCircle
 10
206.148479
 20
622.451121
 30
0.0
 40
27.331469
100
AcDbArc
 50
137.972759
 51
149.895551
  0
ARC
  5
49D
100
AcDbEntity
  8
1
  6
HIDDEN
100
AcDbCircle
 10
192.952169
 20
629.444963
 30
0.0
 40
12.420239
100
AcDbArc
 50
147.272008
 51
160.202897
  0
ARC
  5
49E
100
AcDbEntity
  8
1
  6
HIDDEN
100
AcDbCircle
 10
664.425766
 20
464.858062
 30
0.0
 40
511.795484
100
AcDbArc
 50
160.742964
 51
161.045332
  0
ARC
  5
49F
100
AcDbEntity
  8
1
  6
HIDDEN
100
AcDbCircle
 10
199.378997
 20
625.899005
 30
0.0
 40
19.696003
100
AcDbArc
 50
164.690338
 51
179.808068
  0
ARC
  5
4A0
100
AcDbEntity
  8
1
  6
HIDDEN
100
AcDbCircle
 10
199.371913
 20
626.029998
 30
0.0
 40
19.688916
100
AcDbArc
 50
180.189196
 51
195.312399
  0
ARC
  5
4A1
100
AcDbEntity
  8
1
  6
HIDDEN
100
AcDbCircle
 10
190.467428
 20
622.894901
 30
0.0
 40
10.294591
100
AcDbArc
 50
191.568025
 51
206.643679
  0
ARC
  5
4A2
100
AcDbEntity
  8
1
  6
HIDDEN
100
AcDbCircle
 10
499.802134
 20
773.89021
 30
0.0
 40
354.514192
100
AcDbArc
 50
206.036514
 51
206.488582
  0
ARC
  5
4A3
100
AcDbEntity
  8
1
  6
HIDDEN
100
AcDbCircle
 10
205.4144
 20
628.944216
 30
0.0
 40
26.428418
100
AcDbArc
 50
209.899973
 51
222.231717
  0
ARC
  5
4A4
100
AcDbEntity
  8
1
  6
HIDDEN
100
AcDbCircle
 10
197.993222
 20
621.039463
 30
0.0
 40
15.644438
100
AcDbArc
 50
219.062379
 51
230.523203
  0
ARC
  5
4A5
100
AcDbEntity
  8
1
  6
HIDDEN
100
AcDbCircle
 10
508.719033
 20
991.246956
 30
0.0
 40
498.969885
100
AcDbArc
 50
230.008941
 51
230.382119
  0
ARC
  5
4A6
100
AcDbEntity
  8
1
  6
HIDDEN
100
AcDbCircle
 10
215.764579
 20
640.120963
 30
0.0
 40
41.723298
100
AcDbArc
 50
232.808583
 51
241.903837
  0
ARC
  5
4A7
100
AcDbEntity
  8
1
  6
HIDDEN
100
AcDbCircle
 10
208.529094
 20
624.433575
 30
0.0
 40
24.497595
100
AcDbArc
 50
239.55224
 51
247.987245
  0
ARC
  5
4A8
100
AcDbEntity
  8
1
  6
HIDDEN
100
AcDbCircle
 10
613.205441
 20
1611.70263
 30
0.0
 40
1091.485196
100
AcDbArc
 50
247.717724
 51
247.911943
  0
ARC
  5
4A9
100
AcDbEntity
  8
1
  6
HIDDEN
100
AcDbCircle
 10
223.424839
 20
656.350102
 30
0.0
 40
59.710424
100
AcDbArc
 50
249.765325
 51
256.957908
  0
ARC
  5
4AA
100
AcDbEntity
  8
1
  6
HIDDEN
100
AcDbCircle
 10
218.383509
 20
629.914494
 30
0.0
 40
32.836005
100
AcDbArc
 50
255.117844
 51
261.981409
  0
ARC
  5
4AB
100
AcDbEntity
  8
1
  6
HIDDEN
100
AcDbCircle
 10
766.592997
 20
4477.093237
 30
0.0
 40
3918.877385
100
AcDbArc
 50
261.890914
 51
261.948909
  0
ARC
  5
4AC
100
AcDbEntity
  8
1
  6
HIDDEN
100
AcDbCircle
 10
225.644737
 20
666.959955
 30
0.0
 40
70.563212
100
AcDbArc
 50
263.560171
 51
270.031154
  0
ARC
  5
4AD
100
AcDbEntity
  8
1
  6
HIDDEN
100
AcDbCircle
 10
225.6863
 20
667.588209
 30
0.0
 40
71.191456
100
AcDbArc
 50
269.997428
 51
276.411247
  0
ARC
  5
4AE
100
AcDbEntity
  8
1
  6
HIDDEN
100
AcDbCircle
 10
230.653027
 20
631.963155
 30
0.0
 40
35.247607
100
AcDbArc
 50
274.854408
 51
281.30577
  0
ARC
  5
4AF
100
AcDbEntity
  8
1
  6
HIDDEN
100
AcDbCircle
 10
-129.486921
 20
2419.442001
 30
0.0
 40
1858.645881
100
AcDbArc
 50
281.389782
 51
281.510965
  0
ARC
  5
4B0
100
AcDbEntity
  8
1
  6
HIDDEN
100
AcDbCircle
 10
227.496442
 20
657.838944
 30
0.0
 40
61.261344
100
AcDbArc
 50
283.133252
 51
290.143515
  0
ARC
  5
4B1
100
AcDbEntity
  8
1
  6
HIDDEN
100
AcDbCircle
 10
239.344989
 20
627.902725
 30
0.0
 40
29.087324
100
AcDbArc
 50
288.538745
 51
295.831588
  0
ARC
  5
4B2
100
AcDbEntity
  8
1
  6
HIDDEN
100
AcDbCircle
 10
-72.176002
 20
1263.772257
 30
0.0
 40
737.165677
100
AcDbArc
 50
296.090227
 51
296.370288
  0
ARC
  5
4B3
100
AcDbEntity
  8
1
  6
HIDDEN
100
AcDbCircle
 10
234.734675
 20
641.474304
 30
0.0
 40
43.325641
100
AcDbArc
 50
298.264686
 51
307.022894
  0
ARC
  5
4B4
100
AcDbEntity
  8
1
  6
HIDDEN
100
AcDbCircle
 10
249.388106
 20
623.143456
 30
0.0
 40
19.878067
100
AcDbArc
 50
305.11558
 51
314.49336
  0
ARC
  5
4B5
100
AcDbEntity
  8
1
  6
HIDDEN
100
AcDbCircle
 10
-17.304232
 20
889.765936
 30
0.0
 40
396.987834
100
AcDbArc
 50
314.981761
 51
315.432656
  0
ARC
  5
4B6
100
AcDbEntity
  8
1
  6
HIDDEN
100
AcDbCircle
 10
245.217731
 20
629.478846
 30
0.0
 40
27.331469
100
AcDbArc
 50
317.972759
 51
329.895551
  0
ARC
  5
4B7
100
AcDbEntity
  8
1
  6
HIDDEN
100
AcDbCircle
 10
258.414041
 20
622.485004
 30
0.0
 40
12.420239
100
AcDbArc
 50
327.272008
 51
340.202897
  0
ARC
  5
4B8
100
AcDbEntity
  8
1
  6
HIDDEN
100
AcDbCircle
 10
-213.059556
 20
787.071905
 30
0.0
 40
511.795484
100
AcDbArc
 50
340.742964
 51
341.045332
  0
ARC
  5
4B9
100
AcDbEntity
  8
1
  6
HIDDEN
100
AcDbCircle
 10
251.987213
 20
626.030962
 30
0.0
 40
19.696003
100
AcDbArc
 50
344.690338
 51
359.808068
  0
LINE
  5
4BA
100
AcDbEntity
  8
1
  6
HIDDEN
100
AcDbLine
 10
271.683105
 20
625.964983
 30
0.0
 11
271.503988
 21
628.55492
 31
0.0
  0
LINE
  5
4BB
100
AcDbEntity
  8
1
  6
HIDDEN
100
AcDbLine
 10
271.503988
 20
628.55492
 30
0.0
 11
271.503988
 21
628.55492
 31
0.0
  0
ARC
  5
4BC
100
AcDbEntity
  8
1
  6
HIDDEN
100
AcDbCircle
 10
231.028122
 20
556.660916
 30
0.0
 40
11.537615
100
AcDbArc
 50
346.099676
 51
350.810857
  0
ARC
  5
4BD
100
AcDbEntity
  8
1
  6
HIDDEN
100
AcDbCircle
 10
236.775174
 20
555.256177
 30
0.0
 40
5.621426
100
AcDbArc
 50
335.859887
 51
345.926074
  0
ARC
  5
4BE
100
AcDbEntity
  8
1
  6
HIDDEN
100
AcDbCircle
 10
125.604745
 20
609.776058
 30
0.0
 40
129.437755
100
AcDbArc
 50
333.509856
 51
333.962025
  0
ARC
  5
4BF
100
AcDbEntity
  8
1
  6
HIDDEN
100
AcDbCircle
 10
233.086397
 20
556.852457
 30
0.0
 40
9.651339
100
AcDbArc
 50
317.766357
 51
330.098354
  0
ARC
  5
4C0
100
AcDbEntity
  8
1
  6
HIDDEN
100
AcDbCircle
 10
235.796281
 20
553.965751
 30
0.0
 40
5.713337
100
AcDbArc
 50
309.474892
 51
320.935779
  0
ARC
  5
4C1
100
AcDbEntity
  8
1
  6
HIDDEN
100
AcDbCircle
 10
122.336723
 20
689.153463
 30
0.0
 40
182.203294
100
AcDbArc
 50
309.615996
 51
309.989219
  0
ARC
  5
4C2
100
AcDbEntity
  8
1
  6
HIDDEN
100
AcDbCircle
 10
229.306034
 20
560.93498
 30
0.0
 40
15.237926
100
AcDbArc
 50
298.094572
 51
307.189587
  0
ARC
  5
4C3
100
AcDbEntity
  8
1
  6
HIDDEN
100
AcDbCircle
 10
231.948283
 20
555.205824
 30
0.0
 40
8.947053
100
AcDbArc
 50
292.011428
 51
300.446119
  0
ARC
  5
4C4
100
AcDbEntity
  8
1
  6
HIDDEN
100
AcDbCircle
 10
84.173849
 20
915.747372
 30
0.0
 40
398.597424
100
AcDbArc
 50
292.086735
 51
292.280964
  0
ARC
  5
4C5
100
AcDbEntity
  8
1
  6
HIDDEN
100
AcDbCircle
 10
226.508153
 20
566.86299
 30
0.0
 40
21.807998
100
AcDbArc
 50
283.041255
 51
290.233451
  0
ARC
  5
4C6
100
AcDbEntity
  8
1
  6
HIDDEN
100
AcDbCircle
 10
228.349241
 20
557.208026
 30
0.0
 40
11.992793
100
AcDbArc
 50
278.018067
 51
284.881225
  0
ARC
  5
4C7
100
AcDbEntity
  8
1
  6
HIDDEN
100
AcDbCircle
 10
28.155627
 20
1962.201779
 30
0.0
 40
1431.177378
100
AcDbArc
 50
278.050567
 51
278.108564
  0
ARC
  5
4C8
100
AcDbEntity
  8
1
  6
HIDDEN
100
AcDbCircle
 10
225.697342
 20
570.738447
 30
0.0
 40
25.772181
100
AcDbArc
 50
269.968844
 51
276.439411
  0
ARC
  5
4C9
100
AcDbEntity
  8
1
  6
HIDDEN
100
AcDbCircle
 10
225.682161
 20
570.96793
 30
0.0
 40
26.001659
100
AcDbArc
 50
263.589172
 51
270.002573
  0
ARC
  5
4CA
100
AcDbEntity
  8
1
  6
HIDDEN
100
AcDbCircle
 10
223.868253
 20
557.956366
 30
0.0
 40
12.873675
100
AcDbArc
 50
258.694963
 51
265.145906
  0
ARC
  5
4CB
100
AcDbEntity
  8
1
  6
HIDDEN
100
AcDbCircle
 10
355.381655
 20
1210.738398
 30
0.0
 40
678.771668
100
AcDbArc
 50
258.48976
 51
258.610948
  0
ARC
  5
4CC
100
AcDbEntity
  8
1
  6
HIDDEN
100
AcDbCircle
 10
225.021012
 20
567.406821
 30
0.0
 40
22.3745
100
AcDbArc
 50
249.857714
 51
256.86758
  0
ARC
  5
4CD
100
AcDbEntity
  8
1
  6
HIDDEN
100
AcDbCircle
 10
220.693801
 20
556.473059
 30
0.0
 40
10.623523
100
AcDbArc
 50
244.169923
 51
251.462378
  0
ARC
  5
4CE
100
AcDbEntity
  8
1
  6
HIDDEN
100
AcDbCircle
 10
334.44748
 20
788.679786
 30
0.0
 40
269.196153
100
AcDbArc
 50
243.631184
 51
243.911268
  0
ARC
  5
4CF
100
AcDbEntity
  8
1
  6
HIDDEN
100
AcDbCircle
 10
222.377276
 20
561.429317
 30
0.0
 40
15.823205
100
AcDbArc
 50
232.978954
 51
241.736887
  0
ARC
  5
4D0
100
AcDbEntity
  8
1
  6
HIDDEN
100
AcDbCircle
 10
217.025798
 20
554.734365
 30
0.0
 40
7.259712
100
AcDbArc
 50
225.508616
 51
234.886169
  0
ARC
  5
4D1
100
AcDbEntity
  8
1
  6
HIDDEN
100
AcDbCircle
 10
314.401409
 20
652.090933
 30
0.0
 40
144.955879
100
AcDbArc
 50
224.569179
 51
225.02015
  0
ARC
  5
4D2
100
AcDbEntity
  8
1
  6
HIDDEN
100
AcDbCircle
 10
218.548381
 20
557.047743
 30
0.0
 40
9.981186
100
AcDbArc
 50
210.106164
 51
222.029125
  0
ARC
  5
4D3
100
AcDbEntity
  8
1
  6
HIDDEN
100
AcDbCircle
 10
213.729238
 20
554.493477
 30
0.0
 40
4.535682
100
AcDbArc
 50
199.798444
 51
212.729675
  0
ARC
  5
4D4
100
AcDbEntity
  8
1
  6
HIDDEN
100
AcDbCircle
 10
385.858839
 20
614.586315
 30
0.0
 40
186.853188
100
AcDbArc
 50
198.955794
 51
199.258244
  0
ARC
  5
4D5
100
AcDbEntity
  8
1
  6
HIDDEN
100
AcDbCircle
 10
216.075862
 20
555.788342
 30
0.0
 40
7.192332
100
AcDbArc
 50
180.191981
 51
195.310612
  0
ARC
  5
4D6
100
AcDbEntity
  8
1
  6
HIDDEN
100
AcDbCircle
 10
216.073274
 20
555.740495
 30
0.0
 40
7.189743
100
AcDbArc
 50
164.68665
 51
179.810756
  0
ARC
  5
4D7
100
AcDbEntity
  8
1
  6
HIDDEN
100
AcDbCircle
 10
212.82171
 20
556.88539
 30
0.0
 40
3.759284
100
AcDbArc
 50
153.354717
 51
168.431244
  0
ARC
  5
4D8
100
AcDbEntity
  8
1
  6
HIDDEN
100
AcDbCircle
 10
325.761911
 20
501.752427
 30
0.0
 40
129.437755
100
AcDbArc
 50
153.509856
 51
153.962025
  0
ARC
  5
4D9
100
AcDbEntity
  8
1
  6
HIDDEN
100
AcDbCircle
 10
218.28026
 20
554.676028
 30
0.0
 40
9.651339
100
AcDbArc
 50
137.766357
 51
150.098354
  0
ARC
  5
4DA
100
AcDbEntity
  8
1
  6
HIDDEN
100
AcDbCircle
 10
215.570375
 20
557.562734
 30
0.0
 40
5.713337
100
AcDbArc
 50
129.474892
 51
140.935779
  0
ARC
  5
4DB
100
AcDbEntity
  8
1
  6
HIDDEN
100
AcDbCircle
 10
329.029933
 20
422.375022
 30
0.0
 40
182.203294
100
AcDbArc
 50
129.615996
 51
129.989219
  0
ARC
  5
4DC
100
AcDbEntity
  8
1
  6
HIDDEN
100
AcDbCircle
 10
222.060623
 20
550.593505
 30
0.0
 40
15.237926
100
AcDbArc
 50
118.094572
 51
127.189587
  0
ARC
  5
4DD
100
AcDbEntity
  8
1
  6
HIDDEN
100
AcDbCircle
 10
219.418373
 20
556.32266
 30
0.0
 40
8.947053
100
AcDbArc
 50
112.011428
 51
120.446119
  0
ARC
  5
4DE
100
AcDbEntity
  8
1
  6
HIDDEN
100
AcDbCircle
 10
367.192807
 20
195.781113
 30
0.0
 40
398.597424
100
AcDbArc
 50
112.086735
 51
112.280964
  0
ARC
  5
4DF
100
AcDbEntity
  8
1
  6
HIDDEN
100
AcDbCircle
 10
224.858503
 20
544.665494
 30
0.0
 40
21.807998
100
AcDbArc
 50
103.041255
 51
110.233451
  0
ARC
  5
4E0
100
AcDbEntity
  8
1
  6
HIDDEN
100
AcDbCircle
 10
223.017415
 20
554.320458
 30
0.0
 40
11.992793
100
AcDbArc
 50
98.018067
 51
104.881225
  0
ARC
  5
4E1
100
AcDbEntity
  8
1
  6
HIDDEN
100
AcDbCircle
 10
423.21103
 20
-850.673294
 30
0.0
 40
1431.177378
100
AcDbArc
 50
98.050567
 51
98.108564
  0
ARC
  5
4E2
100
AcDbEntity
  8
1
  6
HIDDEN
100
AcDbCircle
 10
225.669314
 20
540.790037
 30
0.0
 40
25.772181
100
AcDbArc
 50
89.968844
 51
96.439411
  0
ARC
  5
4E3
100
AcDbEntity
  8
1
  6
HIDDEN
100
AcDbCircle
 10
225.684496
 20
540.560555
 30
0.0
 40
26.001659
100
AcDbArc
 50
83.589172
 51
90.002573
  0
ARC
  5
4E4
100
AcDbEntity
  8
1
  6
HIDDEN
100
AcDbCircle
 10
227.498403
 20
553.572119
 30
0.0
 40
12.873675
100
AcDbArc
 50
78.694963
 51
85.145906
  0
ARC
  5
4E5
100
AcDbEntity
  8
1
  6
HIDDEN
100
AcDbCircle
 10
95.985002
 20
-99.209913
 30
0.0
 40
678.771668
100
AcDbArc
 50
78.48976
 51
78.610948
  0
ARC
  5
4E6
100
AcDbEntity
  8
1
  6
HIDDEN
100
AcDbCircle
 10
226.345644
 20
544.121664
 30
0.0
 40
22.3745
100
AcDbArc
 50
69.857714
 51
76.86758
  0
ARC
  5
4E7
100
AcDbEntity
  8
1
  6
HIDDEN
100
AcDbCircle
 10
230.672855
 20
555.055426
 30
0.0
 40
10.623523
100
AcDbArc
 50
64.169923
 51
71.462378
  0
ARC
  5
4E8
100
AcDbEntity
  8
1
  6
HIDDEN
100
AcDbCircle
 10
116.919177
 20
322.848699
 30
0.0
 40
269.196153
100
AcDbArc
 50
63.631184
 51
63.911268
  0
ARC
  5
4E9
100
AcDbEntity
  8
1
  6
HIDDEN
100
AcDbCircle
 10
228.98938
 20
550.099168
 30
0.0
 40
15.823205
100
AcDbArc
 50
52.978954
 51
61.736887
  0
ARC
  5
4EA
100
AcDbEntity
  8
1
  6
HIDDEN
100
AcDbCircle
 10
234.340858
 20
556.79412
 30
0.0
 40
7.259712
100
AcDbArc
 50
45.508616
 51
54.886169
  0
ARC
  5
4EB
100
AcDbEntity
  8
1
  6
HIDDEN
100
AcDbCircle
 10
136.965248
 20
459.437552
 30
0.0
 40
144.955879
100
AcDbArc
 50
44.569179
 51
45.02015
  0
ARC
  5
4EC
100
AcDbEntity
  8
1
  6
HIDDEN
100
AcDbCircle
 10
232.818275
 20
554.480742
 30
0.0
 40
9.981186
100
AcDbArc
 50
30.106164
 51
42.029125
  0
ARC
  5
4ED
100
AcDbEntity
  8
1
  6
HIDDEN
100
AcDbCircle
 10
237.637418
 20
557.035008
 30
0.0
 40
4.535682
100
AcDbArc
 50
19.798444
 51
32.729675
  0
ARC
  5
4EE
100
AcDbEntity
  8
1
  6
HIDDEN
100
AcDbCircle
 10
65.507818
 20
496.94217
 30
0.0
 40
186.853188
100
AcDbArc
 50
18.955794
 51
19.258244
  0
ARC
  5
4EF
100
AcDbEntity
  8
1
  6
HIDDEN
100
AcDbCircle
 10
235.290794
 20
555.740143
 30
0.0
 40
7.192332
100
AcDbArc
 50
0.191981
 51
15.310612
  0
LINE
  5
4F0
100
AcDbEntity
  8
1
  6
HIDDEN
100
AcDbLine
 10
242.483086
 20
555.764242
 30
0.0
 11
242.41767
 21
554.818427
 31
0.0
  0
LINE
  5
4F1
100
AcDbEntity
  8
1
  6
HIDDEN
100
AcDbLine
 10
242.41767
 20
554.818427
 30
0.0
 11
242.41767
 21
554.818427
 31
0.0
  0
ARC
  5
4F2
100
AcDbEntity
  8
1
  6
HIDDEN
100
AcDbCircle
 10
220.897735
 20
482.012351
 30
0.0
 40
45.73798
100
AcDbArc
 50
232.711051
 51
233.08019
  0
ARC
  5
4F3
100
AcDbEntity
  8
1
  6
HIDDEN
100
AcDbCircle
 10
217.206061
 20
477.165276
 30
0.0
 40
39.645149
100
AcDbArc
 50
222.611711
 51
232.711821
  0
ARC
  5
4F4
100
AcDbEntity
  8
1
  6
HIDDEN
100
AcDbCircle
 10
213.370079
 20
473.640851
 30
0.0
 40
34.435896
100
AcDbArc
 50
211.506989
 51
222.617085
  0
ARC
  5
4F5
100
AcDbEntity
  8
1
  6
HIDDEN
100
AcDbCircle
 10
207.460005
 20
470.660865
 30
0.0
 40
27.781647
100
AcDbArc
 50
186.561739
 51
196.736013
  0
LINE
  5
4F6
100
AcDbEntity
  8
1
  6
HIDDEN
100
AcDbLine
 10
179.860348
 20
467.486151
 30
0.0
 11
179.727416
 21
469.025647
 31
0.0
  0
LINE
  5
4F7
100
AcDbEntity
  8
1
  6
HIDDEN
100
AcDbLine
 10
179.727416
 20
469.025647
 30
0.0
 11
179.683105
 21
470.565143
 31
0.0
  0
ARC
  5
4F8
100
AcDbEntity
  8
1
  6
HIDDEN
100
AcDbCircle
 10
206.555864
 20
470.562804
 30
0.0
 40
26.872759
100
AcDbArc
 50
173.41577
 51
179.995013
  0
LINE
  5
4F9
100
AcDbEntity
  8
1
  6
HIDDEN
100
AcDbLine
 10
179.860348
 20
473.644135
 30
0.0
 11
180.389055
 21
476.71505
 31
0.0
  0
ARC
  5
4FA
100
AcDbEntity
  8
1
  6
HIDDEN
100
AcDbCircle
 10
208.445408
 20
470.198257
 30
0.0
 40
28.803256
100
AcDbArc
 50
163.311853
 51
166.923491
  0
ARC
  5
4FB
100
AcDbEntity
  8
1
  6
HIDDEN
100
AcDbCircle
 10
211.203122
 20
468.935328
 30
0.0
 40
31.835941
100
AcDbArc
 50
142.662784
 51
148.248549
  0
ARC
  5
4FC
100
AcDbEntity
  8
1
  6
HIDDEN
100
AcDbCircle
 10
214.784463
 20
466.352478
 30
0.0
 40
36.250097
100
AcDbArc
 50
132.049508
 51
142.850129
  0
ARC
  5
4FD
100
AcDbEntity
  8
1
  6
HIDDEN
100
AcDbCircle
 10
218.503935
 20
462.462085
 30
0.0
 40
41.630465
100
AcDbArc
 50
124.932847
 51
132.264592
  0
ARC
  5
4FE
100
AcDbEntity
  8
1
  6
HIDDEN
100
AcDbCircle
 10
221.723801
 20
457.702166
 30
0.0
 40
47.375057
100
AcDbArc
 50
113.618383
 51
116.199371
  0
ARC
  5
4FF
100
AcDbEntity
  8
1
  6
HIDDEN
100
AcDbCircle
 10
224.015008
 20
452.835741
 30
0.0
 40
52.752011
100
AcDbArc
 50
105.411837
 51
113.780851
  0
ARC
  5
500
100
AcDbEntity
  8
1
  6
HIDDEN
100
AcDbCircle
 10
225.258227
 20
448.761439
 30
0.0
 40
57.010312
100
AcDbArc
 50
102.079045
 51
105.528162
  0
ARC
  5
501
100
AcDbEntity
  8
1
  6
HIDDEN
100
AcDbCircle
 10
225.660101
 20
446.285471
 30
0.0
 40
59.517721
100
AcDbArc
 50
89.977855
 51
95.916165
  0
ARC
  5
502
100
AcDbEntity
  8
1
  6
HIDDEN
100
AcDbCircle
 10
225.68135
 20
445.914894
 30
0.0
 40
59.888294
100
AcDbArc
 50
84.097163
 51
89.998321
  0
ARC
  5
503
100
AcDbEntity
  8
1
  6
HIDDEN
100
AcDbCircle
 10
225.896311
 20
447.726889
 30
0.0
 40
58.063813
100
AcDbArc
 50
74.543888
 51
77.930973
  0
ARC
  5
504
100
AcDbEntity
  8
1
  6
HIDDEN
100
AcDbCircle
 10
226.82182
 20
451.348763
 30
0.0
 40
54.326325
100
AcDbArc
 50
66.340618
 51
74.466694
  0
ARC
  5
505
100
AcDbEntity
  8
1
  6
HIDDEN
100
AcDbCircle
 10
228.761515
 20
456.053986
 30
0.0
 40
49.238319
100
AcDbArc
 50
63.729229
 51
66.210824
  0
ARC
  5
506
100
AcDbEntity
  8
1
  6
HIDDEN
100
AcDbCircle
 10
231.707472
 20
460.948716
 30
0.0
 40
43.527404
100
AcDbArc
 50
47.950253
 51
54.96373
  0
ARC
  5
507
100
AcDbEntity
  8
1
  6
HIDDEN
100
AcDbCircle
 10
235.325818
 20
465.199606
 30
0.0
 40
37.947706
100
AcDbArc
 50
37.392127
 51
47.708236
  0
ARC
  5
508
100
AcDbEntity
  8
1
  6
HIDDEN
100
AcDbCircle
 10
239.031372
 20
468.243249
 30
0.0
 40
33.155773
100
AcDbArc
 50
31.741878
 51
37.101965
  0
ARC
  5
509
100
AcDbEntity
  8
1
  6
HIDDEN
100
AcDbCircle
 10
242.134055
 20
469.921713
 30
0.0
 40
29.632311
100
AcDbArc
 50
13.253178
 51
16.764518
  0
ARC
  5
50A
100
AcDbEntity
  8
1
  6
HIDDEN
100
AcDbCircle
 10
230.097706
 20
468.495768
 30
0.0
 40
41.697554
100
AcDbArc
 50
4.965089
 51
11.368399
  0
LINE
  5
50B
100
AcDbEntity
  8
1
  6
HIDDEN
100
AcDbLine
 10
271.638794
 20
472.104639
 30
0.0
 11
271.683105
 21
470.565143
 31
0.0
  0
ARC
  5
50C
100
AcDbEntity
  8
1
  6
HIDDEN
100
AcDbCircle
 10
244.810346
 20
470.567482
 30
0.0
 40
26.872759
100
AcDbArc
 50
353.41577
 51
359.995013
  0
ARC
  5
50D
100
AcDbEntity
  8
1
  6
HIDDEN
100
AcDbCircle
 10
243.899177
 20
470.662486
 30
0.0
 40
27.788814
100
AcDbArc
 50
343.264834
 51
353.436596
  0
ARC
  5
50E
100
AcDbEntity
  8
1
  6
HIDDEN
100
AcDbCircle
 10
237.984324
 20
473.649769
 30
0.0
 40
34.450622
100
AcDbArc
 50
317.385297
 51
328.490629
  0
ARC
  5
50F
100
AcDbEntity
  8
1
  6
HIDDEN
100
AcDbCircle
 10
234.150325
 20
477.176059
 30
0.0
 40
39.659679
100
AcDbArc
 50
307.290034
 51
317.386434
  0
ARC
  5
510
100
AcDbEntity
  8
1
  6
HIDDEN
100
AcDbCircle
 10
230.46132
 20
482.021811
 30
0.0
 40
45.749841
100
AcDbArc
 50
306.919334
 51
307.288901
  0
ARC
  5
511
100
AcDbEntity
  8
1
  6
HIDDEN
100
AcDbCircle
 10
224.368643
 20
439.100403
 30
0.0
 40
15.559667
100
AcDbArc
 50
168.189905
 51
171.091104
  0
ARC
  5
512
100
AcDbEntity
  8
1
  6
HIDDEN
100
AcDbCircle
 10
216.65492
 20
440.702367
 30
0.0
 40
7.681368
100
AcDbArc
 50
159.529126
 51
168.110067
  0
ARC
  5
513
100
AcDbEntity
  8
1
  6
HIDDEN
100
AcDbCircle
 10
492.986286
 20
326.98608
 30
0.0
 40
306.492285
100
AcDbArc
 50
157.460459
 51
157.679325
  0
ARC
  5
514
100
AcDbEntity
  8
1
  6
HIDDEN
100
AcDbCircle
 10
220.498897
 20
439.390971
 30
0.0
 40
11.74861
100
AcDbArc
 50
142.855761
 51
154.380478
  0
ARC
  5
515
100
AcDbEntity
  8
1
  6
HIDDEN
100
AcDbCircle
 10
216.454715
 20
442.865434
 30
0.0
 40
6.4353
100
AcDbArc
 50
134.663165
 51
145.773626
  0
ARC
  5
516
100
AcDbEntity
  8
1
  6
HIDDEN
100
AcDbCircle
 10
431.507312
 20
227.752124
 30
0.0
 40
310.608429
100
AcDbArc
 50
134.894556
 51
134.985102
  0
ARC
  5
517
100
AcDbEntity
  8
1
  6
HIDDEN
100
AcDbCircle
 10
223.151845
 20
436.971451
 30
0.0
 40
15.353628
100
AcDbArc
 50
122.580285
 51
124.954875
  0
ARC
  5
518
100
AcDbEntity
  8
1
  6
HIDDEN
100
AcDbCircle
 10
219.751041
 20
442.967608
 30
0.0
 40
8.477555
100
AcDbArc
 50
115.820763
 51
125.035529
  0
ARC
  5
519
100
AcDbEntity
  8
1
  6
HIDDEN
100
AcDbCircle
 10
451.862622
 20
-32.268785
 30
0.0
 40
537.368239
100
AcDbArc
 50
115.880352
 51
116.028155
  0
ARC
  5
51A
100
AcDbEntity
  8
1
  6
HIDDEN
100
AcDbCircle
 10
225.110796
 20
433.471178
 30
0.0
 40
19.376151
100
AcDbArc
 50
105.486851
 51
113.756855
  0
ARC
  5
51B
100
AcDbEntity
  8
1
  6
HIDDEN
100
AcDbCircle
 10
510.889017
 20
-1252.299654
 30
0.0
 40
1729.196691
100
AcDbArc
 50
99.591211
 51
99.606895
  0
ARC
  5
51C
100
AcDbEntity
  8
1
  6
HIDDEN
100
AcDbCircle
 10
225.674486
 20
431.184081
 30
0.0
 40
21.73588
100
AcDbArc
 50
89.977858
 51
97.666936
  0
ARC
  5
51D
100
AcDbEntity
  8
1
  6
HIDDEN
100
AcDbCircle
 10
225.682245
 20
431.048759
 30
0.0
 40
21.8712
100
AcDbArc
 50
82.356886
 51
89.99832
  0
ARC
  5
51E
100
AcDbEntity
  8
1
  6
HIDDEN
100
AcDbCircle
 10
227.499465
 20
441.929919
 30
0.0
 40
10.850788
100
AcDbArc
 50
81.710538
 51
84.225703
  0
ARC
  5
51F
100
AcDbEntity
  8
1
  6
HIDDEN
100
AcDbCircle
 10
31.447302
 20
-373.141262
 30
0.0
 40
849.169026
100
AcDbArc
 50
76.378754
 51
76.385383
  0
ARC
  5
520
100
AcDbEntity
  8
1
  6
HIDDEN
100
AcDbCircle
 10
226.141525
 20
433.152956
 30
0.0
 40
19.713127
100
AcDbArc
 50
66.313948
 51
74.442346
  0
ARC
  5
521
100
AcDbEntity
  8
1
  6
HIDDEN
100
AcDbCircle
 10
230.536957
 20
442.38219
 30
0.0
 40
9.500914
100
AcDbArc
 50
59.862182
 51
68.229311
  0
ARC
  5
522
100
AcDbEntity
  8
1
  6
HIDDEN
100
AcDbCircle
 10
34.826958
 20
107.928165
 30
0.0
 40
397.008148
100
AcDbArc
 50
59.473576
 51
59.670133
  0
ARC
  5
523
100
AcDbEntity
  8
1
  6
HIDDEN
100
AcDbCircle
 10
233.765329
 20
442.651285
 30
0.0
 40
7.422781
100
AcDbArc
 50
40.201777
 51
43.942241
  0
ARC
  5
524
100
AcDbEntity
  8
1
  6
HIDDEN
100
AcDbCircle
 10
20.180803
 20
264.075699
 30
0.0
 40
285.824529
100
AcDbArc
 50
39.656725
 51
39.906484
  0
ARC
  5
525
100
AcDbEntity
  8
1
  6
HIDDEN
100
AcDbCircle
 10
230.682694
 20
439.278626
 30
0.0
 40
11.96328
100
AcDbArc
 50
25.723263
 51
37.040499
  0
ARC
  5
526
100
AcDbEntity
  8
1
  6
HIDDEN
100
AcDbCircle
 10
236.483254
 20
441.783184
 30
0.0
 40
5.656545
100
AcDbArc
 50
16.489986
 51
28.370229
  0
ARC
  5
527
100
AcDbEntity
  8
1
  6
HIDDEN
100
AcDbCircle
 10
-240.492498
 20
302.819262
 30
0.0
 40
502.463136
100
AcDbArc
 50
16.114875
 51
16.245933
  0
ARC
  5
528
100
AcDbEntity
  8
1
  6
HIDDEN
100
AcDbCircle
 10
232.430294
 20
440.034119
 30
0.0
 40
10.052362
100
AcDbArc
 50
8.444918
 51
12.938985
  0
ARC
  5
529
100
AcDbEntity
  8
1
  6
HIDDEN
100
AcDbCircle
 10
232.431471
 20
440.066066
 30
0.0
 40
10.051185
100
AcDbArc
 50
347.060259
 51
351.554857
  0
ARC
  5
52A
100
AcDbEntity
  8
1
  6
HIDDEN
100
AcDbCircle
 10
237.16933
 20
438.68461
 30
0.0
 40
5.132239
100
AcDbArc
 50
337.390612
 51
350.24858
  0
ARC
  5
52B
100
AcDbEntity
  8
1
  6
HIDDEN
100
AcDbCircle
 10
-41.620514
 20
553.114239
 30
0.0
 40
306.492285
100
AcDbArc
 50
337.460459
 51
337.679325
  0
ARC
  5
52C
100
AcDbEntity
  8
1
  6
HIDDEN
100
AcDbCircle
 10
230.866875
 20
440.709349
 30
0.0
 40
11.74861
100
AcDbArc
 50
322.855761
 51
334.380478
  0
ARC
  5
52D
100
AcDbEntity
  8
1
  6
HIDDEN
100
AcDbCircle
 10
234.911057
 20
437.234885
 30
0.0
 40
6.4353
100
AcDbArc
 50
314.663165
 51
325.773626
  0
ARC
  5
52E
100
AcDbEntity
  8
1
  6
HIDDEN
100
AcDbCircle
 10
19.85846
 20
652.348195
 30
0.0
 40
310.608429
100
AcDbArc
 50
314.894598
 51
314.985102
  0
ARC
  5
52F
100
AcDbEntity
  8
1
  6
HIDDEN
100
AcDbCircle
 10
228.213927
 20
443.128868
 30
0.0
 40
15.353628
100
AcDbArc
 50
302.580285
 51
304.955964
  0
ARC
  5
530
100
AcDbEntity
  8
1
  6
HIDDEN
100
AcDbCircle
 10
231.614731
 20
437.132712
 30
0.0
 40
8.477555
100
AcDbArc
 50
295.820763
 51
305.035529
  0
ARC
  5
531
100
AcDbEntity
  8
1
  6
HIDDEN
100
AcDbCircle
 10
-0.49685
 20
912.369104
 30
0.0
 40
537.368239
100
AcDbArc
 50
295.962558
 51
296.028155
  0
ARC
  5
532
100
AcDbEntity
  8
1
  6
HIDDEN
100
AcDbCircle
 10
226.254975
 20
446.629142
 30
0.0
 40
19.376151
100
AcDbArc
 50
285.486851
 51
289.681334
  0
ARC
  5
533
100
AcDbEntity
  8
1
  6
HIDDEN
100
AcDbCircle
 10
228.309412
 20
437.799522
 30
0.0
 40
10.325464
100
AcDbArc
 50
279.561201
 51
287.583819
  0
ARC
  5
534
100
AcDbEntity
  8
1
  6
HIDDEN
100
AcDbCircle
 10
-59.523245
 20
2132.399973
 30
0.0
 40
1729.196691
100
AcDbArc
 50
279.608251
 51
279.639379
  0
ARC
  5
535
100
AcDbEntity
  8
1
  6
HIDDEN
100
AcDbCircle
 10
225.691286
 20
448.916239
 30
0.0
 40
21.73588
100
AcDbArc
 50
269.977858
 51
274.443904
  0
ARC
  5
536
100
AcDbEntity
  8
1
  6
HIDDEN
100
AcDbCircle
 10
225.683527
 20
449.05156
 30
0.0
 40
21.8712
100
AcDbArc
 50
265.561162
 51
269.99832
  0
ARC
  5
537
100
AcDbEntity
  8
1
  6
HIDDEN
100
AcDbCircle
 10
223.866307
 20
438.1704
 30
0.0
 40
10.850788
100
AcDbArc
 50
256.543707
 51
261.488014
  0
ARC
  5
538
100
AcDbEntity
  8
1
  6
HIDDEN
100
AcDbCircle
 10
419.91847
 20
1253.241582
 30
0.0
 40
849.169026
100
AcDbArc
 50
256.378754
 51
256.476225
  0
ARC
  5
539
100
AcDbEntity
  8
1
  6
HIDDEN
100
AcDbCircle
 10
225.224247
 20
446.947363
 30
0.0
 40
19.713127
100
AcDbArc
 50
250.321656
 51
254.442346
  0
ARC
  5
53A
100
AcDbEntity
  8
1
  6
HIDDEN
100
AcDbCircle
 10
220.828814
 20
437.71813
 30
0.0
 40
9.500914
100
AcDbArc
 50
239.862182
 51
243.512091
  0
ARC
  5
53B
100
AcDbEntity
  8
1
  6
HIDDEN
100
AcDbCircle
 10
416.538814
 20
772.172155
 30
0.0
 40
397.008148
100
AcDbArc
 50
239.473576
 51
239.670133
  0
ARC
  5
53C
100
AcDbEntity
  8
1
  6
HIDDEN
100
AcDbCircle
 10
217.600442
 20
437.449035
 30
0.0
 40
7.422781
100
AcDbArc
 50
220.201777
 51
223.943984
  0
ARC
  5
53D
100
AcDbEntity
  8
1
  6
HIDDEN
100
AcDbCircle
 10
431.184969
 20
616.024621
 30
0.0
 40
285.824529
100
AcDbArc
 50
219.656725
 51
219.906484
  0
ARC
  5
53E
100
AcDbEntity
  8
1
  6
HIDDEN
100
AcDbCircle
 10
220.683077
 20
440.821693
 30
0.0
 40
11.96328
100
AcDbArc
 50
205.723263
 51
217.040499
  0
ARC
  5
53F
100
AcDbEntity
  8
1
  6
HIDDEN
100
AcDbCircle
 10
214.882517
 20
438.317136
 30
0.0
 40
5.656545
100
AcDbArc
 50
196.489986
 51
208.370229
  0
ARC
  5
540
100
AcDbEntity
  8
1
  6
HIDDEN
100
AcDbCircle
 10
691.85827
 20
577.281057
 30
0.0
 40
502.463136
100
AcDbArc
 50
196.114875
 51
196.245933
  0
ARC
  5
541
100
AcDbEntity
  8
1
  6
HIDDEN
100
AcDbCircle
 10
218.935477
 20
440.0662
 30
0.0
 40
10.052362
100
AcDbArc
 50
188.445136
 51
192.938985
  0
LINE
  5
542
100
AcDbEntity
  8
1
  6
HIDDEN
100
AcDbLine
 10
208.947859
 20
441.174683
 30
0.0
 11
208.947859
 21
441.174683
 31
0.0
  0
ARC
  5
543
100
AcDbEntity
  8
0
100
AcDbCircle
 10
140.254061
 20
418.420585
 30
0.0
 40
32.86525
100
AcDbArc
 50
198.738263
 51
204.364062
  0
ARC
  5
544
100
AcDbEntity
  8
0
100
AcDbCircle
 10
141.481588
 20
418.571411
 30
0.0
 40
34.077092
100
AcDbArc
 50
193.578232
 51
198.315387
  0
ARC
  5
545
100
AcDbEntity
  8
0
100
AcDbCircle
 10
134.831676
 20
416.7926
 30
0.0
 40
27.195945
100
AcDbArc
 50
188.156575
 51
193.224555
  0
ARC
  5
546
100
AcDbEntity
  8
0
100
AcDbCircle
 10
127.317413
 20
415.675896
 30
0.0
 40
19.5993
100
AcDbArc
 50
180.957201
 51
188.041705
  0
ARC
  5
547
100
AcDbEntity
  8
0
100
AcDbCircle
 10
141.612901
 20
415.896886
 30
0.0
 40
33.896489
100
AcDbArc
 50
177.539772
 51
180.927021
  0
ARC
  5
548
100
AcDbEntity
  8
0
100
AcDbCircle
 10
114.08765
 20
417.035767
 30
0.0
 40
6.347872
100
AcDbArc
 50
161.989974
 51
177.145205
  0
ARC
  5
549
100
AcDbEntity
  8
0
100
AcDbCircle
 10
114.046365
 20
417.028779
 30
0.0
 40
6.310801
100
AcDbArc
 50
152.430922
 51
161.813745
  0
ARC
  5
54A
100
AcDbEntity
  8
0
100
AcDbCircle
 10
112.824303
 20
417.696354
 30
0.0
 40
4.918603
100
AcDbArc
 50
140.974915
 51
152.735917
  0
ARC
  5
54B
100
AcDbEntity
  8
0
100
AcDbCircle
 10
110.836879
 20
419.31139
 30
0.0
 40
2.357711
100
AcDbArc
 50
120.069876
 51
141.054403
  0
ARC
  5
54C
100
AcDbEntity
  8
0
100
AcDbCircle
 10
110.145887
 20
420.44667
 30
0.0
 40
1.029409
100
AcDbArc
 50
77.297286
 51
118.446879
  0
ARC
  5
54D
100
AcDbEntity
  8
0
100
AcDbCircle
 10
109.916418
 20
419.691408
 30
0.0
 40
1.817563
100
AcDbArc
 50
48.86195
 51
75.475665
  0
ARC
  5
54E
100
AcDbEntity
  8
0
100
AcDbCircle
 10
108.00594
 20
417.273946
 30
0.0
 40
4.89742
100
AcDbArc
 50
38.708955
 51
50.635325
  0
ARC
  5
54F
100
AcDbEntity
  8
0
100
AcDbCircle
 10
103.330378
 20
413.382359
 30
0.0
 40
10.980154
100
AcDbArc
 50
33.544786
 51
39.297578
  0
ARC
  5
550
100
AcDbEntity
  8
0
100
AcDbCircle
 10
99.269423
 20
410.426376
 30
0.0
 40
15.999724
100
AcDbArc
 50
28.857778
 51
34.331347
  0
ARC
  5
551
100
AcDbEntity
  8
0
100
AcDbCircle
 10
87.917479
 20
403.956689
 30
0.0
 40
29.065104
100
AcDbArc
 50
25.678246
 51
29.227231
  0
ARC
  5
552
100
AcDbEntity
  8
0
100
AcDbCircle
 10
31.799998
 20
376.486549
 30
0.0
 40
91.54485
100
AcDbArc
 50
24.281983
 51
25.953995
  0
ARC
  5
553
100
AcDbEntity
  8
0
100
AcDbCircle
 10
-43.553569
 20
342.68196
 30
0.0
 40
174.133556
100
AcDbArc
 50
23.367543
 51
24.224899
  0
ARC
  5
554
100
AcDbEntity
  8
0
100
AcDbCircle
 10
-3570.149498
 20
-1186.48687
 30
0.0
 40
4017.990353
100
AcDbArc
 50
23.40241
 51
23.438829
  0
ARC
  5
555
100
AcDbEntity
  8
0
100
AcDbCircle
 10
393.500257
 20
528.493793
 30
0.0
 40
300.768756
100
AcDbArc
 50
203.325189
 51
204.270856
  0
ARC
  5
556
100
AcDbEntity
  8
0
100
AcDbCircle
 10
311.112149
 20
418.420585
 30
0.0
 40
32.86525
100
AcDbArc
 50
335.635938
 51
341.261737
  0
ARC
  5
557
100
AcDbEntity
  8
0
100
AcDbCircle
 10
309.884622
 20
418.571411
 30
0.0
 40
34.077092
100
AcDbArc
 50
341.684613
 51
346.421768
  0
ARC
  5
558
100
AcDbEntity
  8
0
100
AcDbCircle
 10
316.534534
 20
416.7926
 30
0.0
 40
27.195945
100
AcDbArc
 50
346.775445
 51
351.843425
  0
ARC
  5
559
100
AcDbEntity
  8
0
100
AcDbCircle
 10
324.048797
 20
415.675896
 30
0.0
 40
19.5993
100
AcDbArc
 50
351.958295
 51
359.042799
  0
ARC
  5
55A
100
AcDbEntity
  8
0
100
AcDbCircle
 10
309.753309
 20
415.896886
 30
0.0
 40
33.896489
100
AcDbArc
 50
359.072979
 51
362.460228
  0
ARC
  5
55B
100
AcDbEntity
  8
0
100
AcDbCircle
 10
337.27856
 20
417.035767
 30
0.0
 40
6.347872
100
AcDbArc
 50
2.854795
 51
18.010026
  0
ARC
  5
55C
100
AcDbEntity
  8
0
100
AcDbCircle
 10
337.319845
 20
417.028779
 30
0.0
 40
6.310801
100
AcDbArc
 50
18.186255
 51
27.569078
  0
ARC
  5
55D
100
AcDbEntity
  8
0
100
AcDbCircle
 10
338.541907
 20
417.696354
 30
0.0
 40
4.918603
100
AcDbArc
 50
27.264083
 51
39.025085
  0
ARC
  5
55E
100
AcDbEntity
  8
0
100
AcDbCircle
 10
340.529331
 20
419.31139
 30
0.0
 40
2.357711
100
AcDbArc
 50
38.945597
 51
59.930124
  0
ARC
  5
55F
100
AcDbEntity
  8
0
100
AcDbCircle
 10
341.220323
 20
420.44667
 30
0.0
 40
1.029409
100
AcDbArc
 50
61.553121
 51
102.702714
  0
ARC
  5
560
100
AcDbEntity
  8
0
100
AcDbCircle
 10
341.449792
 20
419.691408
 30
0.0
 40
1.817563
100
AcDbArc
 50
104.524335
 51
131.13805
  0
ARC
  5
561
100
AcDbEntity
  8
0
100
AcDbCircle
 10
343.36027
 20
417.273946
 30
0.0
 40
4.89742
100
AcDbArc
 50
129.364675
 51
141.291045
  0
ARC
  5
562
100
AcDbEntity
  8
0
100
AcDbCircle
 10
348.035832
 20
413.382359
 30
0.0
 40
10.980154
100
AcDbArc
 50
140.702422
 51
146.455214
  0
ARC
  5
563
100
AcDbEntity
  8
0
100
AcDbCircle
 10
352.096787
 20
410.426376
 30
0.0
 40
15.999724
100
AcDbArc
 50
145.668653
 51
151.142222
  0
ARC
  5
564
100
AcDbEntity
  8
0
100
AcDbCircle
 10
363.448731
 20
403.956689
 30
0.0
 40
29.065104
100
AcDbArc
 50
150.772769
 51
154.321754
  0
ARC
  5
565
100
AcDbEntity
  8
0
100
AcDbCircle
 10
419.566212
 20
376.486549
 30
0.0
 40
91.54485
100
AcDbArc
 50
154.046005
 51
155.718017
  0
ARC
  5
566
100
AcDbEntity
  8
0
100
AcDbCircle
 10
494.919779
 20
342.68196
 30
0.0
 40
174.133556
100
AcDbArc
 50
155.775101
 51
156.632457
  0
ARC
  5
567
100
AcDbEntity
  8
0
100
AcDbCircle
 10
4021.515707
 20
-1186.48687
 30
0.0
 40
4017.990352
100
AcDbArc
 50
156.561171
 51
156.59759
  0
ARC
  5
568
100
AcDbEntity
  8
0
100
AcDbCircle
 10
57.865953
 20
528.493793
 30
0.0
 40
300.768756
100
AcDbArc
 50
335.729144
 51
336.674811
  0
ARC
  5
569
100
AcDbEntity
  8
0
100
AcDbCircle
 10
209.577145
 20
403.980492
 30
0.0
 40
20.903038
100
AcDbArc
 50
0.000236
 51
2.382924
  0
ARC
  5
56A
100
AcDbEntity
  8
0
100
AcDbCircle
 10
210.288437
 20
404.010418
 30
0.0
 40
20.191116
100
AcDbArc
 50
2.381999
 51
7.258078
  0
ARC
  5
56B
100
AcDbEntity
  8
0
100
AcDbCircle
 10
212.285157
 20
404.264858
 30
0.0
 40
18.178249
100
AcDbArc
 50
7.257642
 51
12.48605
  0
ARC
  5
56C
100
AcDbEntity
  8
0
100
AcDbCircle
 10
215.162296
 20
404.902149
 30
0.0
 40
15.231375
100
AcDbArc
 50
12.485394
 51
18.366049
  0
ARC
  5
56D
100
AcDbEntity
  8
0
100
AcDbCircle
 10
218.366188
 20
405.966066
 30
0.0
 40
11.855455
100
AcDbArc
 50
18.364981
 51
25.312872
  0
ARC
  5
56E
100
AcDbEntity
  8
0
100
AcDbCircle
 10
221.33237
 20
407.369307
 30
0.0
 40
8.574095
100
AcDbArc
 50
25.310951
 51
33.937086
  0
ARC
  5
56F
100
AcDbEntity
  8
0
100
AcDbCircle
 10
223.623653
 20
408.911618
 30
0.0
 40
5.812085
100
AcDbArc
 50
33.933173
 51
45.136541
  0
ARC
  5
570
100
AcDbEntity
  8
0
100
AcDbCircle
 10
225.034962
 20
410.33059
 30
0.0
 40
3.810767
100
AcDbArc
 50
45.126778
 51
60.073053
  0
ARC
  5
571
100
AcDbEntity
  8
0
100
AcDbCircle
 10
225.616783
 20
411.344229
 30
0.0
 40
2.642017
100
AcDbArc
 50
60.041438
 51
79.333645
  0
ARC
  5
572
100
AcDbEntity
  8
0
100
AcDbCircle
 10
225.683105
 20
411.709523
 30
0.0
 40
2.27076
100
AcDbArc
 50
79.27219
 51
100.72781
  0
ARC
  5
573
100
AcDbEntity
  8
0
100
AcDbCircle
 10
225.751676
 20
411.338155
 30
0.0
 40
2.648402
100
AcDbArc
 50
100.689834
 51
119.935082
  0
ARC
  5
574
100
AcDbEntity
  8
0
100
AcDbCircle
 10
226.336867
 20
410.323241
 30
0.0
 40
3.819939
100
AcDbArc
 50
119.944994
 51
134.855175
  0
ARC
  5
575
100
AcDbEntity
  8
0
100
AcDbCircle
 10
227.748645
 20
408.906593
 30
0.0
 40
5.819941
100
AcDbArc
 50
134.871045
 51
146.059242
  0
ARC
  5
576
100
AcDbEntity
  8
0
100
AcDbCircle
 10
230.039016
 20
407.366364
 30
0.0
 40
8.580032
100
AcDbArc
 50
146.065904
 51
154.686059
  0
ARC
  5
577
100
AcDbEntity
  8
0
100
AcDbCircle
 10
233.003982
 20
405.964479
 30
0.0
 40
11.859713
100
AcDbArc
 50
154.688377
 51
161.63377
  0
ARC
  5
578
100
AcDbEntity
  8
0
100
AcDbCircle
 10
236.206712
 20
404.901376
 30
0.0
 40
15.234275
100
AcDbArc
 50
161.634511
 51
167.514046
  0
ARC
  5
579
100
AcDbEntity
  8
0
100
AcDbCircle
 10
239.082827
 20
404.26455
 30
0.0
 40
18.180048
100
AcDbArc
 50
167.514208
 51
172.742099
  0
ARC
  5
57A
100
AcDbEntity
  8
0
100
AcDbCircle
 10
241.078631
 20
404.010345
 30
0.0
 40
20.191977
100
AcDbArc
 50
172.742026
 51
177.617897
  0
ARC
  5
57B
100
AcDbEntity
  8
0
100
AcDbCircle
 10
241.798103
 20
403.980304
 30
0.0
 40
20.912076
100
AcDbArc
 50
177.617591
 51
179.999249
  0
ARC
  5
57C
100
AcDbEntity
  8
0
100
AcDbCircle
 10
113.662224
 20
297.167209
 30
0.0
 40
6.773493
100
AcDbArc
 50
228.244791
 51
240.392153
  0
ARC
  5
57D
100
AcDbEntity
  8
0
100
AcDbCircle
 10
112.959688
 20
296.179865
 30
0.0
 40
5.570682
100
AcDbArc
 50
214.259526
 51
226.872282
  0
ARC
  5
57E
100
AcDbEntity
  8
0
100
AcDbCircle
 10
111.595217
 20
295.149229
 30
0.0
 40
3.86367
100
AcDbArc
 50
197.463636
 51
213.018234
  0
ARC
  5
57F
100
AcDbEntity
  8
0
100
AcDbCircle
 10
111.763311
 20
295.253395
 30
0.0
 40
4.055572
100
AcDbArc
 50
181.488908
 51
198.154775
  0
ARC
  5
580
100
AcDbEntity
  8
0
100
AcDbCircle
 10
113.186084
 20
295.441715
 30
0.0
 40
5.484844
100
AcDbArc
 50
167.124581
 51
183.069494
  0
ARC
  5
581
100
AcDbEntity
  8
0
100
AcDbCircle
 10
118.447545
 20
294.584379
 30
0.0
 40
10.8103
100
AcDbArc
 50
157.920924
 51
168.909109
  0
ARC
  5
582
100
AcDbEntity
  8
0
100
AcDbCircle
 10
126.765518
 20
291.501645
 30
0.0
 40
19.678891
100
AcDbArc
 50
151.782263
 51
158.706899
  0
ARC
  5
583
100
AcDbEntity
  8
0
100
AcDbCircle
 10
135.906155
 20
286.907204
 30
0.0
 40
29.906839
100
AcDbArc
 50
146.970283
 51
152.306213
  0
ARC
  5
584
100
AcDbEntity
  8
0
100
AcDbCircle
 10
124.960436
 20
294.223536
 30
0.0
 40
16.742977
100
AcDbArc
 50
136.703775
 51
147.54417
  0
ARC
  5
585
100
AcDbEntity
  8
0
100
AcDbCircle
 10
118.920489
 20
299.941198
 30
0.0
 40
8.426014
100
AcDbArc
 50
124.795762
 51
136.835698
  0
ARC
  5
586
100
AcDbEntity
  8
0
100
AcDbCircle
 10
117.007309
 20
302.643661
 30
0.0
 40
5.115095
100
AcDbArc
 50
110.139848
 51
124.471822
  0
ARC
  5
587
100
AcDbEntity
  8
0
100
AcDbCircle
 10
116.634334
 20
303.577184
 30
0.0
 40
4.110333
100
AcDbArc
 50
94.701134
 51
109.739161
  0
ARC
  5
588
100
AcDbEntity
  8
0
100
AcDbCircle
 10
116.61381
 20
303.482157
 30
0.0
 40
4.203453
100
AcDbArc
 50
80.430497
 51
94.316152
  0
ARC
  5
589
100
AcDbEntity
  8
0
100
AcDbCircle
 10
116.366337
 20
302.245877
 30
0.0
 40
5.463806
100
AcDbArc
 50
64.956956
 51
80.026714
  0
LINE
  5
58A
100
AcDbEntity
  8
0
100
AcDbLine
 10
118.679161
 20
307.196031
 30
0.0
 11
119.315706
 21
306.866607
 31
0.0
  0
ARC
  5
58B
100
AcDbEntity
  8
0
100
AcDbCircle
 10
335.477321
 20
301.023907
 30
0.0
 40
6.773493
100
AcDbArc
 50
108.244791
 51
120.392153
  0
ARC
  5
58C
100
AcDbEntity
  8
0
100
AcDbCircle
 10
334.973523
 20
302.125993
 30
0.0
 40
5.570682
100
AcDbArc
 50
94.259526
 51
106.872282
  0
ARC
  5
58D
100
AcDbEntity
  8
0
100
AcDbCircle
 10
334.763202
 20
303.822978
 30
0.0
 40
3.86367
100
AcDbArc
 50
77.463636
 51
93.018234
  0
ARC
  5
58E
100
AcDbEntity
  8
0
100
AcDbCircle
 10
334.769365
 20
303.625321
 30
0.0
 40
4.055572
100
AcDbArc
 50
61.488908
 51
78.154775
  0
ARC
  5
58F
100
AcDbEntity
  8
0
100
AcDbCircle
 10
334.221069
 20
302.299004
 30
0.0
 40
5.484844
100
AcDbArc
 50
47.124581
 51
63.069494
  0
ARC
  5
590
100
AcDbEntity
  8
0
100
AcDbCircle
 10
331.526309
 20
298.736066
 30
0.0
 40
9.939587
100
AcDbArc
 50
35.474792
 51
49.716176
  0
ARC
  5
591
100
AcDbEntity
  8
0
100
AcDbCircle
 10
320.517447
 20
290.077711
 30
0.0
 40
23.938876
100
AcDbArc
 50
29.456881
 51
37.059862
  0
ARC
  5
592
100
AcDbEntity
  8
0
100
AcDbCircle
 10
318.140622
 20
288.282583
 30
0.0
 40
26.894115
100
AcDbArc
 50
25.216309
 51
30.296758
  0
ARC
  5
593
100
AcDbEntity
  8
0
100
AcDbCircle
 10
328.41543
 20
293.12321
 30
0.0
 40
15.536151
100
AcDbArc
 50
16.453148
 51
25.209316
  0
ARC
  5
594
100
AcDbEntity
  8
0
100
AcDbCircle
 10
335.250533
 20
295.083121
 30
0.0
 40
8.426014
100
AcDbArc
 50
4.795762
 51
16.835698
  0
ARC
  5
595
100
AcDbEntity
  8
0
100
AcDbCircle
 10
338.547524
 20
295.388753
 30
0.0
 40
5.115095
100
AcDbArc
 50
350.139848
 51
364.471822
  0
ARC
  5
596
100
AcDbEntity
  8
0
100
AcDbCircle
 10
339.542466
 20
295.244997
 30
0.0
 40
4.110333
100
AcDbArc
 50
334.701134
 51
349.739161
  0
ARC
  5
597
100
AcDbEntity
  8
0
100
AcDbCircle
 10
339.470433
 20
295.310285
 30
0.0
 40
4.203453
100
AcDbArc
 50
320.430497
 51
334.316152
  0
ARC
  5
598
100
AcDbEntity
  8
0
100
AcDbCircle
 10
338.523519
 20
296.142742
 30
0.0
 40
5.463806
100
AcDbArc
 50
304.956956
 51
320.026714
  0
LINE
  5
599
100
AcDbEntity
  8
0
100
AcDbLine
 10
341.654066
 20
291.664701
 30
0.0
 11
341.050505
 21
291.27815
 31
0.0
  0
ARC
  5
59A
100
AcDbEntity
  8
0
100
AcDbCircle
 10
227.909771
 20
106.998049
 30
0.0
 40
6.773493
100
AcDbArc
 50
348.244791
 51
360.392153
  0
ARC
  5
59B
100
AcDbEntity
  8
0
100
AcDbCircle
 10
229.116104
 20
106.883308
 30
0.0
 40
5.570682
100
AcDbArc
 50
334.259526
 51
346.872282
  0
ARC
  5
59C
100
AcDbEntity
  8
0
100
AcDbCircle
 10
230.690896
 20
106.216959
 30
0.0
 40
3.86367
100
AcDbArc
 50
317.463636
 51
333.018234
  0
ARC
  5
59D
100
AcDbEntity
  8
0
100
AcDbCircle
 10
230.516639
 20
106.31045
 30
0.0
 40
4.055572
100
AcDbArc
 50
301.488908
 51
318.154775
  0
ARC
  5
59E
100
AcDbEntity
  8
0
100
AcDbCircle
 10
229.642163
 20
107.448447
 30
0.0
 40
5.484844
100
AcDbArc
 50
287.124581
 51
303.069494
  0
ARC
  5
59F
100
AcDbEntity
  8
0
100
AcDbCircle
 10
227.753906
 20
112.433674
 30
0.0
 40
10.8103
100
AcDbArc
 50
277.920924
 51
288.909109
  0
ARC
  5
5A0
100
AcDbEntity
  8
0
100
AcDbCircle
 10
226.264646
 20
121.178617
 30
0.0
 40
19.678891
100
AcDbArc
 50
271.782263
 51
278.706899
  0
ARC
  5
5A1
100
AcDbEntity
  8
0
100
AcDbCircle
 10
225.683105
 20
136.652612
 30
0.0
 40
35.163629
100
AcDbArc
 50
268.0548
 51
271.9452
  0
ARC
  5
5A2
100
AcDbEntity
  8
0
100
AcDbCircle
 10
225.106952
 20
121.23732
 30
0.0
 40
19.737733
100
AcDbArc
 50
261.303435
 51
268.207403
  0
ARC
  5
5A3
100
AcDbEntity
  8
0
100
AcDbCircle
 10
224.464006
 20
116.004595
 30
0.0
 40
14.468791
100
AcDbArc
 50
252.482878
 51
260.687089
  0
ARC
  5
5A4
100
AcDbEntity
  8
0
100
AcDbCircle
 10
222.61105
 20
109.342249
 30
0.0
 40
7.561431
100
AcDbArc
 50
239.128847
 51
250.677078
  0
ARC
  5
5A5
100
AcDbEntity
  8
0
100
AcDbCircle
 10
221.329018
 20
106.885454
 30
0.0
 40
4.797559
100
AcDbArc
 50
223.14112
 51
237.215197
  0
ARC
  5
5A6
100
AcDbEntity
  8
0
100
AcDbCircle
 10
220.861138
 20
106.345914
 30
0.0
 40
4.08789
100
AcDbArc
 50
207.410774
 51
222.107356
  0
ARC
  5
5A7
100
AcDbEntity
  8
0
100
AcDbCircle
 10
220.726288
 20
106.345667
 30
0.0
 40
3.968548
100
AcDbArc
 50
190.564262
 51
208.303931
  0
ARC
  5
5A8
100
AcDbEntity
  8
0
100
AcDbCircle
 10
223.474462
 20
106.999842
 30
0.0
 40
6.791503
100
AcDbArc
 50
179.624013
 51
191.739042
  0
ARC
  5
5A9
100
AcDbEntity
  8
0
100
AcDbCircle
 10
577.672215
 20
545.834703
 30
0.0
 40
66.920922
100
AcDbArc
 50
104.575585
 51
108.634439
  0
ARC
  5
5AA
100
AcDbEntity
  8
0
100
AcDbCircle
 10
573.168923
 20
559.389514
 30
0.0
 40
52.637808
100
AcDbArc
 50
108.704037
 51
111.420019
  0
ARC
  5
5AB
100
AcDbEntity
  8
0
100
AcDbCircle
 10
568.083723
 20
572.198169
 30
0.0
 40
38.856784
100
AcDbArc
 50
111.337137
 51
115.164091
  0
ARC
  5
5AC
100
AcDbEntity
  8
0
100
AcDbCircle
 10
564.552816
 20
579.784529
 30
0.0
 40
30.489048
100
AcDbArc
 50
115.220486
 51
120.360224
  0
ARC
  5
5AD
100
AcDbEntity
  8
0
100
AcDbCircle
 10
557.817384
 20
591.108833
 30
0.0
 40
17.313607
100
AcDbArc
 50
120.068778
 51
126.62775
  0
ARC
  5
5AE
100
AcDbEntity
  8
0
100
AcDbCircle
 10
556.234556
 20
593.586203
 30
0.0
 40
14.38261
100
AcDbArc
 50
127.455461
 51
134.54004
  0
ARC
  5
5AF
100
AcDbEntity
  8
0
100
AcDbCircle
 10
552.661946
 20
597.330702
 30
0.0
 40
9.208172
100
AcDbArc
 50
135.037856
 51
144.547131
  0
ARC
  5
5B0
100
AcDbEntity
  8
0
100
AcDbCircle
 10
549.95291
 20
599.249945
 30
0.0
 40
5.888191
100
AcDbArc
 50
144.469984
 51
158.757443
  0
ARC
  5
5B1
100
AcDbEntity
  8
0
100
AcDbCircle
 10
547.828832
 20
600.090601
 30
0.0
 40
3.603877
100
AcDbArc
 50
158.979188
 51
180.964594
  0
ARC
  5
5B2
100
AcDbEntity
  8
0
100
AcDbCircle
 10
547.887672
 20
600.202759
 30
0.0
 40
3.666281
100
AcDbArc
 50
182.701911
 51
206.240834
  0
ARC
  5
5B3
100
AcDbEntity
  8
0
100
AcDbCircle
 10
549.719456
 20
601.052297
 30
0.0
 40
5.685109
100
AcDbArc
 50
205.757812
 51
221.925218
  0
ARC
  5
5B4
100
AcDbEntity
  8
0
100
AcDbCircle
 10
550.762753
 20
601.932158
 30
0.0
 40
7.049357
100
AcDbArc
 50
221.58013
 51
234.759994
  0
ARC
  5
5B5
100
AcDbEntity
  8
0
100
AcDbCircle
 10
551.182664
 20
602.673454
 30
0.0
 40
7.897549
100
AcDbArc
 50
235.37501
 51
248.577094
  0
ARC
  5
5B6
100
AcDbEntity
  8
0
100
AcDbCircle
 10
553.303656
 20
607.72768
 30
0.0
 40
13.377885
100
AcDbArc
 50
248.027157
 51
257.198523
  0
ARC
  5
5B7
100
AcDbEntity
  8
0
100
AcDbCircle
 10
554.346057
 20
611.3329
 30
0.0
 40
17.125844
100
AcDbArc
 50
256.470275
 51
264.652651
  0
ARC
  5
5B8
100
AcDbEntity
  8
0
100
AcDbCircle
 10
554.674965
 20
615.435195
 30
0.0
 40
21.241009
100
AcDbArc
 50
264.800552
 51
271.194744
  0
ARC
  5
5B9
100
AcDbEntity
  8
0
100
AcDbCircle
 10
554.845495
 20
614.762065
 30
0.0
 40
20.565064
100
AcDbArc
 50
270.758837
 51
278.309871
  0
ARC
  5
5BA
100
AcDbEntity
  8
0
100
AcDbCircle
 10
554.270159
 20
620.076015
 30
0.0
 40
25.907136
100
AcDbArc
 50
277.870399
 51
284.669816
  0
ARC
  5
5BB
100
AcDbEntity
  8
1
  6
HIDDEN
100
AcDbCircle
 10
228.768413
 20
644.484766
 30
0.0
 40
6.662412
100
AcDbArc
 50
346.100506
 51
350.811481
  0
ARC
  5
5BC
100
AcDbEntity
  8
1
  6
HIDDEN
100
AcDbCircle
 10
232.087048
 20
643.673647
 30
0.0
 40
3.246119
100
AcDbArc
 50
335.861347
 51
345.926949
  0
ARC
  5
5BD
100
AcDbEntity
  8
1
  6
HIDDEN
100
AcDbCircle
 10
167.879745
 20
675.159956
 30
0.0
 40
74.756253
100
AcDbArc
 50
333.511418
 51
333.963486
  0
ARC
  5
5BE
100
AcDbEntity
  8
1
  6
HIDDEN
100
AcDbCircle
 10
229.957158
 20
644.595257
 30
0.0
 40
5.572949
100
AcDbArc
 50
317.768283
 51
330.100027
  0
ARC
  5
5BF
100
AcDbEntity
  8
1
  6
HIDDEN
100
AcDbCircle
 10
231.522059
 20
642.928386
 30
0.0
 40
3.298936
100
AcDbArc
 50
309.476797
 51
320.937621
  0
ARC
  5
5C0
100
AcDbEntity
  8
1
  6
HIDDEN
100
AcDbCircle
 10
165.999442
 20
720.993879
 30
0.0
 40
105.217563
100
AcDbArc
 50
309.617881
 51
309.991059
  0
ARC
  5
5C1
100
AcDbEntity
  8
1
  6
HIDDEN
100
AcDbCircle
 10
227.77462
 20
646.952093
 30
0.0
 40
8.798174
100
AcDbArc
 50
298.096163
 51
307.191417
  0
ARC
  5
5C2
100
AcDbEntity
  8
1
  6
HIDDEN
100
AcDbCircle
 10
229.300364
 20
643.6441
 30
0.0
 40
5.165797
100
AcDbArc
 50
292.012755
 51
300.44776
  0
ARC
  5
5C3
100
AcDbEntity
  8
1
  6
HIDDEN
100
AcDbCircle
 10
143.966439
 20
851.829097
 30
0.0
 40
230.161009
100
AcDbArc
 50
292.088057
 51
292.282276
  0
ARC
  5
5C4
100
AcDbEntity
  8
1
  6
HIDDEN
100
AcDbCircle
 10
226.159305
 20
650.374325
 30
0.0
 40
12.591111
100
AcDbArc
 50
283.042092
 51
290.234675
  0
ARC
  5
5C5
100
AcDbEntity
  8
1
  6
HIDDEN
100
AcDbCircle
 10
227.222368
 20
644.799859
 30
0.0
 40
6.924114
100
AcDbArc
 50
278.018591
 51
284.882156
  0
ARC
  5
5C6
100
AcDbEntity
  8
1
  6
HIDDEN
100
AcDbCircle
 10
111.621671
 20
1456.052768
 30
0.0
 40
826.37197
100
AcDbArc
 50
278.051091
 51
278.109086
  0
ARC
  5
5C7
100
AcDbEntity
  8
1
  6
HIDDEN
100
AcDbCircle
 10
225.691196
 20
652.61162
 30
0.0
 40
14.879634
100
AcDbArc
 50
269.968846
 51
276.439829
  0
ARC
  5
5C8
100
AcDbEntity
  8
1
  6
HIDDEN
100
AcDbCircle
 10
225.682431
 20
652.744099
 30
0.0
 40
15.012111
100
AcDbArc
 50
263.588753
 51
270.002572
  0
ARC
  5
5C9
100
AcDbEntity
  8
1
  6
HIDDEN
100
AcDbCircle
 10
224.6351
 20
645.23186
 30
0.0
 40
7.432648
100
AcDbArc
 50
258.69423
 51
265.145592
  0
ARC
  5
5CA
100
AcDbEntity
  8
1
  6
HIDDEN
100
AcDbCircle
 10
300.577654
 20
1022.156747
 30
0.0
 40
391.931849
100
AcDbArc
 50
258.489035
 51
258.610218
  0
ARC
  5
5CB
100
AcDbEntity
  8
1
  6
HIDDEN
100
AcDbCircle
 10
225.300728
 20
650.688276
 30
0.0
 40
12.918153
100
AcDbArc
 50
249.856485
 51
256.866748
  0
ARC
  5
5CC
100
AcDbEntity
  8
1
  6
HIDDEN
100
AcDbCircle
 10
222.80223
 20
644.375639
 30
0.0
 40
6.133631
100
AcDbArc
 50
244.168412
 51
251.461255
  0
ARC
  5
5CD
100
AcDbEntity
  8
1
  6
HIDDEN
100
AcDbCircle
 10
288.492525
 20
778.46117
 30
0.0
 40
155.445806
100
AcDbArc
 50
243.629712
 51
243.909773
  0
ARC
  5
5CE
100
AcDbEntity
  8
1
  6
HIDDEN
100
AcDbCircle
 10
223.774404
 20
647.237472
 30
0.0
 40
9.136059
100
AcDbArc
 50
232.977106
 51
241.735314
  0
ARC
  5
5CF
100
AcDbEntity
  8
1
  6
HIDDEN
100
AcDbCircle
 10
220.684442
 20
643.372054
 30
0.0
 40
4.191679
100
AcDbArc
 50
225.50664
 51
234.88442
  0
ARC
  5
5D0
100
AcDbEntity
  8
1
  6
HIDDEN
100
AcDbCircle
 10
276.921739
 20
699.59462
 30
0.0
 40
83.712652
100
AcDbArc
 50
224.567344
 51
225.018239
  0
ARC
  5
5D1
100
AcDbEntity
  8
1
  6
HIDDEN
100
AcDbCircle
 10
221.563847
 20
644.707994
 30
0.0
 40
5.763375
100
AcDbArc
 50
210.104449
 51
222.027241
  0
ARC
  5
5D2
100
AcDbEntity
  8
1
  6
HIDDEN
100
AcDbCircle
 10
218.781147
 20
643.233206
 30
0.0
 40
2.61905
100
AcDbArc
 50
199.797103
 51
212.727992
  0
ARC
  5
5D3
100
AcDbEntity
  8
1
  6
HIDDEN
100
AcDbCircle
 10
318.200579
 20
677.939574
 30
0.0
 40
107.922091
100
AcDbArc
 50
198.954668
 51
199.257036
  0
ARC
  5
5D4
100
AcDbEntity
  8
1
  6
HIDDEN
100
AcDbCircle
 10
220.136369
 20
643.980941
 30
0.0
 40
4.153287
100
AcDbArc
 50
180.191932
 51
195.309662
  0
ARC
  5
5D5
100
AcDbEntity
  8
1
  6
HIDDEN
100
AcDbCircle
 10
220.134875
 20
643.953318
 30
0.0
 40
4.151793
100
AcDbArc
 50
164.687601
 51
179.810804
  0
ARC
  5
5D6
100
AcDbEntity
  8
1
  6
HIDDEN
100
AcDbCircle
 10
218.257191
 20
644.614415
 30
0.0
 40
2.170816
100
AcDbArc
 50
153.356321
 51
168.431975
  0
ARC
  5
5D7
100
AcDbEntity
  8
1
  6
HIDDEN
100
AcDbCircle
 10
283.486465
 20
612.7741
 30
0.0
 40
74.756253
100
AcDbArc
 50
153.511418
 51
153.963486
  0
ARC
  5
5D8
100
AcDbEntity
  8
1
  6
HIDDEN
100
AcDbCircle
 10
221.409052
 20
643.338799
 30
0.0
 40
5.572949
100
AcDbArc
 50
137.768283
 51
150.100027
  0
ARC
  5
5D9
100
AcDbEntity
  8
1
  6
HIDDEN
100
AcDbCircle
 10
219.844152
 20
645.00567
 30
0.0
 40
3.298936
100
AcDbArc
 50
129.476797
 51
140.937621
  0
ARC
  5
5DA
100
AcDbEntity
  8
1
  6
HIDDEN
100
AcDbCircle
 10
285.366768
 20
566.940177
 30
0.0
 40
105.217563
100
AcDbArc
 50
129.617881
 51
129.991059
  0
ARC
  5
5DB
100
AcDbEntity
  8
1
  6
HIDDEN
100
AcDbCircle
 10
223.59159
 20
640.981963
 30
0.0
 40
8.798174
100
AcDbArc
 50
118.096163
 51
127.191417
  0
ARC
  5
5DC
100
AcDbEntity
  8
1
  6
HIDDEN
100
AcDbCircle
 10
222.065846
 20
644.289955
 30
0.0
 40
5.165797
100
AcDbArc
 50
112.012755
 51
120.44776
  0
ARC
  5
5DD
100
AcDbEntity
  8
1
  6
HIDDEN
100
AcDbCircle
 10
307.399771
 20
436.104959
 30
0.0
 40
230.161009
100
AcDbArc
 50
112.088057
 51
112.282276
  0
ARC
  5
5DE
100
AcDbEntity
  8
1
  6
HIDDEN
100
AcDbCircle
 10
225.206905
 20
637.559731
 30
0.0
 40
12.591111
100
AcDbArc
 50
103.042092
 51
110.234675
  0
ARC
  5
5DF
100
AcDbEntity
  8
1
  6
HIDDEN
100
AcDbCircle
 10
224.143842
 20
643.134196
 30
0.0
 40
6.924114
100
AcDbArc
 50
98.018591
 51
104.882156
  0
ARC
  5
5E0
100
AcDbEntity
  8
1
  6
HIDDEN
100
AcDbCircle
 10
339.744539
 20
-168.118713
 30
0.0
 40
826.37197
100
AcDbArc
 50
98.051091
 51
98.109086
  0
ARC
  5
5E1
100
AcDbEntity
  8
1
  6
HIDDEN
100
AcDbCircle
 10
225.675014
 20
635.322436
 30
0.0
 40
14.879634
100
AcDbArc
 50
89.968846
 51
96.439829
  0
ARC
  5
5E2
100
AcDbEntity
  8
1
  6
HIDDEN
100
AcDbCircle
 10
225.683779
 20
635.189956
 30
0.0
 40
15.012111
100
AcDbArc
 50
83.588753
 51
90.002572
  0
ARC
  5
5E3
100
AcDbEntity
  8
1
  6
HIDDEN
100
AcDbCircle
 10
226.73111
 20
642.702196
 30
0.0
 40
7.432648
100
AcDbArc
 50
78.69423
 51
85.145592
  0
ARC
  5
5E4
100
AcDbEntity
  8
1
  6
HIDDEN
100
AcDbCircle
 10
150.788556
 20
265.777309
 30
0.0
 40
391.931849
100
AcDbArc
 50
78.489035
 51
78.610218
  0
ARC
  5
5E5
100
AcDbEntity
  8
1
  6
HIDDEN
100
AcDbCircle
 10
226.065483
 20
637.24578
 30
0.0
 40
12.918153
100
AcDbArc
 50
69.856485
 51
76.866748
  0
ARC
  5
5E6
100
AcDbEntity
  8
1
  6
HIDDEN
100
AcDbCircle
 10
228.563981
 20
643.558417
 30
0.0
 40
6.133631
100
AcDbArc
 50
64.168412
 51
71.461255
  0
ARC
  5
5E7
100
AcDbEntity
  8
1
  6
HIDDEN
100
AcDbCircle
 10
162.873685
 20
509.472885
 30
0.0
 40
155.445806
100
AcDbArc
 50
63.629712
 51
63.909773
  0
ARC
  5
5E8
100
AcDbEntity
  8
1
  6
HIDDEN
100
AcDbCircle
 10
227.591806
 20
640.696584
 30
0.0
 40
9.136059
100
AcDbArc
 50
52.977106
 51
61.735314
  0
ARC
  5
5E9
100
AcDbEntity
  8
1
  6
HIDDEN
100
AcDbCircle
 10
230.681768
 20
644.562002
 30
0.0
 40
4.191679
100
AcDbArc
 50
45.50664
 51
54.88442
  0
ARC
  5
5EA
100
AcDbEntity
  8
1
  6
HIDDEN
100
AcDbCircle
 10
174.444471
 20
588.339436
 30
0.0
 40
83.712652
100
AcDbArc
 50
44.567344
 51
45.018239
  0
ARC
  5
5EB
100
AcDbEntity
  8
1
  6
HIDDEN
100
AcDbCircle
 10
229.802363
 20
643.226061
 30
0.0
 40
5.763375
100
AcDbArc
 50
30.104449
 51
42.027241
  0
ARC
  5
5EC
100
AcDbEntity
  8
1
  6
HIDDEN
100
AcDbCircle
 10
232.585063
 20
644.70085
 30
0.0
 40
2.61905
100
AcDbArc
 50
19.797103
 51
32.727992
  0
ARC
  5
5ED
100
AcDbEntity
  8
1
  6
HIDDEN
100
AcDbCircle
 10
133.165631
 20
609.994481
 30
0.0
 40
107.922091
100
AcDbArc
 50
18.954668
 51
19.257036
  0
ARC
  5
5EE
100
AcDbEntity
  8
1
  6
HIDDEN
100
AcDbCircle
 10
231.229841
 20
643.953115
 30
0.0
 40
4.153287
100
AcDbArc
 50
0.191932
 51
15.309662
  0
LINE
  5
5EF
100
AcDbEntity
  8
1
  6
HIDDEN
100
AcDbLine
 10
235.383105
 20
643.967028
 30
0.0
 11
235.345335
 21
643.420889
 31
0.0
  0
LINE
  5
5F0
100
AcDbEntity
  8
1
  6
HIDDEN
100
AcDbLine
 10
235.345335
 20
643.420889
 30
0.0
 11
235.345335
 21
643.420889
 31
0.0
  0
ARC
  5
5F1
100
AcDbEntity
  8
1
  6
HIDDEN
100
AcDbCircle
 10
237.610843
 20
633.328858
 30
0.0
 40
25.756746
100
AcDbArc
 50
346.100506
 51
350.811481
  0
ARC
  5
5F2
100
AcDbEntity
  8
1
  6
HIDDEN
100
AcDbCircle
 10
250.440618
 20
630.19309
 30
0.0
 40
12.54943
100
AcDbArc
 50
335.861347
 51
345.926949
  0
ARC
  5
5F3
100
AcDbEntity
  8
1
  6
HIDDEN
100
AcDbCircle
 10
2.216505
 20
751.918512
 30
0.0
 40
289.006135
100
AcDbArc
 50
333.511418
 51
333.963486
  0
ARC
  5
5F4
100
AcDbEntity
  8
1
  6
HIDDEN
100
AcDbCircle
 10
242.206506
 20
633.756016
 30
0.0
 40
21.544906
100
AcDbArc
 50
317.768283
 51
330.100027
  0
ARC
  5
5F5
100
AcDbEntity
  8
1
  6
HIDDEN
100
AcDbCircle
 10
248.256379
 20
627.311925
 30
0.0
 40
12.753618
100
AcDbArc
 50
309.476797
 51
320.937621
  0
ARC
  5
5F6
100
AcDbEntity
  8
1
  6
HIDDEN
100
AcDbCircle
 10
-5.052706
 20
929.111511
 30
0.0
 40
406.768928
100
AcDbArc
 50
309.617881
 51
309.991059
  0
ARC
  5
5F7
100
AcDbEntity
  8
1
  6
HIDDEN
100
AcDbCircle
 10
233.76886
 20
642.867496
 30
0.0
 40
34.013558
100
AcDbArc
 50
298.096163
 51
307.191417
  0
ARC
  5
5F8
100
AcDbEntity
  8
1
  6
HIDDEN
100
AcDbCircle
 10
239.667353
 20
630.078864
 30
0.0
 40
19.970865
100
AcDbArc
 50
292.012755
 51
300.44776
  0
ARC
  5
5F9
100
AcDbEntity
  8
1
  6
HIDDEN
100
AcDbCircle
 10
-90.231842
 20
1434.917768
 30
0.0
 40
889.797714
100
AcDbArc
 50
292.088057
 51
292.282276
  0
ARC
  5
5FA
100
AcDbEntity
  8
1
  6
HIDDEN
100
AcDbCircle
 10
227.524083
 20
656.097772
 30
0.0
 40
48.676976
100
AcDbArc
 50
283.042092
 51
290.234675
  0
ARC
  5
5FB
100
AcDbEntity
  8
1
  6
HIDDEN
100
AcDbCircle
 10
231.633863
 20
634.547004
 30
0.0
 40
26.768482
100
AcDbArc
 50
278.018591
 51
284.882156
  0
ARC
  5
5FC
100
AcDbEntity
  8
1
  6
HIDDEN
100
AcDbCircle
 10
-215.276046
 20
3770.834023
 30
0.0
 40
3194.736999
100
AcDbArc
 50
278.051091
 51
278.109086
  0
ARC
  5
5FD
100
AcDbEntity
  8
1
  6
HIDDEN
100
AcDbCircle
 10
225.714383
 20
664.747108
 30
0.0
 40
57.524358
100
AcDbArc
 50
269.968846
 51
276.439829
  0
ARC
  5
5FE
100
AcDbEntity
  8
1
  6
HIDDEN
100
AcDbCircle
 10
225.6805
 20
665.259272
 30
0.0
 40
58.036513
100
AcDbArc
 50
263.588753
 51
270.002572
  0
ARC
  5
5FF
100
AcDbEntity
  8
1
  6
HIDDEN
100
AcDbCircle
 10
221.631538
 20
636.217109
 30
0.0
 40
28.734462
100
AcDbArc
 50
258.69423
 51
265.145592
  0
ARC
  5
600
100
AcDbEntity
  8
1
  6
HIDDEN
100
AcDbCircle
 10
515.223887
 20
2093.40095
 30
0.0
 40
1515.200446
100
AcDbArc
 50
258.489035
 51
258.610218
  0
ARC
  5
601
100
AcDbEntity
  8
1
  6
HIDDEN
100
AcDbCircle
 10
224.204842
 20
657.311502
 30
0.0
 40
49.941313
100
AcDbArc
 50
249.856485
 51
256.866748
  0
ARC
  5
602
100
AcDbEntity
  8
1
  6
HIDDEN
100
AcDbCircle
 10
214.5457
 20
632.906975
 30
0.0
 40
23.712493
100
AcDbArc
 50
244.168412
 51
251.461255
  0
ARC
  5
603
100
AcDbEntity
  8
1
  6
HIDDEN
100
AcDbCircle
 10
468.503029
 20
1151.278877
 30
0.0
 40
600.95028
100
AcDbArc
 50
243.629712
 51
243.909773
  0
ARC
  5
604
100
AcDbEntity
  8
1
  6
HIDDEN
100
AcDbCircle
 10
218.304108
 20
643.970762
 30
0.0
 40
35.319816
100
AcDbArc
 50
232.977106
 51
241.735314
  0
ARC
  5
605
100
AcDbEntity
  8
1
  6
HIDDEN
100
AcDbCircle
 10
206.358376
 20
629.027137
 30
0.0
 40
16.204946
100
AcDbArc
 50
225.50664
 51
234.88442
  0
ARC
  5
606
100
AcDbEntity
  8
1
  6
HIDDEN
100
AcDbCircle
 10
423.770608
 20
846.382419
 30
0.0
 40
323.631387
100
AcDbArc
 50
224.567344
 51
225.018239
  0
ARC
  5
607
100
AcDbEntity
  8
1
  6
HIDDEN
100
AcDbCircle
 10
209.758138
 20
634.191856
 30
0.0
 40
22.281089
100
AcDbArc
 50
210.104449
 51
222.027241
  0
ARC
  5
608
100
AcDbEntity
  8
1
  6
HIDDEN
100
AcDbCircle
 10
199.000277
 20
628.490354
 30
0.0
 40
10.125195
100
AcDbArc
 50
199.797103
 51
212.727992
  0
ARC
  5
609
100
AcDbEntity
  8
1
  6
HIDDEN
100
AcDbCircle
 10
583.353752
 20
762.664459
 30
0.0
 40
417.224579
100
AcDbArc
 50
198.954668
 51
199.257036
  0
ARC
  5
60A
100
AcDbEntity
  8
1
  6
HIDDEN
100
AcDbCircle
 10
204.239539
 20
631.381081
 30
0.0
 40
16.056524
100
AcDbArc
 50
180.191932
 51
195.309662
  0
ARC
  5
60B
100
AcDbEntity
  8
1
  6
HIDDEN
100
AcDbCircle
 10
204.233764
 20
631.274294
 30
0.0
 40
16.050746
100
AcDbArc
 50
164.687601
 51
179.810804
  0
ARC
  5
60C
100
AcDbEntity
  8
1
  6
HIDDEN
100
AcDbCircle
 10
196.974673
 20
633.830079
 30
0.0
 40
8.392329
100
AcDbArc
 50
153.356321
 51
168.431975
  0
ARC
  5
60D
100
AcDbEntity
  8
1
  6
HIDDEN
100
AcDbCircle
 10
449.149705
 20
510.736077
 30
0.0
 40
289.006135
100
AcDbArc
 50
153.511418
 51
153.963486
  0
ARC
  5
60E
100
AcDbEntity
  8
1
  6
HIDDEN
100
AcDbCircle
 10
209.159704
 20
628.898573
 30
0.0
 40
21.544906
100
AcDbArc
 50
137.768283
 51
150.100027
  0
ARC
  5
60F
100
AcDbEntity
  8
1
  6
HIDDEN
100
AcDbCircle
 10
203.109831
 20
635.342664
 30
0.0
 40
12.753618
100
AcDbArc
 50
129.476797
 51
140.937621
  0
ARC
  5
610
100
AcDbEntity
  8
1
  6
HIDDEN
100
AcDbCircle
 10
456.418916
 20
333.543078
 30
0.0
 40
406.768928
100
AcDbArc
 50
129.617881
 51
129.991059
  0
ARC
  5
611
100
AcDbEntity
  8
1
  6
HIDDEN
100
AcDbCircle
 10
217.59735
 20
619.787094
 30
0.0
 40
34.013558
100
AcDbArc
 50
118.096163
 51
127.191417
  0
ARC
  5
612
100
AcDbEntity
  8
1
  6
HIDDEN
100
AcDbCircle
 10
211.698857
 20
632.575726
 30
0.0
 40
19.970865
100
AcDbArc
 50
112.012755
 51
120.44776
  0
ARC
  5
613
100
AcDbEntity
  8
1
  6
HIDDEN
100
AcDbCircle
 10
541.598053
 20
-172.263178
 30
0.0
 40
889.797714
100
AcDbArc
 50
112.088057
 51
112.282276
  0
ARC
  5
614
100
AcDbEntity
  8
1
  6
HIDDEN
100
AcDbCircle
 10
223.842127
 20
606.556818
 30
0.0
 40
48.676976
100
AcDbArc
 50
103.042092
 51
110.234675
  0
ARC
  5
615
100
AcDbEntity
  8
1
  6
HIDDEN
100
AcDbCircle
 10
219.732347
 20
628.107585
 30
0.0
 40
26.768482
100
AcDbArc
 50
98.018591
 51
104.882156
  0
ARC
  5
616
100
AcDbEntity
  8
1
  6
HIDDEN
100
AcDbCircle
 10
666.642256
 20
-2508.179434
 30
0.0
 40
3194.736999
100
AcDbArc
 50
98.051091
 51
98.109086
  0
ARC
  5
617
100
AcDbEntity
  8
1
  6
HIDDEN
100
AcDbCircle
 10
225.651827
 20
597.907481
 30
0.0
 40
57.524358
100
AcDbArc
 50
89.968846
 51
96.439829
  0
ARC
  5
618
100
AcDbEntity
  8
1
  6
HIDDEN
100
AcDbCircle
 10
225.68571
 20
597.395317
 30
0.0
 40
58.036513
100
AcDbArc
 50
83.588753
 51
90.002572
  0
ARC
  5
619
100
AcDbEntity
  8
1
  6
HIDDEN
100
AcDbCircle
 10
229.734672
 20
626.437481
 30
0.0
 40
28.734462
100
AcDbArc
 50
78.69423
 51
85.145592
  0
ARC
  5
61A
100
AcDbEntity
  8
1
  6
HIDDEN
100
AcDbCircle
 10
-63.857677
 20
-830.746361
 30
0.0
 40
1515.200447
100
AcDbArc
 50
78.489035
 51
78.610218
  0
ARC
  5
61B
100
AcDbEntity
  8
1
  6
HIDDEN
100
AcDbCircle
 10
227.161368
 20
605.343087
 30
0.0
 40
49.941313
100
AcDbArc
 50
69.856485
 51
76.866748
  0
ARC
  5
61C
100
AcDbEntity
  8
1
  6
HIDDEN
100
AcDbCircle
 10
236.82051
 20
629.747614
 30
0.0
 40
23.712493
100
AcDbArc
 50
64.168412
 51
71.461255
  0
ARC
  5
61D
100
AcDbEntity
  8
1
  6
HIDDEN
100
AcDbCircle
 10
-17.136819
 20
111.375713
 30
0.0
 40
600.95028
100
AcDbArc
 50
63.629712
 51
63.909773
  0
ARC
  5
61E
100
AcDbEntity
  8
1
  6
HIDDEN
100
AcDbCircle
 10
233.062103
 20
618.683827
 30
0.0
 40
35.319816
100
AcDbArc
 50
52.977106
 51
61.735314
  0
ARC
  5
61F
100
AcDbEntity
  8
1
  6
HIDDEN
100
AcDbCircle
 10
245.007834
 20
633.627453
 30
0.0
 40
16.204946
100
AcDbArc
 50
45.50664
 51
54.88442
  0
ARC
  5
620
100
AcDbEntity
  8
1
  6
HIDDEN
100
AcDbCircle
 10
27.595602
 20
416.27217
 30
0.0
 40
323.631387
100
AcDbArc
 50
44.567344
 51
45.018239
  0
ARC
  5
621
100
AcDbEntity
  8
1
  6
HIDDEN
100
AcDbCircle
 10
241.608072
 20
628.462733
 30
0.0
 40
22.281089
100
AcDbArc
 50
30.104449
 51
42.027241
  0
ARC
  5
622
100
AcDbEntity
  8
1
  6
HIDDEN
100
AcDbCircle
 10
252.365933
 20
634.164235
 30
0.0
 40
10.125195
100
AcDbArc
 50
19.797103
 51
32.727992
  0
ARC
  5
623
100
AcDbEntity
  8
1
  6
HIDDEN
100
AcDbCircle
 10
-131.987542
 20
499.990131
 30
0.0
 40
417.224579
100
AcDbArc
 50
18.954668
 51
19.257036
  0
ARC
  5
624
100
AcDbEntity
  8
1
  6
HIDDEN
100
AcDbCircle
 10
247.126671
 20
631.273508
 30
0.0
 40
16.056524
100
AcDbArc
 50
0.191932
 51
15.309662
  0
LINE
  5
625
100
AcDbEntity
  8
1
  6
HIDDEN
100
AcDbLine
 10
263.183105
 20
631.327295
 30
0.0
 11
263.037086
 21
629.215933
 31
0.0
  0
LINE
  5
626
100
AcDbEntity
  8
1
  6
HIDDEN
100
AcDbLine
 10
263.037086
 20
629.215933
 30
0.0
 11
263.037086
 21
629.215933
 31
0.0
  0
ARC
  5
627
100
AcDbEntity
  8
1
  6
HIDDEN
100
AcDbCircle
 10
41.568685
 20
497.37931
 30
0.0
 40
279.248316
100
AcDbArc
 50
29.903615
 51
33.020162
  0
ARC
  5
628
100
AcDbEntity
  8
1
  6
HIDDEN
100
AcDbCircle
 10
100.540896
 20
531.223537
 30
0.0
 40
211.254579
100
AcDbArc
 50
25.762604
 51
29.920366
  0
ARC
  5
629
100
AcDbEntity
  8
1
  6
HIDDEN
100
AcDbCircle
 10
142.755011
 20
551.569386
 30
0.0
 40
164.393248
100
AcDbArc
 50
20.43451
 51
25.771164
  0
ARC
  5
62A
100
AcDbEntity
  8
1
  6
HIDDEN
100
AcDbCircle
 10
174.233054
 20
563.305827
 30
0.0
 40
130.798439
100
AcDbArc
 50
13.766414
 51
20.431113
  0
ARC
  5
62B
100
AcDbEntity
  8
1
  6
HIDDEN
100
AcDbCircle
 10
196.963014
 20
568.904482
 30
0.0
 40
107.389146
100
AcDbArc
 50
5.669551
 51
13.750988
  0
LINE
  5
62C
100
AcDbEntity
  8
1
  6
HIDDEN
100
AcDbLine
 10
303.826835
 20
579.513557
 30
0.0
 11
304.264122
 21
571.933155
 31
0.0
  0
ARC
  5
62D
100
AcDbEntity
  8
1
  6
HIDDEN
100
AcDbCircle
 10
409.797525
 20
497.37931
 30
0.0
 40
279.248316
100
AcDbArc
 50
146.979838
 51
150.096385
  0
ARC
  5
62E
100
AcDbEntity
  8
1
  6
HIDDEN
100
AcDbCircle
 10
350.825315
 20
531.223537
 30
0.0
 40
211.254579
100
AcDbArc
 50
150.079634
 51
154.237396
  0
ARC
  5
62F
100
AcDbEntity
  8
1
  6
HIDDEN
100
AcDbCircle
 10
308.611199
 20
551.569386
 30
0.0
 40
164.393248
100
AcDbArc
 50
154.228836
 51
159.56549
  0
ARC
  5
630
100
AcDbEntity
  8
1
  6
HIDDEN
100
AcDbCircle
 10
277.133156
 20
563.305827
 30
0.0
 40
130.798439
100
AcDbArc
 50
159.568887
 51
166.233586
  0
ARC
  5
631
100
AcDbEntity
  8
1
  6
HIDDEN
100
AcDbCircle
 10
254.403196
 20
568.904482
 30
0.0
 40
107.389146
100
AcDbArc
 50
166.249012
 51
174.330449
  0
LINE
  5
632
100
AcDbEntity
  8
1
  6
HIDDEN
100
AcDbLine
 10
147.539375
 20
579.513557
 30
0.0
 11
147.102088
 21
571.933155
 31
0.0
  0
ARC
  5
633
100
AcDbEntity
  8
1
  6
HIDDEN
100
AcDbCircle
 10
217.264865
 20
564.545734
 30
0.0
 40
25.581314
100
AcDbArc
 50
180.000973
 51
183.819839
  0
ARC
  5
634
100
AcDbEntity
  8
1
  6
HIDDEN
100
AcDbCircle
 10
216.801166
 20
564.513066
 30
0.0
 40
25.116469
100
AcDbArc
 50
183.815954
 51
191.547026
  0
ARC
  5
635
100
AcDbEntity
  8
1
  6
HIDDEN
100
AcDbCircle
 10
215.476813
 20
564.241799
 30
0.0
 40
23.76462
100
AcDbArc
 50
191.545389
 51
199.568404
  0
ARC
  5
636
100
AcDbEntity
  8
1
  6
HIDDEN
100
AcDbCircle
 10
213.569567
 20
563.562997
 30
0.0
 40
21.740179
100
AcDbArc
 50
199.566302
 51
208.083042
  0
ARC
  5
637
100
AcDbEntity
  8
1
  6
HIDDEN
100
AcDbCircle
 10
211.448475
 20
562.430174
 30
0.0
 40
19.335534
100
AcDbArc
 50
208.080238
 51
217.295036
  0
ARC
  5
638
100
AcDbEntity
  8
1
  6
HIDDEN
100
AcDbCircle
 10
209.491612
 20
560.938283
 30
0.0
 40
16.874833
100
AcDbArc
 50
217.291176
 51
227.3914
  0
ARC
  5
639
100
AcDbEntity
  8
1
  6
HIDDEN
100
AcDbCircle
 10
207.992124
 20
559.306062
 30
0.0
 40
14.658392
100
AcDbArc
 50
227.386027
 51
238.495806
  0
ARC
  5
63A
100
AcDbEntity
  8
1
  6
HIDDEN
100
AcDbCircle
 10
207.086764
 20
557.82575
 30
0.0
 40
12.92317
100
AcDbArc
 50
238.488527
 51
250.591243
  0
ARC
  5
63B
100
AcDbEntity
  8
1
  6
HIDDEN
100
AcDbCircle
 10
206.724276
 20
556.791319
 30
0.0
 40
11.827068
100
AcDbArc
 50
250.582241
 51
263.438977
  0
ARC
  5
63C
100
AcDbEntity
  8
1
  6
HIDDEN
100
AcDbCircle
 10
206.686718
 20
556.444328
 30
0.0
 40
11.478058
100
AcDbArc
 50
263.427317
 51
269.984192
  0
ARC
  5
63D
100
AcDbEntity
  8
1
  6
HIDDEN
100
AcDbCircle
 10
234.101792
 20
564.545734
 30
0.0
 40
25.581314
100
AcDbArc
 50
356.180161
 51
359.999027
  0
ARC
  5
63E
100
AcDbEntity
  8
1
  6
HIDDEN
100
AcDbCircle
 10
234.56549
 20
564.513066
 30
0.0
 40
25.116469
100
AcDbArc
 50
348.452974
 51
356.184046
  0
ARC
  5
63F
100
AcDbEntity
  8
1
  6
HIDDEN
100
AcDbCircle
 10
235.889843
 20
564.241799
 30
0.0
 40
23.76462
100
AcDbArc
 50
340.431596
 51
348.454611
  0
ARC
  5
640
100
AcDbEntity
  8
1
  6
HIDDEN
100
AcDbCircle
 10
237.797089
 20
563.562997
 30
0.0
 40
21.740179
100
AcDbArc
 50
331.916958
 51
340.433698
  0
ARC
  5
641
100
AcDbEntity
  8
1
  6
HIDDEN
100
AcDbCircle
 10
239.918181
 20
562.430174
 30
0.0
 40
19.335534
100
AcDbArc
 50
322.704964
 51
331.919762
  0
ARC
  5
642
100
AcDbEntity
  8
1
  6
HIDDEN
100
AcDbCircle
 10
241.875044
 20
560.938283
 30
0.0
 40
16.874833
100
AcDbArc
 50
312.6086
 51
322.708824
  0
ARC
  5
643
100
AcDbEntity
  8
1
  6
HIDDEN
100
AcDbCircle
 10
243.374533
 20
559.306062
 30
0.0
 40
14.658392
100
AcDbArc
 50
301.504194
 51
312.613973
  0
ARC
  5
644
100
AcDbEntity
  8
1
  6
HIDDEN
100
AcDbCircle
 10
244.279892
 20
557.82575
 30
0.0
 40
12.92317
100
AcDbArc
 50
289.408757
 51
301.511473
  0
ARC
  5
645
100
AcDbEntity
  8
1
  6
HIDDEN
100
AcDbCircle
 10
244.64238
 20
556.791319
 30
0.0
 40
11.827068
100
AcDbArc
 50
276.561023
 51
289.417759
  0
ARC
  5
646
100
AcDbEntity
  8
1
  6
HIDDEN
100
AcDbCircle
 10
244.679938
 20
556.444328
 30
0.0
 40
11.478058
100
AcDbArc
 50
270.015808
 51
276.572683
  0
ARC
  5
647
100
AcDbEntity
  8
1
  6
HIDDEN
100
AcDbCircle
 10
220.271254
 20
556.805082
 30
0.0
 40
9.354005
100
AcDbArc
 50
137.733024
 51
143.698251
  0
ARC
  5
648
100
AcDbEntity
  8
1
  6
HIDDEN
100
AcDbCircle
 10
218.727348
 20
557.937017
 30
0.0
 40
7.439607
100
AcDbArc
 50
143.684288
 51
157.078495
  0
ARC
  5
649
100
AcDbEntity
  8
1
  6
HIDDEN
100
AcDbCircle
 10
217.643663
 20
558.393368
 30
0.0
 40
6.263756
100
AcDbArc
 50
157.062529
 51
172.137759
  0
ARC
  5
64A
100
AcDbEntity
  8
1
  6
HIDDEN
100
AcDbCircle
 10
217.254535
 20
558.445104
 30
0.0
 40
5.871209
100
AcDbArc
 50
172.118438
 51
187.881562
  0
LINE
  5
64B
100
AcDbEntity
  8
1
  6
HIDDEN
100
AcDbLine
 10
211.438787
 20
557.64001
 30
0.0
 11
211.604705
 21
556.833151
 31
0.0
  0
ARC
  5
64C
100
AcDbEntity
  8
1
  6
HIDDEN
100
AcDbCircle
 10
218.051669
 20
558.629403
 30
0.0
 40
6.692523
100
AcDbArc
 50
195.568895
 51
210.071239
  0
ARC
  5
64D
100
AcDbEntity
  8
1
  6
HIDDEN
100
AcDbCircle
 10
219.269937
 20
559.287982
 30
0.0
 40
8.076915
100
AcDbArc
 50
209.783875
 51
222.588736
  0
ARC
  5
64E
100
AcDbEntity
  8
1
  6
HIDDEN
100
AcDbCircle
 10
220.854388
 20
560.643358
 30
0.0
 40
10.160933
100
AcDbArc
 50
222.169323
 51
233.140713
  0
ARC
  5
64F
100
AcDbEntity
  8
1
  6
HIDDEN
100
AcDbCircle
 10
222.499765
 20
562.68775
 30
0.0
 40
12.783975
100
AcDbArc
 50
232.736661
 51
242.126049
  0
ARC
  5
650
100
AcDbEntity
  8
1
  6
HIDDEN
100
AcDbCircle
 10
223.924067
 20
565.189546
 30
0.0
 40
15.661664
100
AcDbArc
 50
241.799018
 51
249.975076
  0
ARC
  5
651
100
AcDbEntity
  8
1
  6
HIDDEN
100
AcDbCircle
 10
224.938374
 20
567.747363
 30
0.0
 40
18.412334
100
AcDbArc
 50
249.735107
 51
257.052216
  0
ARC
  5
652
100
AcDbEntity
  8
1
  6
HIDDEN
100
AcDbCircle
 10
225.490333
 20
569.888957
 30
0.0
 40
20.623233
100
AcDbArc
 50
256.890876
 51
263.654134
  0
ARC
  5
653
100
AcDbEntity
  8
1
  6
HIDDEN
100
AcDbCircle
 10
225.671177
 20
571.190671
 30
0.0
 40
21.936989
100
AcDbArc
 50
263.560481
 51
270.031155
  0
ARC
  5
654
100
AcDbEntity
  8
1
  6
HIDDEN
100
AcDbCircle
 10
225.684099
 20
571.385999
 30
0.0
 40
22.132314
100
AcDbArc
 50
269.997428
 51
276.410936
  0
ARC
  5
655
100
AcDbEntity
  8
1
  6
HIDDEN
100
AcDbCircle
 10
225.782388
 20
570.434316
 30
0.0
 40
21.175609
100
AcDbArc
 50
276.434176
 51
283.020814
  0
ARC
  5
656
100
AcDbEntity
  8
1
  6
HIDDEN
100
AcDbCircle
 10
226.194023
 20
568.531357
 30
0.0
 40
19.228854
100
AcDbArc
 50
283.103336
 51
290.109341
  0
ARC
  5
657
100
AcDbEntity
  8
1
  6
HIDDEN
100
AcDbCircle
 10
227.053119
 20
566.058693
 30
0.0
 40
16.611617
100
AcDbArc
 50
290.259066
 51
297.96684
  0
ARC
  5
658
100
AcDbEntity
  8
1
  6
HIDDEN
100
AcDbCircle
 10
228.356664
 20
563.485835
 30
0.0
 40
13.72802
100
AcDbArc
 50
298.197446
 51
306.939844
  0
ARC
  5
659
100
AcDbEntity
  8
1
  6
HIDDEN
100
AcDbCircle
 10
229.957905
 20
561.251146
 30
0.0
 40
10.979781
100
AcDbArc
 50
307.269515
 51
317.420449
  0
ARC
  5
65A
100
AcDbEntity
  8
1
  6
HIDDEN
100
AcDbCircle
 10
231.597763
 20
559.652654
 30
0.0
 40
8.690991
100
AcDbArc
 50
317.865333
 51
329.762056
  0
ARC
  5
65B
100
AcDbEntity
  8
1
  6
HIDDEN
100
AcDbCircle
 10
232.968199
 20
558.775135
 30
0.0
 40
7.06543
100
AcDbArc
 50
330.313367
 51
344.046499
  0
ARC
  5
65C
100
AcDbEntity
  8
1
  6
HIDDEN
100
AcDbCircle
 10
233.797327
 20
558.474275
 30
0.0
 40
6.185847
100
AcDbArc
 50
344.615044
 51
359.729807
  0
ARC
  5
65D
100
AcDbEntity
  8
1
  6
HIDDEN
100
AcDbCircle
 10
233.921389
 20
558.432988
 30
0.0
 40
6.061728
100
AcDbArc
 50
0.114518
 51
15.540631
  0
ARC
  5
65E
100
AcDbEntity
  8
1
  6
HIDDEN
100
AcDbCircle
 10
233.314541
 20
558.260804
 30
0.0
 40
6.692523
100
AcDbArc
 50
15.568895
 51
30.071239
  0
ARC
  5
65F
100
AcDbEntity
  8
1
  6
HIDDEN
100
AcDbCircle
 10
229.519927
 20
555.798264
 30
0.0
 40
11.212667
100
AcDbArc
 50
31.24506
 51
38.177034
  0
LINE
  5
660
100
AcDbEntity
  8
1
  6
HIDDEN
100
AcDbLine
 10
238.334257
 20
562.728739
 30
0.0
 11
238.016329
 21
563.097299
 31
0.0
  0
ARC
  5
661
100
AcDbEntity
  8
1
  6
HIDDEN
100
AcDbCircle
 10
256.613176
 20
464.02308
 30
0.0
 40
43.368181
100
AcDbArc
 50
56.231605
 51
68.250672
  0
ARC
  5
662
100
AcDbEntity
  8
1
  6
HIDDEN
100
AcDbCircle
 10
254.180586
 20
460.444739
 30
0.0
 40
47.694959
100
AcDbArc
 50
39.767659
 51
50.731465
  0
ARC
  5
663
100
AcDbEntity
  8
1
  6
HIDDEN
100
AcDbCircle
 10
247.120739
 20
454.293852
 30
0.0
 40
57.091501
100
AcDbArc
 50
26.133283
 51
35.387349
  0
ARC
  5
664
100
AcDbEntity
  8
1
  6
HIDDEN
100
AcDbCircle
 10
245.563393
 20
453.505298
 30
0.0
 40
58.836973
100
AcDbArc
 50
12.702556
 51
21.660658
  0
ARC
  5
665
100
AcDbEntity
  8
1
  6
HIDDEN
100
AcDbCircle
 10
251.340327
 20
454.570201
 30
0.0
 40
52.949542
100
AcDbArc
 50
358.213131
 51
367.99518
  0
ARC
  5
666
100
AcDbEntity
  8
1
  6
HIDDEN
100
AcDbCircle
 10
210.833046
 20
466.786274
 30
0.0
 40
22.653924
100
AcDbArc
 50
160.581928
 51
173.436596
  0
ARC
  5
667
100
AcDbEntity
  8
1
  6
HIDDEN
100
AcDbCircle
 10
212.818347
 20
466.088664
 30
0.0
 40
24.758223
100
AcDbArc
 50
154.43746
 51
160.586793
  0
ARC
  5
668
100
AcDbEntity
  8
1
  6
HIDDEN
100
AcDbCircle
 10
215.654937
 20
464.350989
 30
0.0
 40
28.084746
100
AcDbArc
 50
137.385297
 51
140.728614
  0
ARC
  5
669
100
AcDbEntity
  8
1
  6
HIDDEN
100
AcDbCircle
 10
218.78048
 20
461.476297
 30
0.0
 40
32.33126
100
AcDbArc
 50
127.290034
 51
137.386434
  0
ARC
  5
66A
100
AcDbEntity
  8
1
  6
HIDDEN
100
AcDbCircle
 10
221.636356
 20
457.726838
 30
0.0
 40
37.044482
100
AcDbArc
 50
120.38493
 51
127.290753
  0
ARC
  5
66B
100
AcDbEntity
  8
1
  6
HIDDEN
100
AcDbCircle
 10
223.804388
 20
453.663953
 30
0.0
 40
41.649631
100
AcDbArc
 50
109.565175
 51
112.819007
  0
ARC
  5
66C
100
AcDbEntity
  8
1
  6
HIDDEN
100
AcDbCircle
 10
225.103101
 20
450.011607
 30
0.0
 40
45.526007
100
AcDbArc
 50
101.544659
 51
109.565971
  0
ARC
  5
66D
100
AcDbEntity
  8
1
  6
HIDDEN
100
AcDbCircle
 10
225.621719
 20
447.476569
 30
0.0
 40
48.113551
100
AcDbArc
 50
93.815765
 51
95.147961
  0
ARC
  5
66E
100
AcDbEntity
  8
1
  6
HIDDEN
100
AcDbCircle
 10
225.683105
 20
446.570364
 30
0.0
 40
49.021832
100
AcDbArc
 50
86.183133
 51
93.816867
  0
ARC
  5
66F
100
AcDbEntity
  8
1
  6
HIDDEN
100
AcDbCircle
 10
225.744859
 20
447.479294
 30
0.0
 40
48.110807
100
AcDbArc
 50
78.454185
 51
79.516078
  0
ARC
  5
670
100
AcDbEntity
  8
1
  6
HIDDEN
100
AcDbCircle
 10
226.264576
 20
450.016875
 30
0.0
 40
45.520552
100
AcDbArc
 50
70.433548
 51
78.455822
  0
ARC
  5
671
100
AcDbEntity
  8
1
  6
HIDDEN
100
AcDbCircle
 10
227.565081
 20
453.671336
 30
0.0
 40
41.641584
100
AcDbArc
 50
67.181536
 51
70.435649
  0
ARC
  5
672
100
AcDbEntity
  8
1
  6
HIDDEN
100
AcDbCircle
 10
229.735442
 20
457.735547
 30
0.0
 40
37.034169
100
AcDbArc
 50
52.707962
 51
59.616041
  0
ARC
  5
673
100
AcDbEntity
  8
1
  6
HIDDEN
100
AcDbCircle
 10
232.593739
 20
461.485086
 30
0.0
 40
32.319415
100
AcDbArc
 50
42.611711
 51
52.711821
  0
ARC
  5
674
100
AcDbEntity
  8
1
  6
HIDDEN
100
AcDbCircle
 10
235.720898
 20
464.358259
 30
0.0
 40
28.072741
100
AcDbArc
 50
39.272541
 51
42.617085
  0
ARC
  5
675
100
AcDbEntity
  8
1
  6
HIDDEN
100
AcDbCircle
 10
238.557024
 20
466.093027
 30
0.0
 40
24.748133
100
AcDbArc
 50
19.410731
 51
25.562679
  0
ARC
  5
676
100
AcDbEntity
  8
1
  6
HIDDEN
100
AcDbCircle
 10
240.538893
 20
466.787596
 30
0.0
 40
22.648082
100
AcDbArc
 50
6.561739
 51
19.419737
  0
ARC
  5
677
100
AcDbEntity
  8
1
  6
HIDDEN
100
AcDbCircle
 10
241.248776
 20
466.86563
 30
0.0
 40
21.933932
100
AcDbArc
 50
353.428862
 51
366.571138
  0
ARC
  5
678
100
AcDbEntity
  8
1
  6
HIDDEN
100
AcDbCircle
 10
240.533164
 20
466.944986
 30
0.0
 40
22.653924
100
AcDbArc
 50
352.495684
 51
353.436596
  0
ARC
  5
679
100
AcDbEntity
  8
1
  6
HIDDEN
100
AcDbCircle
 10
238.547863
 20
467.642595
 30
0.0
 40
24.758223
100
AcDbArc
 50
328.488206
 51
336.169985
  0
ARC
  5
67A
100
AcDbEntity
  8
1
  6
HIDDEN
100
AcDbCircle
 10
235.711273
 20
469.38027
 30
0.0
 40
28.084746
100
AcDbArc
 50
317.385297
 51
328.490629
  0
ARC
  5
67B
100
AcDbEntity
  8
1
  6
HIDDEN
100
AcDbCircle
 10
232.462865
 20
472.369375
 30
0.0
 40
32.499144
100
AcDbArc
 50
315.229258
 51
317.384646
  0
ARC
  5
67C
100
AcDbEntity
  8
1
  6
HIDDEN
100
AcDbCircle
 10
221.825709
 20
456.242987
 30
0.0
 40
5.843265
100
AcDbArc
 50
160.565051
 51
169.710255
  0
ARC
  5
67D
100
AcDbEntity
  8
1
  6
HIDDEN
100
AcDbCircle
 10
222.355421
 20
456.058659
 30
0.0
 40
6.404127
100
AcDbArc
 50
148.488206
 51
160.586793
  0
ARC
  5
67E
100
AcDbEntity
  8
1
  6
HIDDEN
100
AcDbCircle
 10
223.897626
 20
454.865593
 30
0.0
 40
8.363019
100
AcDbArc
 50
127.290034
 51
137.386434
  0
ARC
  5
67F
100
AcDbEntity
  8
1
  6
HIDDEN
100
AcDbCircle
 10
224.636346
 20
453.895733
 30
0.0
 40
9.582173
100
AcDbArc
 50
118.07895
 51
127.290753
  0
ARC
  5
680
100
AcDbEntity
  8
1
  6
HIDDEN
100
AcDbCircle
 10
225.197144
 20
452.844801
 30
0.0
 40
10.773371
100
AcDbArc
 50
109.565175
 51
118.079644
  0
ARC
  5
681
100
AcDbEntity
  8
1
  6
HIDDEN
100
AcDbCircle
 10
225.667227
 20
451.24433
 30
0.0
 40
12.445372
100
AcDbArc
 50
93.815765
 51
101.545594
  0
ARC
  5
682
100
AcDbEntity
  8
1
  6
HIDDEN
100
AcDbCircle
 10
225.683105
 20
451.009925
 30
0.0
 40
12.680314
100
AcDbArc
 50
86.183133
 51
93.816867
  0
ARC
  5
683
100
AcDbEntity
  8
1
  6
HIDDEN
100
AcDbCircle
 10
225.699079
 20
451.245035
 30
0.0
 40
12.444662
100
AcDbArc
 50
78.454185
 51
86.184456
  0
ARC
  5
684
100
AcDbEntity
  8
1
  6
HIDDEN
100
AcDbCircle
 10
226.16991
 20
452.84671
 30
0.0
 40
10.77129
100
AcDbArc
 50
61.919532
 51
70.435649
  0
ARC
  5
685
100
AcDbEntity
  8
1
  6
HIDDEN
100
AcDbCircle
 10
226.731309
 20
453.897986
 30
0.0
 40
9.579505
100
AcDbArc
 50
52.707962
 51
61.922336
  0
ARC
  5
686
100
AcDbEntity
  8
1
  6
HIDDEN
100
AcDbCircle
 10
227.470656
 20
454.867867
 30
0.0
 40
8.359955
100
AcDbArc
 50
42.611711
 51
52.711821
  0
ARC
  5
687
100
AcDbEntity
  8
1
  6
HIDDEN
100
AcDbCircle
 10
229.013159
 20
456.059788
 30
0.0
 40
6.401517
100
AcDbArc
 50
19.410731
 51
31.514269
  0
ARC
  5
688
100
AcDbEntity
  8
1
  6
HIDDEN
100
AcDbCircle
 10
229.526829
 20
456.239358
 30
0.0
 40
5.857366
100
AcDbArc
 50
10.300777
 51
19.423918
  0
ARC
  5
689
100
AcDbEntity
  8
1
  6
HIDDEN
100
AcDbCircle
 10
218.870856
 20
472.338335
 30
0.0
 40
32.454218
100
AcDbArc
 50
222.613862
 51
224.771604
  0
ARC
  5
68A
100
AcDbEntity
  8
1
  6
HIDDEN
100
AcDbCircle
 10
215.641474
 20
469.371471
 30
0.0
 40
28.068881
100
AcDbArc
 50
215.215974
 51
222.620093
  0
ARC
  5
68B
100
AcDbEntity
  8
1
  6
HIDDEN
100
AcDbCircle
 10
214.805613
 20
468.794587
 30
0.0
 40
27.053332
100
AcDbArc
 50
207.69937
 51
215.23864
  0
ARC
  5
68C
100
AcDbEntity
  8
1
  6
HIDDEN
100
AcDbCircle
 10
212.7702
 20
467.619472
 30
0.0
 40
24.705128
100
AcDbArc
 50
203.825771
 51
207.480625
  0
ARC
  5
68D
100
AcDbEntity
  8
1
  6
HIDDEN
100
AcDbCircle
 10
210.759342
 20
466.924322
 30
0.0
 40
22.577943
100
AcDbArc
 50
182.272778
 51
187.476589
  0
ARC
  5
68E
100
AcDbEntity
  8
1
  6
HIDDEN
100
AcDbCircle
 10
210.059819
 20
466.865834
 30
0.0
 40
21.876672
100
AcDbArc
 50
173.412126
 51
182.192372
  0
ARC
  5
68F
100
AcDbEntity
  8
1
  6
HIDDEN
100
AcDbCircle
 10
231.345381
 20
437.770393
 30
0.0
 40
8.639242
100
AcDbArc
 50
6.563174
 51
19.417439
  0
ARC
  5
690
100
AcDbEntity
  8
1
  6
HIDDEN
100
AcDbCircle
 10
230.588394
 20
437.504407
 30
0.0
 40
9.4416
100
AcDbArc
 50
26.425459
 51
31.510899
  0
ARC
  5
691
100
AcDbEntity
  8
1
  6
HIDDEN
100
AcDbCircle
 10
229.506813
 20
436.841862
 30
0.0
 40
10.709978
100
AcDbArc
 50
31.508475
 51
42.613707
  0
ARC
  5
692
100
AcDbEntity
  8
1
  6
HIDDEN
100
AcDbCircle
 10
228.315054
 20
435.745789
 30
0.0
 40
12.329133
100
AcDbArc
 50
42.612569
 51
51.854053
  0
ARC
  5
693
100
AcDbEntity
  8
1
  6
HIDDEN
100
AcDbCircle
 10
227.226118
 20
434.316183
 30
0.0
 40
14.12623
100
AcDbArc
 50
61.459429
 51
61.920226
  0
ARC
  5
694
100
AcDbEntity
  8
1
  6
HIDDEN
100
AcDbCircle
 10
226.399454
 20
432.767071
 30
0.0
 40
15.882112
100
AcDbArc
 50
61.919532
 51
70.4342
  0
ARC
  5
695
100
AcDbEntity
  8
1
  6
HIDDEN
100
AcDbCircle
 10
225.904259
 20
431.374491
 30
0.0
 40
17.360116
100
AcDbArc
 50
70.433404
 51
76.875807
  0
ARC
  5
696
100
AcDbEntity
  8
1
  6
HIDDEN
100
AcDbCircle
 10
225.706511
 20
430.407922
 30
0.0
 40
18.346706
100
AcDbArc
 50
83.564234
 51
86.184104
  0
ARC
  5
697
100
AcDbEntity
  8
1
  6
HIDDEN
100
AcDbCircle
 10
225.683105
 20
430.062401
 30
0.0
 40
18.693019
100
AcDbArc
 50
86.183001
 51
93.816999
  0
ARC
  5
698
100
AcDbEntity
  8
1
  6
HIDDEN
100
AcDbCircle
 10
225.659559
 20
430.408961
 30
0.0
 40
18.34566
100
AcDbArc
 50
93.815675
 51
96.435695
  0
ARC
  5
699
100
AcDbEntity
  8
1
  6
HIDDEN
100
AcDbCircle
 10
225.461392
 20
431.3765
 30
0.0
 40
17.358036
100
AcDbArc
 50
103.123903
 51
109.567077
  0
ARC
  5
69A
100
AcDbEntity
  8
1
  6
HIDDEN
100
AcDbCircle
 10
224.965513
 20
432.769886
 30
0.0
 40
15.879043
100
AcDbArc
 50
109.564976
 51
118.081292
  0
ARC
  5
69B
100
AcDbEntity
  8
1
  6
HIDDEN
100
AcDbCircle
 10
224.137961
 20
434.319503
 30
0.0
 40
14.122297
100
AcDbArc
 50
118.078488
 51
118.539416
  0
ARC
  5
69C
100
AcDbEntity
  8
1
  6
HIDDEN
100
AcDbCircle
 10
223.048102
 20
435.749141
 30
0.0
 40
12.324617
100
AcDbArc
 50
128.144411
 51
137.389285
  0
ARC
  5
69D
100
AcDbEntity
  8
1
  6
HIDDEN
100
AcDbCircle
 10
221.855727
 20
436.844633
 30
0.0
 40
10.705401
100
AcDbArc
 50
137.383912
 51
148.493907
  0
ARC
  5
69E
100
AcDbEntity
  8
1
  6
HIDDEN
100
AcDbCircle
 10
220.774323
 20
437.50607
 30
0.0
 40
9.437753
100
AcDbArc
 50
148.486626
 51
153.57416
  0
ARC
  5
69F
100
AcDbEntity
  8
1
  6
HIDDEN
100
AcDbCircle
 10
220.018645
 20
437.770897
 30
0.0
 40
8.637015
100
AcDbArc
 50
169.533847
 51
173.43849
  0
ARC
  5
6A0
100
AcDbEntity
  8
1
  6
HIDDEN
100
AcDbCircle
 10
219.747969
 20
437.80065
 30
0.0
 40
8.364713
100
AcDbArc
 50
173.429093
 51
186.570907
  0
ARC
  5
6A1
100
AcDbEntity
  8
1
  6
HIDDEN
100
AcDbCircle
 10
220.020829
 20
437.830907
 30
0.0
 40
8.639242
100
AcDbArc
 50
186.563174
 51
199.417439
  0
ARC
  5
6A2
100
AcDbEntity
  8
1
  6
HIDDEN
100
AcDbCircle
 10
220.777816
 20
438.096893
 30
0.0
 40
9.4416
100
AcDbArc
 50
199.412574
 51
202.765276
  0
ARC
  5
6A3
100
AcDbEntity
  8
1
  6
HIDDEN
100
AcDbCircle
 10
221.859397
 20
438.759438
 30
0.0
 40
10.709978
100
AcDbArc
 50
216.870975
 51
222.613707
  0
ARC
  5
6A4
100
AcDbEntity
  8
1
  6
HIDDEN
100
AcDbCircle
 10
223.051156
 20
439.85551
 30
0.0
 40
12.329133
100
AcDbArc
 50
222.612569
 51
232.709006
  0
ARC
  5
6A5
100
AcDbEntity
  8
1
  6
HIDDEN
100
AcDbCircle
 10
224.140092
 20
441.285117
 30
0.0
 40
14.12623
100
AcDbArc
 50
232.708287
 51
238.124133
  0
ARC
  5
6A6
100
AcDbEntity
  8
1
  6
HIDDEN
100
AcDbCircle
 10
230.790667
 20
438.01063
 30
0.0
 40
9.221803
100
AcDbArc
 50
337.242767
 51
344.692197
  0
ARC
  5
6A7
100
AcDbEntity
  8
1
  6
HIDDEN
100
AcDbCircle
 10
231.36617
 20
437.826102
 30
0.0
 40
8.618041
100
AcDbArc
 50
344.865359
 51
353.452762
  0
ARC
  5
6A8
100
AcDbEntity
  8
1
  6
HIDDEN
100
AcDbCircle
 10
231.615717
 20
437.801512
 30
0.0
 40
8.367319
100
AcDbArc
 50
353.425207
 51
362.179447
  0
LINE
  5
6A9
100
AcDbEntity
  8
1
  6
HIDDEN
100
AcDbLine
 10
239.976983
 20
438.119716
 30
0.0
 11
239.928006
 21
438.757847
 31
0.0
  0
CIRCLE
  5
6AA
100
AcDbEntity
  8
0
100
AcDbCircle
 10
225.683105
 20
235.063055
 30
0.0
 40
134.0
  0
ARC
  5
6AB
100
AcDbEntity
  8
0
100
AcDbCircle
 10
532.018738
 20
235.063055
 30
0.0
 40
2.5
100
AcDbArc
 50
270.0
 51
450.0
  0
ARC
  5
6AC
100
AcDbEntity
  8
0
100
AcDbCircle
 10
618.140613
 20
235.063055
 30
0.0
 40
2.5
100
AcDbArc
 50
270.0
 51
450.0
  0
ARC
  5
6AD
100
AcDbEntity
  8
0
100
AcDbCircle
 10
615.362488
 20
235.063055
 30
0.0
 40
2.5
100
AcDbArc
 50
90.0
 51
270.0
  0
LINE
  5
6AE
100
AcDbEntity
  8
0
100
AcDbLine
 10
618.140613
 20
232.563055
 30
0.0
 11
615.362488
 21
232.563055
 31
0.0
  0
LINE
  5
6AF
100
AcDbEntity
  8
0
100
AcDbLine
 10
618.140613
 20
237.563055
 30
0.0
 11
615.362488
 21
237.563055
 31
0.0
  0
DIMENSION
  5
6B0
100
AcDbEntity
  8
SCALE
100
AcDbDimension
  2
*D3
 10
427.446566
 20
403.980578
 30
0.0
 11
416.446566
 21
459.480578
 31
0.0
 12
0.0
 22
-44.62634
 32
0.0
  1
111
  3
STANDARD
100
AcDbAlignedDimension
 13
225.683105
 23
514.980578
 33
0.0
 14
353.546529
 24
403.980578
 34
0.0
 50
90.0
100
AcDbRotatedDimension
  0
DIMENSION
  5
6B1
100
AcDbEntity
  8
SCALE
100
AcDbDimension
  2
*D7
 10
678.702551
 20
286.052036
 30
0.0
 11
659.469247
 21
320.841689
 31
0.0
 70
   129
  1
76.4(3")
  3
STANDARD
100
AcDbAlignedDimension
 13
576.872593
 23
292.267994
 33
0.0
 14
630.895552
 24
238.245036
 34
0.0
  0
DIMENSION
  5
6B2
100
AcDbEntity
  8
SCALE
100
AcDbDimension
  2
*D4
 10
784.625381
 20
121.405141
 30
0.0
 11
811.337286
 21
132.405141
 31
0.0
 12
0.0
 22
-24.39958
 32
0.0
  1
5.6
  3
STANDARD
100
AcDbAlignedDimension
 13
779.029091
 23
144.563055
 33
0.0
 14
784.625381
 24
156.063055
 34
0.0
100
AcDbRotatedDimension
  0
DIMENSION
  5
6B3
100
AcDbEntity
  8
SCALE
100
AcDbDimension
  2
*D5
 10
780.629091
 20
340.542357
 30
0.0
 11
806.293377
 21
351.542357
 31
0.0
 12
0.0
 22
-24.39958
 32
0.0
  1
1.6
  3
STANDARD
100
AcDbAlignedDimension
 13
779.029091
 23
325.563055
 33
0.0
 14
780.629091
 24
325.563055
 34
0.0
100
AcDbRotatedDimension
  0
TEXT
  5
6B4
100
AcDbEntity
  8
SCALE
100
AcDbText
 10
416.647414
 20
193.091287
 30
0.0
 40
11.0
  1
2-5x7.8
  7
UT7
 72
     2
 11
482.647414
 21
193.091287
 31
0.0
100
AcDbText
  0
TEXT
  5
6B5
100
AcDbEntity
  8
SCALE
100
AcDbText
 10
450.086358
 20
287.476986
 30
0.0
 40
11.0
  1
%%C21.6
  7
UT7
 72
     2
 11
490.943501
 21
287.476986
 31
0.0
100
AcDbText
  0
TEXT
  5
6B6
100
AcDbEntity
  8
SCALE
100
AcDbText
 10
439.783693
 20
307.513804
 30
0.0
 40
11.0
  1
2-5x6.6
  7
UT7
 72
     2
 11
505.783693
 21
307.513804
 31
0.0
100
AcDbText
  0
LINE
  5
6B7
100
AcDbEntity
  8
SCALE
100
AcDbLine
 10
484.567444
 20
189.608256
 30
0.0
 11
410.646308
 21
189.608256
 31
0.0
  0
LINE
  5
6B8
100
AcDbEntity
  8
SCALE
100
AcDbLine
 10
492.86353
 20
283.993955
 30
0.0
 11
448.908569
 21
283.993955
 31
0.0
  0
LINE
  5
6B9
100
AcDbEntity
  8
SCALE
100
AcDbLine
 10
507.703723
 20
304.030772
 30
0.0
 11
433.782587
 21
304.030772
 31
0.0
  0
LINE
  5
6BA
100
AcDbEntity
  8
SCALE
100
AcDbLine
 10
473.943894
 20
219.221365
 30
0.0
 11
429.988933
 21
219.221365
 31
0.0
  0
TEXT
  5
6BB
100
AcDbEntity
  8
SCALE
100
AcDbText
 10
430.642913
 20
222.704396
 30
0.0
 40
11.0
  1
4-%%C5
  7
UT7
 72
     2
 11
472.023865
 21
222.704396
 31
0.0
100
AcDbText
  0
DIMENSION
  5
6BC
100
AcDbEntity
  8
SCALE
100
AcDbDimension
  2
*D6
 10
359.672692
 20
380.030698
 30
0.0
 11
225.683105
 21
391.030698
 31
0.0
  1
%%C268
  3
STANDARD
100
AcDbAlignedDimension
 13
91.693518
 23
426.96017
 33
0.0
 14
359.672692
 24
426.96017
 34
0.0
100
AcDbRotatedDimension
  0
TEXT
  5
6BD
100
AcDbEntity
  8
1
100
AcDbText
 10
476.309661
 20
380.995265
 30
0.0
 40
12.5
  1
Ceiling mounting example
 41
0.8
  7
UT7
 72
     4
 11
573.690613
 21
385.161932
 31
0.0
100
AcDbText
  0
LINE
  5
6BE
100
AcDbEntity
  8
1
100
AcDbLine
 10
475.690613
 20
372.530698
 30
0.0
 11
671.690613
 21
372.530698
 31
0.0
  0
LINE
  5
6BF
100
AcDbEntity
  8
1
100
AcDbLine
 10
705.964736
 20
372.530698
 30
0.0
 11
885.964736
 21
372.530698
 31
0.0
  0
TEXT
  5
6C0
100
AcDbEntity
  8
1
100
AcDbText
 10
708.583784
 20
380.995265
 30
0.0
 40
12.5
  1
Wall mounting example
 41
0.8
  7
UT7
 72
     4
 11
795.964736
 21
385.161932
 31
0.0
100
AcDbText
  0
LINE
  5
6C1
100
AcDbEntity
  8
1
100
AcDbLine
 10
526.690613
 20
51.839602
 30
0.0
 11
620.690613
 21
51.839602
 31
0.0
  0
TEXT
  5
6C2
100
AcDbEntity
  8
1
100
AcDbText
 10
529.404899
 20
58.220836
 30
0.0
 40
12.5
  1
Base Frame
 41
0.8
  7
UT7
 72
     4
 11
573.690613
 21
64.470836
 31
0.0
100
AcDbText
  0
POINT
  5
6F1
100
AcDbEntity
  8
1
  6
HIDDEN
 62
     1
100
AcDbPoint
 10
810.364736
 20
509.700497
 30
0.0
  0
LINE
  5
6F2
100
AcDbEntity
  8
0
100
AcDbLine
 10
799.872156
 20
589.844943
 30
0.0
 11
799.872156
 21
589.616943
 31
0.0
  0
LINE
  5
6F3
100
AcDbEntity
  8
0
100
AcDbLine
 10
799.872156
 20
589.616943
 30
0.0
 11
801.354029
 21
589.612452
 31
0.0
  0
LINE
  5
6F4
100
AcDbEntity
  8
0
100
AcDbLine
 10
801.354029
 20
589.612452
 30
0.0
 11
801.354029
 21
589.388943
 31
0.0
  0
LINE
  5
6F5
100
AcDbEntity
  8
0
100
AcDbLine
 10
801.354029
 20
589.388943
 30
0.0
 11
802.822429
 21
589.306182
 31
0.0
  0
LINE
  5
6F6
100
AcDbEntity
  8
0
100
AcDbLine
 10
802.822429
 20
589.306182
 30
0.0
 11
802.822429
 21
589.078182
 31
0.0
  0
LINE
  5
6F7
100
AcDbEntity
  8
0
100
AcDbLine
 10
802.822429
 20
589.078182
 30
0.0
 11
804.273684
 21
588.926897
 31
0.0
  0
LINE
  5
6F8
100
AcDbEntity
  8
0
100
AcDbLine
 10
804.273684
 20
588.926897
 30
0.0
 11
804.273684
 21
588.698897
 31
0.0
  0
LINE
  5
6F9
100
AcDbEntity
  8
0
100
AcDbLine
 10
804.273684
 20
588.698897
 30
0.0
 11
805.704168
 21
588.475547
 31
0.0
  0
LINE
  5
6FA
100
AcDbEntity
  8
0
100
AcDbLine
 10
805.704168
 20
588.475547
 30
0.0
 11
805.704168
 21
588.247547
 31
0.0
  0
LINE
  5
6FB
100
AcDbEntity
  8
0
100
AcDbLine
 10
805.704168
 20
588.247547
 30
0.0
 11
807.110303
 21
587.953259
 31
0.0
  0
LINE
  5
6FC
100
AcDbEntity
  8
0
100
AcDbLine
 10
807.110303
 20
587.953259
 30
0.0
 11
807.110303
 21
587.725259
 31
0.0
  0
LINE
  5
6FD
100
AcDbEntity
  8
0
100
AcDbLine
 10
807.110303
 20
587.725259
 30
0.0
 11
808.488573
 21
587.361339
 31
0.0
  0
LINE
  5
6FE
100
AcDbEntity
  8
0
100
AcDbLine
 10
808.488573
 20
587.361339
 30
0.0
 11
808.488573
 21
587.133339
 31
0.0
  0
LINE
  5
6FF
100
AcDbEntity
  8
0
100
AcDbLine
 10
808.488573
 20
587.133339
 30
0.0
 11
809.835535
 21
586.701266
 31
0.0
  0
LINE
  5
700
100
AcDbEntity
  8
0
100
AcDbLine
 10
810.364736
 20
585.422413
 30
0.0
 11
810.364736
 21
584.522413
 31
0.0
  0
LINE
  5
701
100
AcDbEntity
  8
0
100
AcDbLine
 10
795.964736
 20
589.494374
 30
0.0
 11
795.964736
 21
429.90662
 31
0.0
  0
LINE
  5
702
100
AcDbEntity
  8
0
100
AcDbLine
 10
810.364736
 20
584.522413
 30
0.0
 11
810.364736
 21
430.882442
 31
0.0
  0
LINE
  5
703
100
AcDbEntity
  8
0
100
AcDbLine
 10
810.364736
 20
586.418551
 30
0.0
 11
810.364736
 21
585.422413
 31
0.0
  0
LINE
  5
704
100
AcDbEntity
  8
0
100
AcDbLine
 10
810.364736
 20
430.882442
 30
0.0
 11
804.364736
 21
430.500497
 31
0.0
  0
LINE
  5
705
100
AcDbEntity
  8
0
100
AcDbLine
 10
809.835535
 20
475.97144
 30
0.0
 11
809.835535
 21
466.618366
 31
0.0
  0
LINE
  5
706
100
AcDbEntity
  8
0
100
AcDbLine
 10
808.488573
 20
466.328663
 30
0.0
 11
808.488573
 21
475.596022
 31
0.0
  0
LINE
  5
707
100
AcDbEntity
  8
0
100
AcDbLine
 10
807.110303
 20
475.158754
 30
0.0
 11
807.110303
 21
466.162059
 31
0.0
  0
LINE
  5
708
100
AcDbEntity
  8
0
100
AcDbLine
 10
805.704168
 20
466.134117
 30
0.0
 11
805.704168
 21
474.645238
 31
0.0
  0
LINE
  5
709
100
AcDbEntity
  8
0
100
AcDbLine
 10
804.273684
 20
474.030635
 30
0.0
 11
804.273684
 21
466.270734
 31
0.0
  0
LINE
  5
70A
100
AcDbEntity
  8
0
100
AcDbLine
 10
802.822429
 20
466.621988
 30
0.0
 11
802.822429
 21
473.265787
 31
0.0
  0
LINE
  5
70B
100
AcDbEntity
  8
0
100
AcDbLine
 10
801.354029
 20
472.22421
 30
0.0
 11
801.354029
 21
467.315105
 31
0.0
  0
ARC
  5
70C
100
AcDbEntity
  8
0
100
AcDbCircle
 10
795.964736
 20
463.500497
 30
0.0
 40
33.0
100
AcDbArc
 50
225.134018
 51
270.0
  0
ARC
  5
70D
100
AcDbEntity
  8
0
100
AcDbCircle
 10
841.949111
 20
509.700497
 30
0.0
 40
98.184375
100
AcDbArc
 50
180.0
 51
225.134018
  0
ARC
  5
70E
100
AcDbEntity
  8
0
100
AcDbCircle
 10
795.964736
 20
555.900497
 30
0.0
 40
33.0
100
AcDbArc
 50
90.0
 51
134.865982
  0
ARC
  5
70F
100
AcDbEntity
  8
0
100
AcDbCircle
 10
841.949111
 20
509.700497
 30
0.0
 40
98.184375
100
AcDbArc
 50
134.865982
 51
180.0
  0
ARC
  5
710
100
AcDbEntity
  8
0
100
AcDbCircle
 10
795.964736
 20
560.100497
 30
0.0
 40
30.0
100
AcDbArc
 50
82.516116
 51
88.830617
  0
ARC
  5
711
100
AcDbEntity
  8
0
100
AcDbCircle
 10
795.964736
 20
560.100497
 30
0.0
 40
30.0
100
AcDbArc
 50
61.314598
 51
62.460504
  0
ARC
  5
712
100
AcDbEntity
  8
0
100
AcDbCircle
 10
795.964736
 20
459.300497
 30
0.0
 40
30.0
100
AcDbArc
 50
271.169383
 51
298.685402
  0
ARC
  5
713
100
AcDbEntity
  8
0
100
AcDbCircle
 10
796.564736
 20
589.494374
 30
0.0
 40
0.6
100
AcDbArc
 50
88.830617
 51
180.0
  0
ARC
  5
714
100
AcDbEntity
  8
0
100
AcDbCircle
 10
796.564736
 20
429.90662
 30
0.0
 40
0.6
100
AcDbArc
 50
180.0
 51
271.169383
  0
ARC
  5
715
100
AcDbEntity
  8
0
100
AcDbCircle
 10
819.940205
 20
437.111137
 30
0.0
 40
40.152553
100
AcDbArc
 50
104.575585
 51
108.634439
  0
ARC
  5
716
100
AcDbEntity
  8
0
100
AcDbCircle
 10
817.238229
 20
445.244023
 30
0.0
 40
31.582685
100
AcDbArc
 50
108.704037
 51
111.420019
  0
ARC
  5
717
100
AcDbEntity
  8
0
100
AcDbCircle
 10
814.18711
 20
452.929217
 30
0.0
 40
23.31407
100
AcDbArc
 50
111.337137
 51
115.164091
  0
ARC
  5
718
100
AcDbEntity
  8
0
100
AcDbCircle
 10
812.068565
 20
457.481032
 30
0.0
 40
18.293429
100
AcDbArc
 50
115.220486
 51
120.360224
  0
ARC
  5
719
100
AcDbEntity
  8
0
100
AcDbCircle
 10
808.027306
 20
464.275615
 30
0.0
 40
10.388164
100
AcDbArc
 50
120.068778
 51
126.62775
  0
ARC
  5
71A
100
AcDbEntity
  8
0
100
AcDbCircle
 10
807.077609
 20
465.762037
 30
0.0
 40
8.629566
100
AcDbArc
 50
127.455461
 51
134.54004
  0
ARC
  5
71B
100
AcDbEntity
  8
0
100
AcDbCircle
 10
804.934043
 20
468.008736
 30
0.0
 40
5.524903
100
AcDbArc
 50
135.037856
 51
144.547131
  0
ARC
  5
71C
100
AcDbEntity
  8
0
100
AcDbCircle
 10
803.308622
 20
469.160282
 30
0.0
 40
3.532914
100
AcDbArc
 50
144.469984
 51
158.757443
  0
ARC
  5
71D
100
AcDbEntity
  8
0
100
AcDbCircle
 10
802.034175
 20
469.664675
 30
0.0
 40
2.162326
100
AcDbArc
 50
158.979188
 51
180.964594
  0
ARC
  5
71E
100
AcDbEntity
  8
0
100
AcDbCircle
 10
802.069479
 20
469.73197
 30
0.0
 40
2.199769
100
AcDbArc
 50
182.701911
 51
206.240834
  0
ARC
  5
71F
100
AcDbEntity
  8
0
100
AcDbCircle
 10
803.168549
 20
470.241693
 30
0.0
 40
3.411066
100
AcDbArc
 50
205.757812
 51
221.925218
  0
ARC
  5
720
100
AcDbEntity
  8
0
100
AcDbCircle
 10
803.794528
 20
470.76961
 30
0.0
 40
4.229614
100
AcDbArc
 50
221.58013
 51
234.759994
  0
ARC
  5
721
100
AcDbEntity
  8
0
100
AcDbCircle
 10
804.046474
 20
471.214388
 30
0.0
 40
4.73853
100
AcDbArc
 50
235.37501
 51
248.577094
  0
ARC
  5
722
100
AcDbEntity
  8
0
100
AcDbCircle
 10
805.319069
 20
474.246923
 30
0.0
 40
8.026731
100
AcDbArc
 50
248.027157
 51
257.198523
  0
ARC
  5
723
100
AcDbEntity
  8
0
100
AcDbCircle
 10
805.94451
 20
476.410055
 30
0.0
 40
10.275506
100
AcDbArc
 50
256.470275
 51
264.652651
  0
ARC
  5
724
100
AcDbEntity
  8
0
100
AcDbCircle
 10
806.141855
 20
478.871432
 30
0.0
 40
12.744605
100
AcDbArc
 50
264.800552
 51
271.194744
  0
ARC
  5
725
100
AcDbEntity
  8
0
100
AcDbCircle
 10
806.244173
 20
478.467554
 30
0.0
 40
12.339038
100
AcDbArc
 50
270.758837
 51
278.309871
  0
ARC
  5
726
100
AcDbEntity
  8
0
100
AcDbCircle
 10
805.898971
 20
481.655924
 30
0.0
 40
15.544282
100
AcDbArc
 50
277.870399
 51
284.669816
  0
LINE
  5
727
100
AcDbEntity
  8
1
100
AcDbLine
 10
862.932416
 20
460.597691
 30
0.0
 11
816.035222
 21
413.700497
 31
0.0
  0
LINE
  5
728
100
AcDbEntity
  8
1
100
AcDbLine
 10
862.932416
 20
464.840331
 30
0.0
 11
811.792581
 21
413.700497
 31
0.0
  0
LINE
  5
729
100
AcDbEntity
  8
1
100
AcDbLine
 10
862.932416
 20
469.082972
 30
0.0
 11
810.364736
 21
416.515293
 31
0.0
  0
LINE
  5
72A
100
AcDbEntity
  8
1
100
AcDbLine
 10
862.932416
 20
473.325613
 30
0.0
 11
810.364736
 21
420.757933
 31
0.0
  0
LINE
  5
72B
100
AcDbEntity
  8
1
100
AcDbLine
 10
810.364736
 20
612.12801
 30
0.0
 11
810.364736
 21
413.700497
 31
0.0
  0
LINE
  5
72C
100
AcDbEntity
  8
1
100
AcDbLine
 10
862.932416
 20
477.568254
 30
0.0
 11
810.364736
 21
425.000574
 31
0.0
  0
LINE
  5
72D
100
AcDbEntity
  8
1
100
AcDbLine
 10
862.932416
 20
481.810894
 30
0.0
 11
810.364736
 21
429.243215
 31
0.0
  0
LINE
  5
72E
100
AcDbEntity
  8
1
100
AcDbLine
 10
862.932416
 20
486.053535
 30
0.0
 11
810.364736
 21
433.485855
 31
0.0
  0
LINE
  5
72F
100
AcDbEntity
  8
1
100
AcDbLine
 10
862.932416
 20
490.296176
 30
0.0
 11
810.364736
 21
437.728496
 31
0.0
  0
LINE
  5
730
100
AcDbEntity
  8
1
100
AcDbLine
 10
862.932416
 20
494.538816
 30
0.0
 11
847.564736
 21
479.171137
 31
0.0
  0
LINE
  5
731
100
AcDbEntity
  8
1
100
AcDbLine
 10
862.932416
 20
498.781457
 30
0.0
 11
847.564736
 21
483.413777
 31
0.0
  0
LINE
  5
732
100
AcDbEntity
  8
1
100
AcDbLine
 10
862.932416
 20
503.024098
 30
0.0
 11
847.564736
 21
487.656418
 31
0.0
  0
LINE
  5
733
100
AcDbEntity
  8
1
100
AcDbLine
 10
862.932416
 20
507.266738
 30
0.0
 11
847.564736
 21
491.899059
 31
0.0
  0
LINE
  5
734
100
AcDbEntity
  8
1
100
AcDbLine
 10
862.932416
 20
511.509379
 30
0.0
 11
847.564736
 21
496.141699
 31
0.0
  0
LINE
  5
735
100
AcDbEntity
  8
1
100
AcDbLine
 10
862.932416
 20
515.75202
 30
0.0
 11
847.564736
 21
500.38434
 31
0.0
  0
LINE
  5
736
100
AcDbEntity
  8
1
100
AcDbLine
 10
810.374453
 20
467.436697
 30
0.0
 11
810.364736
 21
467.426981
 31
0.0
  0
LINE
  5
737
100
AcDbEntity
  8
1
100
AcDbLine
 10
862.932416
 20
524.237301
 30
0.0
 11
847.564736
 21
508.869621
 31
0.0
  0
LINE
  5
738
100
AcDbEntity
  8
1
100
AcDbLine
 10
862.932416
 20
528.479942
 30
0.0
 11
847.564736
 21
513.112262
 31
0.0
  0
LINE
  5
739
100
AcDbEntity
  8
1
100
AcDbLine
 10
862.932416
 20
532.722582
 30
0.0
 11
847.564736
 21
517.354903
 31
0.0
  0
LINE
  5
73A
100
AcDbEntity
  8
1
100
AcDbLine
 10
862.932416
 20
536.965223
 30
0.0
 11
847.564736
 21
521.597544
 31
0.0
  0
LINE
  5
73B
100
AcDbEntity
  8
1
100
AcDbLine
 10
862.932416
 20
541.207864
 30
0.0
 11
847.564736
 21
525.840184
 31
0.0
  0
LINE
  5
73C
100
AcDbEntity
  8
1
100
AcDbLine
 10
862.932416
 20
545.450505
 30
0.0
 11
847.564736
 21
530.082825
 31
0.0
  0
LINE
  5
73D
100
AcDbEntity
  8
1
100
AcDbLine
 10
862.932416
 20
549.693145
 30
0.0
 11
847.564736
 21
534.325466
 31
0.0
  0
LINE
  5
73E
100
AcDbEntity
  8
1
100
AcDbLine
 10
862.932416
 20
553.935786
 30
0.0
 11
847.564736
 21
538.568106
 31
0.0
  0
LINE
  5
73F
100
AcDbEntity
  8
1
100
AcDbLine
 10
862.932416
 20
558.178427
 30
0.0
 11
847.564736
 21
542.810747
 31
0.0
  0
LINE
  5
740
100
AcDbEntity
  8
1
100
AcDbLine
 10
862.932416
 20
562.421067
 30
0.0
 11
845.289302
 21
544.777953
 31
0.0
  0
LINE
  5
741
100
AcDbEntity
  8
1
100
AcDbLine
 10
862.932416
 20
566.663708
 30
0.0
 11
841.046661
 21
544.777953
 31
0.0
  0
LINE
  5
742
100
AcDbEntity
  8
1
100
AcDbLine
 10
862.932416
 20
570.906349
 30
0.0
 11
839.164736
 21
547.138669
 31
0.0
  0
LINE
  5
743
100
AcDbEntity
  8
1
100
AcDbLine
 10
862.932416
 20
575.148989
 30
0.0
 11
839.164736
 21
551.38131
 31
0.0
  0
LINE
  5
744
100
AcDbEntity
  8
1
100
AcDbLine
 10
862.932416
 20
579.39163
 30
0.0
 11
839.164736
 21
555.62395
 31
0.0
  0
LINE
  5
745
100
AcDbEntity
  8
1
100
AcDbLine
 10
862.932416
 20
583.634271
 30
0.0
 11
839.164736
 21
559.866591
 31
0.0
  0
LINE
  5
746
100
AcDbEntity
  8
1
100
AcDbLine
 10
862.932416
 20
587.876911
 30
0.0
 11
839.164736
 21
564.109232
 31
0.0
  0
LINE
  5
747
100
AcDbEntity
  8
1
100
AcDbLine
 10
862.932416
 20
592.119552
 30
0.0
 11
839.164736
 21
568.351872
 31
0.0
  0
LINE
  5
748
100
AcDbEntity
  8
1
100
AcDbLine
 10
862.932416
 20
596.362193
 30
0.0
 11
839.164736
 21
572.594513
 31
0.0
  0
LINE
  5
749
100
AcDbEntity
  8
1
100
AcDbLine
 10
862.932416
 20
600.604833
 30
0.0
 11
839.164736
 21
576.837154
 31
0.0
  0
LINE
  5
74A
100
AcDbEntity
  8
1
100
AcDbLine
 10
862.932416
 20
604.847474
 30
0.0
 11
839.164736
 21
581.079795
 31
0.0
  0
LINE
  5
74B
100
AcDbEntity
  8
1
100
AcDbLine
 10
862.932416
 20
609.090115
 30
0.0
 11
839.164736
 21
585.322435
 31
0.0
  0
LINE
  5
74C
100
AcDbEntity
  8
1
100
AcDbLine
 10
861.72767
 20
612.12801
 30
0.0
 11
839.164736
 21
589.565076
 31
0.0
  0
LINE
  5
74D
100
AcDbEntity
  8
1
100
AcDbLine
 10
857.48503
 20
612.12801
 30
0.0
 11
839.164736
 21
593.807717
 31
0.0
  0
LINE
  5
74E
100
AcDbEntity
  8
1
100
AcDbLine
 10
853.242389
 20
612.12801
 30
0.0
 11
839.164736
 21
598.050357
 31
0.0
  0
LINE
  5
74F
100
AcDbEntity
  8
1
100
AcDbLine
 10
848.999748
 20
612.12801
 30
0.0
 11
839.164736
 21
602.292998
 31
0.0
  0
LINE
  5
750
100
AcDbEntity
  8
1
100
AcDbLine
 10
844.757108
 20
612.12801
 30
0.0
 11
839.164736
 21
606.535639
 31
0.0
  0
LINE
  5
751
100
AcDbEntity
  8
1
100
AcDbLine
 10
840.514467
 20
612.12801
 30
0.0
 11
839.164736
 21
610.778279
 31
0.0
  0
LINE
  5
752
100
AcDbEntity
  8
1
100
AcDbLine
 10
834.364736
 20
610.22092
 30
0.0
 11
810.364736
 21
586.22092
 31
0.0
  0
LINE
  5
753
100
AcDbEntity
  8
1
100
AcDbLine
 10
832.029185
 20
612.12801
 30
0.0
 11
810.364736
 21
590.463561
 31
0.0
  0
LINE
  5
754
100
AcDbEntity
  8
1
100
AcDbLine
 10
827.786545
 20
612.12801
 30
0.0
 11
810.364736
 21
594.706201
 31
0.0
  0
LINE
  5
755
100
AcDbEntity
  8
1
100
AcDbLine
 10
823.543904
 20
612.12801
 30
0.0
 11
810.364736
 21
598.948842
 31
0.0
  0
LINE
  5
756
100
AcDbEntity
  8
1
100
AcDbLine
 10
819.301263
 20
612.12801
 30
0.0
 11
810.364736
 21
603.191483
 31
0.0
  0
LINE
  5
757
100
AcDbEntity
  8
1
  6
HIDDEN
100
AcDbLine
 10
809.766962
 20
557.077953
 30
0.0
 11
810.364736
 21
557.077953
 31
0.0
  0
LINE
  5
758
100
AcDbEntity
  8
1
  6
HIDDEN
100
AcDbLine
 10
810.364736
 20
557.077953
 30
0.0
 11
810.364736
 21
462.32304
 31
0.0
  0
LINE
  5
759
100
AcDbEntity
  8
1
  6
HIDDEN
100
AcDbLine
 10
809.766962
 20
560.677953
 30
0.0
 11
807.966962
 21
560.677953
 31
0.0
  0
LINE
  5
75A
100
AcDbEntity
  8
1
  6
HIDDEN
100
AcDbLine
 10
807.966962
 20
455.377953
 30
0.0
 11
807.966962
 21
563.977953
 31
0.0
  0
LINE
  5
75B
100
AcDbEntity
  8
1
  6
HIDDEN
100
AcDbLine
 10
807.006962
 20
563.977953
 30
0.0
 11
807.006962
 21
455.377953
 31
0.0
  0
LINE
  5
75C
100
AcDbEntity
  8
1
  6
HIDDEN
100
AcDbLine
 10
807.966962
 20
563.977953
 30
0.0
 11
807.006962
 21
563.977953
 31
0.0
  0
LINE
  5
75D
100
AcDbEntity
  8
1
  6
HIDDEN
100
AcDbLine
 10
809.766962
 20
560.677953
 30
0.0
 11
809.766962
 21
458.677953
 31
0.0
  0
LINE
  5
75E
100
AcDbEntity
  8
1
  6
HIDDEN
100
AcDbLine
 10
810.364736
 20
462.277953
 30
0.0
 11
809.766962
 21
462.277953
 31
0.0
  0
LINE
  5
75F
100
AcDbEntity
  8
1
  6
HIDDEN
100
AcDbLine
 10
807.966962
 20
458.677953
 30
0.0
 11
809.766962
 21
458.677953
 31
0.0
  0
LINE
  5
760
100
AcDbEntity
  8
1
  6
HIDDEN
100
AcDbLine
 10
807.006962
 20
455.377953
 30
0.0
 11
807.966962
 21
455.377953
 31
0.0
  0
LINE
  5
761
100
AcDbEntity
  8
1
  6
HIDDEN
100
AcDbLine
 10
810.31965
 20
462.277953
 30
0.0
 11
810.364736
 21
462.32304
 31
0.0
  0
LINE
  5
762
100
AcDbEntity
  8
1
  6
HIDDEN
100
AcDbLine
 10
821.164736
 20
544.777953
 30
0.0
 11
821.164736
 21
474.577953
 31
0.0
  0
LINE
  5
763
100
AcDbEntity
  8
1
  6
HIDDEN
100
AcDbLine
 10
847.564736
 20
542.977953
 30
0.0
 11
847.564736
 21
476.377953
 31
0.0
  0
LINE
  5
764
100
AcDbEntity
  8
1
  6
HIDDEN
100
AcDbLine
 10
819.964736
 20
544.777953
 30
0.0
 11
845.764736
 21
544.777953
 31
0.0
  0
LINE
  5
765
100
AcDbEntity
  8
1
  6
HIDDEN
100
AcDbLine
 10
819.964736
 20
474.577953
 30
0.0
 11
845.764736
 21
474.577953
 31
0.0
  0
LINE
  5
766
100
AcDbEntity
  8
1
  6
HIDDEN
100
AcDbLine
 10
819.964736
 20
544.777953
 30
0.0
 11
819.964736
 21
474.577953
 31
0.0
  0
LINE
  5
767
100
AcDbEntity
  8
1
  6
HIDDEN
100
AcDbLine
 10
812.164736
 20
536.677953
 30
0.0
 11
818.164736
 21
536.677953
 31
0.0
  0
LINE
  5
768
100
AcDbEntity
  8
1
  6
HIDDEN
100
AcDbLine
 10
812.164736
 20
482.677953
 30
0.0
 11
818.164736
 21
482.677953
 31
0.0
  0
LINE
  5
769
100
AcDbEntity
  8
1
  6
HIDDEN
100
AcDbLine
 10
821.164736
 20
475.777953
 30
0.0
 11
845.164736
 21
475.777953
 31
0.0
  0
LINE
  5
76A
100
AcDbEntity
  8
1
  6
HIDDEN
100
AcDbLine
 10
821.164736
 20
543.577953
 30
0.0
 11
845.164736
 21
543.577953
 31
0.0
  0
LINE
  5
76B
100
AcDbEntity
  8
1
  6
HIDDEN
100
AcDbLine
 10
846.364736
 20
542.377953
 30
0.0
 11
846.364736
 21
476.977953
 31
0.0
  0
ARC
  5
76C
100
AcDbEntity
  8
1
  6
HIDDEN
100
AcDbCircle
 10
845.764736
 20
542.977953
 30
0.0
 40
1.8
100
AcDbArc
 50
0.0
 51
90.0
  0
ARC
  5
76D
100
AcDbEntity
  8
1
  6
HIDDEN
100
AcDbCircle
 10
845.764736
 20
476.377953
 30
0.0
 40
1.8
100
AcDbArc
 50
270.0
 51
360.0
  0
ARC
  5
76E
100
AcDbEntity
  8
1
  6
HIDDEN
100
AcDbCircle
 10
845.164736
 20
476.977953
 30
0.0
 40
1.2
100
AcDbArc
 50
270.0
 51
360.0
  0
ARC
  5
76F
100
AcDbEntity
  8
1
  6
HIDDEN
100
AcDbCircle
 10
845.164736
 20
542.377953
 30
0.0
 40
1.2
100
AcDbArc
 50
0.0
 51
90.0
  0
LINE
  5
770
100
AcDbEntity
  8
1
  6
HIDDEN
100
AcDbLine
 10
834.364736
 20
612.12801
 30
0.0
 11
834.364736
 21
544.777953
 31
0.0
  0
ARC
  5
771
100
AcDbEntity
  8
1
  6
HIDDEN
100
AcDbCircle
 10
812.164736
 20
484.477953
 30
0.0
 40
1.8
100
AcDbArc
 50
180.0
 51
270.0
  0
ARC
  5
772
100
AcDbEntity
  8
1
  6
HIDDEN
100
AcDbCircle
 10
818.164736
 20
480.877953
 30
0.0
 40
1.8
100
AcDbArc
 50
360.0
 51
450.0
  0
ARC
  5
773
100
AcDbEntity
  8
1
  6
HIDDEN
100
AcDbCircle
 10
818.164736
 20
538.477953
 30
0.0
 40
1.8
100
AcDbArc
 50
270.0
 51
360.0
  0
ARC
  5
774
100
AcDbEntity
  8
1
  6
HIDDEN
100
AcDbCircle
 10
812.164736
 20
534.877953
 30
0.0
 40
1.8
100
AcDbArc
 50
90.0
 51
180.0
  0
LINE
  5
775
100
AcDbEntity
  8
1
100
AcDbLine
 10
810.442796
 20
552.357854
 30
0.0
 11
810.364736
 21
552.279795
 31
0.0
  0
LINE
  5
776
100
AcDbEntity
  8
1
  6
HIDDEN
100
AcDbLine
 10
839.164736
 20
612.12801
 30
0.0
 11
839.164736
 21
544.777953
 31
0.0
  0
LINE
  5
777
100
AcDbEntity
  8
1
100
AcDbLine
 10
862.932416
 20
456.35505
 30
0.0
 11
820.277862
 21
413.700497
 31
0.0
  0
LINE
  5
778
100
AcDbEntity
  8
1
100
AcDbLine
 10
862.932416
 20
452.112409
 30
0.0
 11
824.520503
 21
413.700497
 31
0.0
  0
LINE
  5
779
100
AcDbEntity
  8
1
100
AcDbLine
 10
862.932416
 20
447.869769
 30
0.0
 11
828.763144
 21
413.700497
 31
0.0
  0
LINE
  5
77A
100
AcDbEntity
  8
1
100
AcDbLine
 10
862.932416
 20
443.627128
 30
0.0
 11
833.005784
 21
413.700497
 31
0.0
  0
LINE
  5
77B
100
AcDbEntity
  8
1
100
AcDbLine
 10
862.932416
 20
439.384487
 30
0.0
 11
837.248425
 21
413.700497
 31
0.0
  0
LINE
  5
77C
100
AcDbEntity
  8
1
100
AcDbLine
 10
862.932416
 20
435.141847
 30
0.0
 11
841.491066
 21
413.700497
 31
0.0
  0
LINE
  5
77D
100
AcDbEntity
  8
1
100
AcDbLine
 10
862.932416
 20
430.899206
 30
0.0
 11
845.733707
 21
413.700497
 31
0.0
  0
LINE
  5
77E
100
AcDbEntity
  8
1
100
AcDbLine
 10
862.932416
 20
426.656565
 30
0.0
 11
849.976347
 21
413.700497
 31
0.0
  0
LINE
  5
77F
100
AcDbEntity
  8
1
100
AcDbLine
 10
862.932416
 20
422.413925
 30
0.0
 11
854.218988
 21
413.700497
 31
0.0
  0
LINE
  5
780
100
AcDbEntity
  8
1
100
AcDbLine
 10
862.932416
 20
418.171284
 30
0.0
 11
858.461629
 21
413.700497
 31
0.0
  0
LINE
  5
781
100
AcDbEntity
  8
1
100
AcDbLine
 10
862.932416
 20
519.99466
 30
0.0
 11
847.564736
 21
504.626981
 31
0.0
  0
LINE
  5
782
100
AcDbEntity
  8
1
100
AcDbLine
 10
815.058623
 20
612.12801
 30
0.0
 11
810.364736
 21
607.434123
 31
0.0
  0
LINE
  5
783
100
AcDbEntity
  8
1
100
AcDbLine
 10
819.964736
 20
540.666591
 30
0.0
 11
815.976099
 21
536.677953
 31
0.0
  0
LINE
  5
784
100
AcDbEntity
  8
1
  6
HIDDEN
100
AcDbLine
 10
810.366457
 20
484.399264
 30
0.0
 11
810.364736
 21
484.397544
 31
0.0
  0
LINE
  5
785
100
AcDbEntity
  8
1
100
AcDbLine
 10
812.887787
 20
482.677953
 30
0.0
 11
810.364736
 21
480.154903
 31
0.0
  0
LINE
  5
786
100
AcDbEntity
  8
1
100
AcDbLine
 10
817.130427
 20
482.677953
 30
0.0
 11
810.364736
 21
475.912262
 31
0.0
  0
LINE
  5
787
100
AcDbEntity
  8
1
100
AcDbLine
 10
819.964736
 20
481.269621
 30
0.0
 11
810.364736
 21
471.669621
 31
0.0
  0
LINE
  5
788
100
AcDbEntity
  8
1
100
AcDbLine
 10
819.964736
 20
477.026981
 30
0.0
 11
810.364736
 21
467.426981
 31
0.0
  0
LINE
  5
789
100
AcDbEntity
  8
1
100
AcDbLine
 10
821.75835
 20
474.577953
 30
0.0
 11
810.364736
 21
463.18434
 31
0.0
  0
LINE
  5
78A
100
AcDbEntity
  8
1
100
AcDbLine
 10
826.00099
 20
474.577953
 30
0.0
 11
810.364736
 21
458.941699
 31
0.0
  0
LINE
  5
78B
100
AcDbEntity
  8
1
100
AcDbLine
 10
830.243631
 20
474.577953
 30
0.0
 11
810.364736
 21
454.699059
 31
0.0
  0
LINE
  5
78C
100
AcDbEntity
  8
1
100
AcDbLine
 10
834.486272
 20
474.577953
 30
0.0
 11
810.364736
 21
450.456418
 31
0.0
  0
LINE
  5
78D
100
AcDbEntity
  8
1
100
AcDbLine
 10
838.728912
 20
474.577953
 30
0.0
 11
810.364736
 21
446.213777
 31
0.0
  0
LINE
  5
78E
100
AcDbEntity
  8
1
100
AcDbLine
 10
842.971553
 20
474.577953
 30
0.0
 11
810.364736
 21
441.971137
 31
0.0
  0
LINE
  5
78F
100
AcDbEntity
  8
1
100
AcDbLine
 10
810.43644
 20
535.380935
 30
0.0
 11
810.364736
 21
535.309232
 31
0.0
  0
LINE
  5
790
100
AcDbEntity
  8
1
100
AcDbLine
 10
834.364736
 20
605.978279
 30
0.0
 11
810.364736
 21
581.978279
 31
0.0
  0
LINE
  5
791
100
AcDbEntity
  8
1
100
AcDbLine
 10
834.364736
 20
601.735639
 30
0.0
 11
810.364736
 21
577.735639
 31
0.0
  0
LINE
  5
792
100
AcDbEntity
  8
1
100
AcDbLine
 10
834.364736
 20
597.492998
 30
0.0
 11
810.364736
 21
573.492998
 31
0.0
  0
LINE
  5
793
100
AcDbEntity
  8
1
100
AcDbLine
 10
834.364736
 20
593.250357
 30
0.0
 11
810.364736
 21
569.250357
 31
0.0
  0
LINE
  5
794
100
AcDbEntity
  8
1
100
AcDbLine
 10
834.364736
 20
589.007717
 30
0.0
 11
810.364736
 21
565.007717
 31
0.0
  0
LINE
  5
795
100
AcDbEntity
  8
1
100
AcDbLine
 10
834.364736
 20
584.765076
 30
0.0
 11
810.364736
 21
560.765076
 31
0.0
  0
LINE
  5
796
100
AcDbEntity
  8
1
100
AcDbLine
 10
834.364736
 20
580.522435
 30
0.0
 11
810.364736
 21
556.522435
 31
0.0
  0
LINE
  5
797
100
AcDbEntity
  8
1
100
AcDbLine
 10
834.364736
 20
576.279795
 30
0.0
 11
812.684835
 21
554.599894
 31
0.0
  0
LINE
  5
798
100
AcDbEntity
  8
1
100
AcDbLine
 10
834.364736
 20
572.037154
 30
0.0
 11
810.364736
 21
548.037154
 31
0.0
  0
LINE
  5
799
100
AcDbEntity
  8
1
100
AcDbLine
 10
834.364736
 20
567.794513
 30
0.0
 11
810.364736
 21
543.794513
 31
0.0
  0
LINE
  5
79A
100
AcDbEntity
  8
1
100
AcDbLine
 10
834.364736
 20
563.551872
 30
0.0
 11
810.364736
 21
539.551872
 31
0.0
  0
LINE
  5
79B
100
AcDbEntity
  8
1
100
AcDbLine
 10
834.364736
 20
559.309232
 30
0.0
 11
811.661755
 21
536.60625
 31
0.0
  0
LINE
  5
79C
100
AcDbEntity
  8
1
100
AcDbLine
 10
834.364736
 20
555.066591
 30
0.0
 11
824.076099
 21
544.777953
 31
0.0
  0
LINE
  5
79D
100
AcDbEntity
  8
1
100
AcDbLine
 10
834.364736
 20
550.82395
 30
0.0
 11
828.318739
 21
544.777953
 31
0.0
  0
LINE
  5
79E
100
AcDbEntity
  8
1
100
AcDbLine
 10
834.364736
 20
546.58131
 30
0.0
 11
832.56138
 21
544.777953
 31
0.0
  0
LINE
  5
7A2
100
AcDbEntity
  8
CENTER
100
AcDbLine
 10
532.020613
 20
239.563055
 30
0.0
 11
532.020613
 21
230.563055
 31
0.0
  0
LINE
  5
7A3
100
AcDbEntity
  8
CENTER
100
AcDbLine
 10
615.360613
 20
239.563055
 30
0.0
 11
615.360613
 21
230.563055
 31
0.0
  0
LINE
  5
7A4
100
AcDbEntity
  8
CENTER
100
AcDbLine
 10
529.240613
 20
239.563055
 30
0.0
 11
529.240613
 21
230.563055
 31
0.0
  0
LINE
  5
7A5
100
AcDbEntity
  8
CENTER
100
AcDbLine
 10
618.140613
 20
239.563055
 30
0.0
 11
618.140613
 21
230.563055
 31
0.0
  0
LINE
  5
7A6
100
AcDbEntity
  8
CENTER
100
AcDbLine
 10
578.190613
 20
268.413055
 30
0.0
 11
569.190613
 21
268.413055
 31
0.0
  0
LINE
  5
7A7
100
AcDbEntity
  8
CENTER
100
AcDbLine
 10
578.190613
 20
201.713055
 30
0.0
 11
569.190613
 21
201.713055
 31
0.0
  0
LINE
  5
7A8
100
AcDbEntity
  8
CENTER
100
AcDbLine
 10
578.190613
 20
269.988055
 30
0.0
 11
569.190613
 21
269.988055
 31
0.0
  0
LINE
  5
7A9
100
AcDbEntity
  8
CENTER
100
AcDbLine
 10
578.190613
 20
200.138055
 30
0.0
 11
569.190613
 21
200.138055
 31
0.0
  0
DIMENSION
  5
7AA
100
AcDbEntity
  8
SCALE
100
AcDbDimension
  2
*D8
 10
725.11971
 20
200.138055
 30
0.0
 11
714.11971
 21
136.497579
 31
0.0
  1
69.85(2  ")
  3
STANDARD
100
AcDbAlignedDimension
 13
578.190613
 23
269.988055
 33
0.0
 14
578.190613
 24
200.138055
 34
0.0
 50
90.0
100
AcDbRotatedDimension
  0
TEXT
  5
7AB
100
AcDbEntity
  8
SCALE
100
AcDbText
 10
662.599718
 20
609.7266
 30
0.0
 40
11.0
  1
Base Frame
 72
     2
 11
760.028289
 21
609.7266
 31
0.0
100
AcDbText
  0
LINE
  5
7AC
100
AcDbEntity
  8
SCALE
100
AcDbLine
 10
761.948319
 20
606.243569
 30
0.0
 11
659.427273
 21
606.243569
 31
0.0
  0
LINE
  5
7AD
100
AcDbEntity
  8
SCALE
100
AcDbLine
 10
796.851712
 20
644.93459
 30
0.0
 11
590.374783
 21
644.93459
 31
0.0
  0
TEXT
  5
7AE
100
AcDbEntity
  8
SCALE
100
AcDbText
 10
594.836444
 20
651.187261
 30
0.0
 40
11.0
  1
1-gang size switch box
 72
     2
 11
794.931682
 21
651.187261
 31
0.0
100
AcDbText
  0
INSERT
  5
7AF
100
AcDbEntity
  8
SCALE
100
AcDbBlockReference
  2
YAZ3
 10
807.006962
 20
547.887623
 30
0.0
 41
7.5
 42
7.5
 43
7.5
 50
307.672971
  0
LINE
  5
7B0
100
AcDbEntity
  8
SCALE
100
AcDbLine
 10
802.423309
 20
553.823962
 30
0.0
 11
761.948319
 21
606.243569
 31
0.0
  0
TEXT
  5
7B1
100
AcDbEntity
  8
1
100
AcDbText
 10
628.09378
 20
691.020883
 30
0.0
 40
12.5
  1
Can also be mounted using 
 41
0.8
  7
UT7
100
AcDbText
  0
TEXT
  5
7B2
100
AcDbEntity
  8
1
100
AcDbText
 10
628.09378
 20
673.520883
 30
0.0
 40
12.5
  1
   an electrical box.
 41
0.8
  7
UT7
100
AcDbText
  0
INSERT
  5
7B5
100
AcDbEntity
  8
SCALE
100
AcDbBlockReference
  2
YAZ3
 10
830.447043
 20
544.777953
 30
0.0
 41
7.5
 42
7.5
 43
7.5
 50
288.54289
  0
LINE
  5
7B6
100
AcDbEntity
  8
SCALE
100
AcDbLine
 10
828.061934
 20
551.888597
 30
0.0
 11
796.851712
 21
644.93459
 31
0.0
  0
INSERT
  5
7B7
100
AcDbEntity
  8
0
100
AcDbBlockReference
  2
INSLYTXT
 10
998.929631
 20
61.120903
 30
0.0
 41
2.5
 42
2.5
 43
2.5
  0
INSERT
  5
7B8
100
AcDbEntity
  8
0
100
AcDbBlockReference
  2
INSLYTXT
 10
1508.786637
 20
76.690859
 30
0.0
 41
1.25
 42
1.25
 43
1.25
  0
INSERT
  5
7B9
100
AcDbEntity
  8
0
100
AcDbBlockReference
  2
INSLYTXT
 10
1476.485538
 20
87.065289
 30
0.0
 41
1.25
 42
1.25
 43
1.25
  0
INSERT
  5
7BA
100
AcDbEntity
  8
0
100
AcDbBlockReference
  2
INSLYTXT
 10
1501.718352
 20
80.155515
 30
0.0
 41
1.25
 42
1.25
 43
1.25
  0
INSERT
  5
7BE
100
AcDbEntity
  8
0
100
AcDbBlockReference
  2
INSLYTXT
 10
1030.899745
 20
100.391044
 30
0.0
 41
2.0
 42
2.0
 43
2.0
  0
TEXT
  5
7BF
100
AcDbEntity
  8
SCALE
100
AcDbText
 10
1226.757085
 20
457.536937
 30
0.0
 40
3.3
  1
  
 72
     4
 11
1229.742799
 21
457.536937
 31
0.0
100
AcDbText
  0
DIMENSION
  5
7C0
100
AcDbEntity
  8
SCALE
100
AcDbDimension
  2
*D9
 10
695.496398
 20
201.713055
 30
0.0
 11
684.496398
 21
143.310674
 31
0.0
  1
66.7(2  ")
  3
STANDARD
100
AcDbAlignedDimension
 13
578.190613
 23
268.413055
 33
0.0
 14
578.190613
 24
201.713055
 34
0.0
 50
90.0
100
AcDbRotatedDimension
  0
DIMENSION
  5
7C1
100
AcDbEntity
  8
SCALE
100
AcDbDimension
  2
*D10
 10
529.240613
 20
98.828385
 30
0.0
 11
470.838232
 21
109.828385
 31
0.0
  1
88.9(3  ")
  3
STANDARD
100
AcDbAlignedDimension
 13
618.140613
 23
230.563055
 33
0.0
 14
529.240613
 24
230.563055
 34
0.0
100
AcDbRotatedDimension
  0
DIMENSION
  5
7C2
100
AcDbEntity
  8
SCALE
100
AcDbDimension
  2
*D12
 10
532.020613
 20
121.405141
 30
0.0
 11
468.380137
 21
132.405141
 31
0.0
  1
83.34(3  ")
  3
STANDARD
100
AcDbAlignedDimension
 13
615.360613
 23
230.563055
 33
0.0
 14
532.020613
 24
230.563055
 34
0.0
100
AcDbRotatedDimension
  0
INSERT
  5
7C3
100
AcDbEntity
  8
SCALE
100
AcDbBlockReference
  2
YAZ3
 10
517.356973
 20
234.108724
 30
0.0
 41
7.5
 42
7.5
 43
7.5
 50
18.92804
  0
LINE
  5
7C4
100
AcDbEntity
  8
SCALE
100
AcDbLine
 10
510.262522
 20
231.675871
 30
0.0
 11
473.943894
 21
219.221365
 31
0.0
  0
INSERT
  5
7C5
100
AcDbEntity
  8
SCALE
100
AcDbBlockReference
  2
YAZ3
 10
527.539273
 20
233.231269
 30
0.0
 41
7.5
 42
7.5
 43
7.5
 50
45.43085
  0
LINE
  5
7C6
100
AcDbEntity
  8
SCALE
100
AcDbLine
 10
522.276001
 20
227.888239
 30
0.0
 11
484.567444
 21
189.608256
 31
0.0
  0
DIMENSION
  5
7C7
100
AcDbEntity
  8
SCALE
100
AcDbDimension
  2
*D11
 10
402.096887
 20
144.563055
 30
0.0
 11
391.096887
 21
235.063055
 31
0.0
  1
%%C181
  3
STANDARD
100
AcDbAlignedDimension
 13
573.690613
 23
325.563055
 33
0.0
 14
573.690613
 24
144.563055
 34
0.0
 50
90.0
100
AcDbRotatedDimension
  0
INSERT
  5
7C8
100
AcDbEntity
  8
SCALE
100
AcDbBlockReference
  2
YAZ3
 10
565.923259
 20
242.566935
 30
0.0
 41
7.5
 42
7.5
 43
7.5
 50
330.445485
  0
LINE
  5
7C9
100
AcDbEntity
  8
SCALE
100
AcDbLine
 10
559.399108
 20
246.266321
 30
0.0
 11
492.86353
 21
283.993955
 31
0.0
  0
INSERT
  5
7CA
100
AcDbEntity
  8
SCALE
100
AcDbBlockReference
  2
YAZ3
 10
571.6947
 20
271.49349
 30
0.0
 41
7.5
 42
7.5
 43
7.5
 50
333.048179
  0
LINE
  5
7CB
100
AcDbEntity
  8
SCALE
100
AcDbLine
 10
565.009291
 20
274.892798
 30
0.0
 11
507.703723
 21
304.030772
 31
0.0
  0
TEXT
  5
7CC
100
AcDbEntity
  8
SCALE
100
AcDbText
 10
685.296398
 20
157.104686
 30
0.0
 40
6.6
  1
5   
 50
90.0
 72
     4
 11
681.996398
 21
169.204686
 31
0.0
100
AcDbText
  0
TEXT
  5
7CD
100
AcDbEntity
  8
SCALE
100
AcDbText
 10
690.296398
 20
161.41523
 30
0.0
 40
6.6
  1
 8
 50
90.0
 72
     4
 11
686.996398
 21
166.600944
 31
0.0
100
AcDbText
  0
LINE
  5
7CE
100
AcDbEntity
  8
SCALE
100
AcDbLine
 10
678.577066
 20
167.490374
 30
0.0
 11
690.452944
 21
159.330249
 31
0.0
  0
LINE
  5
7CF
100
AcDbEntity
  8
SCALE
100
AcDbLine
 10
492.70926
 20
115.747717
 30
0.0
 11
484.549134
 21
103.871839
 31
0.0
  0
TEXT
  5
7D0
100
AcDbEntity
  8
SCALE
100
AcDbText
 10
489.237857
 20
104.028385
 30
0.0
 40
6.6
  1
 2
 72
     4
 11
494.423572
 21
107.328385
 31
0.0
100
AcDbText
  0
TEXT
  5
7D1
100
AcDbEntity
  8
SCALE
100
AcDbText
 10
482.952143
 20
109.028385
 30
0.0
 40
6.6
  1
1   
 72
     4
 11
494.423572
 21
112.328385
 31
0.0
100
AcDbText
  0
LINE
  5
7D2
100
AcDbEntity
  8
SCALE
100
AcDbLine
 10
708.200378
 20
165.338816
 30
0.0
 11
720.076256
 21
157.178691
 31
0.0
  0
TEXT
  5
7D3
100
AcDbEntity
  8
SCALE
100
AcDbText
 10
719.91971
 20
158.686571
 30
0.0
 40
6.6
  1
 4
 50
90.0
 72
     4
 11
716.61971
 21
164.029428
 31
0.0
100
AcDbText
  0
TEXT
  5
7D4
100
AcDbEntity
  8
SCALE
100
AcDbText
 10
714.91971
 20
154.953128
 30
0.0
 40
6.6
  1
3   
 50
90.0
 72
     4
 11
711.61971
 21
167.053128
 31
0.0
100
AcDbText
  0
TEXT
  5
7D5
100
AcDbEntity
  8
SCALE
100
AcDbText
 10
487.614109
 20
126.605141
 30
0.0
 40
6.6
  1
 32
 72
     4
 11
495.94268
 21
129.905141
 31
0.0
100
AcDbText
  0
LINE
  5
7D6
100
AcDbEntity
  8
SCALE
100
AcDbLine
 10
496.354115
 20
138.324473
 30
0.0
 11
488.19399
 21
126.448596
 31
0.0
  0
TEXT
  5
7D7
100
AcDbEntity
  8
SCALE
100
AcDbText
 10
485.968427
 20
131.605141
 30
0.0
 40
6.6
  1
9   
 72
     4
 11
498.068427
 21
134.905141
 31
0.0
100
AcDbText
  0
ENDSEC
  0
SECTION
  2
OBJECTS
  0
DICTIONARY
  5
8B2
100
AcDbDictionary
  3
ACAD_GROUP
350
8B3
  3
ACAD_MLINESTYLE
350
8B4
  0
DICTIONARY
  5
8B3
102
{ACAD_REACTORS
330
8B2
102
}
100
AcDbDictionary
  0
DICTIONARY
  5
8B4
102
{ACAD_REACTORS
330
8B2
102
}
100
AcDbDictionary
  3
STANDARD
350
8B5
  0
MLINESTYLE
  5
8B5
102
{ACAD_REACTORS
330
8B4
102
}
100
AcDbMlineStyle
  2
STANDARD
 70
     0
  3

 62
     0
 51
90.0
 52
90.0
 71
     2
 49
0.5
 62
   256
  6
BYLAYER
 49
-0.5
 62
   256
  6
BYLAYER
  0
ENDSEC
  0
EOF
