  0
SECTION
  2
HEADER
  9
$ACADVER
  1
AC1014
  9
$ACADMAINTVER
 70
     0
  9
$DWGCODEPAGE
  3
DOS850
  9
$INSBASE
 10
0.0
 20
0.0
 30
0.0
  9
$EXTMIN
 10
10.896672
 20
52.16887
 30
0.0
  9
$EXTMAX
 10
902.673953
 20
874.75383
 30
0.0
  9
$LIMMIN
 10
0.0
 20
0.0
  9
$LIMMAX
 10
1.0
 20
1.0
  9
$ORTHOMODE
 70
     1
  9
$REGENMODE
 70
     0
  9
$FILLMODE
 70
     1
  9
$QTEXTMODE
 70
     0
  9
$MIRRTEXT
 70
     0
  9
$DRAGMODE
 70
     2
  9
$LTSCALE
 40
4.0
  9
$OSMODE
 70
     0
  9
$ATTMODE
 70
     1
  9
$TEXTSIZE
 40
8.8
  9
$TRACEWID
 40
0.05
  9
$TEXTSTYLE
  7
STANDARD
  9
$CLAYER
  8
SCALE
  9
$CELTYPE
  6
BYLAYER
  9
$CECOLOR
 62
   256
  9
$CELTSCALE
 40
1.0
  9
$DELOBJ
 70
     1
  9
$DISPSILH
 70
     0
  9
$DIMSCALE
 40
5.0
  9
$DIMASZ
 40
1.5
  9
$DIMEXO
 40
2.0
  9
$DIMDLI
 40
10.0
  9
$DIMRND
 40
0.0
  9
$DIMDLE
 40
0.0
  9
$DIMEXE
 40
1.5
  9
$DIMTP
 40
0.0
  9
$DIMTM
 40
0.0
  9
$DIMTXT
 40
2.2
  9
$DIMCEN
 40
0.09
  9
$DIMTSZ
 40
0.0
  9
$DIMTOL
 70
     0
  9
$DIMLIM
 70
     0
  9
$DIMTIH
 70
     0
  9
$DIMTOH
 70
     0
  9
$DIMSE1
 70
     0
  9
$DIMSE2
 70
     0
  9
$DIMTAD
 70
     0
  9
$DIMZIN
 70
     0
  9
$DIMBLK
  1
YAZ3
  9
$DIMASO
 70
     1
  9
$DIMSHO
 70
     0
  9
$DIMPOST
  1

  9
$DIMAPOST
  1

  9
$DIMALT
 70
     0
  9
$DIMALTD
 70
     2
  9
$DIMALTF
 40
25.4
  9
$DIMLFAC
 40
1.0
  9
$DIMTOFL
 70
     1
  9
$DIMTVP
 40
1.0
  9
$DIMTIX
 70
     0
  9
$DIMSOXD
 70
     0
  9
$DIMSAH
 70
     0
  9
$DIMBLK1
  1

  9
$DIMBLK2
  1

  9
$DIMSTYLE
  2
STANDARD
  9
$DIMCLRD
 70
     0
  9
$DIMCLRE
 70
     0
  9
$DIMCLRT
 70
     0
  9
$DIMTFAC
 40
1.0
  9
$DIMGAP
 40
0.09
  9
$DIMJUST
 70
     0
  9
$DIMSD1
 70
     0
  9
$DIMSD2
 70
     0
  9
$DIMTOLJ
 70
     1
  9
$DIMTZIN
 70
     0
  9
$DIMALTZ
 70
     0
  9
$DIMALTTZ
 70
     0
  9
$DIMFIT
 70
     3
  9
$DIMUPT
 70
     0
  9
$DIMUNIT
 70
     2
  9
$DIMDEC
 70
     4
  9
$DIMTDEC
 70
     4
  9
$DIMALTU
 70
     2
  9
$DIMALTTD
 70
     2
  9
$DIMTXSTY
  7
STANDARD
  9
$DIMAUNIT
 70
     0
  9
$LUNITS
 70
     2
  9
$LUPREC
 70
     3
  9
$SKETCHINC
 40
0.1
  9
$FILLETRAD
 40
0.0
  9
$AUNITS
 70
     0
  9
$AUPREC
 70
     0
  9
$MENU
  1
AMECEX
  9
$ELEVATION
 40
0.0
  9
$PELEVATION
 40
0.0
  9
$THICKNESS
 40
0.0
  9
$LIMCHECK
 70
     0
  9
$BLIPMODE
 70
     0
  9
$CHAMFERA
 40
0.0
  9
$CHAMFERB
 40
0.0
  9
$CHAMFERC
 40
0.0
  9
$CHAMFERD
 40
0.0
  9
$SKPOLY
 70
     0
  9
$TDCREATE
 40
2451285.595000000
  9
$TDUPDATE
 40
2452076.644733796
  9
$TDINDWG
 40
0.0055555556
  9
$TDUSRTIMER
 40
0.0055323727
  9
$USRTIMER
 70
     1
  9
$ANGBASE
 50
0.0
  9
$ANGDIR
 70
     0
  9
$PDMODE
 70
     0
  9
$PDSIZE
 40
0.0
  9
$PLINEWID
 40
0.0
  9
$COORDS
 70
     2
  9
$SPLFRAME
 70
     0
  9
$SPLINETYPE
 70
     6
  9
$SPLINESEGS
 70
     8
  9
$ATTDIA
 70
     0
  9
$ATTREQ
 70
     1
  9
$HANDLING
 70
     1
  9
$HANDSEED
  5
7DB
  9
$SURFTAB1
 70
     6
  9
$SURFTAB2
 70
     6
  9
$SURFTYPE
 70
     6
  9
$SURFU
 70
     6
  9
$SURFV
 70
     6
  9
$UCSNAME
  2

  9
$UCSORG
 10
0.0
 20
0.0
 30
0.0
  9
$UCSXDIR
 10
1.0
 20
0.0
 30
0.0
  9
$UCSYDIR
 10
0.0
 20
1.0
 30
0.0
  9
$PUCSNAME
  2

  9
$PUCSORG
 10
0.0
 20
0.0
 30
0.0
  9
$PUCSXDIR
 10
1.0
 20
0.0
 30
0.0
  9
$PUCSYDIR
 10
0.0
 20
1.0
 30
0.0
  9
$USERI1
 70
     0
  9
$USERI2
 70
     0
  9
$USERI3
 70
     0
  9
$USERI4
 70
     0
  9
$USERI5
 70
     0
  9
$USERR1
 40
30.0
  9
$USERR2
 40
0.0
  9
$USERR3
 40
0.0
  9
$USERR4
 40
0.0
  9
$USERR5
 40
0.0
  9
$WORLDVIEW
 70
     1
  9
$SHADEDGE
 70
     3
  9
$SHADEDIF
 70
    70
  9
$TILEMODE
 70
     1
  9
$MAXACTVP
 70
    16
  9
$PINSBASE
 10
0.0
 20
0.0
 30
0.0
  9
$PLIMCHECK
 70
     0
  9
$PEXTMIN
 10
1.000000E+20
 20
1.000000E+20
 30
1.000000E+20
  9
$PEXTMAX
 10
-1.000000E+20
 20
-1.000000E+20
 30
-1.000000E+20
  9
$PLIMMIN
 10
0.0
 20
0.0
  9
$PLIMMAX
 10
12.0
 20
9.0
  9
$UNITMODE
 70
     0
  9
$VISRETAIN
 70
     0
  9
$PLINEGEN
 70
     0
  9
$PSLTSCALE
 70
     0
  9
$TREEDEPTH
 70
  3020
  9
$PICKSTYLE
 70
     1
  9
$CMLSTYLE
  2
STANDARD
  9
$CMLJUST
 70
     0
  9
$CMLSCALE
 40
1.0
  9
$PROXYGRAPHICS
 70
     0
  9
$MEASUREMENT
 70
     0
  0
ENDSEC
  0
SECTION
  2
CLASSES
  0
CLASS
  1
LWPOLYLINE
  2
AcDbPolyline
  3
"AutoCAD"
 90
        0
280
     0
281
     1
  0
CLASS
  1
IMAGE
  2
AcDbRasterImage
  3
ISM
 90
      127
280
     0
281
     1
  0
CLASS
  1
OLE2FRAME
  2
AcDbOle2Frame
  3
""
 90
        0
280
     0
281
     1
  0
CLASS
  1
HATCH
  2
AcDbHatch
  3
"ACAD_SEDONA"
 90
        0
280
     0
281
     1
  0
CLASS
  1
DICTIONARYVAR
  2
AcDbDictionaryVar
  3
"AutoCAD"
 90
        0
280
     0
281
     0
  0
CLASS
  1
RASTERVARIABLES
  2
AcDbRasterVariables
  3
ISM
 90
        0
280
     0
281
     0
  0
CLASS
  1
IMAGEDEF
  2
AcDbRasterImageDef
  3
ISM
 90
        0
280
     0
281
     0
  0
CLASS
  1
IMAGEDEF_REACTOR
  2
AcDbRasterImageDefReactor
  3
ISM
 90
        1
280
     0
281
     0
  0
CLASS
  1
IDBUFFER
  2
AcDbIdBuffer
  3
"Acad"
 90
        0
280
     0
281
     0
  0
CLASS
  1
SPATIAL_FILTER
  2
AcDbSpatialFilter
  3
"Acad"
 90
        0
280
     0
281
     0
  0
CLASS
  1
XRECORD
  2
AcDbXrecord
  3
"<Built In>"
 90
        0
280
     0
281
     0
  0
CLASS
  1
SORTENTSTABLE
  2
AcDbSortentsTable
  3
"AutoCAD"
 90
        0
280
     0
281
     0
  0
CLASS
  1
LAYER_INDEX
  2
AcDbLayerIndex
  3
"Acad"
 90
        0
280
     0
281
     0
  0
CLASS
  1
SPATIAL_INDEX
  2
AcDbSpatialIndex
  3
"Acad"
 90
        0
280
     0
281
     0
  0
CLASS
  1
OBJECT_PTR
  2
CAseDLPNTableRecord
  3
"ASE-LPNTableRecord"
 90
        1
280
     0
281
     0
  0
CLASS
  1
LAYOUT
  2
AcDbLayout
  3
"AutoCAD 2000"
 90
        1
280
     0
281
     0
  0
CLASS
  1
PLOTSETTINGS
  2
AcDbPlotSettings
  3
"AutoCAD 2000"
 90
        1
280
     0
281
     0
  0
CLASS
  1
ACDBDICTIONARYWDFLT
  2
AcDbDictionaryWithDefault
  3
"AutoCAD 2000"
 90
        1
280
     0
281
     0
  0
CLASS
  1
ACDBPLACEHOLDER
  2
AcDbPlaceHolder
  3
"AutoCAD 2000"
 90
        1
280
     0
281
     0
  0
CLASS
  1
VBA_PROJECT
  2
AcDbVbaProject
  3
"acadvba"
 90
        1
280
     0
281
     0
  0
CLASS
  1
WIPEOUT
  2
AcDbWipeout
  3
WipeOut|AutoCAD Express Tool|expresstools@autodesk.com
 90
      127
280
     0
281
     1
  0
CLASS
  1
WIPEOUTVARIABLES
  2
AcDbWipeoutVariables
  3
WipeOut|AutoCAD Express Tool|expresstools@autodesk.com
 90
        0
280
     0
281
     0
  0
CLASS
  1
RTEXT
  2
RText
  3
RText|AutoCAD Express Tool|expresstools@autodesk.com
 90
        0
280
     0
281
     1
  0
CLASS
  1
ARCALIGNEDTEXT
  2
AcDbArcAlignedText
  3
ATEXT|AutoCAD Express Tool|expresstools@autodesk.com
 90
        0
280
     0
281
     1
  0
ENDSEC
  0
SECTION
  2
TABLES
  0
TABLE
  2
VPORT
  5
798
100
AcDbSymbolTable
 70
     1
  0
VPORT
  5
7A9
100
AcDbSymbolTableRecord
100
AcDbViewportTableRecord
  2
*ACTIVE
 70
     0
 10
0.0
 20
0.0
 11
1.0
 21
1.0
 12
456.785313
 22
463.46135
 13
0.0
 23
0.0
 14
1.0
 24
1.0
 15
0.0
 25
0.0
 16
0.0
 26
0.0
 36
1.0
 17
0.0
 27
0.0
 37
0.0
 40
839.036659
 41
1.63407
 42
50.0
 43
0.0
 44
0.0
 50
0.0
 51
0.0
 71
     0
 72
   100
 73
     1
 74
     0
 75
     0
 76
     0
 77
     0
 78
     0
  0
ENDTAB
  0
TABLE
  2
LTYPE
  5
795
100
AcDbSymbolTable
 70
     5
  0
LTYPE
  5
79E
100
AcDbSymbolTableRecord
100
AcDbLinetypeTableRecord
  2
BYBLOCK
 70
    64
  3

 72
    65
 73
     0
 40
0.0
  0
LTYPE
  5
79F
100
AcDbSymbolTableRecord
100
AcDbLinetypeTableRecord
  2
BYLAYER
 70
    64
  3

 72
    65
 73
     0
 40
0.0
  0
LTYPE
  5
7A0
100
AcDbSymbolTableRecord
100
AcDbLinetypeTableRecord
  2
CONTINUOUS
 70
    64
  3
Solid line
 72
    65
 73
     0
 40
0.0
  0
LTYPE
  5
7A1
100
AcDbSymbolTableRecord
100
AcDbLinetypeTableRecord
  2
HIDDEN
 70
    64
  3
_ _ _ _ _ _ _
 72
    65
 73
     2
 40
7.490132
 49
4.993421
 74
     0
 49
-2.496711
 74
     0
  0
LTYPE
  5
7A2
100
AcDbSymbolTableRecord
100
AcDbLinetypeTableRecord
  2
CENTER
 70
    64
  3
____ _ ____ _ ____ _ ____ _ ____ _ ____ _ ____
 72
    65
 73
     4
 40
2.0
 49
1.25
 74
     0
 49
-0.25
 74
     0
 49
0.25
 74
     0
 49
-0.25
 74
     0
  0
ENDTAB
  0
TABLE
  2
LAYER
  5
793
100
AcDbSymbolTable
 70
     6
  0
LAYER
  5
7A3
100
AcDbSymbolTableRecord
100
AcDbLayerTableRecord
  2
0
 70
    64
 62
     7
  6
CONTINUOUS
  0
LAYER
  5
7A4
100
AcDbSymbolTableRecord
100
AcDbLayerTableRecord
  2
1
 70
    64
 62
     3
  6
CONTINUOUS
  0
LAYER
  5
7A5
100
AcDbSymbolTableRecord
100
AcDbLayerTableRecord
  2
SCALE
 70
    64
 62
     4
  6
CONTINUOUS
  0
LAYER
  5
7A6
100
AcDbSymbolTableRecord
100
AcDbLayerTableRecord
  2
CENTER
 70
    64
 62
     1
  6
CENTER
  0
LAYER
  5
7A7
100
AcDbSymbolTableRecord
100
AcDbLayerTableRecord
  2
SILK
 70
    64
 62
     5
  6
CONTINUOUS
  0
LAYER
  5
7A8
100
AcDbSymbolTableRecord
100
AcDbLayerTableRecord
  2
DEFPOINTS
 70
    64
 62
     7
  6
CONTINUOUS
  0
ENDTAB
  0
TABLE
  2
STYLE
  5
794
100
AcDbSymbolTable
 70
     3
  0
STYLE
  5
7AB
100
AcDbSymbolTableRecord
100
AcDbTextStyleTableRecord
  2
STANDARD
 70
    64
 40
0.0
 41
1.0
 50
0.0
 71
     0
 42
8.8
  3
SIMPLEX
  4

  0
STYLE
  5
7AC
100
AcDbSymbolTableRecord
100
AcDbTextStyleTableRecord
  2
UT7
 70
    64
 40
0.0
 41
0.8
 50
0.0
 71
     0
 42
11.25
  3
TOAFONT
  4

  0
STYLE
  5
7AD
100
AcDbSymbolTableRecord
100
AcDbTextStyleTableRecord
  2
TOALOGO
 70
    64
 40
3.0
 41
1.0
 50
0.0
 71
     0
 42
3.0
  3
SIMPLEX
  4
SLFONT
  0
ENDTAB
  0
TABLE
  2
VIEW
  5
796
100
AcDbSymbolTable
 70
     0
  0
ENDTAB
  0
TABLE
  2
UCS
  5
797
100
AcDbSymbolTable
 70
     0
  0
ENDTAB
  0
TABLE
  2
APPID
  5
799
100
AcDbSymbolTable
 70
     1
  0
APPID
  5
7AA
100
AcDbSymbolTableRecord
100
AcDbRegAppTableRecord
  2
ACAD
 70
    64
  0
ENDTAB
  0
TABLE
  2
DIMSTYLE
  5
79A
100
AcDbSymbolTable
 70
     1
  0
DIMSTYLE
105
7CF
100
AcDbSymbolTableRecord
100
AcDbDimStyleTableRecord
  2
STANDARD
 70
    64
  3

  4

  5

  6

  7

 40
5.0
 41
1.5
 42
2.0
 43
10.0
 44
1.5
 45
0.0
 46
0.0
 47
0.0
 48
0.0
 71
     0
 72
     0
 73
     0
 74
     0
 75
     0
 76
     0
 77
     0
 78
     0
140
2.2
141
0.09
142
0.0
143
25.4
144
1.0
145
1.0
146
1.0
147
0.09
170
     0
171
     2
172
     1
173
     0
174
     0
175
     0
176
     0
177
     0
178
     0
270
     2
271
     4
272
     4
273
     2
274
     2
275
     0
280
     0
281
     0
282
     0
283
     1
284
     0
285
     0
286
     0
287
     0
288
     0
340
7AB
  0
ENDTAB
  0
TABLE
  2
BLOCK_RECORD
  5
7CA
100
AcDbSymbolTable
 70
    26
  0
BLOCK_RECORD
  5
7C8
100
AcDbSymbolTableRecord
100
AcDbBlockTableRecord
  2
*MODEL_SPACE
  0
BLOCK_RECORD
  5
7C9
100
AcDbSymbolTableRecord
100
AcDbBlockTableRecord
  2
*PAPER_SPACE
  0
BLOCK_RECORD
  5
7AE
100
AcDbSymbolTableRecord
100
AcDbBlockTableRecord
  2
YAZ3
  0
BLOCK_RECORD
  5
7AF
100
AcDbSymbolTableRecord
100
AcDbBlockTableRecord
  2
YAZ1
  0
BLOCK_RECORD
  5
7B0
100
AcDbSymbolTableRecord
100
AcDbBlockTableRecord
  2
*D2
  0
BLOCK_RECORD
  5
7B1
100
AcDbSymbolTableRecord
100
AcDbBlockTableRecord
  2
*D3
  0
BLOCK_RECORD
  5
7B2
100
AcDbSymbolTableRecord
100
AcDbBlockTableRecord
  2
*D4
  0
BLOCK_RECORD
  5
7B3
100
AcDbSymbolTableRecord
100
AcDbBlockTableRecord
  2
*D5
  0
BLOCK_RECORD
  5
7B4
100
AcDbSymbolTableRecord
100
AcDbBlockTableRecord
  2
*D6
  0
BLOCK_RECORD
  5
7B5
100
AcDbSymbolTableRecord
100
AcDbBlockTableRecord
  2
*D7
  0
BLOCK_RECORD
  5
7B6
100
AcDbSymbolTableRecord
100
AcDbBlockTableRecord
  2
*D8
  0
BLOCK_RECORD
  5
7B7
100
AcDbSymbolTableRecord
100
AcDbBlockTableRecord
  2
*D9
  0
BLOCK_RECORD
  5
7B8
100
AcDbSymbolTableRecord
100
AcDbBlockTableRecord
  2
*D10
  0
BLOCK_RECORD
  5
7B9
100
AcDbSymbolTableRecord
100
AcDbBlockTableRecord
  2
*D11
  0
BLOCK_RECORD
  5
7BA
100
AcDbSymbolTableRecord
100
AcDbBlockTableRecord
  2
*D12
  0
BLOCK_RECORD
  5
7BB
100
AcDbSymbolTableRecord
100
AcDbBlockTableRecord
  2
*D13
  0
BLOCK_RECORD
  5
7BC
100
AcDbSymbolTableRecord
100
AcDbBlockTableRecord
  2
*D14
  0
BLOCK_RECORD
  5
7BD
100
AcDbSymbolTableRecord
100
AcDbBlockTableRecord
  2
INSLYTXT
  0
BLOCK_RECORD
  5
7BE
100
AcDbSymbolTableRecord
100
AcDbBlockTableRecord
  2
*D16
  0
BLOCK_RECORD
  5
7BF
100
AcDbSymbolTableRecord
100
AcDbBlockTableRecord
  2
*D17
  0
BLOCK_RECORD
  5
7C0
100
AcDbSymbolTableRecord
100
AcDbBlockTableRecord
  2
*D18
  0
BLOCK_RECORD
  5
7C1
100
AcDbSymbolTableRecord
100
AcDbBlockTableRecord
  2
*D19
  0
BLOCK_RECORD
  5
7C2
100
AcDbSymbolTableRecord
100
AcDbBlockTableRecord
  2
*D20
  0
BLOCK_RECORD
  5
7C3
100
AcDbSymbolTableRecord
100
AcDbBlockTableRecord
  2
*D21
  0
BLOCK_RECORD
  5
7C4
100
AcDbSymbolTableRecord
100
AcDbBlockTableRecord
  2
*D22
  0
BLOCK_RECORD
  5
7C5
100
AcDbSymbolTableRecord
100
AcDbBlockTableRecord
  2
*D23
  0
BLOCK_RECORD
  5
7C6
100
AcDbSymbolTableRecord
100
AcDbBlockTableRecord
  2
*D24
  0
BLOCK_RECORD
  5
7C7
100
AcDbSymbolTableRecord
100
AcDbBlockTableRecord
  2
*D25
  0
ENDTAB
  0
ENDSEC
  0
SECTION
  2
BLOCKS
  0
BLOCK
  5
7CB
100
AcDbEntity
  8
0
100
AcDbBlockBegin
  2
*MODEL_SPACE
 70
     0
 10
0.0
 20
0.0
 30
0.0
  3
*MODEL_SPACE
  1

  0
ENDBLK
  5
7CC
100
AcDbEntity
  8
0
100
AcDbBlockEnd
  0
BLOCK
  5
7CD
100
AcDbEntity
 67
     1
  8
0
100
AcDbBlockBegin
  2
*PAPER_SPACE
 70
     0
 10
0.0
 20
0.0
 30
0.0
  3
*PAPER_SPACE
  1

  0
ENDBLK
  5
7CE
100
AcDbEntity
 67
     1
  8
0
100
AcDbBlockEnd
  0
BLOCK
  5
66A
100
AcDbEntity
  8
0
100
AcDbBlockBegin
  2
YAZ3
 70
    64
 10
0.0
 20
0.0
 30
0.0
  3
YAZ3
  1

  0
INSERT
  5
66B
100
AcDbEntity
  8
0
100
AcDbBlockReference
  2
YAZ1
 10
0.0
 20
0.0
 30
0.0
  0
LINE
  5
66C
100
AcDbEntity
  8
0
100
AcDbLine
 10
-0.999365
 20
0.04706
 30
0.0
 11
-0.175629
 21
0.04706
 31
0.0
  0
LINE
  5
66D
100
AcDbEntity
  8
0
100
AcDbLine
 10
-0.999365
 20
0.09706
 30
0.0
 11
-0.362232
 21
0.09706
 31
0.0
  0
LINE
  5
66E
100
AcDbEntity
  8
0
100
AcDbLine
 10
-0.999365
 20
0.14706
 30
0.0
 11
-0.548834
 21
0.14706
 31
0.0
  0
LINE
  5
66F
100
AcDbEntity
  8
0
100
AcDbLine
 10
-0.999365
 20
0.19706
 30
0.0
 11
-0.735437
 21
0.19706
 31
0.0
  0
LINE
  5
670
100
AcDbEntity
  8
0
100
AcDbLine
 10
-0.999365
 20
0.24706
 30
0.0
 11
-0.922039
 21
0.24706
 31
0.0
  0
LINE
  5
671
100
AcDbEntity
  8
0
100
AcDbLine
 10
-0.999365
 20
-0.05294
 30
0.0
 11
-0.197576
 21
-0.05294
 31
0.0
  0
LINE
  5
672
100
AcDbEntity
  8
0
100
AcDbLine
 10
-0.999365
 20
-0.10294
 30
0.0
 11
-0.384179
 21
-0.10294
 31
0.0
  0
LINE
  5
673
100
AcDbEntity
  8
0
100
AcDbLine
 10
-0.999365
 20
-0.15294
 30
0.0
 11
-0.570781
 21
-0.15294
 31
0.0
  0
LINE
  5
674
100
AcDbEntity
  8
0
100
AcDbLine
 10
-0.999365
 20
-0.20294
 30
0.0
 11
-0.757384
 21
-0.20294
 31
0.0
  0
LINE
  5
675
100
AcDbEntity
  8
0
100
AcDbLine
 10
-0.999365
 20
-0.25294
 30
0.0
 11
-0.943986
 21
-0.25294
 31
0.0
  0
SOLID
  5
676
100
AcDbEntity
  8
0
100
AcDbTrace
 10
0.0
 20
0.0
 30
0.0
 11
-1.0
 21
0.267949
 31
0.0
 12
-1.0
 22
-0.267949
 32
0.0
 13
-1.0
 23
-0.267949
 33
0.0
  0
ENDBLK
  5
677
100
AcDbEntity
  8
0
100
AcDbBlockEnd
  0
BLOCK
  5
678
100
AcDbEntity
  8
0
100
AcDbBlockBegin
  2
YAZ1
 70
    64
 10
184.0
 20
133.0
 30
0.0
  3
YAZ1
  1

  0
LINE
  5
679
100
AcDbEntity
  8
0
100
AcDbLine
 10
184.0
 20
133.0
 30
0.0
 11
183.0
 21
132.732051
 31
0.0
  0
LINE
  5
67A
100
AcDbEntity
  8
0
100
AcDbLine
 10
184.0
 20
133.0
 30
0.0
 11
183.0
 21
133.267949
 31
0.0
  0
LINE
  5
67B
100
AcDbEntity
  8
0
100
AcDbLine
 10
183.0
 20
133.0
 30
0.0
 11
184.0
 21
133.0
 31
0.0
  0
ENDBLK
  5
67C
100
AcDbEntity
  8
0
100
AcDbBlockEnd
  0
BLOCK
  5
67D
100
AcDbEntity
  8
SCALE
100
AcDbBlockBegin
  2
*D2
 70
    65
 10
0.0
 20
0.0
 30
0.0
  3
*D2
  1

  0
LINE
  5
67E
100
AcDbEntity
  8
0
  6
BYBLOCK
 62
     0
100
AcDbLine
 10
860.539423
 20
827.542567
 30
0.0
 11
883.273453
 21
827.542567
 31
0.0
  0
LINE
  5
67F
100
AcDbEntity
  8
0
  6
BYBLOCK
 62
     0
100
AcDbLine
 10
860.539423
 20
729.542567
 30
0.0
 11
883.273453
 21
729.542567
 31
0.0
  0
LINE
  5
680
100
AcDbEntity
  8
0
  6
BYBLOCK
 62
     0
100
AcDbLine
 10
875.773453
 20
820.042567
 30
0.0
 11
875.773453
 21
737.042567
 31
0.0
  0
INSERT
  5
681
100
AcDbEntity
  8
0
  6
BYBLOCK
 62
     0
100
AcDbBlockReference
  2
YAZ3
 10
875.773453
 20
827.542567
 30
0.0
 41
7.5
 42
7.5
 43
7.5
 50
90.0
  0
INSERT
  5
682
100
AcDbEntity
  8
0
  6
BYBLOCK
 62
     0
100
AcDbBlockReference
  2
YAZ3
 10
875.773453
 20
729.542567
 30
0.0
 41
7.5
 42
7.5
 43
7.5
 50
270.0
  0
TEXT
  5
683
100
AcDbEntity
  8
0
  6
BYBLOCK
 62
     0
100
AcDbText
 10
870.273453
 20
769.637805
 30
0.0
 40
11.0
  1
98
 50
90.0
 72
     1
 11
864.773453
 21
778.542567
 31
0.0
100
AcDbText
 73
     2
  0
POINT
  5
684
100
AcDbEntity
  8
DEFPOINTS
  6
BYBLOCK
 62
     0
100
AcDbPoint
 10
850.539423
 20
827.542567
 30
0.0
  0
POINT
  5
685
100
AcDbEntity
  8
DEFPOINTS
  6
BYBLOCK
 62
     0
100
AcDbPoint
 10
850.539423
 20
729.542567
 30
0.0
  0
POINT
  5
686
100
AcDbEntity
  8
DEFPOINTS
  6
BYBLOCK
 62
     0
100
AcDbPoint
 10
875.773453
 20
729.542567
 30
0.0
  0
ENDBLK
  5
687
100
AcDbEntity
  8
SCALE
100
AcDbBlockEnd
  0
BLOCK
  5
688
100
AcDbEntity
  8
SCALE
100
AcDbBlockBegin
  2
*D3
 70
    65
 10
0.0
 20
0.0
 30
0.0
  3
*D3
  1

  0
LINE
  5
689
100
AcDbEntity
  8
0
  6
BYBLOCK
 62
     0
100
AcDbLine
 10
474.861636
 20
496.687904
 30
0.0
 11
545.416835
 21
496.687904
 31
0.0
  0
LINE
  5
68A
100
AcDbEntity
  8
0
  6
BYBLOCK
 62
     0
100
AcDbLine
 10
474.861636
 20
435.569154
 30
0.0
 11
545.416835
 21
435.569154
 31
0.0
  0
LINE
  5
68B
100
AcDbEntity
  8
0
  6
BYBLOCK
 62
     0
100
AcDbLine
 10
537.916835
 20
489.187904
 30
0.0
 11
537.916835
 21
443.069154
 31
0.0
  0
INSERT
  5
68C
100
AcDbEntity
  8
0
  6
BYBLOCK
 62
     0
100
AcDbBlockReference
  2
YAZ3
 10
537.916835
 20
496.687904
 30
0.0
 41
7.5
 42
7.5
 43
7.5
 50
90.0
  0
INSERT
  5
68D
100
AcDbEntity
  8
0
  6
BYBLOCK
 62
     0
100
AcDbBlockReference
  2
YAZ3
 10
537.916835
 20
435.569154
 30
0.0
 41
7.5
 42
7.5
 43
7.5
 50
270.0
  0
TEXT
  5
68E
100
AcDbEntity
  8
0
  6
BYBLOCK
 62
     0
100
AcDbText
 10
532.416835
 20
459.58091
 30
0.0
 40
11.0
  1
61
 50
90.0
 72
     1
 11
526.916835
 21
466.128529
 31
0.0
100
AcDbText
 73
     2
  0
POINT
  5
68F
100
AcDbEntity
  8
DEFPOINTS
  6
BYBLOCK
 62
     0
100
AcDbPoint
 10
464.861636
 20
496.687904
 30
0.0
  0
POINT
  5
690
100
AcDbEntity
  8
DEFPOINTS
  6
BYBLOCK
 62
     0
100
AcDbPoint
 10
464.861636
 20
435.569154
 30
0.0
  0
POINT
  5
691
100
AcDbEntity
  8
DEFPOINTS
  6
BYBLOCK
 62
     0
100
AcDbPoint
 10
537.916835
 20
435.569154
 30
0.0
  0
ENDBLK
  5
692
100
AcDbEntity
  8
SCALE
100
AcDbBlockEnd
  0
BLOCK
  5
693
100
AcDbEntity
  8
SCALE
100
AcDbBlockBegin
  2
*D4
 70
    65
 10
0.0
 20
0.0
 30
0.0
  3
*D4
  1

  0
LINE
  5
694
100
AcDbEntity
  8
0
  6
BYBLOCK
 62
     0
100
AcDbLine
 10
462.347891
 20
493.128529
 30
0.0
 11
521.073604
 21
493.128529
 31
0.0
  0
LINE
  5
695
100
AcDbEntity
  8
0
  6
BYBLOCK
 62
     0
100
AcDbLine
 10
462.347891
 20
439.128529
 30
0.0
 11
521.073604
 21
439.128529
 31
0.0
  0
LINE
  5
696
100
AcDbEntity
  8
0
  6
BYBLOCK
 62
     0
100
AcDbLine
 10
513.573604
 20
485.628529
 30
0.0
 11
513.573604
 21
446.628529
 31
0.0
  0
INSERT
  5
697
100
AcDbEntity
  8
0
  6
BYBLOCK
 62
     0
100
AcDbBlockReference
  2
YAZ3
 10
513.573604
 20
493.128529
 30
0.0
 41
7.5
 42
7.5
 43
7.5
 50
90.0
  0
INSERT
  5
698
100
AcDbEntity
  8
0
  6
BYBLOCK
 62
     0
100
AcDbBlockReference
  2
YAZ3
 10
513.573604
 20
439.128529
 30
0.0
 41
7.5
 42
7.5
 43
7.5
 50
270.0
  0
TEXT
  5
699
100
AcDbEntity
  8
0
  6
BYBLOCK
 62
     0
100
AcDbText
 10
508.073604
 20
456.961863
 30
0.0
 40
11.0
  1
54
 50
90.0
 72
     1
 11
502.573604
 21
466.128529
 31
0.0
100
AcDbText
 73
     2
  0
POINT
  5
69A
100
AcDbEntity
  8
DEFPOINTS
  6
BYBLOCK
 62
     0
100
AcDbPoint
 10
452.347891
 20
493.128529
 30
0.0
  0
POINT
  5
69B
100
AcDbEntity
  8
DEFPOINTS
  6
BYBLOCK
 62
     0
100
AcDbPoint
 10
452.347891
 20
439.128529
 30
0.0
  0
POINT
  5
69C
100
AcDbEntity
  8
DEFPOINTS
  6
BYBLOCK
 62
     0
100
AcDbPoint
 10
513.573604
 20
439.128529
 30
0.0
  0
ENDBLK
  5
69D
100
AcDbEntity
  8
SCALE
100
AcDbBlockEnd
  0
BLOCK
  5
69E
100
AcDbEntity
  8
SCALE
100
AcDbBlockBegin
  2
*D5
 70
    65
 10
0.0
 20
0.0
 30
0.0
  3
*D5
  1

  0
LINE
  5
69F
100
AcDbEntity
  8
0
  6
BYBLOCK
 62
     0
100
AcDbLine
 10
449.063909
 20
568.394902
 30
0.0
 11
521.073604
 21
568.394902
 31
0.0
  0
LINE
  5
6A0
100
AcDbEntity
  8
0
  6
BYBLOCK
 62
     0
100
AcDbLine
 10
499.447891
 20
612.394902
 30
0.0
 11
521.073604
 21
612.394902
 31
0.0
  0
LINE
  5
6A1
100
AcDbEntity
  8
0
  6
BYBLOCK
 62
     0
100
AcDbLine
 10
513.573604
 20
575.894902
 30
0.0
 11
513.573604
 21
604.894902
 31
0.0
  0
INSERT
  5
6A2
100
AcDbEntity
  8
0
  6
BYBLOCK
 62
     0
100
AcDbBlockReference
  2
YAZ3
 10
513.573604
 20
568.394902
 30
0.0
 41
7.5
 42
7.5
 43
7.5
 50
270.0
  0
INSERT
  5
6A3
100
AcDbEntity
  8
0
  6
BYBLOCK
 62
     0
100
AcDbBlockReference
  2
YAZ3
 10
513.573604
 20
612.394902
 30
0.0
 41
7.5
 42
7.5
 43
7.5
 50
90.0
  0
TEXT
  5
6A4
100
AcDbEntity
  8
0
  6
BYBLOCK
 62
     0
100
AcDbText
 10
508.073604
 20
581.228235
 30
0.0
 40
11.0
  1
44
 50
90.0
 72
     1
 11
502.573604
 21
590.394902
 31
0.0
100
AcDbText
 73
     2
  0
POINT
  5
6A5
100
AcDbEntity
  8
DEFPOINTS
  6
BYBLOCK
 62
     0
100
AcDbPoint
 10
439.063909
 20
568.394902
 30
0.0
  0
POINT
  5
6A6
100
AcDbEntity
  8
DEFPOINTS
  6
BYBLOCK
 62
     0
100
AcDbPoint
 10
489.447891
 20
612.394902
 30
0.0
  0
POINT
  5
6A7
100
AcDbEntity
  8
DEFPOINTS
  6
BYBLOCK
 62
     0
100
AcDbPoint
 10
513.573604
 20
612.394902
 30
0.0
  0
ENDBLK
  5
6A8
100
AcDbEntity
  8
SCALE
100
AcDbBlockEnd
  0
BLOCK
  5
6A9
100
AcDbEntity
  8
SCALE
100
AcDbBlockBegin
  2
*D6
 70
    65
 10
0.0
 20
0.0
 30
0.0
  3
*D6
  1

  0
LINE
  5
6AA
100
AcDbEntity
  8
0
  6
BYBLOCK
 62
     0
100
AcDbLine
 10
499.447891
 20
612.394902
 30
0.0
 11
521.073604
 21
612.394902
 31
0.0
  0
LINE
  5
6AB
100
AcDbEntity
  8
0
  6
BYBLOCK
 62
     0
100
AcDbLine
 10
449.430762
 20
658.394902
 30
0.0
 11
521.073604
 21
658.394902
 31
0.0
  0
LINE
  5
6AC
100
AcDbEntity
  8
0
  6
BYBLOCK
 62
     0
100
AcDbLine
 10
513.573604
 20
619.894902
 30
0.0
 11
513.573604
 21
650.894902
 31
0.0
  0
INSERT
  5
6AD
100
AcDbEntity
  8
0
  6
BYBLOCK
 62
     0
100
AcDbBlockReference
  2
YAZ3
 10
513.573604
 20
612.394902
 30
0.0
 41
7.5
 42
7.5
 43
7.5
 50
270.0
  0
INSERT
  5
6AE
100
AcDbEntity
  8
0
  6
BYBLOCK
 62
     0
100
AcDbBlockReference
  2
YAZ3
 10
513.573604
 20
658.394902
 30
0.0
 41
7.5
 42
7.5
 43
7.5
 50
90.0
  0
TEXT
  5
6AF
100
AcDbEntity
  8
0
  6
BYBLOCK
 62
     0
100
AcDbText
 10
508.073604
 20
626.752045
 30
0.0
 40
11.0
  1
46
 50
90.0
 72
     1
 11
502.573604
 21
635.394902
 31
0.0
100
AcDbText
 73
     2
  0
POINT
  5
6B0
100
AcDbEntity
  8
DEFPOINTS
  6
BYBLOCK
 62
     0
100
AcDbPoint
 10
489.447891
 20
612.394902
 30
0.0
  0
POINT
  5
6B1
100
AcDbEntity
  8
DEFPOINTS
  6
BYBLOCK
 62
     0
100
AcDbPoint
 10
439.430762
 20
658.394902
 30
0.0
  0
POINT
  5
6B2
100
AcDbEntity
  8
DEFPOINTS
  6
BYBLOCK
 62
     0
100
AcDbPoint
 10
513.573604
 20
658.394902
 30
0.0
  0
ENDBLK
  5
6B3
100
AcDbEntity
  8
SCALE
100
AcDbBlockEnd
  0
BLOCK
  5
6B4
100
AcDbEntity
  8
SCALE
100
AcDbBlockBegin
  2
*D7
 70
    65
 10
0.0
 20
0.0
 30
0.0
  3
*D7
  1

  0
LINE
  5
6B5
100
AcDbEntity
  8
0
  6
BYBLOCK
 62
     0
100
AcDbLine
 10
472.471145
 20
529.128529
 30
0.0
 11
568.594333
 21
529.128529
 31
0.0
  0
LINE
  5
6B6
100
AcDbEntity
  8
0
  6
BYBLOCK
 62
     0
100
AcDbLine
 10
472.471145
 20
403.128529
 30
0.0
 11
568.594333
 21
403.128529
 31
0.0
  0
LINE
  5
6B7
100
AcDbEntity
  8
0
  6
BYBLOCK
 62
     0
100
AcDbLine
 10
561.094333
 20
521.628529
 30
0.0
 11
561.094333
 21
410.628529
 31
0.0
  0
INSERT
  5
6B8
100
AcDbEntity
  8
0
  6
BYBLOCK
 62
     0
100
AcDbBlockReference
  2
YAZ3
 10
561.094333
 20
529.128529
 30
0.0
 41
7.5
 42
7.5
 43
7.5
 50
90.0
  0
INSERT
  5
6B9
100
AcDbEntity
  8
0
  6
BYBLOCK
 62
     0
100
AcDbBlockReference
  2
YAZ3
 10
561.094333
 20
403.128529
 30
0.0
 41
7.5
 42
7.5
 43
7.5
 50
270.0
  0
TEXT
  5
6BA
100
AcDbEntity
  8
0
  6
BYBLOCK
 62
     0
100
AcDbText
 10
555.594333
 20
453.295196
 30
0.0
 40
11.0
  1
126
 50
90.0
 72
     1
 11
550.094333
 21
466.128529
 31
0.0
100
AcDbText
 73
     2
  0
POINT
  5
6BB
100
AcDbEntity
  8
DEFPOINTS
  6
BYBLOCK
 62
     0
100
AcDbPoint
 10
462.471145
 20
529.128529
 30
0.0
  0
POINT
  5
6BC
100
AcDbEntity
  8
DEFPOINTS
  6
BYBLOCK
 62
     0
100
AcDbPoint
 10
462.471145
 20
403.128529
 30
0.0
  0
POINT
  5
6BD
100
AcDbEntity
  8
DEFPOINTS
  6
BYBLOCK
 62
     0
100
AcDbPoint
 10
561.094333
 20
403.128529
 30
0.0
  0
ENDBLK
  5
6BE
100
AcDbEntity
  8
SCALE
100
AcDbBlockEnd
  0
BLOCK
  5
6BF
100
AcDbEntity
  8
SCALE
100
AcDbBlockBegin
  2
*D8
 70
    65
 10
0.0
 20
0.0
 30
0.0
  3
*D8
  1

  0
LINE
  5
6C0
100
AcDbEntity
  8
0
  6
BYBLOCK
 62
     0
100
AcDbLine
 10
218.047891
 20
422.628529
 30
0.0
 11
218.047891
 21
374.353522
 31
0.0
  0
LINE
  5
6C1
100
AcDbEntity
  8
0
  6
BYBLOCK
 62
     0
100
AcDbLine
 10
448.847891
 20
422.628529
 30
0.0
 11
448.847891
 21
374.353522
 31
0.0
  0
LINE
  5
6C2
100
AcDbEntity
  8
0
  6
BYBLOCK
 62
     0
100
AcDbLine
 10
225.547891
 20
381.853522
 30
0.0
 11
441.347891
 21
381.853522
 31
0.0
  0
INSERT
  5
6C3
100
AcDbEntity
  8
0
  6
BYBLOCK
 62
     0
100
AcDbBlockReference
  2
YAZ3
 10
218.047891
 20
381.853522
 30
0.0
 41
7.5
 42
7.5
 43
7.5
 50
180.0
  0
INSERT
  5
6C4
100
AcDbEntity
  8
0
  6
BYBLOCK
 62
     0
100
AcDbBlockReference
  2
YAZ3
 10
448.847891
 20
381.853522
 30
0.0
 41
7.5
 42
7.5
 43
7.5
  0
TEXT
  5
6C5
100
AcDbEntity
  8
0
  6
BYBLOCK
 62
     0
100
AcDbText
 10
311.447891
 20
387.353522
 30
0.0
 40
11.0
  1
230.8
 72
     1
 11
333.447891
 21
392.853522
 31
0.0
100
AcDbText
 73
     2
  0
POINT
  5
6C6
100
AcDbEntity
  8
DEFPOINTS
  6
BYBLOCK
 62
     0
100
AcDbPoint
 10
218.047891
 20
432.628529
 30
0.0
  0
POINT
  5
6C7
100
AcDbEntity
  8
DEFPOINTS
  6
BYBLOCK
 62
     0
100
AcDbPoint
 10
448.847891
 20
432.628529
 30
0.0
  0
POINT
  5
6C8
100
AcDbEntity
  8
DEFPOINTS
  6
BYBLOCK
 62
     0
100
AcDbPoint
 10
448.847891
 20
381.853522
 30
0.0
  0
ENDBLK
  5
6C9
100
AcDbEntity
  8
SCALE
100
AcDbBlockEnd
  0
BLOCK
  5
6CA
100
AcDbEntity
  8
SCALE
100
AcDbBlockBegin
  2
*D9
 70
    65
 10
0.0
 20
0.0
 30
0.0
  3
*D9
  1

  0
LINE
  5
6CB
100
AcDbEntity
  8
0
  6
BYBLOCK
 62
     0
100
AcDbLine
 10
607.43296
 20
163.510397
 30
0.0
 11
607.43296
 21
130.813283
 31
0.0
  0
LINE
  5
6CC
100
AcDbEntity
  8
0
  6
BYBLOCK
 62
     0
100
AcDbLine
 10
617.43296
 20
149.510397
 30
0.0
 11
617.43296
 21
130.813283
 31
0.0
  0
LINE
  5
6CD
100
AcDbEntity
  8
0
  6
BYBLOCK
 62
     0
100
AcDbLine
 10
599.93296
 20
138.313283
 30
0.0
 11
592.43296
 21
138.313283
 31
0.0
  0
LINE
  5
6CE
100
AcDbEntity
  8
0
  6
BYBLOCK
 62
     0
100
AcDbLine
 10
624.93296
 20
138.313283
 30
0.0
 11
632.43296
 21
138.313283
 31
0.0
  0
LINE
  5
6CF
100
AcDbEntity
  8
0
  6
BYBLOCK
 62
     0
100
AcDbLine
 10
632.43296
 20
138.313283
 30
0.0
 11
648.597246
 21
138.313283
 31
0.0
  0
INSERT
  5
6D0
100
AcDbEntity
  8
0
  6
BYBLOCK
 62
     0
100
AcDbBlockReference
  2
YAZ3
 10
607.43296
 20
138.313283
 30
0.0
 41
7.5
 42
7.5
 43
7.5
  0
INSERT
  5
6D1
100
AcDbEntity
  8
0
  6
BYBLOCK
 62
     0
100
AcDbBlockReference
  2
YAZ3
 10
617.43296
 20
138.313283
 30
0.0
 41
7.5
 42
7.5
 43
7.5
 50
180.0
  0
LINE
  5
6D2
100
AcDbEntity
  8
0
  6
BYBLOCK
 62
     0
100
AcDbLine
 10
607.43296
 20
138.313283
 30
0.0
 11
617.43296
 21
138.313283
 31
0.0
  0
TEXT
  5
6D3
100
AcDbEntity
  8
0
  6
BYBLOCK
 62
     0
100
AcDbText
 10
632.88296
 20
143.813283
 30
0.0
 40
11.0
  1
10
 72
     1
 11
640.740103
 21
149.313283
 31
0.0
100
AcDbText
 73
     2
  0
POINT
  5
6D4
100
AcDbEntity
  8
DEFPOINTS
  6
BYBLOCK
 62
     0
100
AcDbPoint
 10
607.43296
 20
173.510397
 30
0.0
  0
POINT
  5
6D5
100
AcDbEntity
  8
DEFPOINTS
  6
BYBLOCK
 62
     0
100
AcDbPoint
 10
617.43296
 20
159.510397
 30
0.0
  0
POINT
  5
6D6
100
AcDbEntity
  8
DEFPOINTS
  6
BYBLOCK
 62
     0
100
AcDbPoint
 10
617.43296
 20
138.313283
 30
0.0
  0
ENDBLK
  5
6D7
100
AcDbEntity
  8
SCALE
100
AcDbBlockEnd
  0
BLOCK
  5
6D8
100
AcDbEntity
  8
SCALE
100
AcDbBlockBegin
  2
*D10
 70
    65
 10
0.0
 20
0.0
 30
0.0
  3
*D10
  1

  0
LINE
  5
6D9
100
AcDbEntity
  8
0
  6
BYBLOCK
 62
     0
100
AcDbLine
 10
624.847383
 20
291.510397
 30
0.0
 11
624.847383
 21
301.955157
 31
0.0
  0
LINE
  5
6DA
100
AcDbEntity
  8
0
  6
BYBLOCK
 62
     0
100
AcDbLine
 10
626.347383
 20
291.510397
 30
0.0
 11
626.347383
 21
301.955157
 31
0.0
  0
LINE
  5
6DB
100
AcDbEntity
  8
0
  6
BYBLOCK
 62
     0
100
AcDbLine
 10
617.347383
 20
294.455157
 30
0.0
 11
609.847383
 21
294.455157
 31
0.0
  0
LINE
  5
6DC
100
AcDbEntity
  8
0
  6
BYBLOCK
 62
     0
100
AcDbLine
 10
633.847383
 20
294.455157
 30
0.0
 11
641.347383
 21
294.455157
 31
0.0
  0
LINE
  5
6DD
100
AcDbEntity
  8
0
  6
BYBLOCK
 62
     0
100
AcDbLine
 10
641.347383
 20
294.455157
 30
0.0
 11
662.749764
 21
294.455157
 31
0.0
  0
INSERT
  5
6DE
100
AcDbEntity
  8
0
  6
BYBLOCK
 62
     0
100
AcDbBlockReference
  2
YAZ3
 10
624.847383
 20
294.455157
 30
0.0
 41
7.5
 42
7.5
 43
7.5
  0
INSERT
  5
6DF
100
AcDbEntity
  8
0
  6
BYBLOCK
 62
     0
100
AcDbBlockReference
  2
YAZ3
 10
626.347383
 20
294.455157
 30
0.0
 41
7.5
 42
7.5
 43
7.5
 50
180.0
  0
LINE
  5
6E0
100
AcDbEntity
  8
0
  6
BYBLOCK
 62
     0
100
AcDbLine
 10
624.847383
 20
294.455157
 30
0.0
 11
626.347383
 21
294.455157
 31
0.0
  0
TEXT
  5
6E1
100
AcDbEntity
  8
0
  6
BYBLOCK
 62
     0
100
AcDbText
 10
641.797383
 20
299.955157
 30
0.0
 40
11.0
  1
1.5
 72
     1
 11
652.273573
 21
305.455157
 31
0.0
100
AcDbText
 73
     2
  0
POINT
  5
6E2
100
AcDbEntity
  8
DEFPOINTS
  6
BYBLOCK
 62
     0
100
AcDbPoint
 10
624.847383
 20
281.510397
 30
0.0
  0
POINT
  5
6E3
100
AcDbEntity
  8
DEFPOINTS
  6
BYBLOCK
 62
     0
100
AcDbPoint
 10
626.347383
 20
281.510397
 30
0.0
  0
POINT
  5
6E4
100
AcDbEntity
  8
DEFPOINTS
  6
BYBLOCK
 62
     0
100
AcDbPoint
 10
626.347383
 20
294.455157
 30
0.0
  0
ENDBLK
  5
6E5
100
AcDbEntity
  8
SCALE
100
AcDbBlockEnd
  0
BLOCK
  5
6E6
100
AcDbEntity
  8
SCALE
100
AcDbBlockBegin
  2
*D11
 70
    65
 10
0.0
 20
0.0
 30
0.0
  3
*D11
  1

  0
LINE
  5
6E7
100
AcDbEntity
  8
0
  6
BYBLOCK
 62
     0
100
AcDbLine
 10
217.142888
 20
408.866931
 30
0.0
 11
217.142888
 21
346.657129
 31
0.0
  0
LINE
  5
6E8
100
AcDbEntity
  8
0
  6
BYBLOCK
 62
     0
100
AcDbLine
 10
471.970379
 20
408.866931
 30
0.0
 11
471.970379
 21
346.657129
 31
0.0
  0
LINE
  5
6E9
100
AcDbEntity
  8
0
  6
BYBLOCK
 62
     0
100
AcDbLine
 10
224.642888
 20
354.157129
 30
0.0
 11
464.470379
 21
354.157129
 31
0.0
  0
INSERT
  5
6EA
100
AcDbEntity
  8
0
  6
BYBLOCK
 62
     0
100
AcDbBlockReference
  2
YAZ3
 10
217.142888
 20
354.157129
 30
0.0
 41
7.5
 42
7.5
 43
7.5
 50
180.0
  0
INSERT
  5
6EB
100
AcDbEntity
  8
0
  6
BYBLOCK
 62
     0
100
AcDbBlockReference
  2
YAZ3
 10
471.970379
 20
354.157129
 30
0.0
 41
7.5
 42
7.5
 43
7.5
  0
TEXT
  5
6EC
100
AcDbEntity
  8
0
  6
BYBLOCK
 62
     0
100
AcDbText
 10
322.556633
 20
359.657129
 30
0.0
 40
11.0
  1
254.8
 72
     1
 11
344.556633
 21
365.157129
 31
0.0
100
AcDbText
 73
     2
  0
POINT
  5
6ED
100
AcDbEntity
  8
DEFPOINTS
  6
BYBLOCK
 62
     0
100
AcDbPoint
 10
217.142888
 20
418.866931
 30
0.0
  0
POINT
  5
6EE
100
AcDbEntity
  8
DEFPOINTS
  6
BYBLOCK
 62
     0
100
AcDbPoint
 10
471.970379
 20
418.866931
 30
0.0
  0
POINT
  5
6EF
100
AcDbEntity
  8
DEFPOINTS
  6
BYBLOCK
 62
     0
100
AcDbPoint
 10
471.970379
 20
354.157129
 30
0.0
  0
ENDBLK
  5
6F0
100
AcDbEntity
  8
SCALE
100
AcDbBlockEnd
  0
BLOCK
  5
6F1
100
AcDbEntity
  8
SCALE
100
AcDbBlockBegin
  2
*D12
 70
    65
 10
0.0
 20
0.0
 30
0.0
  3
*D12
  1

  0
LINE
  5
6F2
100
AcDbEntity
  8
0
  6
BYBLOCK
 62
     0
100
AcDbLine
 10
188.556633
 20
449.204431
 30
0.0
 11
188.556633
 21
326.766084
 31
0.0
  0
LINE
  5
6F3
100
AcDbEntity
  8
0
  6
BYBLOCK
 62
     0
100
AcDbLine
 10
500.556633
 20
449.204431
 30
0.0
 11
500.556633
 21
326.766084
 31
0.0
  0
LINE
  5
6F4
100
AcDbEntity
  8
0
  6
BYBLOCK
 62
     0
100
AcDbLine
 10
196.056633
 20
334.266084
 30
0.0
 11
493.056633
 21
334.266084
 31
0.0
  0
INSERT
  5
6F5
100
AcDbEntity
  8
0
  6
BYBLOCK
 62
     0
100
AcDbBlockReference
  2
YAZ3
 10
188.556633
 20
334.266084
 30
0.0
 41
7.5
 42
7.5
 43
7.5
 50
180.0
  0
INSERT
  5
6F6
100
AcDbEntity
  8
0
  6
BYBLOCK
 62
     0
100
AcDbBlockReference
  2
YAZ3
 10
500.556633
 20
334.266084
 30
0.0
 41
7.5
 42
7.5
 43
7.5
  0
TEXT
  5
6F7
100
AcDbEntity
  8
0
  6
BYBLOCK
 62
     0
100
AcDbText
 10
331.461395
 20
339.766084
 30
0.0
 40
11.0
  1
312
 72
     1
 11
344.556633
 21
345.266084
 31
0.0
100
AcDbText
 73
     2
  0
POINT
  5
6F8
100
AcDbEntity
  8
DEFPOINTS
  6
BYBLOCK
 62
     0
100
AcDbPoint
 10
188.556633
 20
459.204431
 30
0.0
  0
POINT
  5
6F9
100
AcDbEntity
  8
DEFPOINTS
  6
BYBLOCK
 62
     0
100
AcDbPoint
 10
500.556633
 20
459.204431
 30
0.0
  0
POINT
  5
6FA
100
AcDbEntity
  8
DEFPOINTS
  6
BYBLOCK
 62
     0
100
AcDbPoint
 10
500.556633
 20
334.266084
 30
0.0
  0
ENDBLK
  5
6FB
100
AcDbEntity
  8
SCALE
100
AcDbBlockEnd
  0
BLOCK
  5
6FC
100
AcDbEntity
  8
SCALE
100
AcDbBlockBegin
  2
*D13
 70
    65
 10
0.0
 20
0.0
 30
0.0
  3
*D13
  1

  0
LINE
  5
6FD
100
AcDbEntity
  8
0
  6
BYBLOCK
 62
     0
100
AcDbLine
 10
857.756354
 20
584.830474
 30
0.0
 11
869.490384
 21
584.830474
 31
0.0
  0
LINE
  5
6FE
100
AcDbEntity
  8
0
  6
BYBLOCK
 62
     0
100
AcDbLine
 10
857.756354
 20
571.601308
 30
0.0
 11
869.490384
 21
571.601308
 31
0.0
  0
LINE
  5
6FF
100
AcDbEntity
  8
0
  6
BYBLOCK
 62
     0
100
AcDbLine
 10
861.990384
 20
592.330474
 30
0.0
 11
861.990384
 21
599.830474
 31
0.0
  0
LINE
  5
700
100
AcDbEntity
  8
0
  6
BYBLOCK
 62
     0
100
AcDbLine
 10
861.990384
 20
564.101308
 30
0.0
 11
861.990384
 21
556.601308
 31
0.0
  0
LINE
  5
701
100
AcDbEntity
  8
0
  6
BYBLOCK
 62
     0
100
AcDbLine
 10
861.990384
 20
556.601308
 30
0.0
 11
861.990384
 21
473.913213
 31
0.0
  0
INSERT
  5
702
100
AcDbEntity
  8
0
  6
BYBLOCK
 62
     0
100
AcDbBlockReference
  2
YAZ3
 10
861.990384
 20
584.830474
 30
0.0
 41
7.5
 42
7.5
 43
7.5
 50
270.0
  0
INSERT
  5
703
100
AcDbEntity
  8
0
  6
BYBLOCK
 62
     0
100
AcDbBlockReference
  2
YAZ3
 10
861.990384
 20
571.601308
 30
0.0
 41
7.5
 42
7.5
 43
7.5
 50
90.0
  0
LINE
  5
704
100
AcDbEntity
  8
0
  6
BYBLOCK
 62
     0
100
AcDbLine
 10
861.990384
 20
584.830474
 30
0.0
 11
861.990384
 21
571.601308
 31
0.0
  0
TEXT
  5
705
100
AcDbEntity
  8
0
  6
BYBLOCK
 62
     0
100
AcDbText
 10
856.490384
 20
473.913213
 30
0.0
 40
11.0
  1
9-30 mm
 50
90.0
 72
     1
 11
850.990384
 21
515.03226
 31
0.0
100
AcDbText
 73
     2
  0
POINT
  5
706
100
AcDbEntity
  8
DEFPOINTS
  6
BYBLOCK
 62
     0
100
AcDbPoint
 10
847.756354
 20
584.830474
 30
0.0
  0
POINT
  5
707
100
AcDbEntity
  8
DEFPOINTS
  6
BYBLOCK
 62
     0
100
AcDbPoint
 10
847.756354
 20
571.601308
 30
0.0
  0
POINT
  5
708
100
AcDbEntity
  8
DEFPOINTS
  6
BYBLOCK
 62
     0
100
AcDbPoint
 10
861.990384
 20
571.601308
 30
0.0
  0
ENDBLK
  5
709
100
AcDbEntity
  8
SCALE
100
AcDbBlockEnd
  0
BLOCK
  5
70A
100
AcDbEntity
  8
SCALE
100
AcDbBlockBegin
  2
*D14
 70
    65
 10
0.0
 20
0.0
 30
0.0
  3
*D14
  1

  0
LINE
  5
70B
100
AcDbEntity
  8
0
  6
BYBLOCK
 62
     0
100
AcDbLine
 10
568.756354
 20
798.599761
 30
0.0
 11
568.756354
 21
810.170833
 31
0.0
  0
LINE
  5
70C
100
AcDbEntity
  8
0
  6
BYBLOCK
 62
     0
100
AcDbLine
 10
836.756354
 20
798.599761
 30
0.0
 11
836.756354
 21
810.170833
 31
0.0
  0
LINE
  5
70D
100
AcDbEntity
  8
0
  6
BYBLOCK
 62
     0
100
AcDbLine
 10
576.256354
 20
802.670833
 30
0.0
 11
829.256354
 21
802.670833
 31
0.0
  0
INSERT
  5
70E
100
AcDbEntity
  8
0
  6
BYBLOCK
 62
     0
100
AcDbBlockReference
  2
YAZ3
 10
568.756354
 20
802.670833
 30
0.0
 41
7.5
 42
7.5
 43
7.5
 50
180.0
  0
INSERT
  5
70F
100
AcDbEntity
  8
0
  6
BYBLOCK
 62
     0
100
AcDbBlockReference
  2
YAZ3
 10
836.756354
 20
802.670833
 30
0.0
 41
7.5
 42
7.5
 43
7.5
  0
TEXT
  5
710
100
AcDbEntity
  8
0
  6
BYBLOCK
 62
     0
100
AcDbText
 10
688.613497
 20
808.170833
 30
0.0
 40
11.0
  1
268
 72
     1
 11
702.756354
 21
813.670833
 31
0.0
100
AcDbText
 73
     2
  0
POINT
  5
711
100
AcDbEntity
  8
DEFPOINTS
  6
BYBLOCK
 62
     0
100
AcDbPoint
 10
568.756354
 20
788.599761
 30
0.0
  0
POINT
  5
712
100
AcDbEntity
  8
DEFPOINTS
  6
BYBLOCK
 62
     0
100
AcDbPoint
 10
836.756354
 20
788.599761
 30
0.0
  0
POINT
  5
713
100
AcDbEntity
  8
DEFPOINTS
  6
BYBLOCK
 62
     0
100
AcDbPoint
 10
836.756354
 20
802.670833
 30
0.0
  0
ENDBLK
  5
714
100
AcDbEntity
  8
SCALE
100
AcDbBlockEnd
  0
BLOCK
  5
715
100
AcDbEntity
  8
0
100
AcDbBlockBegin
  2
INSLYTXT
 70
    64
 10
0.0
 20
0.0
 30
0.0
  3
INSLYTXT
  1

  0
ENDBLK
  5
716
100
AcDbEntity
  8
0
100
AcDbBlockEnd
  0
BLOCK
  5
717
100
AcDbEntity
  8
SCALE
100
AcDbBlockBegin
  2
*D16
 70
    65
 10
0.0
 20
0.0
 30
0.0
  3
*D16
  1

  0
LINE
  5
718
100
AcDbEntity
  8
0
  6
BYBLOCK
 62
     0
100
AcDbLine
 10
1438.764926
 20
594.925977
 30
0.0
 11
1573.589052
 21
594.925977
 31
0.0
  0
LINE
  5
719
100
AcDbEntity
  8
0
  6
BYBLOCK
 62
     0
100
AcDbLine
 10
1438.764926
 20
488.925977
 30
0.0
 11
1573.589052
 21
488.925977
 31
0.0
  0
LINE
  5
71A
100
AcDbEntity
  8
0
  6
BYBLOCK
 62
     0
100
AcDbLine
 10
1566.089052
 20
587.425977
 30
0.0
 11
1566.089052
 21
496.425977
 31
0.0
  0
INSERT
  5
71B
100
AcDbEntity
  8
0
  6
BYBLOCK
 62
     0
100
AcDbBlockReference
  2
YAZ3
 10
1566.089052
 20
594.925977
 30
0.0
 41
7.5
 42
7.5
 43
7.5
 50
90.0
  0
INSERT
  5
71C
100
AcDbEntity
  8
0
  6
BYBLOCK
 62
     0
100
AcDbBlockReference
  2
YAZ3
 10
1566.089052
 20
488.925977
 30
0.0
 41
7.5
 42
7.5
 43
7.5
 50
270.0
  0
TEXT
  5
71D
100
AcDbEntity
  8
0
  6
BYBLOCK
 62
     0
100
AcDbText
 10
1560.589052
 20
529.092643
 30
0.0
 40
11.0
  1
106
 50
90.0
 72
     1
 11
1555.089052
 21
541.925977
 31
0.0
100
AcDbText
 73
     2
  0
POINT
  5
71E
100
AcDbEntity
  8
DEFPOINTS
  6
BYBLOCK
 62
     0
100
AcDbPoint
 10
1428.764926
 20
594.925977
 30
0.0
  0
POINT
  5
71F
100
AcDbEntity
  8
DEFPOINTS
  6
BYBLOCK
 62
     0
100
AcDbPoint
 10
1428.764926
 20
488.925977
 30
0.0
  0
POINT
  5
720
100
AcDbEntity
  8
DEFPOINTS
  6
BYBLOCK
 62
     0
100
AcDbPoint
 10
1566.089052
 20
488.925977
 30
0.0
  0
ENDBLK
  5
721
100
AcDbEntity
  8
SCALE
100
AcDbBlockEnd
  0
BLOCK
  5
722
100
AcDbEntity
  8
SCALE
100
AcDbBlockBegin
  2
*D17
 70
    65
 10
0.0
 20
0.0
 30
0.0
  3
*D17
  1

  0
LINE
  5
723
100
AcDbEntity
  8
0
  6
BYBLOCK
 62
     0
100
AcDbLine
 10
1163.129757
 20
637.784597
 30
0.0
 11
1163.129757
 21
635.284597
 31
0.0
  0
LINE
  5
724
100
AcDbEntity
  8
0
  6
BYBLOCK
 62
     0
100
AcDbLine
 10
1417.129757
 20
637.784597
 30
0.0
 11
1417.129757
 21
635.284597
 31
0.0
  0
LINE
  5
725
100
AcDbEntity
  8
0
  6
BYBLOCK
 62
     0
100
AcDbLine
 10
1170.629757
 20
627.784597
 30
0.0
 11
1409.629757
 21
627.784597
 31
0.0
  0
INSERT
  5
726
100
AcDbEntity
  8
0
  6
BYBLOCK
 62
     0
100
AcDbBlockReference
  2
YAZ3
 10
1163.129757
 20
627.784597
 30
0.0
 41
7.5
 42
7.5
 43
7.5
 50
180.0
  0
INSERT
  5
727
100
AcDbEntity
  8
0
  6
BYBLOCK
 62
     0
100
AcDbBlockReference
  2
YAZ3
 10
1417.129757
 20
627.784597
 30
0.0
 41
7.5
 42
7.5
 43
7.5
  0
TEXT
  5
728
100
AcDbEntity
  8
0
  6
BYBLOCK
 62
     0
100
AcDbText
 10
1255.558328
 20
633.284597
 30
0.0
 40
11.0
  1
254(10")
 72
     1
 11
1290.129757
 21
638.784597
 31
0.0
100
AcDbText
 73
     2
  0
POINT
  5
729
100
AcDbEntity
  8
DEFPOINTS
  6
BYBLOCK
 62
     0
100
AcDbPoint
 10
1163.129757
 20
627.784597
 30
0.0
  0
POINT
  5
72A
100
AcDbEntity
  8
DEFPOINTS
  6
BYBLOCK
 62
     0
100
AcDbPoint
 10
1417.129757
 20
627.784597
 30
0.0
  0
POINT
  5
72B
100
AcDbEntity
  8
DEFPOINTS
  6
BYBLOCK
 62
     0
100
AcDbPoint
 10
1417.129757
 20
627.784597
 30
0.0
  0
ENDBLK
  5
72C
100
AcDbEntity
  8
SCALE
100
AcDbBlockEnd
  0
BLOCK
  5
72D
100
AcDbEntity
  8
SCALE
100
AcDbBlockBegin
  2
*D18
 70
    65
 10
0.0
 20
0.0
 30
0.0
  3
*D18
  1

  0
LINE
  5
72E
100
AcDbEntity
  8
0
  6
BYBLOCK
 62
     0
100
AcDbLine
 10
1187.864926
 20
581.925977
 30
0.0
 11
1187.864926
 21
615.63619
 31
0.0
  0
LINE
  5
72F
100
AcDbEntity
  8
0
  6
BYBLOCK
 62
     0
100
AcDbLine
 10
1418.664926
 20
581.925977
 30
0.0
 11
1418.664926
 21
615.63619
 31
0.0
  0
LINE
  5
730
100
AcDbEntity
  8
0
  6
BYBLOCK
 62
     0
100
AcDbLine
 10
1195.364926
 20
608.13619
 30
0.0
 11
1411.164926
 21
608.13619
 31
0.0
  0
INSERT
  5
731
100
AcDbEntity
  8
0
  6
BYBLOCK
 62
     0
100
AcDbBlockReference
  2
YAZ3
 10
1187.864926
 20
608.13619
 30
0.0
 41
7.5
 42
7.5
 43
7.5
 50
180.0
  0
INSERT
  5
732
100
AcDbEntity
  8
0
  6
BYBLOCK
 62
     0
100
AcDbBlockReference
  2
YAZ3
 10
1418.664926
 20
608.13619
 30
0.0
 41
7.5
 42
7.5
 43
7.5
  0
TEXT
  5
733
100
AcDbEntity
  8
0
  6
BYBLOCK
 62
     0
100
AcDbText
 10
1281.264926
 20
613.63619
 30
0.0
 40
11.0
  1
230.8
 72
     1
 11
1303.264926
 21
619.13619
 31
0.0
100
AcDbText
 73
     2
  0
POINT
  5
734
100
AcDbEntity
  8
DEFPOINTS
  6
BYBLOCK
 62
     0
100
AcDbPoint
 10
1187.864926
 20
571.925977
 30
0.0
  0
POINT
  5
735
100
AcDbEntity
  8
DEFPOINTS
  6
BYBLOCK
 62
     0
100
AcDbPoint
 10
1418.664926
 20
571.925977
 30
0.0
  0
POINT
  5
736
100
AcDbEntity
  8
DEFPOINTS
  6
BYBLOCK
 62
     0
100
AcDbPoint
 10
1418.664926
 20
608.13619
 30
0.0
  0
ENDBLK
  5
737
100
AcDbEntity
  8
SCALE
100
AcDbBlockEnd
  0
BLOCK
  5
738
100
AcDbEntity
  8
SCALE
100
AcDbBlockBegin
  2
*D19
 70
    65
 10
0.0
 20
0.0
 30
0.0
  3
*D19
  1

  0
LINE
  5
739
100
AcDbEntity
  8
0
  6
BYBLOCK
 62
     0
100
AcDbLine
 10
1181.264926
 20
475.425977
 30
0.0
 11
1181.264926
 21
452.796203
 31
0.0
  0
LINE
  5
73A
100
AcDbEntity
  8
0
  6
BYBLOCK
 62
     0
100
AcDbLine
 10
1425.264926
 20
475.425977
 30
0.0
 11
1425.264926
 21
452.796203
 31
0.0
  0
LINE
  5
73B
100
AcDbEntity
  8
0
  6
BYBLOCK
 62
     0
100
AcDbLine
 10
1188.764926
 20
460.296203
 30
0.0
 11
1417.764926
 21
460.296203
 31
0.0
  0
INSERT
  5
73C
100
AcDbEntity
  8
0
  6
BYBLOCK
 62
     0
100
AcDbBlockReference
  2
YAZ3
 10
1181.264926
 20
460.296203
 30
0.0
 41
7.5
 42
7.5
 43
7.5
 50
180.0
  0
INSERT
  5
73D
100
AcDbEntity
  8
0
  6
BYBLOCK
 62
     0
100
AcDbBlockReference
  2
YAZ3
 10
1425.264926
 20
460.296203
 30
0.0
 41
7.5
 42
7.5
 43
7.5
  0
TEXT
  5
73E
100
AcDbEntity
  8
0
  6
BYBLOCK
 62
     0
100
AcDbText
 10
1288.860165
 20
465.796203
 30
0.0
 40
11.0
  1
244
 72
     1
 11
1303.264926
 21
471.296203
 31
0.0
100
AcDbText
 73
     2
  0
POINT
  5
73F
100
AcDbEntity
  8
DEFPOINTS
  6
BYBLOCK
 62
     0
100
AcDbPoint
 10
1181.264926
 20
485.425977
 30
0.0
  0
POINT
  5
740
100
AcDbEntity
  8
DEFPOINTS
  6
BYBLOCK
 62
     0
100
AcDbPoint
 10
1425.264926
 20
485.425977
 30
0.0
  0
POINT
  5
741
100
AcDbEntity
  8
DEFPOINTS
  6
BYBLOCK
 62
     0
100
AcDbPoint
 10
1425.264926
 20
460.296203
 30
0.0
  0
ENDBLK
  5
742
100
AcDbEntity
  8
SCALE
100
AcDbBlockEnd
  0
BLOCK
  5
743
100
AcDbEntity
  8
SCALE
100
AcDbBlockBegin
  2
*D20
 70
    65
 10
0.0
 20
0.0
 30
0.0
  3
*D20
  1

  0
LINE
  5
744
100
AcDbEntity
  8
0
  6
BYBLOCK
 62
     0
100
AcDbLine
 10
1149.433198
 20
449.105969
 30
0.0
 11
1149.433198
 21
446.605969
 31
0.0
  0
LINE
  5
745
100
AcDbEntity
  8
0
  6
BYBLOCK
 62
     0
100
AcDbLine
 10
1405.020698
 20
449.105969
 30
0.0
 11
1405.020698
 21
446.605969
 31
0.0
  0
LINE
  5
746
100
AcDbEntity
  8
0
  6
BYBLOCK
 62
     0
100
AcDbLine
 10
1156.933198
 20
439.105969
 30
0.0
 11
1397.520698
 21
439.105969
 31
0.0
  0
INSERT
  5
747
100
AcDbEntity
  8
0
  6
BYBLOCK
 62
     0
100
AcDbBlockReference
  2
YAZ3
 10
1149.433198
 20
439.105969
 30
0.0
 41
7.5
 42
7.5
 43
7.5
 50
180.0
  0
INSERT
  5
748
100
AcDbEntity
  8
0
  6
BYBLOCK
 62
     0
100
AcDbBlockReference
  2
YAZ3
 10
1405.020698
 20
439.105969
 30
0.0
 41
7.5
 42
7.5
 43
7.5
  0
TEXT
  5
749
100
AcDbEntity
  8
0
  6
BYBLOCK
 62
     0
100
AcDbText
 10
1224.845996
 20
444.605969
 30
0.0
 40
11.0
  1
255.6(10  ")
 72
     1
 11
1277.226948
 21
450.105969
 31
0.0
100
AcDbText
 73
     2
  0
POINT
  5
74A
100
AcDbEntity
  8
DEFPOINTS
  6
BYBLOCK
 62
     0
100
AcDbPoint
 10
1149.433198
 20
439.105969
 30
0.0
  0
POINT
  5
74B
100
AcDbEntity
  8
DEFPOINTS
  6
BYBLOCK
 62
     0
100
AcDbPoint
 10
1405.020698
 20
439.105969
 30
0.0
  0
POINT
  5
74C
100
AcDbEntity
  8
DEFPOINTS
  6
BYBLOCK
 62
     0
100
AcDbPoint
 10
1405.020698
 20
439.105969
 30
0.0
  0
ENDBLK
  5
74D
100
AcDbEntity
  8
SCALE
100
AcDbBlockEnd
  0
BLOCK
  5
74E
100
AcDbEntity
  8
SCALE
100
AcDbBlockBegin
  2
*D21
 70
    65
 10
0.0
 20
0.0
 30
0.0
  3
*D21
  1

  0
LINE
  5
74F
100
AcDbEntity
  8
0
  6
BYBLOCK
 62
     0
100
AcDbLine
 10
1454.864926
 20
480.925977
 30
0.0
 11
1596.080826
 21
480.925977
 31
0.0
  0
LINE
  5
750
100
AcDbEntity
  8
0
  6
BYBLOCK
 62
     0
100
AcDbLine
 10
1454.864926
 20
602.925977
 30
0.0
 11
1596.080826
 21
602.925977
 31
0.0
  0
LINE
  5
751
100
AcDbEntity
  8
0
  6
BYBLOCK
 62
     0
100
AcDbLine
 10
1588.580826
 20
488.425977
 30
0.0
 11
1588.580826
 21
595.425977
 31
0.0
  0
INSERT
  5
752
100
AcDbEntity
  8
0
  6
BYBLOCK
 62
     0
100
AcDbBlockReference
  2
YAZ3
 10
1588.580826
 20
480.925977
 30
0.0
 41
7.5
 42
7.5
 43
7.5
 50
270.0
  0
INSERT
  5
753
100
AcDbEntity
  8
0
  6
BYBLOCK
 62
     0
100
AcDbBlockReference
  2
YAZ3
 10
1588.580826
 20
602.925977
 30
0.0
 41
7.5
 42
7.5
 43
7.5
 50
90.0
  0
TEXT
  5
754
100
AcDbEntity
  8
0
  6
BYBLOCK
 62
     0
100
AcDbText
 10
1583.080826
 20
528.830739
 30
0.0
 40
11.0
  1
122
 50
90.0
 72
     1
 11
1577.580826
 21
541.925977
 31
0.0
100
AcDbText
 73
     2
  0
POINT
  5
755
100
AcDbEntity
  8
DEFPOINTS
  6
BYBLOCK
 62
     0
100
AcDbPoint
 10
1444.864926
 20
480.925977
 30
0.0
  0
POINT
  5
756
100
AcDbEntity
  8
DEFPOINTS
  6
BYBLOCK
 62
     0
100
AcDbPoint
 10
1444.864926
 20
602.925977
 30
0.0
  0
POINT
  5
757
100
AcDbEntity
  8
DEFPOINTS
  6
BYBLOCK
 62
     0
100
AcDbPoint
 10
1588.580826
 20
602.925977
 30
0.0
  0
ENDBLK
  5
758
100
AcDbEntity
  8
SCALE
100
AcDbBlockEnd
  0
BLOCK
  5
759
100
AcDbEntity
  8
SCALE
100
AcDbBlockBegin
  2
*D22
 70
    65
 10
0.0
 20
0.0
 30
0.0
  3
*D22
  1

  0
LINE
  5
75A
100
AcDbEntity
  8
0
  6
BYBLOCK
 62
     0
100
AcDbLine
 10
1443.764926
 20
575.263477
 30
0.0
 11
1531.074113
 21
575.263477
 31
0.0
  0
LINE
  5
75B
100
AcDbEntity
  8
0
  6
BYBLOCK
 62
     0
100
AcDbLine
 10
1443.764926
 20
508.588477
 30
0.0
 11
1531.074113
 21
508.588477
 31
0.0
  0
LINE
  5
75C
100
AcDbEntity
  8
0
  6
BYBLOCK
 62
     0
100
AcDbLine
 10
1523.574113
 20
567.763477
 30
0.0
 11
1523.574113
 21
516.088477
 31
0.0
  0
INSERT
  5
75D
100
AcDbEntity
  8
0
  6
BYBLOCK
 62
     0
100
AcDbBlockReference
  2
YAZ3
 10
1523.574113
 20
575.263477
 30
0.0
 41
7.5
 42
7.5
 43
7.5
 50
90.0
  0
INSERT
  5
75E
100
AcDbEntity
  8
0
  6
BYBLOCK
 62
     0
100
AcDbBlockReference
  2
YAZ3
 10
1523.574113
 20
508.588477
 30
0.0
 41
7.5
 42
7.5
 43
7.5
 50
270.0
  0
TEXT
  5
75F
100
AcDbEntity
  8
0
  6
BYBLOCK
 62
     0
100
AcDbText
 10
1518.074113
 20
525.164072
 30
0.0
 40
11.0
  1
66.7
 50
90.0
 72
     1
 11
1512.574113
 21
541.925977
 31
0.0
100
AcDbText
 73
     2
  0
POINT
  5
760
100
AcDbEntity
  8
DEFPOINTS
  6
BYBLOCK
 62
     0
100
AcDbPoint
 10
1433.764926
 20
575.263477
 30
0.0
  0
POINT
  5
761
100
AcDbEntity
  8
DEFPOINTS
  6
BYBLOCK
 62
     0
100
AcDbPoint
 10
1433.764926
 20
508.588477
 30
0.0
  0
POINT
  5
762
100
AcDbEntity
  8
DEFPOINTS
  6
BYBLOCK
 62
     0
100
AcDbPoint
 10
1523.574113
 20
508.588477
 30
0.0
  0
ENDBLK
  5
763
100
AcDbEntity
  8
SCALE
100
AcDbBlockEnd
  0
BLOCK
  5
764
100
AcDbEntity
  8
SCALE
100
AcDbBlockBegin
  2
*D23
 70
    65
 10
0.0
 20
0.0
 30
0.0
  3
*D23
  1

  0
LINE
  5
765
100
AcDbEntity
  8
0
  6
BYBLOCK
 62
     0
100
AcDbLine
 10
1444.558676
 20
569.707227
 30
0.0
 11
1490.890639
 21
569.707227
 31
0.0
  0
LINE
  5
766
100
AcDbEntity
  8
0
  6
BYBLOCK
 62
     0
100
AcDbLine
 10
1444.558676
 20
514.144727
 30
0.0
 11
1490.890639
 21
514.144727
 31
0.0
  0
LINE
  5
767
100
AcDbEntity
  8
0
  6
BYBLOCK
 62
     0
100
AcDbLine
 10
1483.390639
 20
562.207227
 30
0.0
 11
1483.390639
 21
521.644727
 31
0.0
  0
INSERT
  5
768
100
AcDbEntity
  8
0
  6
BYBLOCK
 62
     0
100
AcDbBlockReference
  2
YAZ3
 10
1483.390639
 20
569.707227
 30
0.0
 41
7.5
 42
7.5
 43
7.5
 50
90.0
  0
INSERT
  5
769
100
AcDbEntity
  8
0
  6
BYBLOCK
 62
     0
100
AcDbBlockReference
  2
YAZ3
 10
1483.390639
 20
514.144727
 30
0.0
 41
7.5
 42
7.5
 43
7.5
 50
270.0
  0
TEXT
  5
76A
100
AcDbEntity
  8
0
  6
BYBLOCK
 62
     0
100
AcDbText
 10
1477.890639
 20
525.425977
 30
0.0
 40
11.0
  1
55.6
 50
90.0
 72
     1
 11
1472.390639
 21
541.925977
 31
0.0
100
AcDbText
 73
     2
  0
POINT
  5
76B
100
AcDbEntity
  8
DEFPOINTS
  6
BYBLOCK
 62
     0
100
AcDbPoint
 10
1434.558676
 20
569.707227
 30
0.0
  0
POINT
  5
76C
100
AcDbEntity
  8
DEFPOINTS
  6
BYBLOCK
 62
     0
100
AcDbPoint
 10
1434.558676
 20
514.144727
 30
0.0
  0
POINT
  5
76D
100
AcDbEntity
  8
DEFPOINTS
  6
BYBLOCK
 62
     0
100
AcDbPoint
 10
1483.390639
 20
514.144727
 30
0.0
  0
ENDBLK
  5
76E
100
AcDbEntity
  8
SCALE
100
AcDbBlockEnd
  0
BLOCK
  5
76F
100
AcDbEntity
  8
SCALE
100
AcDbBlockBegin
  2
*D24
 70
    65
 10
0.0
 20
0.0
 30
0.0
  3
*D24
  1

  0
LINE
  5
770
100
AcDbEntity
  8
0
  6
BYBLOCK
 62
     0
100
AcDbLine
 10
1200.864926
 20
568.925977
 30
0.0
 11
1226.176251
 21
568.925977
 31
0.0
  0
LINE
  5
771
100
AcDbEntity
  8
0
  6
BYBLOCK
 62
     0
100
AcDbLine
 10
1200.864926
 20
514.925977
 30
0.0
 11
1226.176251
 21
514.925977
 31
0.0
  0
LINE
  5
772
100
AcDbEntity
  8
0
  6
BYBLOCK
 62
     0
100
AcDbLine
 10
1218.676251
 20
561.425977
 30
0.0
 11
1218.676251
 21
522.425977
 31
0.0
  0
INSERT
  5
773
100
AcDbEntity
  8
0
  6
BYBLOCK
 62
     0
100
AcDbBlockReference
  2
YAZ3
 10
1218.676251
 20
568.925977
 30
0.0
 41
7.5
 42
7.5
 43
7.5
 50
90.0
  0
INSERT
  5
774
100
AcDbEntity
  8
0
  6
BYBLOCK
 62
     0
100
AcDbBlockReference
  2
YAZ3
 10
1218.676251
 20
514.925977
 30
0.0
 41
7.5
 42
7.5
 43
7.5
 50
270.0
  0
TEXT
  5
775
100
AcDbEntity
  8
0
  6
BYBLOCK
 62
     0
100
AcDbText
 10
1213.176251
 20
532.75931
 30
0.0
 40
11.0
  1
54
 50
90.0
 72
     1
 11
1207.676251
 21
541.925977
 31
0.0
100
AcDbText
 73
     2
  0
POINT
  5
776
100
AcDbEntity
  8
DEFPOINTS
  6
BYBLOCK
 62
     0
100
AcDbPoint
 10
1190.864926
 20
568.925977
 30
0.0
  0
POINT
  5
777
100
AcDbEntity
  8
DEFPOINTS
  6
BYBLOCK
 62
     0
100
AcDbPoint
 10
1190.864926
 20
514.925977
 30
0.0
  0
POINT
  5
778
100
AcDbEntity
  8
DEFPOINTS
  6
BYBLOCK
 62
     0
100
AcDbPoint
 10
1218.676251
 20
514.925977
 30
0.0
  0
ENDBLK
  5
779
100
AcDbEntity
  8
SCALE
100
AcDbBlockEnd
  0
BLOCK
  5
77A
100
AcDbEntity
  8
SCALE
100
AcDbBlockBegin
  2
*D25
 70
    65
 10
0.0
 20
0.0
 30
0.0
  3
*D25
  1

  0
LINE
  5
77B
100
AcDbEntity
  8
0
  6
BYBLOCK
 62
     0
100
AcDbLine
 10
1159.664926
 20
472.925977
 30
0.0
 11
1159.664926
 21
412.199879
 31
0.0
  0
LINE
  5
77C
100
AcDbEntity
  8
0
  6
BYBLOCK
 62
     0
100
AcDbLine
 10
1446.864926
 20
472.925977
 30
0.0
 11
1446.864926
 21
412.199879
 31
0.0
  0
LINE
  5
77D
100
AcDbEntity
  8
0
  6
BYBLOCK
 62
     0
100
AcDbLine
 10
1167.164926
 20
419.699879
 30
0.0
 11
1439.364926
 21
419.699879
 31
0.0
  0
INSERT
  5
77E
100
AcDbEntity
  8
0
  6
BYBLOCK
 62
     0
100
AcDbBlockReference
  2
YAZ3
 10
1159.664926
 20
419.699879
 30
0.0
 41
7.5
 42
7.5
 43
7.5
 50
180.0
  0
INSERT
  5
77F
100
AcDbEntity
  8
0
  6
BYBLOCK
 62
     0
100
AcDbBlockReference
  2
YAZ3
 10
1446.864926
 20
419.699879
 30
0.0
 41
7.5
 42
7.5
 43
7.5
  0
TEXT
  5
780
100
AcDbEntity
  8
0
  6
BYBLOCK
 62
     0
100
AcDbText
 10
1281.264926
 20
425.199879
 30
0.0
 40
11.0
  1
287.2
 72
     1
 11
1303.264926
 21
430.699879
 31
0.0
100
AcDbText
 73
     2
  0
POINT
  5
781
100
AcDbEntity
  8
DEFPOINTS
  6
BYBLOCK
 62
     0
100
AcDbPoint
 10
1159.664926
 20
482.925977
 30
0.0
  0
POINT
  5
782
100
AcDbEntity
  8
DEFPOINTS
  6
BYBLOCK
 62
     0
100
AcDbPoint
 10
1446.864926
 20
482.925977
 30
0.0
  0
POINT
  5
783
100
AcDbEntity
  8
DEFPOINTS
  6
BYBLOCK
 62
     0
100
AcDbPoint
 10
1446.864926
 20
419.699879
 30
0.0
  0
ENDBLK
  5
784
100
AcDbEntity
  8
SCALE
100
AcDbBlockEnd
  0
ENDSEC
  0
SECTION
  2
ENTITIES
  0
TEXT
  5
5A
100
AcDbEntity
  8
1
100
AcDbText
 10
34.184505
 20
52.16887
 30
0.0
 40
12.5
  1
UNIT:mm
 41
0.8
  7
UT7
100
AcDbText
  0
TEXT
  5
5B
100
AcDbEntity
  8
1
100
AcDbText
 10
134.13921
 20
52.92887
 30
0.0
 40
12.5
  1
SCALE:1/5
 41
0.8
  7
UT7
100
AcDbText
  0
TEXT
  5
5C
100
AcDbEntity
  8
1
100
AcDbText
 10
288.604252
 20
60.604955
 30
0.0
 40
12.5
  1
Adapter Frame
 41
0.8
  7
UT7
 72
     4
 11
344.556633
 21
64.771622
 31
0.0
100
AcDbText
  0
LINE
  5
5D
100
AcDbEntity
  8
1
100
AcDbLine
 10
287.556633
 20
53.434601
 30
0.0
 11
401.556633
 21
53.434601
 31
0.0
  0
LINE
  5
5E
100
AcDbEntity
  8
1
100
AcDbLine
 10
307.056633
 20
306.579608
 30
0.0
 11
382.056633
 21
306.579608
 31
0.0
  0
TEXT
  5
5F
100
AcDbEntity
  8
1
100
AcDbText
 10
308.366157
 20
310.112783
 30
0.0
 40
12.5
  1
Rear View
 41
0.8
  7
UT7
 72
     4
 11
344.556633
 21
316.362783
 31
0.0
100
AcDbText
  0
TEXT
  5
60
100
AcDbEntity
  8
1
100
AcDbText
 10
309.794729
 20
524.623108
 30
0.0
 40
12.5
  1
Side View
 41
0.8
  7
UT7
 72
     4
 11
344.556633
 21
530.873108
 31
0.0
100
AcDbText
  0
LINE
  5
61
100
AcDbEntity
  8
1
100
AcDbLine
 10
307.056633
 20
521.089933
 30
0.0
 11
382.056633
 21
521.089933
 31
0.0
  0
LINE
  5
62
100
AcDbEntity
  8
1
100
AcDbLine
 10
304.556634
 20
650.546932
 30
0.0
 11
384.556634
 21
650.546932
 31
0.0
  0
TEXT
  5
63
100
AcDbEntity
  8
1
100
AcDbText
 10
305.509015
 20
654.080107
 30
0.0
 40
12.5
  1
Front View
 41
0.8
  7
UT7
 72
     4
 11
344.556634
 21
660.330107
 31
0.0
100
AcDbText
  0
LINE
  5
64
100
AcDbEntity
  8
1
100
AcDbLine
 10
61.409223
 20
650.546932
 30
0.0
 11
136.409223
 21
650.546932
 31
0.0
  0
TEXT
  5
65
100
AcDbEntity
  8
1
100
AcDbText
 10
64.147318
 20
654.080107
 30
0.0
 40
12.5
  1
Side View
 41
0.8
  7
UT7
 72
     4
 11
98.909223
 21
660.330107
 31
0.0
100
AcDbText
  0
TEXT
  5
66
100
AcDbEntity
  8
SCALE
100
AcDbText
 10
100.821702
 20
506.526033
 30
0.0
 40
11.0
  1
4-6x17.5
  7
UT7
100
AcDbText
  0
LINE
  5
67
100
AcDbEntity
  8
SCALE
100
AcDbLine
 10
99.175962
 20
502.093027
 30
0.0
 11
182.765818
 21
502.093027
 31
0.0
  0
LINE
  5
68
100
AcDbEntity
  8
SCALE
100
AcDbLine
 10
132.856567
 20
525.148741
 30
0.0
 11
198.068998
 21
525.148741
 31
0.0
  0
TEXT
  5
69
100
AcDbEntity
  8
SCALE
100
AcDbText
 10
135.119459
 20
529.581746
 30
0.0
 40
11.0
  1
4-5x11
  7
UT7
100
AcDbText
  0
LINE
  5
6A
100
AcDbEntity
  8
1
100
AcDbLine
 10
694.01514
 20
371.207559
 30
0.0
 11
694.302392
 21
371.494812
 31
0.0
  0
LINE
  5
6B
100
AcDbEntity
  8
1
100
AcDbLine
 10
685.681806
 20
377.016362
 30
0.0
 11
689.74359
 21
381.078145
 31
0.0
  0
LINE
  5
6C
100
AcDbEntity
  8
1
100
AcDbLine
 10
685.681806
 20
369.945294
 30
0.0
 11
690.747694
 21
375.011182
 31
0.0
  0
LINE
  5
6D
100
AcDbEntity
  8
1
100
AcDbLine
 10
685.681806
 20
362.874226
 30
0.0
 11
692.76514
 21
369.957559
 31
0.0
  0
LINE
  5
6E
100
AcDbEntity
  8
1
100
AcDbLine
 10
699.878511
 20
468.994812
 30
0.0
 11
712.51514
 21
481.631441
 31
0.0
  0
LINE
  5
6F
100
AcDbEntity
  8
1
100
AcDbLine
 10
694.01514
 20
470.202509
 30
0.0
 11
712.51514
 21
488.702509
 31
0.0
  0
LINE
  5
70
100
AcDbEntity
  8
1
100
AcDbLine
 10
685.681806
 20
504.295582
 30
0.0
 11
691.211207
 21
509.824983
 31
0.0
  0
ARC
  5
71
100
AcDbEntity
  8
0
100
AcDbCircle
 10
685.681806
 20
420.244812
 30
0.0
 40
36.666667
100
AcDbArc
 50
78.86147
 51
90.0
  0
ARC
  5
72
100
AcDbEntity
  8
0
100
AcDbCircle
 10
685.681806
 20
420.244812
 30
0.0
 40
36.166667
100
AcDbArc
 50
80.911872
 51
90.0
  0
ARC
  5
73
100
AcDbEntity
  8
0
100
AcDbCircle
 10
685.681806
 20
420.244812
 30
0.0
 40
35.833333
100
AcDbArc
 50
81.298805
 51
90.0
  0
LINE
  5
74
100
AcDbEntity
  8
0
100
AcDbLine
 10
705.181806
 20
441.078145
 30
0.0
 11
705.181806
 21
444.411479
 31
0.0
  0
LINE
  5
75
100
AcDbEntity
  8
0
100
AcDbLine
 10
694.01514
 20
444.411479
 30
0.0
 11
705.181806
 21
444.411479
 31
0.0
  0
LINE
  5
76
100
AcDbEntity
  8
0
100
AcDbLine
 10
705.181806
 20
441.078145
 30
0.0
 11
694.01514
 21
441.078145
 31
0.0
  0
LINE
  5
77
100
AcDbEntity
  8
1
  6
HIDDEN
100
AcDbLine
 10
692.76514
 20
460.953145
 30
0.0
 11
691.348473
 21
461.077087
 31
0.0
  0
LINE
  5
78
100
AcDbEntity
  8
1
  6
HIDDEN
100
AcDbLine
 10
692.76514
 20
467.869812
 30
0.0
 11
691.348473
 21
467.74587
 31
0.0
  0
ARC
  5
79
100
AcDbEntity
  8
1
  6
HIDDEN
100
AcDbCircle
 10
699.353762
 20
464.411479
 30
0.0
 40
8.671956
100
AcDbArc
 50
157.387126
 51
202.612874
  0
LINE
  5
7A
100
AcDbEntity
  8
1
  6
HIDDEN
100
AcDbLine
 10
694.01514
 20
466.078145
 30
0.0
 11
701.098473
 21
466.078145
 31
0.0
  0
LINE
  5
7B
100
AcDbEntity
  8
1
  6
HIDDEN
100
AcDbLine
 10
701.098473
 20
466.078145
 30
0.0
 11
701.098473
 21
462.744812
 31
0.0
  0
LINE
  5
7C
100
AcDbEntity
  8
1
  6
HIDDEN
100
AcDbLine
 10
701.098473
 20
462.744812
 30
0.0
 11
694.01514
 21
462.744812
 31
0.0
  0
ARC
  5
7D
100
AcDbEntity
  8
0
100
AcDbCircle
 10
685.681806
 20
420.244812
 30
0.0
 40
36.166667
100
AcDbArc
 50
283.321491
 51
310.872494
  0
ARC
  5
7E
100
AcDbEntity
  8
0
100
AcDbCircle
 10
685.681806
 20
420.244812
 30
0.0
 40
35.833333
100
AcDbArc
 50
283.447727
 51
310.629329
  0
LINE
  5
7F
100
AcDbEntity
  8
0
100
AcDbLine
 10
705.181806
 20
399.411479
 30
0.0
 11
694.01514
 21
399.411479
 31
0.0
  0
LINE
  5
80
100
AcDbEntity
  8
0
100
AcDbLine
 10
694.01514
 20
396.078145
 30
0.0
 11
705.181806
 21
396.078145
 31
0.0
  0
LINE
  5
81
100
AcDbEntity
  8
0
100
AcDbLine
 10
705.181806
 20
399.411479
 30
0.0
 11
705.181806
 21
396.078145
 31
0.0
  0
LINE
  5
82
100
AcDbEntity
  8
1
  6
HIDDEN
100
AcDbLine
 10
701.098473
 20
374.411479
 30
0.0
 11
701.098473
 21
377.744812
 31
0.0
  0
ARC
  5
83
100
AcDbEntity
  8
1
  6
HIDDEN
100
AcDbCircle
 10
699.353762
 20
376.078145
 30
0.0
 40
8.671956
100
AcDbArc
 50
157.387126
 51
202.612874
  0
LINE
  5
84
100
AcDbEntity
  8
1
  6
HIDDEN
100
AcDbLine
 10
692.76514
 20
372.619812
 30
0.0
 11
691.348473
 21
372.743754
 31
0.0
  0
LINE
  5
85
100
AcDbEntity
  8
1
  6
HIDDEN
100
AcDbLine
 10
692.76514
 20
379.536479
 30
0.0
 11
691.348473
 21
379.412536
 31
0.0
  0
LINE
  5
86
100
AcDbEntity
  8
1
  6
HIDDEN
100
AcDbLine
 10
694.01514
 20
374.411479
 30
0.0
 11
701.098473
 21
374.411479
 31
0.0
  0
LINE
  5
87
100
AcDbEntity
  8
1
  6
HIDDEN
100
AcDbLine
 10
701.098473
 20
377.744812
 30
0.0
 11
694.01514
 21
377.744812
 31
0.0
  0
LINE
  5
88
100
AcDbEntity
  8
1
  6
HIDDEN
100
AcDbLine
 10
688.181806
 20
403.578145
 30
0.0
 11
685.681806
 21
403.578145
 31
0.0
  0
LINE
  5
89
100
AcDbEntity
  8
1
  6
HIDDEN
100
AcDbLine
 10
694.01514
 20
471.078145
 30
0.0
 11
692.76514
 21
471.078145
 31
0.0
  0
LINE
  5
8A
100
AcDbEntity
  8
1
  6
HIDDEN
100
AcDbLine
 10
691.51514
 20
459.411479
 30
0.0
 11
691.51514
 21
458.161479
 31
0.0
  0
LINE
  5
8B
100
AcDbEntity
  8
1
  6
HIDDEN
100
AcDbLine
 10
685.681806
 20
459.411479
 30
0.0
 11
685.681806
 21
458.161479
 31
0.0
  0
LINE
  5
8C
100
AcDbEntity
  8
1
  6
HIDDEN
100
AcDbLine
 10
692.76514
 20
459.411479
 30
0.0
 11
685.681806
 21
459.411479
 31
0.0
  0
LINE
  5
8D
100
AcDbEntity
  8
1
  6
HIDDEN
100
AcDbLine
 10
685.681806
 20
458.161479
 30
0.0
 11
692.76514
 21
458.161479
 31
0.0
  0
LINE
  5
8E
100
AcDbEntity
  8
1
  6
HIDDEN
100
AcDbLine
 10
692.76514
 20
471.078145
 30
0.0
 11
692.76514
 21
420.244812
 31
0.0
  0
LINE
  5
8F
100
AcDbEntity
  8
1
  6
HIDDEN
100
AcDbLine
 10
694.01514
 20
369.411479
 30
0.0
 11
694.01514
 21
471.078145
 31
0.0
  0
LINE
  5
90
100
AcDbEntity
  8
1
  6
HIDDEN
100
AcDbLine
 10
692.76514
 20
456.078145
 30
0.0
 11
691.51514
 21
456.078145
 31
0.0
  0
LINE
  5
91
100
AcDbEntity
  8
1
  6
HIDDEN
100
AcDbLine
 10
691.51514
 20
456.078145
 30
0.0
 11
685.681806
 21
450.244812
 31
0.0
  0
LINE
  5
92
100
AcDbEntity
  8
1
  6
HIDDEN
100
AcDbLine
 10
688.181806
 20
446.911479
 30
0.0
 11
685.681806
 21
446.911479
 31
0.0
  0
LINE
  5
93
100
AcDbEntity
  8
1
  6
HIDDEN
100
AcDbLine
 10
688.181806
 20
446.911479
 30
0.0
 11
688.181806
 21
448.578145
 31
0.0
  0
LINE
  5
94
100
AcDbEntity
  8
1
  6
HIDDEN
100
AcDbLine
 10
686.931806
 20
446.911479
 30
0.0
 11
686.931806
 21
438.578145
 31
0.0
  0
LINE
  5
95
100
AcDbEntity
  8
1
  6
HIDDEN
100
AcDbLine
 10
685.681806
 20
446.911479
 30
0.0
 11
685.681806
 21
438.578145
 31
0.0
  0
LINE
  5
96
100
AcDbEntity
  8
1
  6
HIDDEN
100
AcDbLine
 10
685.681806
 20
438.578145
 30
0.0
 11
688.181806
 21
438.578145
 31
0.0
  0
LINE
  5
97
100
AcDbEntity
  8
1
  6
HIDDEN
100
AcDbLine
 10
688.181806
 20
438.578145
 30
0.0
 11
688.181806
 21
436.911479
 31
0.0
  0
LINE
  5
98
100
AcDbEntity
  8
1
  6
HIDDEN
100
AcDbLine
 10
686.931806
 20
401.911479
 30
0.0
 11
686.931806
 21
393.578145
 31
0.0
  0
LINE
  5
99
100
AcDbEntity
  8
1
  6
HIDDEN
100
AcDbLine
 10
688.181806
 20
401.911479
 30
0.0
 11
685.681806
 21
401.911479
 31
0.0
  0
LINE
  5
9A
100
AcDbEntity
  8
1
  6
HIDDEN
100
AcDbLine
 10
685.681806
 20
401.911479
 30
0.0
 11
685.681806
 21
393.578145
 31
0.0
  0
LINE
  5
9B
100
AcDbEntity
  8
1
  6
HIDDEN
100
AcDbLine
 10
685.681806
 20
393.578145
 30
0.0
 11
688.181806
 21
393.578145
 31
0.0
  0
LINE
  5
9C
100
AcDbEntity
  8
1
  6
HIDDEN
100
AcDbLine
 10
685.681806
 20
390.244812
 30
0.0
 11
691.51514
 21
384.411479
 31
0.0
  0
LINE
  5
9D
100
AcDbEntity
  8
1
  6
HIDDEN
100
AcDbLine
 10
688.181806
 20
403.578145
 30
0.0
 11
688.181806
 21
401.911479
 31
0.0
  0
LINE
  5
9E
100
AcDbEntity
  8
1
  6
HIDDEN
100
AcDbLine
 10
685.681806
 20
381.078145
 30
0.0
 11
692.76514
 21
381.078145
 31
0.0
  0
LINE
  5
9F
100
AcDbEntity
  8
1
  6
HIDDEN
100
AcDbLine
 10
685.681806
 20
382.328145
 30
0.0
 11
685.681806
 21
381.078145
 31
0.0
  0
LINE
  5
A0
100
AcDbEntity
  8
1
  6
HIDDEN
100
AcDbLine
 10
692.76514
 20
382.328145
 30
0.0
 11
685.681806
 21
382.328145
 31
0.0
  0
LINE
  5
A1
100
AcDbEntity
  8
1
  6
HIDDEN
100
AcDbLine
 10
691.51514
 20
382.328145
 30
0.0
 11
691.51514
 21
381.078145
 31
0.0
  0
LINE
  5
A2
100
AcDbEntity
  8
1
  6
HIDDEN
100
AcDbLine
 10
691.51514
 20
384.411479
 30
0.0
 11
692.76514
 21
384.411479
 31
0.0
  0
LINE
  5
A3
100
AcDbEntity
  8
1
  6
HIDDEN
100
AcDbLine
 10
692.76514
 20
420.244812
 30
0.0
 11
692.76514
 21
369.411479
 31
0.0
  0
LINE
  5
A4
100
AcDbEntity
  8
1
  6
HIDDEN
100
AcDbLine
 10
692.76514
 20
369.411479
 30
0.0
 11
694.01514
 21
369.411479
 31
0.0
  0
LINE
  5
A5
100
AcDbEntity
  8
1
  6
HIDDEN
100
AcDbLine
 10
688.181806
 20
448.578145
 30
0.0
 11
685.681806
 21
448.578145
 31
0.0
  0
LINE
  5
A6
100
AcDbEntity
  8
1
  6
HIDDEN
100
AcDbLine
 10
685.681806
 20
448.578145
 30
0.0
 11
685.681806
 21
450.244812
 31
0.0
  0
LINE
  5
A7
100
AcDbEntity
  8
1
  6
HIDDEN
100
AcDbLine
 10
688.181806
 20
436.911479
 30
0.0
 11
685.681806
 21
436.911479
 31
0.0
  0
LINE
  5
A8
100
AcDbEntity
  8
1
  6
HIDDEN
100
AcDbLine
 10
685.681806
 20
436.911479
 30
0.0
 11
685.681806
 21
427.744812
 31
0.0
  0
LINE
  5
A9
100
AcDbEntity
  8
1
  6
HIDDEN
100
AcDbLine
 10
685.681806
 20
427.744812
 30
0.0
 11
687.76514
 21
425.661479
 31
0.0
  0
LINE
  5
AA
100
AcDbEntity
  8
1
  6
HIDDEN
100
AcDbLine
 10
687.76514
 20
425.661479
 30
0.0
 11
687.76514
 21
414.828145
 31
0.0
  0
LINE
  5
AB
100
AcDbEntity
  8
1
  6
HIDDEN
100
AcDbLine
 10
687.76514
 20
414.828145
 30
0.0
 11
685.681806
 21
412.744812
 31
0.0
  0
LINE
  5
AC
100
AcDbEntity
  8
1
  6
HIDDEN
100
AcDbLine
 10
685.681806
 20
412.744812
 30
0.0
 11
685.681806
 21
403.578145
 31
0.0
  0
LINE
  5
AD
100
AcDbEntity
  8
1
  6
HIDDEN
100
AcDbLine
 10
688.181806
 20
393.578145
 30
0.0
 11
688.181806
 21
391.911479
 31
0.0
  0
LINE
  5
AE
100
AcDbEntity
  8
1
  6
HIDDEN
100
AcDbLine
 10
688.181806
 20
391.911479
 30
0.0
 11
685.681806
 21
391.911479
 31
0.0
  0
LINE
  5
AF
100
AcDbEntity
  8
1
  6
HIDDEN
100
AcDbLine
 10
685.681806
 20
391.911479
 30
0.0
 11
685.681806
 21
390.244812
 31
0.0
  0
LINE
  5
B0
100
AcDbEntity
  8
1
  6
HIDDEN
100
AcDbLine
 10
710.26514
 20
434.411479
 30
0.0
 11
711.931806
 21
432.744812
 31
0.0
  0
LINE
  5
B1
100
AcDbEntity
  8
1
  6
HIDDEN
100
AcDbLine
 10
711.931806
 20
427.744812
 30
0.0
 11
710.26514
 21
426.078145
 31
0.0
  0
LINE
  5
B2
100
AcDbEntity
  8
1
  6
HIDDEN
100
AcDbLine
 10
708.01514
 20
428.911479
 30
0.0
 11
694.01514
 21
428.911479
 31
0.0
  0
LINE
  5
B3
100
AcDbEntity
  8
1
  6
HIDDEN
100
AcDbLine
 10
711.931806
 20
427.744812
 30
0.0
 11
711.931806
 21
432.744812
 31
0.0
  0
LINE
  5
B4
100
AcDbEntity
  8
1
  6
HIDDEN
100
AcDbLine
 10
710.26514
 20
434.411479
 30
0.0
 11
694.01514
 21
434.411479
 31
0.0
  0
LINE
  5
B5
100
AcDbEntity
  8
1
  6
HIDDEN
100
AcDbLine
 10
710.26514
 20
426.078145
 30
0.0
 11
694.01514
 21
426.078145
 31
0.0
  0
LINE
  5
B6
100
AcDbEntity
  8
1
  6
HIDDEN
100
AcDbLine
 10
685.681806
 20
431.494812
 30
0.0
 11
684.431806
 21
431.494812
 31
0.0
  0
LINE
  5
B7
100
AcDbEntity
  8
1
  6
HIDDEN
100
AcDbLine
 10
684.431806
 20
431.494812
 30
0.0
 11
684.431806
 21
428.994812
 31
0.0
  0
LINE
  5
B8
100
AcDbEntity
  8
1
  6
HIDDEN
100
AcDbLine
 10
684.431806
 20
428.994812
 30
0.0
 11
685.681806
 21
428.994812
 31
0.0
  0
LINE
  5
B9
100
AcDbEntity
  8
1
  6
HIDDEN
100
AcDbLine
 10
694.01514
 20
431.578145
 30
0.0
 11
708.01514
 21
431.578145
 31
0.0
  0
ARC
  5
BA
100
AcDbEntity
  8
1
  6
HIDDEN
100
AcDbCircle
 10
708.01514
 20
430.244812
 30
0.0
 40
1.333333
100
AcDbArc
 50
270.0
 51
360.0
  0
ARC
  5
BB
100
AcDbEntity
  8
1
  6
HIDDEN
100
AcDbCircle
 10
708.01514
 20
430.244812
 30
0.0
 40
1.333333
100
AcDbArc
 50
0.0
 51
90.0
  0
CIRCLE
  5
BC
100
AcDbEntity
  8
1
  6
HIDDEN
100
AcDbCircle
 10
689.848473
 20
430.244812
 30
0.0
 40
1.25
  0
CIRCLE
  5
BD
100
AcDbEntity
  8
1
  6
HIDDEN
100
AcDbCircle
 10
689.848473
 20
430.244812
 30
0.0
 40
1.083333
  0
LINE
  5
BE
100
AcDbEntity
  8
0
100
AcDbLine
 10
710.931806
 20
394.381258
 30
0.0
 11
709.848473
 21
394.286479
 31
0.0
  0
LINE
  5
BF
100
AcDbEntity
  8
0
100
AcDbLine
 10
709.848473
 20
446.203145
 30
0.0
 11
710.931806
 21
446.108366
 31
0.0
  0
LINE
  5
C0
100
AcDbEntity
  8
0
100
AcDbLine
 10
709.01514
 20
393.04953
 30
0.0
 11
709.01514
 21
398.578145
 31
0.0
  0
LINE
  5
C1
100
AcDbEntity
  8
0
100
AcDbLine
 10
709.01514
 20
398.578145
 30
0.0
 11
715.262205
 21
398.578145
 31
0.0
  0
LINE
  5
C2
100
AcDbEntity
  8
0
100
AcDbLine
 10
709.01514
 20
447.440093
 30
0.0
 11
709.01514
 21
441.911479
 31
0.0
  0
LINE
  5
C3
100
AcDbEntity
  8
0
100
AcDbLine
 10
709.01514
 20
441.911479
 30
0.0
 11
715.262205
 21
441.911479
 31
0.0
  0
LINE
  5
C4
100
AcDbEntity
  8
0
100
AcDbLine
 10
709.848473
 20
398.244812
 30
0.0
 11
709.348473
 21
398.244812
 31
0.0
  0
LINE
  5
C5
100
AcDbEntity
  8
0
100
AcDbLine
 10
709.848473
 20
392.669158
 30
0.0
 11
709.848473
 21
398.244812
 31
0.0
  0
LINE
  5
C6
100
AcDbEntity
  8
0
100
AcDbLine
 10
709.348473
 20
398.244812
 30
0.0
 11
709.348473
 21
392.896747
 31
0.0
  0
LINE
  5
C7
100
AcDbEntity
  8
0
100
AcDbLine
 10
709.348473
 20
442.244812
 30
0.0
 11
709.848473
 21
442.244812
 31
0.0
  0
LINE
  5
C8
100
AcDbEntity
  8
0
100
AcDbLine
 10
709.848473
 20
442.244812
 30
0.0
 11
709.848473
 21
447.820465
 31
0.0
  0
LINE
  5
C9
100
AcDbEntity
  8
0
100
AcDbLine
 10
709.348473
 20
447.592877
 30
0.0
 11
709.348473
 21
442.244812
 31
0.0
  0
LINE
  5
CA
100
AcDbEntity
  8
0
100
AcDbLine
 10
666.08591
 20
421.482249
 30
0.0
 11
663.611036
 21
419.007375
 31
0.0
  0
LINE
  5
CB
100
AcDbEntity
  8
0
100
AcDbLine
 10
666.08591
 20
419.007375
 30
0.0
 11
663.611036
 21
421.482249
 31
0.0
  0
LINE
  5
CC
100
AcDbEntity
  8
0
100
AcDbLine
 10
684.348473
 20
446.203145
 30
0.0
 11
682.931806
 21
446.079203
 31
0.0
  0
LINE
  5
CD
100
AcDbEntity
  8
0
100
AcDbLine
 10
684.348473
 20
439.286479
 30
0.0
 11
682.931806
 21
439.410421
 31
0.0
  0
LINE
  5
CE
100
AcDbEntity
  8
0
100
AcDbLine
 10
682.931806
 20
401.079203
 30
0.0
 11
684.348473
 21
401.203145
 31
0.0
  0
LINE
  5
CF
100
AcDbEntity
  8
0
100
AcDbLine
 10
682.931806
 20
394.410421
 30
0.0
 11
684.348473
 21
394.286479
 31
0.0
  0
LINE
  5
D0
100
AcDbEntity
  8
0
100
AcDbLine
 10
684.431806
 20
385.244812
 30
0.0
 11
680.681806
 21
385.244812
 31
0.0
  0
LINE
  5
D1
100
AcDbEntity
  8
0
100
AcDbLine
 10
684.431806
 20
371.494812
 30
0.0
 11
685.681806
 21
371.494812
 31
0.0
  0
LINE
  5
D2
100
AcDbEntity
  8
0
100
AcDbLine
 10
684.431806
 20
468.994812
 30
0.0
 11
685.681806
 21
468.994812
 31
0.0
  0
LINE
  5
D3
100
AcDbEntity
  8
0
100
AcDbLine
 10
684.431806
 20
468.994812
 30
0.0
 11
684.431806
 21
433.161479
 31
0.0
  0
LINE
  5
D4
100
AcDbEntity
  8
0
100
AcDbLine
 10
680.681806
 20
455.244812
 30
0.0
 11
684.431806
 21
455.244812
 31
0.0
  0
LINE
  5
D5
100
AcDbEntity
  8
0
100
AcDbLine
 10
680.681806
 20
385.244812
 30
0.0
 11
658.181806
 21
407.744812
 31
0.0
  0
LINE
  5
D6
100
AcDbEntity
  8
0
100
AcDbLine
 10
658.181806
 20
432.744812
 30
0.0
 11
658.181806
 21
407.744812
 31
0.0
  0
LINE
  5
D7
100
AcDbEntity
  8
0
100
AcDbLine
 10
658.181806
 20
432.744812
 30
0.0
 11
680.681806
 21
455.244812
 31
0.0
  0
LINE
  5
D8
100
AcDbEntity
  8
0
100
AcDbLine
 10
684.431806
 20
433.161479
 30
0.0
 11
684.26514
 21
433.161479
 31
0.0
  0
LINE
  5
D9
100
AcDbEntity
  8
0
100
AcDbLine
 10
683.01514
 20
431.911479
 30
0.0
 11
683.01514
 21
425.244812
 31
0.0
  0
LINE
  5
DA
100
AcDbEntity
  8
0
100
AcDbLine
 10
684.26514
 20
423.994812
 30
0.0
 11
684.431806
 21
423.994812
 31
0.0
  0
LINE
  5
DB
100
AcDbEntity
  8
0
100
AcDbLine
 10
684.431806
 20
425.244812
 30
0.0
 11
684.26514
 21
425.244812
 31
0.0
  0
LINE
  5
DC
100
AcDbEntity
  8
0
100
AcDbLine
 10
684.26514
 20
425.244812
 30
0.0
 11
684.26514
 21
431.911479
 31
0.0
  0
LINE
  5
DD
100
AcDbEntity
  8
0
100
AcDbLine
 10
684.26514
 20
431.911479
 30
0.0
 11
684.431806
 21
431.911479
 31
0.0
  0
LINE
  5
DE
100
AcDbEntity
  8
0
100
AcDbLine
 10
684.431806
 20
423.994812
 30
0.0
 11
684.431806
 21
371.494812
 31
0.0
  0
LINE
  5
DF
100
AcDbEntity
  8
0
100
AcDbLine
 10
669.01514
 20
421.911479
 30
0.0
 11
684.431806
 21
421.911479
 31
0.0
  0
LINE
  5
E0
100
AcDbEntity
  8
0
100
AcDbLine
 10
669.01514
 20
418.578145
 30
0.0
 11
669.01514
 21
421.911479
 31
0.0
  0
LINE
  5
E1
100
AcDbEntity
  8
0
100
AcDbLine
 10
684.431806
 20
418.578145
 30
0.0
 11
669.01514
 21
418.578145
 31
0.0
  0
LINE
  5
E2
100
AcDbEntity
  8
1
100
AcDbLine
 10
685.681806
 20
509.824983
 30
0.0
 11
685.681806
 21
351.36738
 31
0.0
  0
ARC
  5
E3
100
AcDbEntity
  8
0
100
AcDbCircle
 10
704.77979
 20
396.911479
 30
0.0
 40
6.652016
100
AcDbArc
 50
0.0
 51
14.510096
  0
ARC
  5
E4
100
AcDbEntity
  8
0
100
AcDbCircle
 10
704.77979
 20
396.911479
 30
0.0
 40
6.652016
100
AcDbArc
 50
337.643461
 51
360.0
  0
ARC
  5
E5
100
AcDbEntity
  8
0
100
AcDbCircle
 10
704.77979
 20
443.578145
 30
0.0
 40
6.652016
100
AcDbArc
 50
345.489904
 51
360.0
  0
ARC
  5
E6
100
AcDbEntity
  8
0
100
AcDbCircle
 10
704.77979
 20
443.578145
 30
0.0
 40
6.652016
100
AcDbArc
 50
0.0
 51
22.356539
  0
ARC
  5
E7
100
AcDbEntity
  8
0
100
AcDbCircle
 10
685.681806
 20
420.244812
 30
0.0
 40
36.666667
100
AcDbArc
 50
323.778453
 51
396.221547
  0
ARC
  5
E8
100
AcDbEntity
  8
0
100
AcDbCircle
 10
664.848473
 20
420.244812
 30
0.0
 40
5.0
100
AcDbArc
 50
61.931078
 51
105.236269
  0
ARC
  5
E9
100
AcDbEntity
  8
0
100
AcDbCircle
 10
685.681806
 20
420.244812
 30
0.0
 40
35.833333
100
AcDbArc
 50
91.999096
 51
268.000904
  0
ARC
  5
EA
100
AcDbEntity
  8
0
100
AcDbCircle
 10
664.848473
 20
420.244812
 30
0.0
 40
5.0
100
AcDbArc
 50
254.763731
 51
298.068922
  0
ARC
  5
EB
100
AcDbEntity
  8
0
100
AcDbCircle
 10
685.681806
 20
420.244812
 30
0.0
 40
5.0
100
AcDbArc
 50
199.471221
 51
234.559225
  0
ARC
  5
EC
100
AcDbEntity
  8
0
100
AcDbCircle
 10
685.681806
 20
420.244812
 30
0.0
 40
5.0
100
AcDbArc
 50
125.440775
 51
160.528779
  0
ARC
  5
ED
100
AcDbEntity
  8
0
100
AcDbCircle
 10
685.681806
 20
420.244812
 30
0.0
 40
35.833333
100
AcDbArc
 50
270.0
 51
278.701195
  0
ARC
  5
EE
100
AcDbEntity
  8
0
100
AcDbCircle
 10
685.681806
 20
420.244812
 30
0.0
 40
36.166667
100
AcDbArc
 50
270.0
 51
279.088128
  0
ARC
  5
EF
100
AcDbEntity
  8
0
100
AcDbCircle
 10
685.681806
 20
420.244812
 30
0.0
 40
36.666667
100
AcDbArc
 50
283.136559
 51
311.230577
  0
ARC
  5
F0
100
AcDbEntity
  8
0
100
AcDbCircle
 10
690.937096
 20
442.744812
 30
0.0
 40
8.671956
100
AcDbArc
 50
157.387126
 51
202.612874
  0
ARC
  5
F1
100
AcDbEntity
  8
0
100
AcDbCircle
 10
690.937096
 20
397.744812
 30
0.0
 40
8.671956
100
AcDbArc
 50
157.387126
 51
202.612874
  0
ARC
  5
F2
100
AcDbEntity
  8
0
100
AcDbCircle
 10
685.681806
 20
420.244812
 30
0.0
 40
19.0
100
AcDbArc
 50
189.007985
 51
225.0
  0
ARC
  5
F3
100
AcDbEntity
  8
0
100
AcDbCircle
 10
685.681806
 20
420.244812
 30
0.0
 40
22.666667
100
AcDbArc
 50
188.245901
 51
225.0
  0
ARC
  5
F4
100
AcDbEntity
  8
0
100
AcDbCircle
 10
670.950415
 20
405.513421
 30
0.0
 40
1.833333
100
AcDbArc
 50
225.0
 51
405.0
  0
ARC
  5
F5
100
AcDbEntity
  8
0
100
AcDbCircle
 10
670.950415
 20
434.976203
 30
0.0
 40
1.833333
100
AcDbArc
 50
315.0
 51
495.0
  0
ARC
  5
F6
100
AcDbEntity
  8
0
100
AcDbCircle
 10
680.681806
 20
420.244812
 30
0.0
 40
4.583333
100
AcDbArc
 50
201.323686
 51
308.682187
  0
ARC
  5
F7
100
AcDbEntity
  8
0
100
AcDbCircle
 10
685.681806
 20
420.244812
 30
0.0
 40
22.666667
100
AcDbArc
 50
135.0
 51
171.754099
  0
ARC
  5
F8
100
AcDbEntity
  8
0
100
AcDbCircle
 10
685.681806
 20
420.244812
 30
0.0
 40
19.0
100
AcDbArc
 50
135.0
 51
170.992015
  0
ARC
  5
F9
100
AcDbEntity
  8
0
100
AcDbCircle
 10
680.681806
 20
420.244812
 30
0.0
 40
4.583333
100
AcDbArc
 50
51.317813
 51
158.676314
  0
ARC
  5
FA
100
AcDbEntity
  8
0
100
AcDbCircle
 10
685.681806
 20
420.244812
 30
0.0
 40
3.458333
100
AcDbArc
 50
135.0
 51
151.18862
  0
ARC
  5
FB
100
AcDbEntity
  8
0
100
AcDbCircle
 10
685.681806
 20
420.244812
 30
0.0
 40
3.458333
100
AcDbArc
 50
111.189013
 51
135.0
  0
ARC
  5
FC
100
AcDbEntity
  8
0
100
AcDbCircle
 10
685.681806
 20
420.244812
 30
0.0
 40
3.622859
100
AcDbArc
 50
110.18371
 51
152.610195
  0
ARC
  5
FD
100
AcDbEntity
  8
0
100
AcDbCircle
 10
685.681806
 20
420.244812
 30
0.0
 40
4.166667
100
AcDbArc
 50
114.545303
 51
156.421822
  0
ARC
  5
FE
100
AcDbEntity
  8
0
100
AcDbCircle
 10
685.681806
 20
420.244812
 30
0.0
 40
4.166667
100
AcDbArc
 50
203.578178
 51
252.542397
  0
ARC
  5
FF
100
AcDbEntity
  8
0
100
AcDbCircle
 10
685.681806
 20
420.244812
 30
0.0
 40
3.622859
100
AcDbArc
 50
207.389805
 51
249.81629
  0
ARC
  5
100
100
AcDbEntity
  8
0
100
AcDbCircle
 10
685.681806
 20
420.244812
 30
0.0
 40
3.458333
100
AcDbArc
 50
208.81138
 51
248.810987
  0
ARC
  5
101
100
AcDbEntity
  8
0
100
AcDbCircle
 10
685.681806
 20
420.244812
 30
0.0
 40
36.666667
100
AcDbArc
 50
48.769423
 51
76.863441
  0
ARC
  5
102
100
AcDbEntity
  8
0
100
AcDbCircle
 10
685.681806
 20
420.244812
 30
0.0
 40
36.166667
100
AcDbArc
 50
49.127506
 51
76.678509
  0
ARC
  5
103
100
AcDbEntity
  8
0
100
AcDbCircle
 10
685.681806
 20
420.244812
 30
0.0
 40
35.833333
100
AcDbArc
 50
49.370671
 51
76.552273
  0
ARC
  5
104
100
AcDbEntity
  8
0
100
AcDbCircle
 10
685.681806
 20
420.244812
 30
0.0
 40
36.166667
100
AcDbArc
 50
91.980663
 51
268.019337
  0
ARC
  5
105
100
AcDbEntity
  8
0
100
AcDbCircle
 10
685.681806
 20
420.244812
 30
0.0
 40
36.666667
100
AcDbArc
 50
91.953644
 51
268.046356
  0
CIRCLE
  5
106
100
AcDbEntity
  8
0
100
AcDbCircle
 10
664.848473
 20
420.244812
 30
0.0
 40
3.622859
  0
ARC
  5
107
100
AcDbEntity
  8
0
100
AcDbCircle
 10
684.26514
 20
431.911479
 30
0.0
 40
1.25
100
AcDbArc
 50
90.0
 51
180.0
  0
ARC
  5
108
100
AcDbEntity
  8
0
100
AcDbCircle
 10
684.26514
 20
425.244812
 30
0.0
 40
1.25
100
AcDbArc
 50
180.0
 51
270.0
  0
ARC
  5
109
100
AcDbEntity
  8
0
100
AcDbCircle
 10
684.431806
 20
423.994812
 30
0.0
 40
1.25
100
AcDbArc
 50
0.0
 51
90.0
  0
ARC
  5
10A
100
AcDbEntity
  8
0
100
AcDbCircle
 10
684.431806
 20
433.161479
 30
0.0
 40
1.25
100
AcDbArc
 50
270.0
 51
360.0
  0
LINE
  5
10B
100
AcDbEntity
  8
0
100
AcDbLine
 10
685.681806
 20
472.744812
 30
0.0
 11
685.681806
 21
367.744812
 31
0.0
  0
LINE
  5
10C
100
AcDbEntity
  8
0
100
AcDbLine
 10
685.681806
 20
472.744812
 30
0.0
 11
684.964461
 21
472.744812
 31
0.0
  0
ARC
  5
10D
100
AcDbEntity
  8
0
100
AcDbCircle
 10
782.652991
 20
349.558254
 30
0.0
 40
158.333333
100
AcDbArc
 50
129.575846
 51
131.093173
  0
ARC
  5
10E
100
AcDbEntity
  8
0
100
AcDbCircle
 10
782.652991
 20
349.558254
 30
0.0
 40
158.333333
100
AcDbArc
 50
131.093173
 51
143.910048
  0
ARC
  5
10F
100
AcDbEntity
  8
0
100
AcDbCircle
 10
684.964461
 20
467.744812
 30
0.0
 40
5.0
100
AcDbArc
 50
90.0
 51
129.575846
  0
ARC
  5
110
100
AcDbEntity
  8
0
100
AcDbCircle
 10
782.652991
 20
490.931369
 30
0.0
 40
158.333333
100
AcDbArc
 50
216.089952
 51
228.906827
  0
ARC
  5
111
100
AcDbEntity
  8
0
100
AcDbCircle
 10
685.681806
 20
420.244812
 30
0.0
 40
38.333333
100
AcDbArc
 50
143.910048
 51
216.089952
  0
LINE
  5
112
100
AcDbEntity
  8
0
100
AcDbLine
 10
684.964461
 20
367.744812
 30
0.0
 11
685.681806
 21
367.744812
 31
0.0
  0
ARC
  5
113
100
AcDbEntity
  8
0
100
AcDbCircle
 10
782.652991
 20
490.931369
 30
0.0
 40
158.333333
100
AcDbArc
 50
228.906827
 51
230.424154
  0
ARC
  5
114
100
AcDbEntity
  8
0
100
AcDbCircle
 10
684.964461
 20
372.744812
 30
0.0
 40
5.0
100
AcDbArc
 50
230.424154
 51
270.0
  0
POINT
  5
115
100
AcDbEntity
  8
0
100
AcDbPoint
 10
685.681806
 20
420.244812
 30
0.0
  0
POINT
  5
116
100
AcDbEntity
  8
0
100
AcDbPoint
 10
685.681806
 20
420.244812
 30
0.0
  0
LINE
  5
117
100
AcDbEntity
  8
1
100
AcDbLine
 10
739.01514
 20
465.994812
 30
0.0
 11
739.01514
 21
374.494812
 31
0.0
  0
LINE
  5
118
100
AcDbEntity
  8
1
100
AcDbLine
 10
694.01514
 20
468.994812
 30
0.0
 11
736.01514
 21
468.994812
 31
0.0
  0
LINE
  5
119
100
AcDbEntity
  8
1
100
AcDbLine
 10
694.01514
 20
371.494812
 30
0.0
 11
736.01514
 21
371.494812
 31
0.0
  0
ARC
  5
11A
100
AcDbEntity
  8
1
100
AcDbCircle
 10
736.01514
 20
465.994812
 30
0.0
 40
3.0
100
AcDbArc
 50
0.0
 51
90.0
  0
ARC
  5
11B
100
AcDbEntity
  8
1
100
AcDbCircle
 10
736.01514
 20
374.494812
 30
0.0
 40
3.0
100
AcDbArc
 50
270.0
 51
360.0
  0
LINE
  5
11C
100
AcDbEntity
  8
1
100
AcDbLine
 10
694.01514
 20
372.494812
 30
0.0
 11
736.01514
 21
372.494812
 31
0.0
  0
LINE
  5
11D
100
AcDbEntity
  8
1
100
AcDbLine
 10
738.01514
 20
465.994812
 30
0.0
 11
738.01514
 21
374.494812
 31
0.0
  0
LINE
  5
11E
100
AcDbEntity
  8
1
100
AcDbLine
 10
694.01514
 20
467.994812
 30
0.0
 11
736.01514
 21
467.994812
 31
0.0
  0
ARC
  5
11F
100
AcDbEntity
  8
1
100
AcDbCircle
 10
736.01514
 20
465.994812
 30
0.0
 40
2.0
100
AcDbArc
 50
0.0
 51
90.0
  0
ARC
  5
120
100
AcDbEntity
  8
1
100
AcDbCircle
 10
736.01514
 20
374.494812
 30
0.0
 40
2.0
100
AcDbArc
 50
270.0
 51
360.0
  0
LINE
  5
121
100
AcDbEntity
  8
1
100
AcDbLine
 10
739.01514
 20
444.491831
 30
0.0
 11
769.01514
 21
474.491831
 31
0.0
  0
LINE
  5
122
100
AcDbEntity
  8
1
100
AcDbLine
 10
739.01514
 20
451.562898
 30
0.0
 11
769.01514
 21
481.562898
 31
0.0
  0
LINE
  5
123
100
AcDbEntity
  8
1
100
AcDbLine
 10
739.01514
 20
458.633966
 30
0.0
 11
769.01514
 21
488.633966
 31
0.0
  0
LINE
  5
124
100
AcDbEntity
  8
1
100
AcDbLine
 10
739.01514
 20
465.705034
 30
0.0
 11
769.01514
 21
495.705034
 31
0.0
  0
LINE
  5
125
100
AcDbEntity
  8
1
100
AcDbLine
 10
735.23385
 20
468.994812
 30
0.0
 11
769.01514
 21
502.776102
 31
0.0
  0
LINE
  5
126
100
AcDbEntity
  8
1
100
AcDbLine
 10
728.162782
 20
468.994812
 30
0.0
 11
769.01514
 21
509.84717
 31
0.0
  0
LINE
  5
127
100
AcDbEntity
  8
1
100
AcDbLine
 10
721.091714
 20
468.994812
 30
0.0
 11
761.921885
 21
509.824983
 31
0.0
  0
LINE
  5
128
100
AcDbEntity
  8
1
100
AcDbLine
 10
720.51514
 20
475.489305
 30
0.0
 11
754.850818
 21
509.824983
 31
0.0
  0
LINE
  5
129
100
AcDbEntity
  8
1
100
AcDbLine
 10
706.949578
 20
468.994812
 30
0.0
 11
712.51514
 21
474.560373
 31
0.0
  0
LINE
  5
12A
100
AcDbEntity
  8
1
100
AcDbLine
 10
690.295177
 20
459.411479
 30
0.0
 11
691.911526
 21
461.027827
 31
0.0
  0
LINE
  5
12B
100
AcDbEntity
  8
1
100
AcDbLine
 10
685.681806
 20
461.869175
 30
0.0
 11
691.578637
 21
467.766006
 31
0.0
  0
LINE
  5
12C
100
AcDbEntity
  8
1
100
AcDbLine
 10
685.681806
 20
468.940243
 30
0.0
 11
712.51514
 21
495.773576
 31
0.0
  0
LINE
  5
12D
100
AcDbEntity
  8
1
100
AcDbLine
 10
685.681806
 20
476.011311
 30
0.0
 11
712.51514
 21
502.844644
 31
0.0
  0
LINE
  5
12E
100
AcDbEntity
  8
1
100
AcDbLine
 10
685.681806
 20
483.082379
 30
0.0
 11
712.51514
 21
509.915712
 31
0.0
  0
LINE
  5
12F
100
AcDbEntity
  8
1
100
AcDbLine
 10
685.681806
 20
490.153447
 30
0.0
 11
705.353343
 21
509.824983
 31
0.0
  0
LINE
  5
130
100
AcDbEntity
  8
1
100
AcDbLine
 10
685.681806
 20
497.224514
 30
0.0
 11
698.282275
 21
509.824983
 31
0.0
  0
LINE
  5
131
100
AcDbEntity
  8
1
100
AcDbLine
 10
739.01514
 20
437.420763
 30
0.0
 11
769.01514
 21
467.420763
 31
0.0
  0
LINE
  5
132
100
AcDbEntity
  8
1
100
AcDbLine
 10
739.01514
 20
430.349695
 30
0.0
 11
769.01514
 21
460.349695
 31
0.0
  0
LINE
  5
133
100
AcDbEntity
  8
1
100
AcDbLine
 10
739.01514
 20
423.278627
 30
0.0
 11
769.01514
 21
453.278627
 31
0.0
  0
LINE
  5
134
100
AcDbEntity
  8
1
100
AcDbLine
 10
685.681806
 20
355.803158
 30
0.0
 11
701.37346
 21
371.494812
 31
0.0
  0
LINE
  5
135
100
AcDbEntity
  8
1
100
AcDbLine
 10
688.317096
 20
351.36738
 30
0.0
 11
708.444528
 21
371.494812
 31
0.0
  0
LINE
  5
136
100
AcDbEntity
  8
1
100
AcDbLine
 10
695.388163
 20
351.36738
 30
0.0
 11
715.515596
 21
371.494812
 31
0.0
  0
LINE
  5
137
100
AcDbEntity
  8
1
100
AcDbLine
 10
702.459231
 20
351.36738
 30
0.0
 11
722.586663
 21
371.494812
 31
0.0
  0
LINE
  5
138
100
AcDbEntity
  8
1
100
AcDbLine
 10
709.530299
 20
351.36738
 30
0.0
 11
729.657731
 21
371.494812
 31
0.0
  0
LINE
  5
139
100
AcDbEntity
  8
1
100
AcDbLine
 10
716.601367
 20
351.36738
 30
0.0
 11
736.846209
 21
371.612222
 31
0.0
  0
LINE
  5
13A
100
AcDbEntity
  8
1
100
AcDbLine
 10
723.672435
 20
351.36738
 30
0.0
 11
769.01514
 21
396.710085
 31
0.0
  0
LINE
  5
13B
100
AcDbEntity
  8
1
100
AcDbLine
 10
730.743503
 20
351.36738
 30
0.0
 11
769.01514
 21
389.639017
 31
0.0
  0
LINE
  5
13C
100
AcDbEntity
  8
1
100
AcDbLine
 10
737.81457
 20
351.36738
 30
0.0
 11
769.01514
 21
382.567949
 31
0.0
  0
LINE
  5
13D
100
AcDbEntity
  8
1
100
AcDbLine
 10
744.885638
 20
351.36738
 30
0.0
 11
769.01514
 21
375.496881
 31
0.0
  0
LINE
  5
13E
100
AcDbEntity
  8
1
100
AcDbLine
 10
751.956706
 20
351.36738
 30
0.0
 11
769.01514
 21
368.425813
 31
0.0
  0
LINE
  5
13F
100
AcDbEntity
  8
1
100
AcDbLine
 10
759.027774
 20
351.36738
 30
0.0
 11
769.01514
 21
361.354746
 31
0.0
  0
LINE
  5
140
100
AcDbEntity
  8
1
100
AcDbLine
 10
739.01514
 20
380.85222
 30
0.0
 11
769.01514
 21
410.85222
 31
0.0
  0
LINE
  5
141
100
AcDbEntity
  8
1
100
AcDbLine
 10
739.01514
 20
387.923288
 30
0.0
 11
769.01514
 21
417.923288
 31
0.0
  0
LINE
  5
142
100
AcDbEntity
  8
1
100
AcDbLine
 10
739.01514
 20
394.994356
 30
0.0
 11
769.01514
 21
424.994356
 31
0.0
  0
LINE
  5
143
100
AcDbEntity
  8
1
100
AcDbLine
 10
739.01514
 20
402.065424
 30
0.0
 11
769.01514
 21
432.065424
 31
0.0
  0
LINE
  5
144
100
AcDbEntity
  8
1
100
AcDbLine
 10
739.01514
 20
409.136491
 30
0.0
 11
769.01514
 21
439.136491
 31
0.0
  0
LINE
  5
145
100
AcDbEntity
  8
1
100
AcDbLine
 10
739.01514
 20
416.207559
 30
0.0
 11
769.01514
 21
446.207559
 31
0.0
  0
LINE
  5
146
100
AcDbEntity
  8
1
100
AcDbLine
 10
738.897729
 20
373.663742
 30
0.0
 11
769.01514
 21
403.781152
 31
0.0
  0
LINE
  5
147
100
AcDbEntity
  8
1
100
AcDbLine
 10
720.51514
 20
509.824983
 30
0.0
 11
720.51514
 21
468.994812
 31
0.0
  0
LINE
  5
148
100
AcDbEntity
  8
1
100
AcDbLine
 10
712.51514
 20
509.824983
 30
0.0
 11
712.51514
 21
468.994812
 31
0.0
  0
LINE
  5
149
100
AcDbEntity
  8
1
100
AcDbLine
 10
720.51514
 20
503.773576
 30
0.0
 11
726.566546
 21
509.824983
 31
0.0
  0
LINE
  5
14A
100
AcDbEntity
  8
1
100
AcDbLine
 10
720.51514
 20
496.702509
 30
0.0
 11
733.637614
 21
509.824983
 31
0.0
  0
LINE
  5
14B
100
AcDbEntity
  8
1
100
AcDbLine
 10
720.51514
 20
489.631441
 30
0.0
 11
740.708682
 21
509.824983
 31
0.0
  0
LINE
  5
14C
100
AcDbEntity
  8
1
100
AcDbLine
 10
720.51514
 20
482.560373
 30
0.0
 11
747.77975
 21
509.824983
 31
0.0
  0
LINE
  5
14D
100
AcDbEntity
  8
1
100
AcDbLine
 10
766.098842
 20
351.36738
 30
0.0
 11
769.01514
 21
354.283678
 31
0.0
  0
LINE
  5
14E
100
AcDbEntity
  8
SCALE
100
AcDbLine
 10
761.262106
 20
627.607955
 30
0.0
 11
881.361019
 21
627.607955
 31
0.0
  0
POINT
  5
14F
100
AcDbEntity
  8
SCALE
  6
CONTINUOUS
100
AcDbPoint
 10
668.770169
 20
437.156449
 30
0.0
  0
POINT
  5
150
100
AcDbEntity
  8
SCALE
  6
CONTINUOUS
100
AcDbPoint
 10
668.770169
 20
403.333175
 30
0.0
  0
TEXT
  5
151
100
AcDbEntity
  8
SCALE
  6
CONTINUOUS
100
AcDbText
 10
605.181806
 20
408.721002
 30
0.0
 40
11.0
  1
90%%D
 50
90.0
  7
UT7
 72
     4
 11
599.681806
 21
420.244812
 31
0.0
100
AcDbText
  0
INSERT
  5
152
100
AcDbEntity
  8
SCALE
  6
CONTINUOUS
100
AcDbBlockReference
  2
YAZ3
 10
632.648798
 20
367.211803
 30
0.0
 41
7.5
 42
7.5
 43
7.5
 50
312.134016
  0
INSERT
  5
153
100
AcDbEntity
  8
SCALE
  6
CONTINUOUS
100
AcDbBlockReference
  2
YAZ3
 10
632.648798
 20
473.27782
 30
0.0
 41
7.5
 42
7.5
 43
7.5
 50
47.865984
  0
ARC
  5
154
100
AcDbEntity
  8
SCALE
  6
CONTINUOUS
100
AcDbCircle
 10
685.681806
 20
420.244812
 30
0.0
 40
75.0
100
AcDbArc
 50
135.0
 51
225.0
  0
LINE
  5
155
100
AcDbEntity
  8
SCALE
  6
CONTINUOUS
100
AcDbLine
 10
653.243283
 20
387.806288
 30
0.0
 11
627.345497
 21
361.908502
 31
0.0
  0
LINE
  5
156
100
AcDbEntity
  8
SCALE
  6
CONTINUOUS
100
AcDbLine
 10
653.243283
 20
452.683335
 30
0.0
 11
627.345497
 21
478.581121
 31
0.0
  0
LINE
  5
157
100
AcDbEntity
  8
CENTER
100
AcDbLine
 10
668.770169
 20
437.156449
 30
0.0
 11
685.681806
 21
420.244812
 31
0.0
  0
LINE
  5
158
100
AcDbEntity
  8
CENTER
100
AcDbLine
 10
668.770169
 20
403.333175
 30
0.0
 11
685.681806
 21
420.244812
 31
0.0
  0
LINE
  5
159
100
AcDbEntity
  8
1
100
AcDbLine
 10
586.011694
 20
585.701289
 30
0.0
 11
591.089688
 21
590.779283
 31
0.0
  0
LINE
  5
15A
100
AcDbEntity
  8
1
100
AcDbLine
 10
580.119137
 20
585.701289
 30
0.0
 11
591.089688
 21
596.67184
 31
0.0
  0
LINE
  5
15B
100
AcDbEntity
  8
1
100
AcDbLine
 10
574.226581
 20
585.701289
 30
0.0
 11
587.455747
 21
598.930456
 31
0.0
  0
LINE
  5
15C
100
AcDbEntity
  8
1
100
AcDbLine
 10
568.334024
 20
585.701289
 30
0.0
 11
581.563191
 21
598.930456
 31
0.0
  0
LINE
  5
15D
100
AcDbEntity
  8
1
100
AcDbLine
 10
562.441468
 20
585.701289
 30
0.0
 11
575.670634
 21
598.930456
 31
0.0
  0
LINE
  5
15E
100
AcDbEntity
  8
1
100
AcDbLine
 10
557.756354
 20
586.908733
 30
0.0
 11
569.778078
 21
598.930456
 31
0.0
  0
LINE
  5
15F
100
AcDbEntity
  8
1
100
AcDbLine
 10
557.756354
 20
592.801289
 30
0.0
 11
563.885521
 21
598.930456
 31
0.0
  0
LINE
  5
160
100
AcDbEntity
  8
1
100
AcDbLine
 10
557.756354
 20
598.693846
 30
0.0
 11
557.992965
 21
598.930456
 31
0.0
  0
LINE
  5
161
100
AcDbEntity
  8
1
100
AcDbLine
 10
845.28418
 20
585.701289
 30
0.0
 11
847.756354
 21
588.173464
 31
0.0
  0
LINE
  5
162
100
AcDbEntity
  8
1
100
AcDbLine
 10
839.391624
 20
585.701289
 30
0.0
 11
847.756354
 21
594.06602
 31
0.0
  0
LINE
  5
163
100
AcDbEntity
  8
1
100
AcDbLine
 10
833.499067
 20
585.701289
 30
0.0
 11
846.728234
 21
598.930456
 31
0.0
  0
LINE
  5
164
100
AcDbEntity
  8
1
100
AcDbLine
 10
827.606511
 20
585.701289
 30
0.0
 11
840.835677
 21
598.930456
 31
0.0
  0
LINE
  5
165
100
AcDbEntity
  8
1
100
AcDbLine
 10
821.713954
 20
585.701289
 30
0.0
 11
834.943121
 21
598.930456
 31
0.0
  0
LINE
  5
166
100
AcDbEntity
  8
1
100
AcDbLine
 10
815.821398
 20
585.701289
 30
0.0
 11
829.050564
 21
598.930456
 31
0.0
  0
LINE
  5
167
100
AcDbEntity
  8
1
100
AcDbLine
 10
814.423021
 20
590.195469
 30
0.0
 11
823.158008
 21
598.930456
 31
0.0
  0
LINE
  5
168
100
AcDbEntity
  8
1
100
AcDbLine
 10
814.423021
 20
596.088026
 30
0.0
 11
817.265451
 21
598.930456
 31
0.0
  0
ARC
  5
169
100
AcDbEntity
  8
0
100
AcDbCircle
 10
577.756354
 20
584.78249
 30
0.0
 40
2.5
100
AcDbArc
 50
180.0
 51
215.391137
  0
ARC
  5
16A
100
AcDbEntity
  8
0
100
AcDbCircle
 10
577.756354
 20
584.78249
 30
0.0
 40
5.0
100
AcDbArc
 50
180.0
 51
215.391137
  0
ARC
  5
16B
100
AcDbEntity
  8
0
100
AcDbCircle
 10
614.934898
 20
548.201289
 30
0.0
 40
0.833333
100
AcDbArc
 50
270.0
 51
353.065651
  0
ARC
  5
16C
100
AcDbEntity
  8
0
100
AcDbCircle
 10
614.437295
 20
568.201289
 30
0.0
 40
20.833333
100
AcDbArc
 50
230.034934
 51
270.0
  0
ARC
  5
16D
100
AcDbEntity
  8
0
100
AcDbCircle
 10
614.437295
 20
568.201289
 30
0.0
 40
18.333333
100
AcDbArc
 50
230.034934
 51
260.474898
  0
ARC
  5
16E
100
AcDbEntity
  8
0
100
AcDbCircle
 10
827.756354
 20
584.78249
 30
0.0
 40
2.5
100
AcDbArc
 50
324.608863
 51
360.0
  0
ARC
  5
16F
100
AcDbEntity
  8
0
100
AcDbCircle
 10
827.756354
 20
584.78249
 30
0.0
 40
5.0
100
AcDbArc
 50
324.608863
 51
360.0
  0
ARC
  5
170
100
AcDbEntity
  8
0
100
AcDbCircle
 10
790.57781
 20
548.201289
 30
0.0
 40
0.833333
100
AcDbArc
 50
186.934349
 51
270.0
  0
ARC
  5
171
100
AcDbEntity
  8
0
100
AcDbCircle
 10
791.075413
 20
568.201289
 30
0.0
 40
20.833333
100
AcDbArc
 50
270.0
 51
309.965066
  0
ARC
  5
172
100
AcDbEntity
  8
0
100
AcDbCircle
 10
791.075413
 20
568.201289
 30
0.0
 40
18.333333
100
AcDbArc
 50
279.525102
 51
309.965066
  0
ARC
  5
173
100
AcDbEntity
  8
0
100
AcDbCircle
 10
618.511644
 20
585.701289
 30
0.0
 40
8.671956
100
AcDbArc
 50
157.387126
 51
180.0
  0
ARC
  5
174
100
AcDbEntity
  8
0
100
AcDbCircle
 10
618.511644
 20
585.701289
 30
0.0
 40
8.671956
100
AcDbArc
 50
191.321594
 51
202.612874
  0
ARC
  5
175
100
AcDbEntity
  8
1
  6
HIDDEN
100
AcDbCircle
 10
606.589688
 20
591.039912
 30
0.0
 40
8.671956
100
AcDbArc
 50
247.387126
 51
292.612874
  0
ARC
  5
176
100
AcDbEntity
  8
0
100
AcDbCircle
 10
619.094977
 20
564.867956
 30
0.0
 40
8.671956
100
AcDbArc
 50
157.387126
 51
202.612874
  0
ARC
  5
177
100
AcDbEntity
  8
0
100
AcDbCircle
 10
786.417731
 20
564.867956
 30
0.0
 40
8.671956
100
AcDbArc
 50
337.387126
 51
382.612874
  0
ARC
  5
178
100
AcDbEntity
  8
0
100
AcDbCircle
 10
787.001065
 20
585.701289
 30
0.0
 40
8.671956
100
AcDbArc
 50
337.387126
 51
348.678406
  0
ARC
  5
179
100
AcDbEntity
  8
0
100
AcDbCircle
 10
787.001065
 20
585.701289
 30
0.0
 40
8.671956
100
AcDbArc
 50
0.0
 51
22.612874
  0
ARC
  5
17A
100
AcDbEntity
  8
1
  6
HIDDEN
100
AcDbCircle
 10
798.923021
 20
591.039912
 30
0.0
 40
8.671956
100
AcDbArc
 50
247.387126
 51
292.612874
  0
ARC
  5
17B
100
AcDbEntity
  8
0
100
AcDbCircle
 10
702.756354
 20
673.586269
 30
0.0
 40
158.333333
100
AcDbArc
 50
215.391137
 51
230.034934
  0
ARC
  5
17C
100
AcDbEntity
  8
0
100
AcDbCircle
 10
702.756354
 20
673.586269
 30
0.0
 40
155.833333
100
AcDbArc
 50
215.391137
 51
230.034934
  0
ARC
  5
17D
100
AcDbEntity
  8
0
100
AcDbCircle
 10
702.756354
 20
673.586269
 30
0.0
 40
158.333333
100
AcDbArc
 50
309.965066
 51
324.608863
  0
ARC
  5
17E
100
AcDbEntity
  8
0
100
AcDbCircle
 10
702.756354
 20
673.586269
 30
0.0
 40
155.833333
100
AcDbArc
 50
309.965066
 51
324.608863
  0
ARC
  5
17F
100
AcDbEntity
  8
0
100
AcDbCircle
 10
642.273021
 20
617.451289
 30
0.0
 40
3.25
100
AcDbArc
 50
0.0
 51
180.0
  0
ARC
  5
180
100
AcDbEntity
  8
0
100
AcDbCircle
 10
642.273021
 20
617.451289
 30
0.0
 40
1.583333
100
AcDbArc
 50
0.0
 51
180.0
  0
ARC
  5
181
100
AcDbEntity
  8
0
100
AcDbCircle
 10
702.756354
 20
604.799273
 30
0.0
 40
6.652016
100
AcDbArc
 50
67.643461
 51
90.0
  0
ARC
  5
182
100
AcDbEntity
  8
0
100
AcDbCircle
 10
702.756354
 20
604.799273
 30
0.0
 40
6.652016
100
AcDbArc
 50
90.0
 51
112.356539
  0
LINE
  5
183
100
AcDbEntity
  8
0
100
AcDbLine
 10
611.923021
 20
582.242956
 30
0.0
 11
610.506354
 21
582.366898
 31
0.0
  0
LINE
  5
184
100
AcDbEntity
  8
0
100
AcDbLine
 10
611.923021
 20
589.159623
 30
0.0
 11
610.506354
 21
589.03568
 31
0.0
  0
LINE
  5
185
100
AcDbEntity
  8
0
100
AcDbLine
 10
611.923021
 20
585.701289
 30
0.0
 11
611.923021
 21
589.867956
 31
0.0
  0
LINE
  5
186
100
AcDbEntity
  8
0
100
AcDbLine
 10
611.923021
 20
581.534623
 30
0.0
 11
611.923021
 21
584.451289
 31
0.0
  0
LINE
  5
187
100
AcDbEntity
  8
0
100
AcDbLine
 10
612.339688
 20
589.867956
 30
0.0
 11
611.923021
 21
589.867956
 31
0.0
  0
LINE
  5
188
100
AcDbEntity
  8
0
100
AcDbLine
 10
612.339688
 20
585.701289
 30
0.0
 11
612.339688
 21
589.867956
 31
0.0
  0
LINE
  5
189
100
AcDbEntity
  8
0
100
AcDbLine
 10
612.339688
 20
581.534623
 30
0.0
 11
612.339688
 21
584.451289
 31
0.0
  0
LINE
  5
18A
100
AcDbEntity
  8
0
100
AcDbLine
 10
611.923021
 20
581.534623
 30
0.0
 11
612.339688
 21
581.534623
 31
0.0
  0
LINE
  5
18B
100
AcDbEntity
  8
0
100
AcDbLine
 10
583.089688
 20
585.701289
 30
0.0
 11
583.089688
 21
581.256845
 31
0.0
  0
LINE
  5
18C
100
AcDbEntity
  8
0
100
AcDbLine
 10
613.756354
 20
585.701289
 30
0.0
 11
583.089688
 21
585.701289
 31
0.0
  0
LINE
  5
18D
100
AcDbEntity
  8
0
100
AcDbLine
 10
612.506354
 20
584.451289
 30
0.0
 11
583.089688
 21
584.451289
 31
0.0
  0
LINE
  5
18E
100
AcDbEntity
  8
0
100
AcDbLine
 10
613.756354
 20
558.201289
 30
0.0
 11
612.506354
 21
558.201289
 31
0.0
  0
LINE
  5
18F
100
AcDbEntity
  8
0
100
AcDbLine
 10
612.506354
 20
558.201289
 30
0.0
 11
612.506354
 21
584.451289
 31
0.0
  0
LINE
  5
190
100
AcDbEntity
  8
0
100
AcDbLine
 10
613.756354
 20
590.701289
 30
0.0
 11
613.756354
 21
558.201289
 31
0.0
  0
LINE
  5
191
100
AcDbEntity
  8
0
100
AcDbLine
 10
612.506354
 20
585.701289
 30
0.0
 11
612.506354
 21
590.701289
 31
0.0
  0
LINE
  5
192
100
AcDbEntity
  8
0
100
AcDbLine
 10
612.506354
 20
590.701289
 30
0.0
 11
613.756354
 21
590.701289
 31
0.0
  0
LINE
  5
193
100
AcDbEntity
  8
1
  6
HIDDEN
100
AcDbLine
 10
609.924079
 20
583.034623
 30
0.0
 11
610.048021
 21
584.451289
 31
0.0
  0
LINE
  5
194
100
AcDbEntity
  8
1
  6
HIDDEN
100
AcDbLine
 10
603.255297
 20
583.034623
 30
0.0
 11
603.131354
 21
584.451289
 31
0.0
  0
LINE
  5
195
100
AcDbEntity
  8
1
  6
HIDDEN
100
AcDbLine
 10
604.923021
 20
605.284623
 30
0.0
 11
608.256354
 21
605.284623
 31
0.0
  0
LINE
  5
196
100
AcDbEntity
  8
1
  6
HIDDEN
100
AcDbLine
 10
604.923021
 20
593.097123
 30
0.0
 11
604.923021
 21
598.930456
 31
0.0
  0
LINE
  5
197
100
AcDbEntity
  8
1
  6
HIDDEN
100
AcDbLine
 10
608.256354
 20
591.847123
 30
0.0
 11
608.256354
 21
585.701289
 31
0.0
  0
LINE
  5
198
100
AcDbEntity
  8
1
  6
HIDDEN
100
AcDbLine
 10
604.923021
 20
585.701289
 30
0.0
 11
604.923021
 21
591.847123
 31
0.0
  0
LINE
  5
199
100
AcDbEntity
  8
1
  6
HIDDEN
100
AcDbLine
 10
608.256354
 20
605.284623
 30
0.0
 11
608.256354
 21
600.180456
 31
0.0
  0
LINE
  5
19A
100
AcDbEntity
  8
0
100
AcDbLine
 10
612.506354
 20
568.326289
 30
0.0
 11
611.089688
 21
568.202347
 31
0.0
  0
LINE
  5
19B
100
AcDbEntity
  8
0
100
AcDbLine
 10
612.506354
 20
561.409623
 30
0.0
 11
611.089688
 21
561.533565
 31
0.0
  0
LINE
  5
19C
100
AcDbEntity
  8
0
100
AcDbLine
 10
794.423021
 20
561.533565
 30
0.0
 11
793.006354
 21
561.409623
 31
0.0
  0
LINE
  5
19D
100
AcDbEntity
  8
0
100
AcDbLine
 10
794.423021
 20
568.202347
 30
0.0
 11
793.006354
 21
568.326289
 31
0.0
  0
LINE
  5
19E
100
AcDbEntity
  8
0
100
AcDbLine
 10
793.173021
 20
581.534623
 30
0.0
 11
793.589688
 21
581.534623
 31
0.0
  0
LINE
  5
19F
100
AcDbEntity
  8
0
100
AcDbLine
 10
793.173021
 20
584.451289
 30
0.0
 11
793.173021
 21
581.534623
 31
0.0
  0
LINE
  5
1A0
100
AcDbEntity
  8
0
100
AcDbLine
 10
793.173021
 20
589.867956
 30
0.0
 11
793.173021
 21
585.701289
 31
0.0
  0
LINE
  5
1A1
100
AcDbEntity
  8
0
100
AcDbLine
 10
793.589688
 20
589.867956
 30
0.0
 11
793.173021
 21
589.867956
 31
0.0
  0
LINE
  5
1A2
100
AcDbEntity
  8
0
100
AcDbLine
 10
793.589688
 20
584.451289
 30
0.0
 11
793.589688
 21
581.534623
 31
0.0
  0
LINE
  5
1A3
100
AcDbEntity
  8
0
100
AcDbLine
 10
793.589688
 20
589.867956
 30
0.0
 11
793.589688
 21
585.701289
 31
0.0
  0
LINE
  5
1A4
100
AcDbEntity
  8
0
100
AcDbLine
 10
795.006354
 20
589.03568
 30
0.0
 11
793.589688
 21
589.159623
 31
0.0
  0
LINE
  5
1A5
100
AcDbEntity
  8
0
100
AcDbLine
 10
795.006354
 20
582.366898
 30
0.0
 11
793.589688
 21
582.242956
 31
0.0
  0
LINE
  5
1A6
100
AcDbEntity
  8
0
100
AcDbLine
 10
791.756354
 20
590.701289
 30
0.0
 11
793.006354
 21
590.701289
 31
0.0
  0
LINE
  5
1A7
100
AcDbEntity
  8
0
100
AcDbLine
 10
793.006354
 20
590.701289
 30
0.0
 11
793.006354
 21
585.701289
 31
0.0
  0
LINE
  5
1A8
100
AcDbEntity
  8
0
100
AcDbLine
 10
791.756354
 20
558.201289
 30
0.0
 11
791.756354
 21
590.701289
 31
0.0
  0
LINE
  5
1A9
100
AcDbEntity
  8
0
100
AcDbLine
 10
793.006354
 20
584.451289
 30
0.0
 11
793.006354
 21
558.201289
 31
0.0
  0
LINE
  5
1AA
100
AcDbEntity
  8
0
100
AcDbLine
 10
793.006354
 20
558.201289
 30
0.0
 11
791.756354
 21
558.201289
 31
0.0
  0
LINE
  5
1AB
100
AcDbEntity
  8
0
100
AcDbLine
 10
822.423021
 20
584.451289
 30
0.0
 11
793.006354
 21
584.451289
 31
0.0
  0
LINE
  5
1AC
100
AcDbEntity
  8
0
100
AcDbLine
 10
822.423021
 20
585.701289
 30
0.0
 11
791.756354
 21
585.701289
 31
0.0
  0
LINE
  5
1AD
100
AcDbEntity
  8
0
100
AcDbLine
 10
822.423021
 20
581.256845
 30
0.0
 11
822.423021
 21
585.701289
 31
0.0
  0
LINE
  5
1AE
100
AcDbEntity
  8
1
  6
HIDDEN
100
AcDbLine
 10
797.256354
 20
605.284623
 30
0.0
 11
800.589688
 21
605.284623
 31
0.0
  0
LINE
  5
1AF
100
AcDbEntity
  8
1
  6
HIDDEN
100
AcDbLine
 10
802.381354
 20
584.451289
 30
0.0
 11
802.257412
 21
583.034623
 31
0.0
  0
LINE
  5
1B0
100
AcDbEntity
  8
1
  6
HIDDEN
100
AcDbLine
 10
795.464688
 20
584.451289
 30
0.0
 11
795.58863
 21
583.034623
 31
0.0
  0
LINE
  5
1B1
100
AcDbEntity
  8
0
100
AcDbLine
 10
575.256354
 20
585.701289
 30
0.0
 11
575.256354
 21
584.78249
 31
0.0
  0
LINE
  5
1B2
100
AcDbEntity
  8
0
100
AcDbLine
 10
611.403501
 20
550.120714
 30
0.0
 11
614.006354
 21
548.617956
 31
0.0
  0
LINE
  5
1B3
100
AcDbEntity
  8
0
100
AcDbLine
 10
614.437295
 20
547.367956
 30
0.0
 11
614.934898
 21
547.367956
 31
0.0
  0
LINE
  5
1B4
100
AcDbEntity
  8
0
100
AcDbLine
 10
572.756354
 20
585.701289
 30
0.0
 11
575.256354
 21
585.701289
 31
0.0
  0
LINE
  5
1B5
100
AcDbEntity
  8
0
100
AcDbLine
 10
615.825048
 20
548.617956
 30
0.0
 11
614.006354
 21
548.617956
 31
0.0
  0
LINE
  5
1B6
100
AcDbEntity
  8
0
100
AcDbLine
 10
572.756354
 20
585.701289
 30
0.0
 11
572.756354
 21
584.78249
 31
0.0
  0
LINE
  5
1B7
100
AcDbEntity
  8
0
100
AcDbLine
 10
615.762136
 20
548.100679
 30
0.0
 11
615.825048
 21
548.617956
 31
0.0
  0
LINE
  5
1B8
100
AcDbEntity
  8
0
100
AcDbLine
 10
830.256354
 20
584.78249
 30
0.0
 11
830.256354
 21
585.701289
 31
0.0
  0
LINE
  5
1B9
100
AcDbEntity
  8
0
100
AcDbLine
 10
791.506354
 20
548.617956
 30
0.0
 11
794.109208
 21
550.120714
 31
0.0
  0
LINE
  5
1BA
100
AcDbEntity
  8
0
100
AcDbLine
 10
790.57781
 20
547.367956
 30
0.0
 11
791.075413
 21
547.367956
 31
0.0
  0
LINE
  5
1BB
100
AcDbEntity
  8
0
100
AcDbLine
 10
830.256354
 20
585.701289
 30
0.0
 11
832.756354
 21
585.701289
 31
0.0
  0
LINE
  5
1BC
100
AcDbEntity
  8
0
100
AcDbLine
 10
791.506354
 20
548.617956
 30
0.0
 11
789.687661
 21
548.617956
 31
0.0
  0
LINE
  5
1BD
100
AcDbEntity
  8
0
100
AcDbLine
 10
832.756354
 20
584.78249
 30
0.0
 11
832.756354
 21
585.701289
 31
0.0
  0
LINE
  5
1BE
100
AcDbEntity
  8
0
100
AcDbLine
 10
789.687661
 20
548.617956
 30
0.0
 11
789.750573
 21
548.100679
 31
0.0
  0
LINE
  5
1BF
100
AcDbEntity
  8
0
100
AcDbLine
 10
614.423021
 20
549.034623
 30
0.0
 11
791.089688
 21
549.034623
 31
0.0
  0
LINE
  5
1C0
100
AcDbEntity
  8
0
100
AcDbLine
 10
791.089688
 20
549.034623
 30
0.0
 11
791.089688
 21
591.847123
 31
0.0
  0
LINE
  5
1C1
100
AcDbEntity
  8
0
100
AcDbLine
 10
614.423021
 20
609.867956
 30
0.0
 11
614.423021
 21
600.180456
 31
0.0
  0
LINE
  5
1C2
100
AcDbEntity
  8
0
100
AcDbLine
 10
645.523021
 20
615.784623
 30
0.0
 11
645.523021
 21
617.451289
 31
0.0
  0
LINE
  5
1C3
100
AcDbEntity
  8
0
100
AcDbLine
 10
643.856354
 20
617.451289
 30
0.0
 11
643.856354
 21
615.784623
 31
0.0
  0
LINE
  5
1C4
100
AcDbEntity
  8
0
100
AcDbLine
 10
640.689688
 20
615.784623
 30
0.0
 11
640.689688
 21
617.451289
 31
0.0
  0
LINE
  5
1C5
100
AcDbEntity
  8
0
100
AcDbLine
 10
639.023021
 20
617.451289
 30
0.0
 11
639.023021
 21
615.784623
 31
0.0
  0
LINE
  5
1C6
100
AcDbEntity
  8
0
100
AcDbLine
 10
636.189688
 20
615.784623
 30
0.0
 11
634.106354
 21
615.784623
 31
0.0
  0
LINE
  5
1C7
100
AcDbEntity
  8
0
100
AcDbLine
 10
648.856354
 20
614.117956
 30
0.0
 11
648.856354
 21
615.784623
 31
0.0
  0
LINE
  5
1C8
100
AcDbEntity
  8
0
100
AcDbLine
 10
636.189688
 20
611.201289
 30
0.0
 11
647.648021
 21
611.201289
 31
0.0
  0
LINE
  5
1C9
100
AcDbEntity
  8
0
100
AcDbLine
 10
634.106354
 20
615.784623
 30
0.0
 11
634.106354
 21
609.867956
 31
0.0
  0
LINE
  5
1CA
100
AcDbEntity
  8
0
100
AcDbLine
 10
642.564688
 20
609.867956
 30
0.0
 11
642.564688
 21
611.201289
 31
0.0
  0
LINE
  5
1CB
100
AcDbEntity
  8
0
100
AcDbLine
 10
646.814688
 20
611.201289
 30
0.0
 11
646.814688
 21
609.867956
 31
0.0
  0
LINE
  5
1CC
100
AcDbEntity
  8
0
100
AcDbLine
 10
637.731354
 20
611.201289
 30
0.0
 11
637.731354
 21
609.867956
 31
0.0
  0
LINE
  5
1CD
100
AcDbEntity
  8
0
100
AcDbLine
 10
641.981354
 20
609.867956
 30
0.0
 11
641.981354
 21
611.201289
 31
0.0
  0
LINE
  5
1CE
100
AcDbEntity
  8
0
100
AcDbLine
 10
637.356354
 20
612.034623
 30
0.0
 11
637.356354
 21
615.784623
 31
0.0
  0
LINE
  5
1CF
100
AcDbEntity
  8
0
100
AcDbLine
 10
636.189688
 20
612.034623
 30
0.0
 11
636.189688
 21
615.784623
 31
0.0
  0
LINE
  5
1D0
100
AcDbEntity
  8
0
100
AcDbLine
 10
637.356354
 20
612.034623
 30
0.0
 11
636.189688
 21
612.034623
 31
0.0
  0
LINE
  5
1D1
100
AcDbEntity
  8
0
100
AcDbLine
 10
647.648021
 20
614.117956
 30
0.0
 11
648.856354
 21
614.117956
 31
0.0
  0
LINE
  5
1D2
100
AcDbEntity
  8
0
100
AcDbLine
 10
647.648021
 20
611.201289
 30
0.0
 11
647.648021
 21
614.117956
 31
0.0
  0
LINE
  5
1D3
100
AcDbEntity
  8
0
100
AcDbLine
 10
636.189688
 20
611.201289
 30
0.0
 11
636.189688
 21
609.867956
 31
0.0
  0
LINE
  5
1D4
100
AcDbEntity
  8
0
100
AcDbLine
 10
648.856354
 20
615.784623
 30
0.0
 11
637.356354
 21
615.784623
 31
0.0
  0
LINE
  5
1D5
100
AcDbEntity
  8
0
100
AcDbLine
 10
650.147268
 20
609.867956
 30
0.0
 11
650.256354
 21
622.367956
 31
0.0
  0
LINE
  5
1D6
100
AcDbEntity
  8
0
100
AcDbLine
 10
615.756354
 20
617.034623
 30
0.0
 11
615.756354
 21
609.867956
 31
0.0
  0
LINE
  5
1D7
100
AcDbEntity
  8
0
100
AcDbLine
 10
628.423021
 20
609.867956
 30
0.0
 11
628.423021
 21
617.034623
 31
0.0
  0
LINE
  5
1D8
100
AcDbEntity
  8
0
100
AcDbLine
 10
628.423021
 20
617.034623
 30
0.0
 11
615.756354
 21
617.034623
 31
0.0
  0
LINE
  5
1D9
100
AcDbEntity
  8
0
100
AcDbLine
 10
705.286575
 20
610.951289
 30
0.0
 11
705.381354
 21
609.867956
 31
0.0
  0
LINE
  5
1DA
100
AcDbEntity
  8
0
100
AcDbLine
 10
700.131354
 20
609.867956
 30
0.0
 11
700.226134
 21
610.951289
 31
0.0
  0
LINE
  5
1DB
100
AcDbEntity
  8
0
100
AcDbLine
 10
650.256354
 20
622.367956
 30
0.0
 11
790.769702
 21
622.367956
 31
0.0
  0
LINE
  5
1DC
100
AcDbEntity
  8
0
100
AcDbLine
 10
791.089688
 20
609.867956
 30
0.0
 11
614.423021
 21
609.867956
 31
0.0
  0
LINE
  5
1DD
100
AcDbEntity
  8
0
100
AcDbLine
 10
650.194513
 20
615.281688
 30
0.0
 11
790.849212
 21
615.281688
 31
0.0
  0
LINE
  5
1DE
100
AcDbEntity
  8
0
100
AcDbLine
 10
790.769702
 20
622.367956
 30
0.0
 11
790.909956
 21
609.867956
 31
0.0
  0
LINE
  5
1DF
100
AcDbEntity
  8
1
100
AcDbLine
 10
814.423021
 20
585.701289
 30
0.0
 11
847.756354
 21
585.701289
 31
0.0
  0
LINE
  5
1E0
100
AcDbEntity
  8
1
100
AcDbLine
 10
814.423021
 20
598.930456
 30
0.0
 11
814.423021
 21
585.701289
 31
0.0
  0
LINE
  5
1E1
100
AcDbEntity
  8
1
100
AcDbLine
 10
847.756354
 20
598.930456
 30
0.0
 11
814.423021
 21
598.930456
 31
0.0
  0
LINE
  5
1E2
100
AcDbEntity
  8
1
100
AcDbLine
 10
557.756354
 20
585.701289
 30
0.0
 11
591.089688
 21
585.701289
 31
0.0
  0
LINE
  5
1E3
100
AcDbEntity
  8
1
100
AcDbLine
 10
591.089688
 20
585.701289
 30
0.0
 11
591.089688
 21
598.930456
 31
0.0
  0
LINE
  5
1E4
100
AcDbEntity
  8
1
100
AcDbLine
 10
591.089688
 20
598.930456
 30
0.0
 11
557.756354
 21
598.930456
 31
0.0
  0
LINE
  5
1E5
100
AcDbEntity
  8
1
  6
HIDDEN
100
AcDbLine
 10
583.089688
 20
598.930456
 30
0.0
 11
822.423021
 21
598.930456
 31
0.0
  0
LINE
  5
1E6
100
AcDbEntity
  8
1
  6
HIDDEN
100
AcDbLine
 10
822.423021
 20
600.180456
 30
0.0
 11
583.089688
 21
600.180456
 31
0.0
  0
LINE
  5
1E7
100
AcDbEntity
  8
1
  6
HIDDEN
100
AcDbLine
 10
822.423021
 20
598.930456
 30
0.0
 11
822.423021
 21
600.180456
 31
0.0
  0
LINE
  5
1E8
100
AcDbEntity
  8
1
  6
HIDDEN
100
AcDbLine
 10
583.089688
 20
600.180456
 30
0.0
 11
583.089688
 21
598.930456
 31
0.0
  0
LINE
  5
1E9
100
AcDbEntity
  8
1
  6
HIDDEN
100
AcDbLine
 10
604.423021
 20
585.701289
 30
0.0
 11
604.423021
 21
591.847123
 31
0.0
  0
LINE
  5
1EA
100
AcDbEntity
  8
1
  6
HIDDEN
100
AcDbLine
 10
604.423021
 20
600.180456
 30
0.0
 11
604.423021
 21
611.951289
 31
0.0
  0
LINE
  5
1EB
100
AcDbEntity
  8
1
  6
HIDDEN
100
AcDbLine
 10
603.173021
 20
611.951289
 30
0.0
 11
604.423021
 21
611.951289
 31
0.0
  0
LINE
  5
1EC
100
AcDbEntity
  8
1
  6
HIDDEN
100
AcDbLine
 10
603.173021
 20
609.117956
 30
0.0
 11
603.173021
 21
611.951289
 31
0.0
  0
LINE
  5
1ED
100
AcDbEntity
  8
1
  6
HIDDEN
100
AcDbLine
 10
811.506354
 20
598.930456
 30
0.0
 11
811.506354
 21
594.763789
 31
0.0
  0
LINE
  5
1EE
100
AcDbEntity
  8
1
  6
HIDDEN
100
AcDbLine
 10
811.506354
 20
594.763789
 30
0.0
 11
812.756354
 21
594.763789
 31
0.0
  0
LINE
  5
1EF
100
AcDbEntity
  8
1
  6
HIDDEN
100
AcDbLine
 10
812.756354
 20
594.763789
 30
0.0
 11
812.756354
 21
598.930456
 31
0.0
  0
LINE
  5
1F0
100
AcDbEntity
  8
1
  6
HIDDEN
100
AcDbLine
 10
609.839688
 20
593.097123
 30
0.0
 11
603.173021
 21
593.097123
 31
0.0
  0
LINE
  5
1F1
100
AcDbEntity
  8
1
  6
HIDDEN
100
AcDbLine
 10
601.923021
 20
598.930456
 30
0.0
 11
601.923021
 21
591.847123
 31
0.0
  0
LINE
  5
1F2
100
AcDbEntity
  8
1
  6
HIDDEN
100
AcDbLine
 10
610.756354
 20
591.847123
 30
0.0
 11
610.756354
 21
592.180456
 31
0.0
  0
LINE
  5
1F3
100
AcDbEntity
  8
1
  6
HIDDEN
100
AcDbLine
 10
802.339688
 20
593.930456
 30
0.0
 11
802.339688
 21
591.847123
 31
0.0
  0
LINE
  5
1F4
100
AcDbEntity
  8
1
  6
HIDDEN
100
AcDbLine
 10
794.756354
 20
591.847123
 30
0.0
 11
803.589688
 21
591.847123
 31
0.0
  0
LINE
  5
1F5
100
AcDbEntity
  8
1
  6
HIDDEN
100
AcDbLine
 10
802.339688
 20
593.097123
 30
0.0
 11
795.673021
 21
593.097123
 31
0.0
  0
LINE
  5
1F6
100
AcDbEntity
  8
1
  6
HIDDEN
100
AcDbLine
 10
794.756354
 20
592.180456
 30
0.0
 11
794.756354
 21
591.847123
 31
0.0
  0
LINE
  5
1F7
100
AcDbEntity
  8
1
  6
HIDDEN
100
AcDbLine
 10
603.173021
 20
585.701289
 30
0.0
 11
603.173021
 21
598.930456
 31
0.0
  0
LINE
  5
1F8
100
AcDbEntity
  8
1
  6
HIDDEN
100
AcDbLine
 10
803.589688
 20
593.930456
 30
0.0
 11
803.589688
 21
598.930456
 31
0.0
  0
LINE
  5
1F9
100
AcDbEntity
  8
1
  6
HIDDEN
100
AcDbLine
 10
610.756354
 20
591.847123
 30
0.0
 11
601.923021
 21
591.847123
 31
0.0
  0
LINE
  5
1FA
100
AcDbEntity
  8
1
  6
HIDDEN
100
AcDbLine
 10
594.006354
 20
594.763789
 30
0.0
 11
594.006354
 21
598.930456
 31
0.0
  0
LINE
  5
1FB
100
AcDbEntity
  8
1
  6
HIDDEN
100
AcDbLine
 10
592.756354
 20
594.763789
 30
0.0
 11
594.006354
 21
594.763789
 31
0.0
  0
LINE
  5
1FC
100
AcDbEntity
  8
1
  6
HIDDEN
100
AcDbLine
 10
592.756354
 20
598.930456
 30
0.0
 11
592.756354
 21
594.763789
 31
0.0
  0
LINE
  5
1FD
100
AcDbEntity
  8
1
  6
HIDDEN
100
AcDbLine
 10
802.339688
 20
598.930456
 30
0.0
 11
802.339688
 21
593.930456
 31
0.0
  0
LINE
  5
1FE
100
AcDbEntity
  8
1
  6
HIDDEN
100
AcDbLine
 10
803.589688
 20
591.847123
 30
0.0
 11
803.589688
 21
593.930456
 31
0.0
  0
LINE
  5
1FF
100
AcDbEntity
  8
1
  6
HIDDEN
100
AcDbLine
 10
794.423021
 20
591.847123
 30
0.0
 11
611.089688
 21
591.847123
 31
0.0
  0
LINE
  5
200
100
AcDbEntity
  8
1
  6
HIDDEN
100
AcDbLine
 10
605.256354
 20
597.680456
 30
0.0
 11
611.089688
 21
591.847123
 31
0.0
  0
LINE
  5
201
100
AcDbEntity
  8
1
  6
HIDDEN
100
AcDbLine
 10
605.256354
 20
598.930456
 30
0.0
 11
605.256354
 21
597.680456
 31
0.0
  0
LINE
  5
202
100
AcDbEntity
  8
1
  6
HIDDEN
100
AcDbLine
 10
800.256354
 20
597.680456
 30
0.0
 11
800.256354
 21
598.930456
 31
0.0
  0
LINE
  5
203
100
AcDbEntity
  8
1
  6
HIDDEN
100
AcDbLine
 10
794.423021
 20
591.847123
 30
0.0
 11
800.256354
 21
597.680456
 31
0.0
  0
LINE
  5
204
100
AcDbEntity
  8
1
  6
HIDDEN
100
AcDbLine
 10
604.923021
 20
593.432534
 30
0.0
 11
604.423021
 21
593.388789
 31
0.0
  0
LINE
  5
205
100
AcDbEntity
  8
1
  6
HIDDEN
100
AcDbLine
 10
604.923021
 20
598.595045
 30
0.0
 11
604.423021
 21
598.638789
 31
0.0
  0
LINE
  5
206
100
AcDbEntity
  8
1
  6
HIDDEN
100
AcDbLine
 10
596.089688
 20
594.763789
 30
0.0
 11
601.923021
 21
594.763789
 31
0.0
  0
LINE
  5
207
100
AcDbEntity
  8
1
  6
HIDDEN
100
AcDbLine
 10
601.923021
 20
597.263789
 30
0.0
 11
596.089688
 21
597.263789
 31
0.0
  0
LINE
  5
208
100
AcDbEntity
  8
1
  6
HIDDEN
100
AcDbLine
 10
596.089688
 20
594.763789
 30
0.0
 11
596.089688
 21
597.263789
 31
0.0
  0
LINE
  5
209
100
AcDbEntity
  8
1
  6
HIDDEN
100
AcDbLine
 10
604.423021
 20
593.097123
 30
0.0
 11
604.423021
 21
598.930456
 31
0.0
  0
LINE
  5
20A
100
AcDbEntity
  8
1
  6
HIDDEN
100
AcDbLine
 10
603.173021
 20
600.180456
 30
0.0
 11
603.173021
 21
609.117956
 31
0.0
  0
LINE
  5
20B
100
AcDbEntity
  8
0
100
AcDbLine
 10
822.423021
 20
581.256845
 30
0.0
 11
793.006354
 21
581.256845
 31
0.0
  0
LINE
  5
20C
100
AcDbEntity
  8
0
100
AcDbLine
 10
583.089688
 20
581.256845
 30
0.0
 11
612.506354
 21
581.256845
 31
0.0
  0
LINE
  5
20D
100
AcDbEntity
  8
1
  6
HIDDEN
100
AcDbLine
 10
608.256354
 20
594.680456
 30
0.0
 11
608.256354
 21
593.097123
 31
0.0
  0
LINE
  5
20E
100
AcDbEntity
  8
1
  6
HIDDEN
100
AcDbLine
 10
604.923021
 20
600.180456
 30
0.0
 11
604.923021
 21
605.284623
 31
0.0
  0
LINE
  5
20F
100
AcDbEntity
  8
1
  6
HIDDEN
100
AcDbLine
 10
801.089688
 20
600.180456
 30
0.0
 11
801.089688
 21
611.951289
 31
0.0
  0
LINE
  5
210
100
AcDbEntity
  8
1
  6
HIDDEN
100
AcDbLine
 10
802.339688
 20
611.951289
 30
0.0
 11
801.089688
 21
611.951289
 31
0.0
  0
LINE
  5
211
100
AcDbEntity
  8
1
  6
HIDDEN
100
AcDbLine
 10
802.339688
 20
609.117956
 30
0.0
 11
802.339688
 21
611.951289
 31
0.0
  0
LINE
  5
212
100
AcDbEntity
  8
1
  6
HIDDEN
100
AcDbLine
 10
800.589688
 20
593.097123
 30
0.0
 11
800.589688
 21
598.930456
 31
0.0
  0
LINE
  5
213
100
AcDbEntity
  8
1
  6
HIDDEN
100
AcDbLine
 10
800.589688
 20
585.701289
 30
0.0
 11
800.589688
 21
591.847123
 31
0.0
  0
LINE
  5
214
100
AcDbEntity
  8
1
  6
HIDDEN
100
AcDbLine
 10
801.089688
 20
585.701289
 30
0.0
 11
801.089688
 21
591.847123
 31
0.0
  0
LINE
  5
215
100
AcDbEntity
  8
1
  6
HIDDEN
100
AcDbLine
 10
802.339688
 20
585.701289
 30
0.0
 11
802.339688
 21
598.930456
 31
0.0
  0
LINE
  5
216
100
AcDbEntity
  8
1
  6
HIDDEN
100
AcDbLine
 10
800.589688
 20
593.432534
 30
0.0
 11
801.089688
 21
593.388789
 31
0.0
  0
LINE
  5
217
100
AcDbEntity
  8
1
  6
HIDDEN
100
AcDbLine
 10
800.589688
 20
598.595045
 30
0.0
 11
801.089688
 21
598.638789
 31
0.0
  0
LINE
  5
218
100
AcDbEntity
  8
1
  6
HIDDEN
100
AcDbLine
 10
809.423021
 20
594.763789
 30
0.0
 11
803.589688
 21
594.763789
 31
0.0
  0
LINE
  5
219
100
AcDbEntity
  8
1
  6
HIDDEN
100
AcDbLine
 10
803.589688
 20
597.263789
 30
0.0
 11
809.423021
 21
597.263789
 31
0.0
  0
LINE
  5
21A
100
AcDbEntity
  8
1
  6
HIDDEN
100
AcDbLine
 10
809.423021
 20
594.763789
 30
0.0
 11
809.423021
 21
597.263789
 31
0.0
  0
LINE
  5
21B
100
AcDbEntity
  8
1
  6
HIDDEN
100
AcDbLine
 10
801.089688
 20
593.097123
 30
0.0
 11
801.089688
 21
598.930456
 31
0.0
  0
LINE
  5
21C
100
AcDbEntity
  8
1
  6
HIDDEN
100
AcDbLine
 10
802.339688
 20
600.180456
 30
0.0
 11
802.339688
 21
609.117956
 31
0.0
  0
LINE
  5
21D
100
AcDbEntity
  8
1
  6
HIDDEN
100
AcDbLine
 10
800.589688
 20
600.180456
 30
0.0
 11
800.589688
 21
605.284623
 31
0.0
  0
LINE
  5
21E
100
AcDbEntity
  8
1
  6
HIDDEN
100
AcDbLine
 10
797.256354
 20
591.847123
 30
0.0
 11
797.256354
 21
585.701289
 31
0.0
  0
LINE
  5
21F
100
AcDbEntity
  8
1
  6
HIDDEN
100
AcDbLine
 10
797.256354
 20
605.284623
 30
0.0
 11
797.256354
 21
600.180456
 31
0.0
  0
LINE
  5
220
100
AcDbEntity
  8
1
  6
HIDDEN
100
AcDbLine
 10
797.256354
 20
594.680456
 30
0.0
 11
797.256354
 21
593.097123
 31
0.0
  0
LINE
  5
221
100
AcDbEntity
  8
0
100
AcDbLine
 10
791.089688
 20
600.180456
 30
0.0
 11
791.089688
 21
609.867956
 31
0.0
  0
LINE
  5
222
100
AcDbEntity
  8
0
100
AcDbLine
 10
614.423021
 20
591.847123
 30
0.0
 11
614.423021
 21
549.034623
 31
0.0
  0
LINE
  5
223
100
AcDbEntity
  8
0
  6
HIDDEN
100
AcDbLine
 10
568.756354
 20
783.983695
 30
0.0
 11
568.756354
 21
685.983695
 31
0.0
  0
LINE
  5
224
100
AcDbEntity
  8
0
  6
HIDDEN
100
AcDbLine
 10
836.756354
 20
783.983695
 30
0.0
 11
836.756354
 21
685.983695
 31
0.0
  0
LINE
  5
225
100
AcDbEntity
  8
0
  6
HIDDEN
100
AcDbLine
 10
568.756354
 20
685.983695
 30
0.0
 11
836.756354
 21
685.983695
 31
0.0
  0
LINE
  5
226
100
AcDbEntity
  8
0
  6
HIDDEN
100
AcDbLine
 10
568.756354
 20
783.983695
 30
0.0
 11
836.756354
 21
783.983695
 31
0.0
  0
ARC
  5
227
100
AcDbEntity
  8
0
100
AcDbCircle
 10
895.55816
 20
705.665947
 30
0.0
 40
656.844307
100
AcDbArc
 50
173.245119
 51
174.371246
  0
ARC
  5
228
100
AcDbEntity
  8
0
100
AcDbCircle
 10
809.118468
 20
713.12125
 30
0.0
 40
570.091151
100
AcDbArc
 50
174.264828
 51
174.912929
  0
ARC
  5
229
100
AcDbEntity
  8
0
100
AcDbCircle
 10
572.897117
 20
733.996809
 30
0.0
 40
332.949261
100
AcDbArc
 50
174.88672
 51
177.357871
  0
ARC
  5
22A
100
AcDbEntity
  8
0
100
AcDbCircle
 10
487.526195
 20
737.941762
 30
0.0
 40
247.487241
100
AcDbArc
 50
177.359115
 51
180.684839
  0
ARC
  5
22B
100
AcDbEntity
  8
0
100
AcDbCircle
 10
253.236561
 20
782.03273
 30
0.0
 40
10.003084
100
AcDbArc
 50
162.600567
 51
174.880793
  0
ARC
  5
22C
100
AcDbEntity
  8
0
100
AcDbCircle
 10
253.727653
 20
781.878056
 30
0.0
 40
10.517957
100
AcDbArc
 50
151.074724
 51
162.59651
  0
ARC
  5
22D
100
AcDbEntity
  8
0
100
AcDbCircle
 10
254.31458
 20
781.550602
 30
0.0
 40
11.190046
100
AcDbArc
 50
140.244888
 51
151.060765
  0
ARC
  5
22E
100
AcDbEntity
  8
0
100
AcDbCircle
 10
254.738764
 20
781.194361
 30
0.0
 40
11.743971
100
AcDbArc
 50
129.885034
 51
140.232185
  0
ARC
  5
22F
100
AcDbEntity
  8
0
100
AcDbCircle
 10
254.889363
 20
781.010915
 30
0.0
 40
11.981307
100
AcDbArc
 50
119.680007
 51
129.875109
  0
ARC
  5
230
100
AcDbEntity
  8
0
100
AcDbCircle
 10
254.823417
 20
781.121208
 30
0.0
 40
11.852831
100
AcDbArc
 50
109.305183
 51
119.667045
  0
ARC
  5
231
100
AcDbEntity
  8
0
100
AcDbCircle
 10
254.69393
 20
781.472784
 30
0.0
 40
11.478217
100
AcDbArc
 50
98.491899
 51
109.275355
  0
ARC
  5
232
100
AcDbEntity
  8
0
100
AcDbCircle
 10
254.624499
 20
781.846549
 30
0.0
 40
11.098304
100
AcDbArc
 50
87.102045
 51
98.422327
  0
ARC
  5
233
100
AcDbEntity
  8
0
100
AcDbCircle
 10
895.55816
 20
764.301443
 30
0.0
 40
656.844307
100
AcDbArc
 50
185.628754
 51
186.754881
  0
ARC
  5
234
100
AcDbEntity
  8
0
100
AcDbCircle
 10
809.118468
 20
756.84614
 30
0.0
 40
570.091151
100
AcDbArc
 50
185.087071
 51
185.735172
  0
ARC
  5
235
100
AcDbEntity
  8
0
100
AcDbCircle
 10
572.897117
 20
735.970581
 30
0.0
 40
332.949261
100
AcDbArc
 50
182.642129
 51
185.11328
  0
ARC
  5
236
100
AcDbEntity
  8
0
100
AcDbCircle
 10
487.526195
 20
732.025628
 30
0.0
 40
247.487241
100
AcDbArc
 50
179.315161
 51
182.640885
  0
ARC
  5
237
100
AcDbEntity
  8
0
100
AcDbCircle
 10
253.236561
 20
687.93466
 30
0.0
 40
10.003084
100
AcDbArc
 50
185.119207
 51
197.399433
  0
ARC
  5
238
100
AcDbEntity
  8
0
100
AcDbCircle
 10
253.727653
 20
688.089334
 30
0.0
 40
10.517957
100
AcDbArc
 50
197.40349
 51
208.925276
  0
ARC
  5
239
100
AcDbEntity
  8
0
100
AcDbCircle
 10
254.31458
 20
688.416788
 30
0.0
 40
11.190046
100
AcDbArc
 50
208.939235
 51
219.755112
  0
ARC
  5
23A
100
AcDbEntity
  8
0
100
AcDbCircle
 10
254.738764
 20
688.773029
 30
0.0
 40
11.743971
100
AcDbArc
 50
219.767815
 51
230.114966
  0
ARC
  5
23B
100
AcDbEntity
  8
0
100
AcDbCircle
 10
254.889363
 20
688.956476
 30
0.0
 40
11.981307
100
AcDbArc
 50
230.124891
 51
240.319993
  0
ARC
  5
23C
100
AcDbEntity
  8
0
100
AcDbCircle
 10
254.823417
 20
688.846182
 30
0.0
 40
11.852831
100
AcDbArc
 50
240.332955
 51
250.694817
  0
ARC
  5
23D
100
AcDbEntity
  8
0
100
AcDbCircle
 10
254.69393
 20
688.494606
 30
0.0
 40
11.478217
100
AcDbArc
 50
250.724645
 51
261.508101
  0
ARC
  5
23E
100
AcDbEntity
  8
0
100
AcDbCircle
 10
254.624499
 20
688.120841
 30
0.0
 40
11.098304
100
AcDbArc
 50
261.577673
 51
272.897955
  0
ARC
  5
23F
100
AcDbEntity
  8
0
100
AcDbCircle
 10
253.236561
 20
768.303974
 30
0.0
 40
10.003084
100
AcDbArc
 50
162.600567
 51
174.880793
  0
ARC
  5
240
100
AcDbEntity
  8
0
100
AcDbCircle
 10
253.727653
 20
768.1493
 30
0.0
 40
10.517957
100
AcDbArc
 50
151.074724
 51
162.59651
  0
ARC
  5
241
100
AcDbEntity
  8
0
100
AcDbCircle
 10
254.31458
 20
767.821845
 30
0.0
 40
11.190046
100
AcDbArc
 50
140.244888
 51
151.060765
  0
ARC
  5
242
100
AcDbEntity
  8
0
100
AcDbCircle
 10
254.738764
 20
767.465604
 30
0.0
 40
11.743971
100
AcDbArc
 50
129.885034
 51
140.232185
  0
ARC
  5
243
100
AcDbEntity
  8
0
100
AcDbCircle
 10
254.889363
 20
767.282158
 30
0.0
 40
11.981307
100
AcDbArc
 50
119.680007
 51
129.875109
  0
ARC
  5
244
100
AcDbEntity
  8
0
100
AcDbCircle
 10
254.823417
 20
767.392451
 30
0.0
 40
11.852831
100
AcDbArc
 50
109.305183
 51
119.667045
  0
ARC
  5
245
100
AcDbEntity
  8
0
100
AcDbCircle
 10
254.69393
 20
767.744027
 30
0.0
 40
11.478217
100
AcDbArc
 50
98.491899
 51
109.275355
  0
ARC
  5
246
100
AcDbEntity
  8
0
100
AcDbCircle
 10
254.624499
 20
768.117793
 30
0.0
 40
11.098304
100
AcDbArc
 50
87.102045
 51
98.422327
  0
ARC
  5
247
100
AcDbEntity
  8
0
100
AcDbCircle
 10
253.236561
 20
701.663417
 30
0.0
 40
10.003084
100
AcDbArc
 50
185.119207
 51
197.399433
  0
ARC
  5
248
100
AcDbEntity
  8
0
100
AcDbCircle
 10
253.727653
 20
701.818091
 30
0.0
 40
10.517957
100
AcDbArc
 50
197.40349
 51
208.925276
  0
ARC
  5
249
100
AcDbEntity
  8
0
100
AcDbCircle
 10
254.31458
 20
702.145545
 30
0.0
 40
11.190046
100
AcDbArc
 50
208.939235
 51
219.755112
  0
ARC
  5
24A
100
AcDbEntity
  8
0
100
AcDbCircle
 10
254.738764
 20
702.501786
 30
0.0
 40
11.743971
100
AcDbArc
 50
219.767815
 51
230.114966
  0
ARC
  5
24B
100
AcDbEntity
  8
0
100
AcDbCircle
 10
254.889363
 20
702.685232
 30
0.0
 40
11.981307
100
AcDbArc
 50
230.124891
 51
240.319993
  0
ARC
  5
24C
100
AcDbEntity
  8
0
100
AcDbCircle
 10
254.823417
 20
702.574939
 30
0.0
 40
11.852831
100
AcDbArc
 50
240.332955
 51
250.694817
  0
ARC
  5
24D
100
AcDbEntity
  8
0
100
AcDbCircle
 10
254.69393
 20
702.223363
 30
0.0
 40
11.478217
100
AcDbArc
 50
250.724645
 51
261.508101
  0
ARC
  5
24E
100
AcDbEntity
  8
0
100
AcDbCircle
 10
254.624499
 20
701.849598
 30
0.0
 40
11.098304
100
AcDbArc
 50
261.577673
 51
272.897955
  0
ARC
  5
24F
100
AcDbEntity
  8
0
100
AcDbCircle
 10
-206.444893
 20
705.665947
 30
0.0
 40
656.844307
100
AcDbArc
 50
5.628754
 51
6.754881
  0
ARC
  5
250
100
AcDbEntity
  8
0
100
AcDbCircle
 10
-120.005202
 20
713.12125
 30
0.0
 40
570.091151
100
AcDbArc
 50
5.087071
 51
5.735172
  0
ARC
  5
251
100
AcDbEntity
  8
0
100
AcDbCircle
 10
116.21615
 20
733.996809
 30
0.0
 40
332.949261
100
AcDbArc
 50
2.642129
 51
5.11328
  0
ARC
  5
252
100
AcDbEntity
  8
0
100
AcDbCircle
 10
201.587071
 20
737.941762
 30
0.0
 40
247.487241
100
AcDbArc
 50
359.315161
 51
362.640885
  0
ARC
  5
253
100
AcDbEntity
  8
0
100
AcDbCircle
 10
435.876705
 20
782.03273
 30
0.0
 40
10.003084
100
AcDbArc
 50
5.119207
 51
17.399433
  0
ARC
  5
254
100
AcDbEntity
  8
0
100
AcDbCircle
 10
435.385614
 20
781.878056
 30
0.0
 40
10.517957
100
AcDbArc
 50
17.40349
 51
28.925276
  0
ARC
  5
255
100
AcDbEntity
  8
0
100
AcDbCircle
 10
434.798686
 20
781.550602
 30
0.0
 40
11.190046
100
AcDbArc
 50
28.939235
 51
39.755112
  0
ARC
  5
256
100
AcDbEntity
  8
0
100
AcDbCircle
 10
434.374502
 20
781.194361
 30
0.0
 40
11.743971
100
AcDbArc
 50
39.767815
 51
50.114966
  0
ARC
  5
257
100
AcDbEntity
  8
0
100
AcDbCircle
 10
434.223904
 20
781.010915
 30
0.0
 40
11.981307
100
AcDbArc
 50
50.124891
 51
60.319993
  0
ARC
  5
258
100
AcDbEntity
  8
0
100
AcDbCircle
 10
434.289849
 20
781.121208
 30
0.0
 40
11.852831
100
AcDbArc
 50
60.332955
 51
70.694817
  0
ARC
  5
259
100
AcDbEntity
  8
0
100
AcDbCircle
 10
434.419337
 20
781.472784
 30
0.0
 40
11.478217
100
AcDbArc
 50
70.724645
 51
81.508101
  0
ARC
  5
25A
100
AcDbEntity
  8
0
100
AcDbCircle
 10
434.488768
 20
781.846549
 30
0.0
 40
11.098304
100
AcDbArc
 50
81.577673
 51
92.897955
  0
ARC
  5
25B
100
AcDbEntity
  8
0
100
AcDbCircle
 10
-206.444893
 20
764.301443
 30
0.0
 40
656.844307
100
AcDbArc
 50
353.245119
 51
354.371246
  0
ARC
  5
25C
100
AcDbEntity
  8
0
100
AcDbCircle
 10
-120.005202
 20
756.84614
 30
0.0
 40
570.091151
100
AcDbArc
 50
354.264828
 51
354.912929
  0
ARC
  5
25D
100
AcDbEntity
  8
0
100
AcDbCircle
 10
116.21615
 20
735.970581
 30
0.0
 40
332.949261
100
AcDbArc
 50
354.88672
 51
357.357871
  0
ARC
  5
25E
100
AcDbEntity
  8
0
100
AcDbCircle
 10
201.587071
 20
732.025628
 30
0.0
 40
247.487241
100
AcDbArc
 50
357.359115
 51
360.684839
  0
ARC
  5
25F
100
AcDbEntity
  8
0
100
AcDbCircle
 10
435.876705
 20
687.93466
 30
0.0
 40
10.003084
100
AcDbArc
 50
342.600567
 51
354.880793
  0
ARC
  5
260
100
AcDbEntity
  8
0
100
AcDbCircle
 10
435.385614
 20
688.089334
 30
0.0
 40
10.517957
100
AcDbArc
 50
331.074724
 51
342.59651
  0
ARC
  5
261
100
AcDbEntity
  8
0
100
AcDbCircle
 10
434.798686
 20
688.416788
 30
0.0
 40
11.190046
100
AcDbArc
 50
320.244888
 51
331.060765
  0
ARC
  5
262
100
AcDbEntity
  8
0
100
AcDbCircle
 10
434.374502
 20
688.773029
 30
0.0
 40
11.743971
100
AcDbArc
 50
309.885034
 51
320.232185
  0
ARC
  5
263
100
AcDbEntity
  8
0
100
AcDbCircle
 10
434.223904
 20
688.956476
 30
0.0
 40
11.981307
100
AcDbArc
 50
299.680007
 51
309.875109
  0
ARC
  5
264
100
AcDbEntity
  8
0
100
AcDbCircle
 10
434.289849
 20
688.846182
 30
0.0
 40
11.852831
100
AcDbArc
 50
289.305183
 51
299.667045
  0
ARC
  5
265
100
AcDbEntity
  8
0
100
AcDbCircle
 10
434.419337
 20
688.494606
 30
0.0
 40
11.478217
100
AcDbArc
 50
278.491899
 51
289.275355
  0
ARC
  5
266
100
AcDbEntity
  8
0
100
AcDbCircle
 10
434.488768
 20
688.120841
 30
0.0
 40
11.098304
100
AcDbArc
 50
267.102045
 51
278.422327
  0
ARC
  5
267
100
AcDbEntity
  8
0
100
AcDbCircle
 10
435.876705
 20
768.303974
 30
0.0
 40
10.003084
100
AcDbArc
 50
5.119207
 51
17.399433
  0
ARC
  5
268
100
AcDbEntity
  8
0
100
AcDbCircle
 10
435.385614
 20
768.1493
 30
0.0
 40
10.517957
100
AcDbArc
 50
17.40349
 51
28.925276
  0
ARC
  5
269
100
AcDbEntity
  8
0
100
AcDbCircle
 10
434.798686
 20
767.821845
 30
0.0
 40
11.190046
100
AcDbArc
 50
28.939235
 51
39.755112
  0
ARC
  5
26A
100
AcDbEntity
  8
0
100
AcDbCircle
 10
434.374502
 20
767.465604
 30
0.0
 40
11.743971
100
AcDbArc
 50
39.767815
 51
50.114966
  0
ARC
  5
26B
100
AcDbEntity
  8
0
100
AcDbCircle
 10
434.223904
 20
767.282158
 30
0.0
 40
11.981307
100
AcDbArc
 50
50.124891
 51
60.319993
  0
ARC
  5
26C
100
AcDbEntity
  8
0
100
AcDbCircle
 10
434.289849
 20
767.392451
 30
0.0
 40
11.852831
100
AcDbArc
 50
60.332955
 51
70.694817
  0
ARC
  5
26D
100
AcDbEntity
  8
0
100
AcDbCircle
 10
434.419337
 20
767.744027
 30
0.0
 40
11.478217
100
AcDbArc
 50
70.724645
 51
81.508101
  0
ARC
  5
26E
100
AcDbEntity
  8
0
100
AcDbCircle
 10
434.488768
 20
768.117793
 30
0.0
 40
11.098304
100
AcDbArc
 50
81.577673
 51
92.897955
  0
ARC
  5
26F
100
AcDbEntity
  8
0
100
AcDbCircle
 10
435.876705
 20
701.663417
 30
0.0
 40
10.003084
100
AcDbArc
 50
342.600567
 51
354.880793
  0
ARC
  5
270
100
AcDbEntity
  8
0
100
AcDbCircle
 10
435.385614
 20
701.818091
 30
0.0
 40
10.517957
100
AcDbArc
 50
331.074724
 51
342.59651
  0
ARC
  5
271
100
AcDbEntity
  8
0
100
AcDbCircle
 10
434.798686
 20
702.145545
 30
0.0
 40
11.190046
100
AcDbArc
 50
320.244888
 51
331.060765
  0
ARC
  5
272
100
AcDbEntity
  8
0
100
AcDbCircle
 10
434.374502
 20
702.501786
 30
0.0
 40
11.743971
100
AcDbArc
 50
309.885034
 51
320.232185
  0
ARC
  5
273
100
AcDbEntity
  8
0
100
AcDbCircle
 10
434.223904
 20
702.685232
 30
0.0
 40
11.981307
100
AcDbArc
 50
299.680007
 51
309.875109
  0
ARC
  5
274
100
AcDbEntity
  8
0
100
AcDbCircle
 10
434.289849
 20
702.574939
 30
0.0
 40
11.852831
100
AcDbArc
 50
289.305183
 51
299.667045
  0
ARC
  5
275
100
AcDbEntity
  8
0
100
AcDbCircle
 10
434.419337
 20
702.223363
 30
0.0
 40
11.478217
100
AcDbArc
 50
278.491899
 51
289.275355
  0
ARC
  5
276
100
AcDbEntity
  8
0
100
AcDbCircle
 10
434.488768
 20
701.849598
 30
0.0
 40
11.098304
100
AcDbArc
 50
267.102045
 51
278.422327
  0
ARC
  5
277
100
AcDbEntity
  8
0
100
AcDbCircle
 10
227.156633
 20
435.933907
 30
0.0
 40
2.0
100
AcDbArc
 50
270.0
 51
360.0
  0
ARC
  5
278
100
AcDbEntity
  8
0
100
AcDbCircle
 10
215.956633
 20
493.933907
 30
0.0
 40
15.0
100
AcDbArc
 50
90.0
 51
180.0
  0
ARC
  5
279
100
AcDbEntity
  8
0
100
AcDbCircle
 10
215.956633
 20
406.933907
 30
0.0
 40
15.0
100
AcDbArc
 50
180.0
 51
270.0
  0
ARC
  5
27A
100
AcDbEntity
  8
0
100
AcDbCircle
 10
473.579887
 20
493.433907
 30
0.0
 40
20.0
100
AcDbArc
 50
18.431851
 51
90.0
  0
ARC
  5
27B
100
AcDbEntity
  8
0
100
AcDbCircle
 10
473.579887
 20
407.433907
 30
0.0
 40
20.0
100
AcDbArc
 50
270.0
 51
341.568149
  0
ARC
  5
27C
100
AcDbEntity
  8
0
100
AcDbCircle
 10
473.579887
 20
407.433907
 30
0.0
 40
17.0
100
AcDbArc
 50
270.0
 51
341.568149
  0
ARC
  5
27D
100
AcDbEntity
  8
0
100
AcDbCircle
 10
473.579887
 20
493.433907
 30
0.0
 40
17.0
100
AcDbArc
 50
18.431851
 51
90.0
  0
ARC
  5
27E
100
AcDbEntity
  8
0
100
AcDbCircle
 10
215.53338
 20
493.433907
 30
0.0
 40
20.0
100
AcDbArc
 50
90.0
 51
161.568149
  0
ARC
  5
27F
100
AcDbEntity
  8
0
100
AcDbCircle
 10
215.53338
 20
407.433907
 30
0.0
 40
20.0
100
AcDbArc
 50
198.431851
 51
270.0
  0
ARC
  5
280
100
AcDbEntity
  8
0
100
AcDbCircle
 10
215.53338
 20
407.433907
 30
0.0
 40
17.0
100
AcDbArc
 50
198.431851
 51
270.0
  0
ARC
  5
281
100
AcDbEntity
  8
0
100
AcDbCircle
 10
215.53338
 20
493.433907
 30
0.0
 40
17.0
100
AcDbArc
 50
90.0
 51
161.568149
  0
ARC
  5
282
100
AcDbEntity
  8
0
100
AcDbCircle
 10
473.156633
 20
493.933907
 30
0.0
 40
15.0
100
AcDbArc
 50
0.0
 51
90.0
  0
ARC
  5
283
100
AcDbEntity
  8
0
100
AcDbCircle
 10
473.156633
 20
406.933907
 30
0.0
 40
15.0
100
AcDbArc
 50
270.0
 51
360.0
  0
ARC
  5
284
100
AcDbEntity
  8
0
100
AcDbCircle
 10
461.956633
 20
464.933907
 30
0.0
 40
2.0
100
AcDbArc
 50
90.0
 51
180.0
  0
ARC
  5
285
100
AcDbEntity
  8
SILK
100
AcDbCircle
 10
263.056481
 20
463.433907
 30
0.0
 40
1.0
100
AcDbArc
 50
270.0
 51
360.0
  0
ARC
  5
286
100
AcDbEntity
  8
0
100
AcDbCircle
 10
194.556633
 20
585.675176
 30
0.0
 40
6.0
100
AcDbArc
 50
144.608863
 51
180.0
  0
ARC
  5
287
100
AcDbEntity
  8
0
100
AcDbCircle
 10
239.170886
 20
629.572617
 30
0.0
 40
1.0
100
AcDbArc
 50
6.934349
 51
90.0
  0
ARC
  5
288
100
AcDbEntity
  8
0
100
AcDbCircle
 10
255.185599
 20
605.572617
 30
0.0
 40
12.0
100
AcDbArc
 50
186.934349
 51
270.0
  0
ARC
  5
289
100
AcDbEntity
  8
0
100
AcDbCircle
 10
238.573762
 20
605.572617
 30
0.0
 40
25.0
100
AcDbArc
 50
90.0
 51
129.965066
  0
ARC
  5
28A
100
AcDbEntity
  8
0
100
AcDbCircle
 10
494.556633
 20
585.675176
 30
0.0
 40
6.0
100
AcDbArc
 50
0.0
 51
35.391137
  0
ARC
  5
28B
100
AcDbEntity
  8
0
100
AcDbCircle
 10
449.94238
 20
629.572617
 30
0.0
 40
1.0
100
AcDbArc
 50
90.0
 51
173.065651
  0
ARC
  5
28C
100
AcDbEntity
  8
0
100
AcDbCircle
 10
433.927668
 20
605.572617
 30
0.0
 40
12.0
100
AcDbArc
 50
270.0
 51
353.065651
  0
ARC
  5
28D
100
AcDbEntity
  8
0
100
AcDbCircle
 10
450.539504
 20
605.572617
 30
0.0
 40
25.0
100
AcDbArc
 50
50.034934
 51
90.0
  0
ARC
  5
28E
100
AcDbEntity
  8
0
100
AcDbCircle
 10
215.53338
 20
691.983695
 30
0.0
 40
20.0
100
AcDbArc
 50
198.431851
 51
270.0
  0
ARC
  5
28F
100
AcDbEntity
  8
0
100
AcDbCircle
 10
215.53338
 20
777.983695
 30
0.0
 40
20.0
100
AcDbArc
 50
90.0
 51
161.568149
  0
ARC
  5
290
100
AcDbEntity
  8
0
100
AcDbCircle
 10
473.579887
 20
691.983695
 30
0.0
 40
20.0
100
AcDbArc
 50
270.0
 51
341.568149
  0
ARC
  5
291
100
AcDbEntity
  8
0
100
AcDbCircle
 10
473.579887
 20
777.983695
 30
0.0
 40
20.0
100
AcDbArc
 50
18.431851
 51
90.0
  0
ARC
  5
292
100
AcDbEntity
  8
SILK
100
AcDbCircle
 10
74.509223
 20
722.707793
 30
0.0
 40
2.0
100
AcDbArc
 50
180.0
 51
270.0
  0
ARC
  5
293
100
AcDbEntity
  8
SILK
100
AcDbCircle
 10
74.509223
 20
727.107793
 30
0.0
 40
2.0
100
AcDbArc
 50
90.0
 51
180.0
  0
ARC
  5
294
100
AcDbEntity
  8
SILK
100
AcDbCircle
 10
74.509223
 20
761.107793
 30
0.0
 40
2.0
100
AcDbArc
 50
90.0
 51
180.0
  0
ARC
  5
295
100
AcDbEntity
  8
SILK
100
AcDbCircle
 10
74.509223
 20
756.707793
 30
0.0
 40
2.0
100
AcDbArc
 50
180.0
 51
270.0
  0
ARC
  5
296
100
AcDbEntity
  8
0
100
AcDbCircle
 10
99.770037
 20
798.907793
 30
0.0
 40
6.0
100
AcDbArc
 50
50.424154
 51
90.0
  0
ARC
  5
297
100
AcDbEntity
  8
0
100
AcDbCircle
 10
99.770037
 20
684.907793
 30
0.0
 40
6.0
100
AcDbArc
 50
270.0
 51
309.575846
  0
ARC
  5
298
100
AcDbEntity
  8
1
  6
HIDDEN
100
AcDbCircle
 10
383.306633
 20
734.983695
 30
0.0
 40
21.5
100
AcDbArc
 50
270.0
 51
450.0
  0
ARC
  5
299
100
AcDbEntity
  8
1
  6
HIDDEN
100
AcDbCircle
 10
343.806633
 20
734.983695
 30
0.0
 40
21.5
100
AcDbArc
 50
90.0
 51
270.0
  0
CIRCLE
  5
29A
100
AcDbEntity
  8
0
100
AcDbCircle
 10
672.571027
 20
211.570245
 30
0.0
 40
1.5
  0
CIRCLE
  5
29B
100
AcDbEntity
  8
0
100
AcDbCircle
 10
672.571027
 20
211.570245
 30
0.0
 40
1.3
  0
CIRCLE
  5
29C
100
AcDbEntity
  8
SILK
100
AcDbCircle
 10
251.556633
 20
467.433907
 30
0.0
 40
4.2
  0
CIRCLE
  5
29D
100
AcDbEntity
  8
SILK
100
AcDbCircle
 10
251.556633
 20
433.433907
 30
0.0
 40
4.2
  0
CIRCLE
  5
29E
100
AcDbEntity
  8
SILK
100
AcDbCircle
 10
65.309223
 20
734.287793
 30
0.0
 40
1.8
  0
CIRCLE
  5
29F
100
AcDbEntity
  8
SILK
100
AcDbCircle
 10
65.309223
 20
739.367793
 30
0.0
 40
1.8
  0
CIRCLE
  5
2A0
100
AcDbEntity
  8
SILK
100
AcDbCircle
 10
65.309223
 20
744.447793
 30
0.0
 40
1.8
  0
CIRCLE
  5
2A1
100
AcDbEntity
  8
SILK
100
AcDbCircle
 10
65.309223
 20
749.527793
 30
0.0
 40
1.8
  0
CIRCLE
  5
2A2
100
AcDbEntity
  8
1
  6
HIDDEN
100
AcDbCircle
 10
291.556633
 20
734.983695
 30
0.0
 40
14.3
  0
CIRCLE
  5
2A3
100
AcDbEntity
  8
0
100
AcDbCircle
 10
222.156633
 20
450.433907
 30
0.0
 40
4.15
  0
CIRCLE
  5
2A4
100
AcDbEntity
  8
0
100
AcDbCircle
 10
466.956633
 20
450.433907
 30
0.0
 40
4.15
  0
CIRCLE
  5
2A5
100
AcDbEntity
  8
0
100
AcDbCircle
 10
344.556633
 20
478.433907
 30
0.0
 40
3.15
  0
CIRCLE
  5
2A6
100
AcDbEntity
  8
0
100
AcDbCircle
 10
344.556633
 20
422.433907
 30
0.0
 40
3.15
  0
ARC
  5
2A7
100
AcDbEntity
  8
SILK
100
AcDbCircle
 10
57.909223
 20
740.892718
 30
0.0
 40
1.0
100
AcDbArc
 50
90.0
 51
270.0
  0
ARC
  5
2A8
100
AcDbEntity
  8
SILK
100
AcDbCircle
 10
57.909223
 20
755.892718
 30
0.0
 40
1.0
100
AcDbArc
 50
90.0
 51
270.0
  0
ARC
  5
2A9
100
AcDbEntity
  8
0
100
AcDbCircle
 10
271.976633
 20
546.472617
 30
0.0
 40
3.9
100
AcDbArc
 50
180.0
 51
360.0
  0
ARC
  5
2AA
100
AcDbEntity
  8
0
100
AcDbCircle
 10
271.976633
 20
546.472617
 30
0.0
 40
1.9
100
AcDbArc
 50
180.0
 51
360.0
  0
ARC
  5
2AB
100
AcDbEntity
  8
0
100
AcDbCircle
 10
686.996027
 20
211.570245
 30
0.0
 40
1.6
100
AcDbArc
 50
270.0
 51
360.0
  0
ARC
  5
2AC
100
AcDbEntity
  8
0
100
AcDbCircle
 10
686.996027
 20
211.570245
 30
0.0
 40
1.6
100
AcDbArc
 50
0.0
 51
90.0
  0
ARC
  5
2AD
100
AcDbEntity
  8
0
100
AcDbCircle
 10
665.196027
 20
211.570245
 30
0.0
 40
1.6
100
AcDbArc
 50
180.0
 51
270.0
  0
ARC
  5
2AE
100
AcDbEntity
  8
0
100
AcDbCircle
 10
665.196027
 20
211.570245
 30
0.0
 40
1.6
100
AcDbArc
 50
90.0
 51
180.0
  0
ARC
  5
2AF
100
AcDbEntity
  8
0
100
AcDbCircle
 10
344.556633
 20
734.983695
 30
0.0
 40
156.0
100
AcDbArc
 50
161.568149
 51
180.0
  0
ARC
  5
2B0
100
AcDbEntity
  8
0
100
AcDbCircle
 10
344.556633
 20
734.983695
 30
0.0
 40
156.0
100
AcDbArc
 50
341.568149
 51
360.0
  0
ARC
  5
2B1
100
AcDbEntity
  8
0
100
AcDbCircle
 10
222.556633
 20
400.433907
 30
0.0
 40
2.5
100
AcDbArc
 50
0.0
 51
180.0
  0
ARC
  5
2B2
100
AcDbEntity
  8
0
100
AcDbCircle
 10
222.556633
 20
500.433907
 30
0.0
 40
2.5
100
AcDbArc
 50
180.0
 51
360.0
  0
ARC
  5
2B3
100
AcDbEntity
  8
0
100
AcDbCircle
 10
229.156633
 20
474.433907
 30
0.0
 40
2.5
100
AcDbArc
 50
180.0
 51
360.0
  0
ARC
  5
2B4
100
AcDbEntity
  8
0
100
AcDbCircle
 10
229.156633
 20
480.433907
 30
0.0
 40
2.5
100
AcDbArc
 50
0.0
 51
180.0
  0
ARC
  5
2B5
100
AcDbEntity
  8
0
100
AcDbCircle
 10
229.156633
 20
420.433907
 30
0.0
 40
2.5
100
AcDbArc
 50
180.0
 51
360.0
  0
ARC
  5
2B6
100
AcDbEntity
  8
0
100
AcDbCircle
 10
229.156633
 20
426.433907
 30
0.0
 40
2.5
100
AcDbArc
 50
0.0
 51
180.0
  0
ARC
  5
2B7
100
AcDbEntity
  8
0
100
AcDbCircle
 10
217.142888
 20
414.096407
 30
0.0
 40
3.0
100
AcDbArc
 50
270.0
 51
360.0
  0
ARC
  5
2B8
100
AcDbEntity
  8
0
100
AcDbCircle
 10
217.142888
 20
425.652657
 30
0.0
 40
3.0
100
AcDbArc
 50
90.0
 51
180.0
  0
ARC
  5
2B9
100
AcDbEntity
  8
0
100
AcDbCircle
 10
217.142888
 20
486.771407
 30
0.0
 40
3.0
100
AcDbArc
 50
90.0
 51
180.0
  0
ARC
  5
2BA
100
AcDbEntity
  8
0
100
AcDbCircle
 10
217.142888
 20
475.215157
 30
0.0
 40
3.0
100
AcDbArc
 50
270.0
 51
360.0
  0
ARC
  5
2BB
100
AcDbEntity
  8
0
100
AcDbCircle
 10
217.142888
 20
414.096407
 30
0.0
 40
3.0
100
AcDbArc
 50
180.0
 51
270.0
  0
ARC
  5
2BC
100
AcDbEntity
  8
0
100
AcDbCircle
 10
217.142888
 20
425.652657
 30
0.0
 40
3.0
100
AcDbArc
 50
0.0
 51
90.0
  0
ARC
  5
2BD
100
AcDbEntity
  8
0
100
AcDbCircle
 10
217.142888
 20
475.215157
 30
0.0
 40
3.0
100
AcDbArc
 50
180.0
 51
270.0
  0
ARC
  5
2BE
100
AcDbEntity
  8
0
100
AcDbCircle
 10
217.142888
 20
486.771407
 30
0.0
 40
3.0
100
AcDbArc
 50
0.0
 51
90.0
  0
ARC
  5
2BF
100
AcDbEntity
  8
0
100
AcDbCircle
 10
257.056633
 20
407.026671
 30
0.0
 40
14.589348
100
AcDbArc
 50
193.735905
 51
270.0
  0
ARC
  5
2C0
100
AcDbEntity
  8
0
100
AcDbCircle
 10
257.056633
 20
493.841143
 30
0.0
 40
14.589348
100
AcDbArc
 50
90.0
 51
166.264095
  0
ARC
  5
2C1
100
AcDbEntity
  8
0
100
AcDbCircle
 10
432.056633
 20
407.026671
 30
0.0
 40
14.589348
100
AcDbArc
 50
270.0
 51
346.264095
  0
ARC
  5
2C2
100
AcDbEntity
  8
0
100
AcDbCircle
 10
432.056633
 20
493.841143
 30
0.0
 40
14.589348
100
AcDbArc
 50
13.735905
 51
90.0
  0
ARC
  5
2C3
100
AcDbEntity
  8
0
100
AcDbCircle
 10
344.556633
 20
450.433907
 30
0.0
 40
156.0
100
AcDbArc
 50
341.568149
 51
378.431851
  0
ARC
  5
2C4
100
AcDbEntity
  8
0
100
AcDbCircle
 10
344.556633
 20
450.433907
 30
0.0
 40
153.0
100
AcDbArc
 50
341.568149
 51
378.431851
  0
ARC
  5
2C5
100
AcDbEntity
  8
0
100
AcDbCircle
 10
344.556633
 20
450.433907
 30
0.0
 40
156.0
100
AcDbArc
 50
161.568149
 51
198.431851
  0
ARC
  5
2C6
100
AcDbEntity
  8
0
100
AcDbCircle
 10
344.556633
 20
450.433907
 30
0.0
 40
153.0
100
AcDbArc
 50
161.568149
 51
198.431851
  0
ARC
  5
2C7
100
AcDbEntity
  8
0
100
AcDbCircle
 10
471.970379
 20
414.096407
 30
0.0
 40
3.0
100
AcDbArc
 50
180.0
 51
360.0
  0
ARC
  5
2C8
100
AcDbEntity
  8
0
100
AcDbCircle
 10
471.970379
 20
475.215157
 30
0.0
 40
3.0
100
AcDbArc
 50
180.0
 51
360.0
  0
ARC
  5
2C9
100
AcDbEntity
  8
0
100
AcDbCircle
 10
471.970379
 20
425.652657
 30
0.0
 40
3.0
100
AcDbArc
 50
0.0
 51
180.0
  0
ARC
  5
2CA
100
AcDbEntity
  8
0
100
AcDbCircle
 10
471.970379
 20
486.771407
 30
0.0
 40
3.0
100
AcDbArc
 50
0.0
 51
180.0
  0
ARC
  5
2CB
100
AcDbEntity
  8
0
100
AcDbCircle
 10
459.956633
 20
474.433907
 30
0.0
 40
2.5
100
AcDbArc
 50
180.0
 51
360.0
  0
ARC
  5
2CC
100
AcDbEntity
  8
0
100
AcDbCircle
 10
459.956633
 20
480.433907
 30
0.0
 40
2.5
100
AcDbArc
 50
0.0
 51
180.0
  0
ARC
  5
2CD
100
AcDbEntity
  8
0
100
AcDbCircle
 10
459.956633
 20
420.433907
 30
0.0
 40
2.5
100
AcDbArc
 50
180.0
 51
360.0
  0
ARC
  5
2CE
100
AcDbEntity
  8
0
100
AcDbCircle
 10
459.956633
 20
426.433907
 30
0.0
 40
2.5
100
AcDbArc
 50
0.0
 51
180.0
  0
ARC
  5
2CF
100
AcDbEntity
  8
0
100
AcDbCircle
 10
466.556633
 20
400.433907
 30
0.0
 40
2.5
100
AcDbArc
 50
0.0
 51
180.0
  0
ARC
  5
2D0
100
AcDbEntity
  8
0
100
AcDbCircle
 10
466.556633
 20
500.433907
 30
0.0
 40
2.5
100
AcDbArc
 50
180.0
 51
360.0
  0
ARC
  5
2D1
100
AcDbEntity
  8
SILK
100
AcDbCircle
 10
243.462981
 20
450.433907
 30
0.0
 40
10.406347
100
AcDbArc
 50
180.0
 51
202.612874
  0
ARC
  5
2D2
100
AcDbEntity
  8
SILK
100
AcDbCircle
 10
243.462981
 20
450.433907
 30
0.0
 40
10.406347
100
AcDbArc
 50
157.387126
 51
180.0
  0
ARC
  5
2D3
100
AcDbEntity
  8
SILK
100
AcDbCircle
 10
445.650286
 20
450.433907
 30
0.0
 40
10.406347
100
AcDbArc
 50
0.0
 51
22.612874
  0
ARC
  5
2D4
100
AcDbEntity
  8
SILK
100
AcDbCircle
 10
445.650286
 20
450.433907
 30
0.0
 40
10.406347
100
AcDbArc
 50
337.387126
 51
360.0
  0
ARC
  5
2D5
100
AcDbEntity
  8
0
100
AcDbCircle
 10
344.556633
 20
422.433907
 30
0.0
 40
4.5
100
AcDbArc
 50
26.3878
 51
153.6122
  0
ARC
  5
2D6
100
AcDbEntity
  8
0
100
AcDbCircle
 10
344.556633
 20
478.433907
 30
0.0
 40
4.5
100
AcDbArc
 50
206.3878
 51
333.6122
  0
ARC
  5
2D7
100
AcDbEntity
  8
0
100
AcDbCircle
 10
243.462981
 20
584.572617
 30
0.0
 40
10.406347
100
AcDbArc
 50
180.0
 51
202.612874
  0
ARC
  5
2D8
100
AcDbEntity
  8
0
100
AcDbCircle
 10
222.156633
 20
592.478964
 30
0.0
 40
10.406347
100
AcDbArc
 50
247.387126
 51
292.612874
  0
ARC
  5
2D9
100
AcDbEntity
  8
0
100
AcDbCircle
 10
344.556633
 20
479.110642
 30
0.0
 40
190.0
100
AcDbArc
 50
129.965066
 51
144.608863
  0
ARC
  5
2DA
100
AcDbEntity
  8
0
100
AcDbCircle
 10
344.556633
 20
479.110642
 30
0.0
 40
190.0
100
AcDbArc
 50
35.391137
 51
50.034934
  0
ARC
  5
2DB
100
AcDbEntity
  8
0
100
AcDbCircle
 10
445.650286
 20
584.572617
 30
0.0
 40
10.406347
100
AcDbArc
 50
337.387126
 51
360.0
  0
ARC
  5
2DC
100
AcDbEntity
  8
0
100
AcDbCircle
 10
466.956633
 20
592.478964
 30
0.0
 40
10.406347
100
AcDbArc
 50
247.387126
 51
292.612874
  0
ARC
  5
2DD
100
AcDbEntity
  8
0
100
AcDbCircle
 10
344.556633
 20
734.983695
 30
0.0
 40
156.0
100
AcDbArc
 50
180.0
 51
198.431851
  0
ARC
  5
2DE
100
AcDbEntity
  8
0
100
AcDbCircle
 10
434.636567
 20
734.983695
 30
0.0
 40
194.397502
100
AcDbArc
 50
169.86348
 51
190.13652
  0
ARC
  5
2DF
100
AcDbEntity
  8
0
100
AcDbCircle
 10
344.556633
 20
734.983695
 30
0.0
 40
156.0
100
AcDbArc
 50
0.0
 51
18.431851
  0
ARC
  5
2E0
100
AcDbEntity
  8
0
100
AcDbCircle
 10
254.476699
 20
734.983695
 30
0.0
 40
194.397502
100
AcDbArc
 50
349.86348
 51
370.13652
  0
ARC
  5
2E1
100
AcDbEntity
  8
0
100
AcDbCircle
 10
98.909223
 20
741.907793
 30
0.0
 40
46.0
100
AcDbArc
 50
0.0
 51
36.089952
  0
ARC
  5
2E2
100
AcDbEntity
  8
0
100
AcDbCircle
 10
-17.456198
 20
657.083924
 30
0.0
 40
190.0
100
AcDbArc
 50
36.089952
 51
48.906827
  0
ARC
  5
2E3
100
AcDbEntity
  8
0
100
AcDbCircle
 10
-17.456198
 20
657.083924
 30
0.0
 40
190.0
100
AcDbArc
 50
48.906827
 51
50.424154
  0
ARC
  5
2E4
100
AcDbEntity
  8
0
100
AcDbCircle
 10
98.909223
 20
741.907793
 30
0.0
 40
46.0
100
AcDbArc
 50
323.910048
 51
360.0
  0
ARC
  5
2E5
100
AcDbEntity
  8
0
100
AcDbCircle
 10
-17.456198
 20
826.731662
 30
0.0
 40
190.0
100
AcDbArc
 50
311.093173
 51
323.910048
  0
ARC
  5
2E6
100
AcDbEntity
  8
0
100
AcDbCircle
 10
-17.456198
 20
826.731662
 30
0.0
 40
190.0
100
AcDbArc
 50
309.575846
 51
311.093173
  0
ARC
  5
2E7
100
AcDbEntity
  8
0
100
AcDbCircle
 10
98.909223
 20
741.907793
 30
0.0
 40
43.0
100
AcDbArc
 50
90.0
 51
130.629329
  0
ARC
  5
2E8
100
AcDbEntity
  8
0
100
AcDbCircle
 10
98.909223
 20
741.907793
 30
0.0
 40
44.0
100
AcDbArc
 50
143.778453
 51
180.0
  0
ARC
  5
2E9
100
AcDbEntity
  8
0
100
AcDbCircle
 10
98.909223
 20
741.907793
 30
0.0
 40
44.0
100
AcDbArc
 50
180.0
 51
216.221547
  0
ARC
  5
2EA
100
AcDbEntity
  8
0
100
AcDbCircle
 10
98.909223
 20
741.907793
 30
0.0
 40
43.0
100
AcDbArc
 50
229.370671
 51
270.0
  0
ARC
  5
2EB
100
AcDbEntity
  8
0
100
AcDbCircle
 10
75.991643
 20
769.907793
 30
0.0
 40
7.98242
100
AcDbArc
 50
157.643461
 51
180.0
  0
ARC
  5
2EC
100
AcDbEntity
  8
0
100
AcDbCircle
 10
75.991643
 20
769.907793
 30
0.0
 40
7.98242
100
AcDbArc
 50
180.0
 51
194.510096
  0
ARC
  5
2ED
100
AcDbEntity
  8
0
100
AcDbCircle
 10
98.909223
 20
741.907793
 30
0.0
 40
43.4
100
AcDbArc
 50
90.0
 51
130.872494
  0
ARC
  5
2EE
100
AcDbEntity
  8
0
100
AcDbCircle
 10
98.909223
 20
741.907793
 30
0.0
 40
44.0
100
AcDbArc
 50
90.0
 51
131.230577
  0
ARC
  5
2EF
100
AcDbEntity
  8
0
100
AcDbCircle
 10
98.909223
 20
741.907793
 30
0.0
 40
44.0
100
AcDbArc
 50
228.769423
 51
270.0
  0
ARC
  5
2F0
100
AcDbEntity
  8
0
100
AcDbCircle
 10
98.909223
 20
741.907793
 30
0.0
 40
43.4
100
AcDbArc
 50
229.127506
 51
270.0
  0
ARC
  5
2F1
100
AcDbEntity
  8
0
100
AcDbCircle
 10
75.991643
 20
713.907793
 30
0.0
 40
7.98242
100
AcDbArc
 50
180.0
 51
202.356539
  0
ARC
  5
2F2
100
AcDbEntity
  8
0
100
AcDbCircle
 10
75.991643
 20
713.907793
 30
0.0
 40
7.98242
100
AcDbArc
 50
165.489904
 51
180.0
  0
ARC
  5
2F3
100
AcDbEntity
  8
0
100
AcDbCircle
 10
344.556633
 20
561.655036
 30
0.0
 40
7.98242
100
AcDbArc
 50
270.0
 51
292.356539
  0
ARC
  5
2F4
100
AcDbEntity
  8
0
100
AcDbCircle
 10
344.556633
 20
561.655036
 30
0.0
 40
7.98242
100
AcDbArc
 50
247.643461
 51
270.0
  0
ARC
  5
2F5
100
AcDbEntity
  8
SILK
100
AcDbCircle
 10
274.876633
 20
452.933907
 30
0.0
 40
1.0
100
AcDbArc
 50
270.0
 51
450.0
  0
ARC
  5
2F6
100
AcDbEntity
  8
SILK
100
AcDbCircle
 10
269.076633
 20
452.933907
 30
0.0
 40
1.0
100
AcDbArc
 50
90.0
 51
270.0
  0
ARC
  5
2F7
100
AcDbEntity
  8
SILK
100
AcDbCircle
 10
274.876633
 20
437.933907
 30
0.0
 40
1.0
100
AcDbArc
 50
270.0
 51
450.0
  0
ARC
  5
2F8
100
AcDbEntity
  8
SILK
100
AcDbCircle
 10
269.076633
 20
437.933907
 30
0.0
 40
1.0
100
AcDbArc
 50
90.0
 51
270.0
  0
ARC
  5
2F9
100
AcDbEntity
  8
SILK
100
AcDbCircle
 10
98.909223
 20
741.907793
 30
0.0
 40
8.0
100
AcDbArc
 50
138.590378
 51
221.409622
  0
ARC
  5
2FA
100
AcDbEntity
  8
SILK
100
AcDbCircle
 10
98.909223
 20
741.907793
 30
0.0
 40
5.0
100
AcDbArc
 50
90.0
 51
270.0
  0
ARC
  5
2FB
100
AcDbEntity
  8
SILK
100
AcDbCircle
 10
106.81557
 20
741.907793
 30
0.0
 40
10.406347
100
AcDbArc
 50
157.387126
 51
202.612874
  0
ARC
  5
2FC
100
AcDbEntity
  8
SILK
100
AcDbCircle
 10
98.909223
 20
741.907793
 30
0.0
 40
4.15
100
AcDbArc
 50
115.798259
 51
244.201741
  0
LINE
  5
2FD
100
AcDbEntity
  8
SILK
100
AcDbLine
 10
61.309223
 20
741.892718
 30
0.0
 11
57.909223
 21
741.892718
 31
0.0
  0
LINE
  5
2FE
100
AcDbEntity
  8
SILK
100
AcDbLine
 10
57.909223
 20
739.892718
 30
0.0
 11
61.309223
 21
739.892718
 31
0.0
  0
LINE
  5
2FF
100
AcDbEntity
  8
SILK
100
AcDbLine
 10
57.909223
 20
754.892718
 30
0.0
 11
62.809223
 21
754.892718
 31
0.0
  0
LINE
  5
300
100
AcDbEntity
  8
SILK
100
AcDbLine
 10
62.809223
 20
756.892718
 30
0.0
 11
57.909223
 21
756.892718
 31
0.0
  0
LINE
  5
301
100
AcDbEntity
  8
0
100
AcDbLine
 10
275.876633
 20
546.472617
 30
0.0
 11
275.876633
 21
548.472617
 31
0.0
  0
LINE
  5
302
100
AcDbEntity
  8
0
100
AcDbLine
 10
273.876633
 20
548.472617
 30
0.0
 11
273.876633
 21
546.472617
 31
0.0
  0
LINE
  5
303
100
AcDbEntity
  8
0
100
AcDbLine
 10
270.076633
 20
546.472617
 30
0.0
 11
270.076633
 21
548.472617
 31
0.0
  0
LINE
  5
304
100
AcDbEntity
  8
0
100
AcDbLine
 10
268.076633
 20
548.472617
 30
0.0
 11
268.076633
 21
546.472617
 31
0.0
  0
LINE
  5
305
100
AcDbEntity
  8
0
100
AcDbLine
 10
670.571027
 20
179.570245
 30
0.0
 11
667.571027
 21
179.570245
 31
0.0
  0
LINE
  5
306
100
AcDbEntity
  8
0
100
AcDbLine
 10
677.571027
 20
260.570245
 30
0.0
 11
676.071027
 21
260.570245
 31
0.0
  0
LINE
  5
307
100
AcDbEntity
  8
0
100
AcDbLine
 10
674.571027
 20
246.570245
 30
0.0
 11
674.571027
 21
245.070245
 31
0.0
  0
LINE
  5
308
100
AcDbEntity
  8
0
100
AcDbLine
 10
667.571027
 20
246.570245
 30
0.0
 11
667.571027
 21
245.070245
 31
0.0
  0
LINE
  5
309
100
AcDbEntity
  8
0
100
AcDbLine
 10
676.071027
 20
246.570245
 30
0.0
 11
667.571027
 21
246.570245
 31
0.0
  0
LINE
  5
30A
100
AcDbEntity
  8
0
100
AcDbLine
 10
667.571027
 20
245.070245
 30
0.0
 11
676.071027
 21
245.070245
 31
0.0
  0
LINE
  5
30B
100
AcDbEntity
  8
0
100
AcDbLine
 10
676.071027
 20
260.570245
 30
0.0
 11
676.071027
 21
138.570245
 31
0.0
  0
LINE
  5
30C
100
AcDbEntity
  8
0
100
AcDbLine
 10
677.571027
 20
138.570245
 30
0.0
 11
677.571027
 21
260.570245
 31
0.0
  0
LINE
  5
30D
100
AcDbEntity
  8
0
100
AcDbLine
 10
676.071027
 20
242.570245
 30
0.0
 11
674.571027
 21
242.570245
 31
0.0
  0
LINE
  5
30E
100
AcDbEntity
  8
0
100
AcDbLine
 10
674.571027
 20
242.570245
 30
0.0
 11
667.571027
 21
235.570245
 31
0.0
  0
LINE
  5
30F
100
AcDbEntity
  8
0
100
AcDbLine
 10
670.571027
 20
231.570245
 30
0.0
 11
667.571027
 21
231.570245
 31
0.0
  0
LINE
  5
310
100
AcDbEntity
  8
0
100
AcDbLine
 10
670.571027
 20
231.570245
 30
0.0
 11
670.571027
 21
233.570245
 31
0.0
  0
LINE
  5
311
100
AcDbEntity
  8
0
  6
HIDDEN
100
AcDbLine
 10
669.071027
 20
231.570245
 30
0.0
 11
669.071027
 21
221.570245
 31
0.0
  0
LINE
  5
312
100
AcDbEntity
  8
0
100
AcDbLine
 10
667.571027
 20
231.570245
 30
0.0
 11
667.571027
 21
221.570245
 31
0.0
  0
LINE
  5
313
100
AcDbEntity
  8
0
100
AcDbLine
 10
667.571027
 20
221.570245
 30
0.0
 11
670.571027
 21
221.570245
 31
0.0
  0
LINE
  5
314
100
AcDbEntity
  8
0
100
AcDbLine
 10
670.571027
 20
221.570245
 30
0.0
 11
670.571027
 21
219.570245
 31
0.0
  0
LINE
  5
315
100
AcDbEntity
  8
0
  6
HIDDEN
100
AcDbLine
 10
669.071027
 20
177.570245
 30
0.0
 11
669.071027
 21
167.570245
 31
0.0
  0
LINE
  5
316
100
AcDbEntity
  8
0
100
AcDbLine
 10
670.571027
 20
177.570245
 30
0.0
 11
667.571027
 21
177.570245
 31
0.0
  0
LINE
  5
317
100
AcDbEntity
  8
0
100
AcDbLine
 10
667.571027
 20
177.570245
 30
0.0
 11
667.571027
 21
167.570245
 31
0.0
  0
LINE
  5
318
100
AcDbEntity
  8
0
100
AcDbLine
 10
667.571027
 20
167.570245
 30
0.0
 11
670.571027
 21
167.570245
 31
0.0
  0
LINE
  5
319
100
AcDbEntity
  8
0
100
AcDbLine
 10
667.571027
 20
163.570245
 30
0.0
 11
674.571027
 21
156.570245
 31
0.0
  0
LINE
  5
31A
100
AcDbEntity
  8
0
100
AcDbLine
 10
670.571027
 20
179.570245
 30
0.0
 11
670.571027
 21
177.570245
 31
0.0
  0
LINE
  5
31B
100
AcDbEntity
  8
0
100
AcDbLine
 10
667.571027
 20
152.570245
 30
0.0
 11
676.071027
 21
152.570245
 31
0.0
  0
LINE
  5
31C
100
AcDbEntity
  8
0
100
AcDbLine
 10
667.571027
 20
154.070245
 30
0.0
 11
667.571027
 21
152.570245
 31
0.0
  0
LINE
  5
31D
100
AcDbEntity
  8
0
100
AcDbLine
 10
676.071027
 20
154.070245
 30
0.0
 11
667.571027
 21
154.070245
 31
0.0
  0
LINE
  5
31E
100
AcDbEntity
  8
0
100
AcDbLine
 10
674.571027
 20
154.070245
 30
0.0
 11
674.571027
 21
152.570245
 31
0.0
  0
LINE
  5
31F
100
AcDbEntity
  8
0
100
AcDbLine
 10
674.571027
 20
156.570245
 30
0.0
 11
676.071027
 21
156.570245
 31
0.0
  0
LINE
  5
320
100
AcDbEntity
  8
0
100
AcDbLine
 10
676.071027
 20
138.570245
 30
0.0
 11
677.571027
 21
138.570245
 31
0.0
  0
LINE
  5
321
100
AcDbEntity
  8
0
100
AcDbLine
 10
670.571027
 20
233.570245
 30
0.0
 11
667.571027
 21
233.570245
 31
0.0
  0
LINE
  5
322
100
AcDbEntity
  8
0
100
AcDbLine
 10
667.571027
 20
233.570245
 30
0.0
 11
667.571027
 21
235.570245
 31
0.0
  0
LINE
  5
323
100
AcDbEntity
  8
0
100
AcDbLine
 10
670.571027
 20
219.570245
 30
0.0
 11
667.571027
 21
219.570245
 31
0.0
  0
LINE
  5
324
100
AcDbEntity
  8
0
100
AcDbLine
 10
667.571027
 20
219.570245
 30
0.0
 11
667.571027
 21
208.570245
 31
0.0
  0
LINE
  5
325
100
AcDbEntity
  8
0
100
AcDbLine
 10
667.571027
 20
208.570245
 30
0.0
 11
670.071027
 21
206.070245
 31
0.0
  0
LINE
  5
326
100
AcDbEntity
  8
0
100
AcDbLine
 10
670.071027
 20
206.070245
 30
0.0
 11
670.071027
 21
193.070245
 31
0.0
  0
LINE
  5
327
100
AcDbEntity
  8
0
100
AcDbLine
 10
670.071027
 20
193.070245
 30
0.0
 11
667.571027
 21
190.570245
 31
0.0
  0
LINE
  5
328
100
AcDbEntity
  8
0
100
AcDbLine
 10
667.571027
 20
190.570245
 30
0.0
 11
667.571027
 21
179.570245
 31
0.0
  0
LINE
  5
329
100
AcDbEntity
  8
0
100
AcDbLine
 10
670.571027
 20
167.570245
 30
0.0
 11
670.571027
 21
165.570245
 31
0.0
  0
LINE
  5
32A
100
AcDbEntity
  8
0
100
AcDbLine
 10
670.571027
 20
165.570245
 30
0.0
 11
667.571027
 21
165.570245
 31
0.0
  0
LINE
  5
32B
100
AcDbEntity
  8
0
100
AcDbLine
 10
667.571027
 20
165.570245
 30
0.0
 11
667.571027
 21
163.570245
 31
0.0
  0
LINE
  5
32C
100
AcDbEntity
  8
0
100
AcDbLine
 10
689.696027
 20
216.570245
 30
0.0
 11
691.696027
 21
214.570245
 31
0.0
  0
LINE
  5
32D
100
AcDbEntity
  8
0
100
AcDbLine
 10
691.696027
 20
208.570245
 30
0.0
 11
689.696027
 21
206.570245
 31
0.0
  0
LINE
  5
32E
100
AcDbEntity
  8
0
100
AcDbLine
 10
660.696027
 20
208.570245
 30
0.0
 11
662.696027
 21
206.570245
 31
0.0
  0
LINE
  5
32F
100
AcDbEntity
  8
0
100
AcDbLine
 10
660.696027
 20
214.570245
 30
0.0
 11
662.696027
 21
216.570245
 31
0.0
  0
LINE
  5
330
100
AcDbEntity
  8
0
100
AcDbLine
 10
686.996027
 20
209.970245
 30
0.0
 11
677.571027
 21
209.970245
 31
0.0
  0
LINE
  5
331
100
AcDbEntity
  8
0
100
AcDbLine
 10
665.196027
 20
213.170245
 30
0.0
 11
667.571027
 21
213.170245
 31
0.0
  0
LINE
  5
332
100
AcDbEntity
  8
0
100
AcDbLine
 10
691.696027
 20
208.570245
 30
0.0
 11
691.696027
 21
214.570245
 31
0.0
  0
LINE
  5
333
100
AcDbEntity
  8
0
100
AcDbLine
 10
689.696027
 20
216.570245
 30
0.0
 11
677.571027
 21
216.570245
 31
0.0
  0
LINE
  5
334
100
AcDbEntity
  8
0
100
AcDbLine
 10
689.696027
 20
206.570245
 30
0.0
 11
677.571027
 21
206.570245
 31
0.0
  0
LINE
  5
335
100
AcDbEntity
  8
0
100
AcDbLine
 10
660.696027
 20
214.570245
 30
0.0
 11
660.696027
 21
213.070245
 31
0.0
  0
LINE
  5
336
100
AcDbEntity
  8
0
100
AcDbLine
 10
660.696027
 20
210.070245
 30
0.0
 11
660.696027
 21
208.570245
 31
0.0
  0
LINE
  5
337
100
AcDbEntity
  8
0
100
AcDbLine
 10
660.696027
 20
213.070245
 30
0.0
 11
658.696027
 21
213.070245
 31
0.0
  0
LINE
  5
338
100
AcDbEntity
  8
0
100
AcDbLine
 10
658.696027
 20
213.070245
 30
0.0
 11
658.696027
 21
210.070245
 31
0.0
  0
LINE
  5
339
100
AcDbEntity
  8
0
100
AcDbLine
 10
658.696027
 20
210.070245
 30
0.0
 11
660.696027
 21
210.070245
 31
0.0
  0
LINE
  5
33A
100
AcDbEntity
  8
0
100
AcDbLine
 10
660.196027
 20
213.070245
 30
0.0
 11
660.196027
 21
210.070245
 31
0.0
  0
LINE
  5
33B
100
AcDbEntity
  8
0
100
AcDbLine
 10
677.571027
 20
213.170245
 30
0.0
 11
686.996027
 21
213.170245
 31
0.0
  0
LINE
  5
33C
100
AcDbEntity
  8
0
100
AcDbLine
 10
667.571027
 20
216.570245
 30
0.0
 11
662.696027
 21
216.570245
 31
0.0
  0
LINE
  5
33D
100
AcDbEntity
  8
0
100
AcDbLine
 10
667.571027
 20
209.970245
 30
0.0
 11
665.196027
 21
209.970245
 31
0.0
  0
LINE
  5
33E
100
AcDbEntity
  8
0
100
AcDbLine
 10
669.571027
 20
206.570245
 30
0.0
 11
662.696027
 21
206.570245
 31
0.0
  0
LINE
  5
33F
100
AcDbEntity
  8
0
100
AcDbLine
 10
219.056633
 20
391.933907
 30
0.0
 11
215.956633
 21
391.933907
 31
0.0
  0
LINE
  5
340
100
AcDbEntity
  8
0
100
AcDbLine
 10
226.056633
 20
508.933907
 30
0.0
 11
233.756633
 21
508.933907
 31
0.0
  0
LINE
  5
341
100
AcDbEntity
  8
0
100
AcDbLine
 10
220.056633
 20
400.433907
 30
0.0
 11
220.056633
 21
392.933907
 31
0.0
  0
LINE
  5
342
100
AcDbEntity
  8
0
100
AcDbLine
 10
225.056633
 20
392.933907
 30
0.0
 11
225.056633
 21
400.433907
 31
0.0
  0
LINE
  5
343
100
AcDbEntity
  8
0
100
AcDbLine
 10
220.056633
 20
507.933907
 30
0.0
 11
220.056633
 21
500.433907
 31
0.0
  0
LINE
  5
344
100
AcDbEntity
  8
0
100
AcDbLine
 10
225.056633
 20
500.433907
 30
0.0
 11
225.056633
 21
507.933907
 31
0.0
  0
LINE
  5
345
100
AcDbEntity
  8
0
100
AcDbLine
 10
229.156633
 20
440.433907
 30
0.0
 11
229.156633
 21
435.933907
 31
0.0
  0
LINE
  5
346
100
AcDbEntity
  8
0
100
AcDbLine
 10
200.956633
 20
433.933907
 30
0.0
 11
227.156633
 21
433.933907
 31
0.0
  0
LINE
  5
347
100
AcDbEntity
  8
0
100
AcDbLine
 10
200.956633
 20
442.933907
 30
0.0
 11
227.156633
 21
442.933907
 31
0.0
  0
LINE
  5
348
100
AcDbEntity
  8
0
100
AcDbLine
 10
226.656633
 20
474.433907
 30
0.0
 11
226.656633
 21
480.433907
 31
0.0
  0
LINE
  5
349
100
AcDbEntity
  8
0
100
AcDbLine
 10
231.656633
 20
480.433907
 30
0.0
 11
231.656633
 21
474.433907
 31
0.0
  0
LINE
  5
34A
100
AcDbEntity
  8
0
100
AcDbLine
 10
231.656633
 20
426.433907
 30
0.0
 11
231.656633
 21
420.433907
 31
0.0
  0
LINE
  5
34B
100
AcDbEntity
  8
0
100
AcDbLine
 10
226.656633
 20
420.433907
 30
0.0
 11
226.656633
 21
426.433907
 31
0.0
  0
LINE
  5
34C
100
AcDbEntity
  8
SILK
100
AcDbLine
 10
227.156633
 20
460.433907
 30
0.0
 11
237.756633
 21
460.433907
 31
0.0
  0
LINE
  5
34D
100
AcDbEntity
  8
SILK
100
AcDbLine
 10
227.156633
 20
440.433907
 30
0.0
 11
227.156633
 21
460.433907
 31
0.0
  0
LINE
  5
34E
100
AcDbEntity
  8
SILK
100
AcDbLine
 10
237.756633
 20
440.433907
 30
0.0
 11
227.156633
 21
440.433907
 31
0.0
  0
LINE
  5
34F
100
AcDbEntity
  8
0
100
AcDbLine
 10
215.956633
 20
508.933907
 30
0.0
 11
219.056633
 21
508.933907
 31
0.0
  0
LINE
  5
350
100
AcDbEntity
  8
0
100
AcDbLine
 10
235.756633
 20
506.933907
 30
0.0
 11
235.756633
 21
492.433907
 31
0.0
  0
LINE
  5
351
100
AcDbEntity
  8
SILK
100
AcDbLine
 10
237.756633
 20
458.433907
 30
0.0
 11
236.256633
 21
458.433907
 31
0.0
  0
LINE
  5
352
100
AcDbEntity
  8
0
100
AcDbLine
 10
237.756633
 20
492.433907
 30
0.0
 11
235.756633
 21
492.433907
 31
0.0
  0
LINE
  5
353
100
AcDbEntity
  8
0
100
AcDbLine
 10
237.756633
 20
408.433907
 30
0.0
 11
237.756633
 21
492.433907
 31
0.0
  0
LINE
  5
354
100
AcDbEntity
  8
SILK
100
AcDbLine
 10
237.756633
 20
442.433907
 30
0.0
 11
236.256633
 21
442.433907
 31
0.0
  0
LINE
  5
355
100
AcDbEntity
  8
0
100
AcDbLine
 10
237.756633
 20
408.433907
 30
0.0
 11
235.756633
 21
408.433907
 31
0.0
  0
LINE
  5
356
100
AcDbEntity
  8
0
100
AcDbLine
 10
200.956633
 20
406.933907
 30
0.0
 11
200.956633
 21
493.933907
 31
0.0
  0
LINE
  5
357
100
AcDbEntity
  8
0
100
AcDbLine
 10
233.756633
 20
391.933907
 30
0.0
 11
226.056633
 21
391.933907
 31
0.0
  0
LINE
  5
358
100
AcDbEntity
  8
0
100
AcDbLine
 10
235.756633
 20
408.433907
 30
0.0
 11
235.756633
 21
393.933907
 31
0.0
  0
LINE
  5
359
100
AcDbEntity
  8
0
100
AcDbLine
 10
235.756633
 20
393.933907
 30
0.0
 11
233.756633
 21
391.933907
 31
0.0
  0
LINE
  5
35A
100
AcDbEntity
  8
0
100
AcDbLine
 10
235.756633
 20
506.933907
 30
0.0
 11
233.756633
 21
508.933907
 31
0.0
  0
LINE
  5
35B
100
AcDbEntity
  8
0
100
AcDbLine
 10
214.142888
 20
414.096407
 30
0.0
 11
214.142888
 21
425.652657
 31
0.0
  0
LINE
  5
35C
100
AcDbEntity
  8
0
100
AcDbLine
 10
220.142888
 20
425.652657
 30
0.0
 11
220.142888
 21
414.096407
 31
0.0
  0
LINE
  5
35D
100
AcDbEntity
  8
0
100
AcDbLine
 10
214.142888
 20
475.215157
 30
0.0
 11
214.142888
 21
486.771407
 31
0.0
  0
LINE
  5
35E
100
AcDbEntity
  8
0
100
AcDbLine
 10
220.142888
 20
486.771407
 30
0.0
 11
220.142888
 21
475.215157
 31
0.0
  0
LINE
  5
35F
100
AcDbEntity
  8
0
100
AcDbLine
 10
226.056633
 20
391.933907
 30
0.0
 11
225.056633
 21
392.933907
 31
0.0
  0
LINE
  5
360
100
AcDbEntity
  8
0
100
AcDbLine
 10
220.056633
 20
392.933907
 30
0.0
 11
219.056633
 21
391.933907
 31
0.0
  0
LINE
  5
361
100
AcDbEntity
  8
0
100
AcDbLine
 10
220.056633
 20
507.933907
 30
0.0
 11
219.056633
 21
508.933907
 31
0.0
  0
LINE
  5
362
100
AcDbEntity
  8
0
100
AcDbLine
 10
225.056633
 20
507.933907
 30
0.0
 11
226.056633
 21
508.933907
 31
0.0
  0
LINE
  5
363
100
AcDbEntity
  8
SILK
100
AcDbLine
 10
236.256633
 20
460.433907
 30
0.0
 11
236.256633
 21
440.433907
 31
0.0
  0
LINE
  5
364
100
AcDbEntity
  8
0
100
AcDbLine
 10
242.263208
 20
494.433907
 30
0.0
 11
242.884533
 21
497.305339
 31
0.0
  0
LINE
  5
365
100
AcDbEntity
  8
0
100
AcDbLine
 10
446.850059
 20
406.433907
 30
0.0
 11
446.228733
 21
403.562475
 31
0.0
  0
LINE
  5
366
100
AcDbEntity
  8
0
100
AcDbLine
 10
257.056633
 20
511.433907
 30
0.0
 11
244.556633
 21
510.433907
 31
0.0
  0
LINE
  5
367
100
AcDbEntity
  8
0
100
AcDbLine
 10
244.556633
 20
390.433907
 30
0.0
 11
257.056633
 21
389.433907
 31
0.0
  0
LINE
  5
368
100
AcDbEntity
  8
0
100
AcDbLine
 10
257.056633
 20
392.437323
 30
0.0
 11
344.556633
 21
392.437323
 31
0.0
  0
LINE
  5
369
100
AcDbEntity
  8
0
100
AcDbLine
 10
242.884533
 20
403.562475
 30
0.0
 11
242.263208
 21
406.433907
 31
0.0
  0
LINE
  5
36A
100
AcDbEntity
  8
0
100
AcDbLine
 10
432.056633
 20
508.430491
 30
0.0
 11
257.056633
 21
508.430491
 31
0.0
  0
LINE
  5
36B
100
AcDbEntity
  8
0
100
AcDbLine
 10
257.056633
 20
389.433907
 30
0.0
 11
432.056633
 21
389.433907
 31
0.0
  0
LINE
  5
36C
100
AcDbEntity
  8
0
100
AcDbLine
 10
432.056633
 20
389.433907
 30
0.0
 11
444.556633
 21
390.433907
 31
0.0
  0
LINE
  5
36D
100
AcDbEntity
  8
0
100
AcDbLine
 10
344.556633
 20
392.437323
 30
0.0
 11
432.056633
 21
392.437323
 31
0.0
  0
LINE
  5
36E
100
AcDbEntity
  8
0
100
AcDbLine
 10
446.228733
 20
497.305339
 30
0.0
 11
446.850059
 21
494.433907
 31
0.0
  0
LINE
  5
36F
100
AcDbEntity
  8
0
100
AcDbLine
 10
444.556633
 20
510.433907
 30
0.0
 11
432.056633
 21
511.433907
 31
0.0
  0
LINE
  5
370
100
AcDbEntity
  8
0
100
AcDbLine
 10
432.056633
 20
511.433907
 30
0.0
 11
257.056633
 21
511.433907
 31
0.0
  0
LINE
  5
371
100
AcDbEntity
  8
0
100
AcDbLine
 10
432.056633
 20
403.933907
 30
0.0
 11
432.056633
 21
405.433907
 31
0.0
  0
LINE
  5
372
100
AcDbEntity
  8
0
100
AcDbLine
 10
432.056633
 20
495.433907
 30
0.0
 11
432.056633
 21
496.933907
 31
0.0
  0
LINE
  5
373
100
AcDbEntity
  8
0
100
AcDbLine
 10
473.579887
 20
513.433907
 30
0.0
 11
215.53338
 21
513.433907
 31
0.0
  0
LINE
  5
374
100
AcDbEntity
  8
0
100
AcDbLine
 10
215.53338
 20
387.433907
 30
0.0
 11
473.579887
 21
387.433907
 31
0.0
  0
LINE
  5
375
100
AcDbEntity
  8
0
100
AcDbLine
 10
444.556633
 20
390.433907
 30
0.0
 11
473.579887
 21
390.433907
 31
0.0
  0
LINE
  5
376
100
AcDbEntity
  8
0
100
AcDbLine
 10
473.579887
 20
510.433907
 30
0.0
 11
444.556633
 21
510.433907
 31
0.0
  0
LINE
  5
377
100
AcDbEntity
  8
0
100
AcDbLine
 10
257.056633
 20
405.433907
 30
0.0
 11
432.056633
 21
405.433907
 31
0.0
  0
LINE
  5
378
100
AcDbEntity
  8
0
100
AcDbLine
 10
257.056633
 20
405.433907
 30
0.0
 11
257.056633
 21
403.933907
 31
0.0
  0
LINE
  5
379
100
AcDbEntity
  8
0
100
AcDbLine
 10
432.056633
 20
403.933907
 30
0.0
 11
257.056633
 21
403.933907
 31
0.0
  0
LINE
  5
37A
100
AcDbEntity
  8
0
100
AcDbLine
 10
432.056633
 20
495.433907
 30
0.0
 11
257.056633
 21
495.433907
 31
0.0
  0
LINE
  5
37B
100
AcDbEntity
  8
0
100
AcDbLine
 10
257.056633
 20
496.933907
 30
0.0
 11
432.056633
 21
496.933907
 31
0.0
  0
LINE
  5
37C
100
AcDbEntity
  8
0
100
AcDbLine
 10
257.056633
 20
496.933907
 30
0.0
 11
257.056633
 21
495.433907
 31
0.0
  0
LINE
  5
37D
100
AcDbEntity
  8
0
100
AcDbLine
 10
215.53338
 20
390.433907
 30
0.0
 11
244.556633
 21
390.433907
 31
0.0
  0
LINE
  5
37E
100
AcDbEntity
  8
0
100
AcDbLine
 10
244.556633
 20
510.433907
 30
0.0
 11
215.53338
 21
510.433907
 31
0.0
  0
LINE
  5
37F
100
AcDbEntity
  8
SILK
100
AcDbLine
 10
452.856633
 20
440.433907
 30
0.0
 11
452.856633
 21
460.433907
 31
0.0
  0
LINE
  5
380
100
AcDbEntity
  8
0
100
AcDbLine
 10
464.056633
 20
392.933907
 30
0.0
 11
463.056633
 21
391.933907
 31
0.0
  0
LINE
  5
381
100
AcDbEntity
  8
0
100
AcDbLine
 10
469.056633
 20
392.933907
 30
0.0
 11
470.056633
 21
391.933907
 31
0.0
  0
LINE
  5
382
100
AcDbEntity
  8
0
100
AcDbLine
 10
469.056633
 20
507.933907
 30
0.0
 11
470.056633
 21
508.933907
 31
0.0
  0
LINE
  5
383
100
AcDbEntity
  8
0
100
AcDbLine
 10
463.056633
 20
508.933907
 30
0.0
 11
464.056633
 21
507.933907
 31
0.0
  0
LINE
  5
384
100
AcDbEntity
  8
0
100
AcDbLine
 10
468.970379
 20
414.096407
 30
0.0
 11
468.970379
 21
425.652657
 31
0.0
  0
LINE
  5
385
100
AcDbEntity
  8
0
100
AcDbLine
 10
474.970379
 20
425.652657
 30
0.0
 11
474.970379
 21
414.096407
 31
0.0
  0
LINE
  5
386
100
AcDbEntity
  8
0
100
AcDbLine
 10
468.970379
 20
475.215157
 30
0.0
 11
468.970379
 21
486.771407
 31
0.0
  0
LINE
  5
387
100
AcDbEntity
  8
0
100
AcDbLine
 10
474.970379
 20
486.771407
 30
0.0
 11
474.970379
 21
475.215157
 31
0.0
  0
LINE
  5
388
100
AcDbEntity
  8
0
100
AcDbLine
 10
453.356633
 20
393.933907
 30
0.0
 11
455.356633
 21
391.933907
 31
0.0
  0
LINE
  5
389
100
AcDbEntity
  8
0
100
AcDbLine
 10
453.356633
 20
506.933907
 30
0.0
 11
455.356633
 21
508.933907
 31
0.0
  0
LINE
  5
38A
100
AcDbEntity
  8
0
100
AcDbLine
 10
453.356633
 20
492.433907
 30
0.0
 11
453.356633
 21
506.933907
 31
0.0
  0
LINE
  5
38B
100
AcDbEntity
  8
0
100
AcDbLine
 10
455.356633
 20
508.933907
 30
0.0
 11
463.056633
 21
508.933907
 31
0.0
  0
LINE
  5
38C
100
AcDbEntity
  8
0
100
AcDbLine
 10
488.156633
 20
493.933907
 30
0.0
 11
488.156633
 21
406.933907
 31
0.0
  0
LINE
  5
38D
100
AcDbEntity
  8
0
100
AcDbLine
 10
451.356633
 20
492.433907
 30
0.0
 11
453.356633
 21
492.433907
 31
0.0
  0
LINE
  5
38E
100
AcDbEntity
  8
SILK
100
AcDbLine
 10
451.356633
 20
458.433907
 30
0.0
 11
452.856633
 21
458.433907
 31
0.0
  0
LINE
  5
38F
100
AcDbEntity
  8
0
100
AcDbLine
 10
451.356633
 20
492.433907
 30
0.0
 11
451.356633
 21
408.433907
 31
0.0
  0
LINE
  5
390
100
AcDbEntity
  8
0
100
AcDbLine
 10
451.356633
 20
408.433907
 30
0.0
 11
453.356633
 21
408.433907
 31
0.0
  0
LINE
  5
391
100
AcDbEntity
  8
SILK
100
AcDbLine
 10
451.356633
 20
442.433907
 30
0.0
 11
452.856633
 21
442.433907
 31
0.0
  0
LINE
  5
392
100
AcDbEntity
  8
0
100
AcDbLine
 10
453.356633
 20
393.933907
 30
0.0
 11
453.356633
 21
408.433907
 31
0.0
  0
LINE
  5
393
100
AcDbEntity
  8
0
100
AcDbLine
 10
473.156633
 20
391.933907
 30
0.0
 11
470.056633
 21
391.933907
 31
0.0
  0
LINE
  5
394
100
AcDbEntity
  8
SILK
100
AcDbLine
 10
451.356633
 20
460.433907
 30
0.0
 11
461.956633
 21
460.433907
 31
0.0
  0
LINE
  5
395
100
AcDbEntity
  8
SILK
100
AcDbLine
 10
461.956633
 20
460.433907
 30
0.0
 11
461.956633
 21
440.433907
 31
0.0
  0
LINE
  5
396
100
AcDbEntity
  8
SILK
100
AcDbLine
 10
461.956633
 20
440.433907
 30
0.0
 11
451.356633
 21
440.433907
 31
0.0
  0
LINE
  5
397
100
AcDbEntity
  8
0
100
AcDbLine
 10
462.456633
 20
480.433907
 30
0.0
 11
462.456633
 21
474.433907
 31
0.0
  0
LINE
  5
398
100
AcDbEntity
  8
0
100
AcDbLine
 10
457.456633
 20
474.433907
 30
0.0
 11
457.456633
 21
480.433907
 31
0.0
  0
LINE
  5
399
100
AcDbEntity
  8
0
100
AcDbLine
 10
457.456633
 20
420.433907
 30
0.0
 11
457.456633
 21
426.433907
 31
0.0
  0
LINE
  5
39A
100
AcDbEntity
  8
0
100
AcDbLine
 10
462.456633
 20
426.433907
 30
0.0
 11
462.456633
 21
420.433907
 31
0.0
  0
LINE
  5
39B
100
AcDbEntity
  8
0
100
AcDbLine
 10
488.156633
 20
457.933907
 30
0.0
 11
461.956633
 21
457.933907
 31
0.0
  0
LINE
  5
39C
100
AcDbEntity
  8
0
100
AcDbLine
 10
488.156633
 20
466.933907
 30
0.0
 11
461.956633
 21
466.933907
 31
0.0
  0
LINE
  5
39D
100
AcDbEntity
  8
0
100
AcDbLine
 10
459.956633
 20
460.433907
 30
0.0
 11
459.956633
 21
464.933907
 31
0.0
  0
LINE
  5
39E
100
AcDbEntity
  8
0
100
AcDbLine
 10
464.056633
 20
400.433907
 30
0.0
 11
464.056633
 21
392.933907
 31
0.0
  0
LINE
  5
39F
100
AcDbEntity
  8
0
100
AcDbLine
 10
469.056633
 20
392.933907
 30
0.0
 11
469.056633
 21
400.433907
 31
0.0
  0
LINE
  5
3A0
100
AcDbEntity
  8
0
100
AcDbLine
 10
464.056633
 20
507.933907
 30
0.0
 11
464.056633
 21
500.433907
 31
0.0
  0
LINE
  5
3A1
100
AcDbEntity
  8
0
100
AcDbLine
 10
469.056633
 20
500.433907
 30
0.0
 11
469.056633
 21
507.933907
 31
0.0
  0
LINE
  5
3A2
100
AcDbEntity
  8
0
100
AcDbLine
 10
463.056633
 20
391.933907
 30
0.0
 11
455.356633
 21
391.933907
 31
0.0
  0
LINE
  5
3A3
100
AcDbEntity
  8
0
100
AcDbLine
 10
470.056633
 20
508.933907
 30
0.0
 11
473.156633
 21
508.933907
 31
0.0
  0
LINE
  5
3A4
100
AcDbEntity
  8
SILK
100
AcDbLine
 10
235.556633
 20
445.433907
 30
0.0
 11
235.556633
 21
450.433907
 31
0.0
  0
LINE
  5
3A5
100
AcDbEntity
  8
SILK
100
AcDbLine
 10
236.056633
 20
445.433907
 30
0.0
 11
236.056633
 21
450.433907
 31
0.0
  0
LINE
  5
3A6
100
AcDbEntity
  8
SILK
100
AcDbLine
 10
235.556633
 20
445.433907
 30
0.0
 11
236.056633
 21
445.433907
 31
0.0
  0
LINE
  5
3A7
100
AcDbEntity
  8
SILK
100
AcDbLine
 10
233.856633
 20
446.432638
 30
0.0
 11
235.556633
 21
446.283907
 31
0.0
  0
LINE
  5
3A8
100
AcDbEntity
  8
SILK
100
AcDbLine
 10
236.056633
 20
450.433907
 30
0.0
 11
236.056633
 21
455.433907
 31
0.0
  0
LINE
  5
3A9
100
AcDbEntity
  8
SILK
100
AcDbLine
 10
236.056633
 20
455.433907
 30
0.0
 11
235.556633
 21
455.433907
 31
0.0
  0
LINE
  5
3AA
100
AcDbEntity
  8
SILK
100
AcDbLine
 10
235.556633
 20
450.433907
 30
0.0
 11
235.556633
 21
455.433907
 31
0.0
  0
LINE
  5
3AB
100
AcDbEntity
  8
SILK
100
AcDbLine
 10
235.556633
 20
454.583907
 30
0.0
 11
233.856633
 21
454.435176
 31
0.0
  0
LINE
  5
3AC
100
AcDbEntity
  8
SILK
100
AcDbLine
 10
453.556633
 20
455.433907
 30
0.0
 11
453.556633
 21
450.433907
 31
0.0
  0
LINE
  5
3AD
100
AcDbEntity
  8
SILK
100
AcDbLine
 10
453.056633
 20
455.433907
 30
0.0
 11
453.056633
 21
450.433907
 31
0.0
  0
LINE
  5
3AE
100
AcDbEntity
  8
SILK
100
AcDbLine
 10
453.556633
 20
455.433907
 30
0.0
 11
453.056633
 21
455.433907
 31
0.0
  0
LINE
  5
3AF
100
AcDbEntity
  8
SILK
100
AcDbLine
 10
455.256633
 20
454.435176
 30
0.0
 11
453.556633
 21
454.583907
 31
0.0
  0
LINE
  5
3B0
100
AcDbEntity
  8
SILK
100
AcDbLine
 10
453.056633
 20
450.433907
 30
0.0
 11
453.056633
 21
445.433907
 31
0.0
  0
LINE
  5
3B1
100
AcDbEntity
  8
SILK
100
AcDbLine
 10
453.056633
 20
445.433907
 30
0.0
 11
453.556633
 21
445.433907
 31
0.0
  0
LINE
  5
3B2
100
AcDbEntity
  8
SILK
100
AcDbLine
 10
453.556633
 20
450.433907
 30
0.0
 11
453.556633
 21
445.433907
 31
0.0
  0
LINE
  5
3B3
100
AcDbEntity
  8
SILK
100
AcDbLine
 10
453.556633
 20
446.283907
 30
0.0
 11
455.256633
 21
446.432638
 31
0.0
  0
LINE
  5
3B4
100
AcDbEntity
  8
0
100
AcDbLine
 10
220.671709
 20
448.948983
 30
0.0
 11
223.641558
 21
451.918831
 31
0.0
  0
LINE
  5
3B5
100
AcDbEntity
  8
0
100
AcDbLine
 10
220.671709
 20
451.918831
 30
0.0
 11
223.641558
 21
448.948983
 31
0.0
  0
LINE
  5
3B6
100
AcDbEntity
  8
0
100
AcDbLine
 10
468.441558
 20
451.918831
 30
0.0
 11
465.471709
 21
448.948983
 31
0.0
  0
LINE
  5
3B7
100
AcDbEntity
  8
0
100
AcDbLine
 10
468.441558
 20
448.948983
 30
0.0
 11
465.471709
 21
451.918831
 31
0.0
  0
LINE
  5
3B8
100
AcDbEntity
  8
SILK
100
AcDbLine
 10
277.426633
 20
434.833907
 30
0.0
 11
279.876633
 21
434.833907
 31
0.0
  0
LINE
  5
3B9
100
AcDbEntity
  8
SILK
100
AcDbLine
 10
266.526633
 20
456.033907
 30
0.0
 11
262.176633
 21
456.033907
 31
0.0
  0
LINE
  5
3BA
100
AcDbEntity
  8
SILK
100
AcDbLine
 10
277.426633
 20
449.833907
 30
0.0
 11
279.876633
 21
449.833907
 31
0.0
  0
LINE
  5
3BB
100
AcDbEntity
  8
SILK
100
AcDbLine
 10
266.526633
 20
441.033907
 30
0.0
 11
262.176633
 21
441.033907
 31
0.0
  0
LINE
  5
3BC
100
AcDbEntity
  8
SILK
100
AcDbLine
 10
272.326633
 20
434.833907
 30
0.0
 11
277.426633
 21
434.833907
 31
0.0
  0
LINE
  5
3BD
100
AcDbEntity
  8
SILK
100
AcDbLine
 10
271.626633
 20
456.033907
 30
0.0
 11
266.526633
 21
456.033907
 31
0.0
  0
LINE
  5
3BE
100
AcDbEntity
  8
SILK
100
AcDbLine
 10
272.326633
 20
449.833907
 30
0.0
 11
277.426633
 21
449.833907
 31
0.0
  0
LINE
  5
3BF
100
AcDbEntity
  8
SILK
100
AcDbLine
 10
271.626633
 20
441.033907
 30
0.0
 11
266.526633
 21
441.033907
 31
0.0
  0
LINE
  5
3C0
100
AcDbEntity
  8
SILK
100
AcDbLine
 10
271.626633
 20
434.833907
 30
0.0
 11
272.326633
 21
434.833907
 31
0.0
  0
LINE
  5
3C1
100
AcDbEntity
  8
SILK
100
AcDbLine
 10
272.326633
 20
456.033907
 30
0.0
 11
271.626633
 21
456.033907
 31
0.0
  0
LINE
  5
3C2
100
AcDbEntity
  8
SILK
100
AcDbLine
 10
271.626633
 20
449.833907
 30
0.0
 11
272.326633
 21
449.833907
 31
0.0
  0
LINE
  5
3C3
100
AcDbEntity
  8
SILK
100
AcDbLine
 10
272.326633
 20
441.033907
 30
0.0
 11
271.626633
 21
441.033907
 31
0.0
  0
LINE
  5
3C4
100
AcDbEntity
  8
SILK
100
AcDbLine
 10
266.526633
 20
434.833907
 30
0.0
 11
271.626633
 21
434.833907
 31
0.0
  0
LINE
  5
3C5
100
AcDbEntity
  8
SILK
100
AcDbLine
 10
277.426633
 20
456.033907
 30
0.0
 11
272.326633
 21
456.033907
 31
0.0
  0
LINE
  5
3C6
100
AcDbEntity
  8
SILK
100
AcDbLine
 10
266.526633
 20
449.833907
 30
0.0
 11
271.626633
 21
449.833907
 31
0.0
  0
LINE
  5
3C7
100
AcDbEntity
  8
SILK
100
AcDbLine
 10
277.426633
 20
441.033907
 30
0.0
 11
272.326633
 21
441.033907
 31
0.0
  0
LINE
  5
3C8
100
AcDbEntity
  8
SILK
100
AcDbLine
 10
264.056481
 20
434.833907
 30
0.0
 11
266.526633
 21
434.833907
 31
0.0
  0
LINE
  5
3C9
100
AcDbEntity
  8
SILK
100
AcDbLine
 10
262.176633
 20
438.433907
 30
0.0
 11
262.176633
 21
434.833907
 31
0.0
  0
LINE
  5
3CA
100
AcDbEntity
  8
SILK
100
AcDbLine
 10
262.176633
 20
456.033907
 30
0.0
 11
262.176633
 21
449.833907
 31
0.0
  0
LINE
  5
3CB
100
AcDbEntity
  8
SILK
100
AcDbLine
 10
262.176633
 20
449.833907
 30
0.0
 11
266.526633
 21
449.833907
 31
0.0
  0
LINE
  5
3CC
100
AcDbEntity
  8
SILK
100
AcDbLine
 10
279.876633
 20
449.833907
 30
0.0
 11
279.876633
 21
456.033907
 31
0.0
  0
LINE
  5
3CD
100
AcDbEntity
  8
SILK
100
AcDbLine
 10
279.876633
 20
456.033907
 30
0.0
 11
277.426633
 21
456.033907
 31
0.0
  0
LINE
  5
3CE
100
AcDbEntity
  8
SILK
100
AcDbLine
 10
266.526633
 20
450.783907
 30
0.0
 11
266.526633
 21
455.083907
 31
0.0
  0
LINE
  5
3CF
100
AcDbEntity
  8
SILK
100
AcDbLine
 10
266.526633
 20
455.083907
 30
0.0
 11
271.626633
 21
455.083907
 31
0.0
  0
LINE
  5
3D0
100
AcDbEntity
  8
SILK
100
AcDbLine
 10
271.626633
 20
455.083907
 30
0.0
 11
271.626633
 21
453.933907
 31
0.0
  0
LINE
  5
3D1
100
AcDbEntity
  8
SILK
100
AcDbLine
 10
271.626633
 20
450.783907
 30
0.0
 11
266.526633
 21
450.783907
 31
0.0
  0
LINE
  5
3D2
100
AcDbEntity
  8
SILK
100
AcDbLine
 10
272.326633
 20
455.083907
 30
0.0
 11
272.326633
 21
453.933907
 31
0.0
  0
LINE
  5
3D3
100
AcDbEntity
  8
SILK
100
AcDbLine
 10
272.326633
 20
450.783907
 30
0.0
 11
277.426633
 21
450.783907
 31
0.0
  0
LINE
  5
3D4
100
AcDbEntity
  8
SILK
100
AcDbLine
 10
277.426633
 20
450.783907
 30
0.0
 11
277.426633
 21
455.083907
 31
0.0
  0
LINE
  5
3D5
100
AcDbEntity
  8
SILK
100
AcDbLine
 10
277.426633
 20
455.083907
 30
0.0
 11
272.326633
 21
455.083907
 31
0.0
  0
LINE
  5
3D6
100
AcDbEntity
  8
SILK
100
AcDbLine
 10
266.076633
 20
456.033907
 30
0.0
 11
266.076633
 21
449.833907
 31
0.0
  0
LINE
  5
3D7
100
AcDbEntity
  8
SILK
100
AcDbLine
 10
264.676633
 20
441.033907
 30
0.0
 11
264.676633
 21
449.833907
 31
0.0
  0
LINE
  5
3D8
100
AcDbEntity
  8
SILK
100
AcDbLine
 10
265.476633
 20
441.033907
 30
0.0
 11
265.476633
 21
449.833907
 31
0.0
  0
LINE
  5
3D9
100
AcDbEntity
  8
SILK
100
AcDbLine
 10
278.476633
 20
441.033907
 30
0.0
 11
278.476633
 21
449.833907
 31
0.0
  0
LINE
  5
3DA
100
AcDbEntity
  8
SILK
100
AcDbLine
 10
265.476633
 20
456.033907
 30
0.0
 11
265.476633
 21
471.883907
 31
0.0
  0
LINE
  5
3DB
100
AcDbEntity
  8
SILK
100
AcDbLine
 10
264.676633
 20
456.033907
 30
0.0
 11
264.676633
 21
471.883907
 31
0.0
  0
LINE
  5
3DC
100
AcDbEntity
  8
SILK
100
AcDbLine
 10
278.476633
 20
456.033907
 30
0.0
 11
278.476633
 21
471.883907
 31
0.0
  0
LINE
  5
3DD
100
AcDbEntity
  8
SILK
100
AcDbLine
 10
265.476633
 20
428.983907
 30
0.0
 11
265.476633
 21
434.833907
 31
0.0
  0
LINE
  5
3DE
100
AcDbEntity
  8
SILK
100
AcDbLine
 10
277.426633
 20
470.083907
 30
0.0
 11
277.426633
 21
465.783907
 31
0.0
  0
LINE
  5
3DF
100
AcDbEntity
  8
SILK
100
AcDbLine
 10
272.326633
 20
470.083907
 30
0.0
 11
277.426633
 21
470.083907
 31
0.0
  0
LINE
  5
3E0
100
AcDbEntity
  8
SILK
100
AcDbLine
 10
277.426633
 20
465.083907
 30
0.0
 11
277.426633
 21
460.783907
 31
0.0
  0
LINE
  5
3E1
100
AcDbEntity
  8
SILK
100
AcDbLine
 10
272.326633
 20
465.083907
 30
0.0
 11
277.426633
 21
465.083907
 31
0.0
  0
LINE
  5
3E2
100
AcDbEntity
  8
SILK
100
AcDbLine
 10
277.426633
 20
460.083907
 30
0.0
 11
277.426633
 21
456.033907
 31
0.0
  0
LINE
  5
3E3
100
AcDbEntity
  8
SILK
100
AcDbLine
 10
272.326633
 20
460.083907
 30
0.0
 11
277.426633
 21
460.083907
 31
0.0
  0
LINE
  5
3E4
100
AcDbEntity
  8
SILK
100
AcDbLine
 10
277.426633
 20
449.833907
 30
0.0
 11
277.426633
 21
445.783907
 31
0.0
  0
LINE
  5
3E5
100
AcDbEntity
  8
SILK
100
AcDbLine
 10
277.426633
 20
445.083907
 30
0.0
 11
277.426633
 21
441.033907
 31
0.0
  0
LINE
  5
3E6
100
AcDbEntity
  8
SILK
100
AcDbLine
 10
272.326633
 20
445.083907
 30
0.0
 11
277.426633
 21
445.083907
 31
0.0
  0
LINE
  5
3E7
100
AcDbEntity
  8
SILK
100
AcDbLine
 10
277.426633
 20
465.783907
 30
0.0
 11
272.326633
 21
465.783907
 31
0.0
  0
LINE
  5
3E8
100
AcDbEntity
  8
SILK
100
AcDbLine
 10
272.326633
 20
465.783907
 30
0.0
 11
272.326633
 21
470.083907
 31
0.0
  0
LINE
  5
3E9
100
AcDbEntity
  8
SILK
100
AcDbLine
 10
277.426633
 20
460.783907
 30
0.0
 11
272.326633
 21
460.783907
 31
0.0
  0
LINE
  5
3EA
100
AcDbEntity
  8
SILK
100
AcDbLine
 10
272.326633
 20
460.783907
 30
0.0
 11
272.326633
 21
465.083907
 31
0.0
  0
LINE
  5
3EB
100
AcDbEntity
  8
SILK
100
AcDbLine
 10
272.326633
 20
456.033907
 30
0.0
 11
272.326633
 21
460.083907
 31
0.0
  0
LINE
  5
3EC
100
AcDbEntity
  8
SILK
100
AcDbLine
 10
277.426633
 20
445.783907
 30
0.0
 11
272.326633
 21
445.783907
 31
0.0
  0
LINE
  5
3ED
100
AcDbEntity
  8
SILK
100
AcDbLine
 10
272.326633
 20
445.783907
 30
0.0
 11
272.326633
 21
449.833907
 31
0.0
  0
LINE
  5
3EE
100
AcDbEntity
  8
SILK
100
AcDbLine
 10
272.326633
 20
441.033907
 30
0.0
 11
272.326633
 21
445.083907
 31
0.0
  0
LINE
  5
3EF
100
AcDbEntity
  8
SILK
100
AcDbLine
 10
271.626633
 20
470.083907
 30
0.0
 11
271.626633
 21
465.783907
 31
0.0
  0
LINE
  5
3F0
100
AcDbEntity
  8
SILK
100
AcDbLine
 10
266.526633
 20
470.083907
 30
0.0
 11
271.626633
 21
470.083907
 31
0.0
  0
LINE
  5
3F1
100
AcDbEntity
  8
SILK
100
AcDbLine
 10
271.626633
 20
465.083907
 30
0.0
 11
271.626633
 21
460.783907
 31
0.0
  0
LINE
  5
3F2
100
AcDbEntity
  8
SILK
100
AcDbLine
 10
266.526633
 20
465.083907
 30
0.0
 11
271.626633
 21
465.083907
 31
0.0
  0
LINE
  5
3F3
100
AcDbEntity
  8
SILK
100
AcDbLine
 10
271.626633
 20
460.083907
 30
0.0
 11
271.626633
 21
456.033907
 31
0.0
  0
LINE
  5
3F4
100
AcDbEntity
  8
SILK
100
AcDbLine
 10
266.526633
 20
460.083907
 30
0.0
 11
271.626633
 21
460.083907
 31
0.0
  0
LINE
  5
3F5
100
AcDbEntity
  8
SILK
100
AcDbLine
 10
271.626633
 20
449.833907
 30
0.0
 11
271.626633
 21
445.783907
 31
0.0
  0
LINE
  5
3F6
100
AcDbEntity
  8
SILK
100
AcDbLine
 10
271.626633
 20
445.083907
 30
0.0
 11
271.626633
 21
441.033907
 31
0.0
  0
LINE
  5
3F7
100
AcDbEntity
  8
SILK
100
AcDbLine
 10
266.526633
 20
445.083907
 30
0.0
 11
271.626633
 21
445.083907
 31
0.0
  0
LINE
  5
3F8
100
AcDbEntity
  8
SILK
100
AcDbLine
 10
271.626633
 20
465.783907
 30
0.0
 11
266.526633
 21
465.783907
 31
0.0
  0
LINE
  5
3F9
100
AcDbEntity
  8
SILK
100
AcDbLine
 10
266.526633
 20
465.783907
 30
0.0
 11
266.526633
 21
470.083907
 31
0.0
  0
LINE
  5
3FA
100
AcDbEntity
  8
SILK
100
AcDbLine
 10
271.626633
 20
460.783907
 30
0.0
 11
266.526633
 21
460.783907
 31
0.0
  0
LINE
  5
3FB
100
AcDbEntity
  8
SILK
100
AcDbLine
 10
266.526633
 20
460.783907
 30
0.0
 11
266.526633
 21
465.083907
 31
0.0
  0
LINE
  5
3FC
100
AcDbEntity
  8
SILK
100
AcDbLine
 10
266.526633
 20
456.033907
 30
0.0
 11
266.526633
 21
460.083907
 31
0.0
  0
LINE
  5
3FD
100
AcDbEntity
  8
SILK
100
AcDbLine
 10
271.626633
 20
445.783907
 30
0.0
 11
266.526633
 21
445.783907
 31
0.0
  0
LINE
  5
3FE
100
AcDbEntity
  8
SILK
100
AcDbLine
 10
266.526633
 20
445.783907
 30
0.0
 11
266.526633
 21
449.833907
 31
0.0
  0
LINE
  5
3FF
100
AcDbEntity
  8
SILK
100
AcDbLine
 10
266.526633
 20
441.033907
 30
0.0
 11
266.526633
 21
445.083907
 31
0.0
  0
LINE
  5
400
100
AcDbEntity
  8
SILK
100
AcDbLine
 10
277.426633
 20
434.833907
 30
0.0
 11
277.426633
 21
430.783907
 31
0.0
  0
LINE
  5
401
100
AcDbEntity
  8
SILK
100
AcDbLine
 10
277.426633
 20
430.783907
 30
0.0
 11
272.326633
 21
430.783907
 31
0.0
  0
LINE
  5
402
100
AcDbEntity
  8
SILK
100
AcDbLine
 10
272.326633
 20
430.783907
 30
0.0
 11
272.326633
 21
434.833907
 31
0.0
  0
LINE
  5
403
100
AcDbEntity
  8
SILK
100
AcDbLine
 10
271.626633
 20
430.783907
 30
0.0
 11
266.526633
 21
430.783907
 31
0.0
  0
LINE
  5
404
100
AcDbEntity
  8
SILK
100
AcDbLine
 10
271.626633
 20
434.833907
 30
0.0
 11
271.626633
 21
430.783907
 31
0.0
  0
LINE
  5
405
100
AcDbEntity
  8
SILK
100
AcDbLine
 10
266.526633
 20
430.783907
 30
0.0
 11
266.526633
 21
434.833907
 31
0.0
  0
LINE
  5
406
100
AcDbEntity
  8
SILK
100
AcDbLine
 10
273.776633
 20
467.008907
 30
0.0
 11
273.776633
 21
468.858907
 31
0.0
  0
LINE
  5
407
100
AcDbEntity
  8
SILK
100
AcDbLine
 10
273.136633
 20
467.008907
 30
0.0
 11
273.136633
 21
468.858907
 31
0.0
  0
LINE
  5
408
100
AcDbEntity
  8
SILK
100
AcDbLine
 10
273.136633
 20
468.858907
 30
0.0
 11
273.776633
 21
468.858907
 31
0.0
  0
LINE
  5
409
100
AcDbEntity
  8
SILK
100
AcDbLine
 10
273.776633
 20
467.008907
 30
0.0
 11
273.136633
 21
467.008907
 31
0.0
  0
LINE
  5
40A
100
AcDbEntity
  8
SILK
100
AcDbLine
 10
273.776633
 20
462.008907
 30
0.0
 11
273.776633
 21
463.858907
 31
0.0
  0
LINE
  5
40B
100
AcDbEntity
  8
SILK
100
AcDbLine
 10
273.136633
 20
462.008907
 30
0.0
 11
273.136633
 21
463.858907
 31
0.0
  0
LINE
  5
40C
100
AcDbEntity
  8
SILK
100
AcDbLine
 10
273.136633
 20
463.858907
 30
0.0
 11
273.776633
 21
463.858907
 31
0.0
  0
LINE
  5
40D
100
AcDbEntity
  8
SILK
100
AcDbLine
 10
273.776633
 20
462.008907
 30
0.0
 11
273.136633
 21
462.008907
 31
0.0
  0
LINE
  5
40E
100
AcDbEntity
  8
SILK
100
AcDbLine
 10
273.776633
 20
457.008907
 30
0.0
 11
273.776633
 21
458.858907
 31
0.0
  0
LINE
  5
40F
100
AcDbEntity
  8
SILK
100
AcDbLine
 10
273.136633
 20
457.008907
 30
0.0
 11
273.136633
 21
458.858907
 31
0.0
  0
LINE
  5
410
100
AcDbEntity
  8
SILK
100
AcDbLine
 10
273.136633
 20
458.858907
 30
0.0
 11
273.776633
 21
458.858907
 31
0.0
  0
LINE
  5
411
100
AcDbEntity
  8
SILK
100
AcDbLine
 10
273.776633
 20
457.008907
 30
0.0
 11
273.136633
 21
457.008907
 31
0.0
  0
LINE
  5
412
100
AcDbEntity
  8
SILK
100
AcDbLine
 10
273.776633
 20
447.008907
 30
0.0
 11
273.776633
 21
448.858907
 31
0.0
  0
LINE
  5
413
100
AcDbEntity
  8
SILK
100
AcDbLine
 10
273.136633
 20
447.008907
 30
0.0
 11
273.136633
 21
448.858907
 31
0.0
  0
LINE
  5
414
100
AcDbEntity
  8
SILK
100
AcDbLine
 10
273.136633
 20
448.858907
 30
0.0
 11
273.776633
 21
448.858907
 31
0.0
  0
LINE
  5
415
100
AcDbEntity
  8
SILK
100
AcDbLine
 10
273.776633
 20
447.008907
 30
0.0
 11
273.136633
 21
447.008907
 31
0.0
  0
LINE
  5
416
100
AcDbEntity
  8
SILK
100
AcDbLine
 10
273.776633
 20
442.008907
 30
0.0
 11
273.776633
 21
443.858907
 31
0.0
  0
LINE
  5
417
100
AcDbEntity
  8
SILK
100
AcDbLine
 10
273.136633
 20
442.008907
 30
0.0
 11
273.136633
 21
443.858907
 31
0.0
  0
LINE
  5
418
100
AcDbEntity
  8
SILK
100
AcDbLine
 10
273.136633
 20
443.858907
 30
0.0
 11
273.776633
 21
443.858907
 31
0.0
  0
LINE
  5
419
100
AcDbEntity
  8
SILK
100
AcDbLine
 10
273.776633
 20
442.008907
 30
0.0
 11
273.136633
 21
442.008907
 31
0.0
  0
LINE
  5
41A
100
AcDbEntity
  8
SILK
100
AcDbLine
 10
273.776633
 20
432.008907
 30
0.0
 11
273.776633
 21
433.858907
 31
0.0
  0
LINE
  5
41B
100
AcDbEntity
  8
SILK
100
AcDbLine
 10
273.136633
 20
432.008907
 30
0.0
 11
273.136633
 21
433.858907
 31
0.0
  0
LINE
  5
41C
100
AcDbEntity
  8
SILK
100
AcDbLine
 10
273.136633
 20
433.858907
 30
0.0
 11
273.776633
 21
433.858907
 31
0.0
  0
LINE
  5
41D
100
AcDbEntity
  8
SILK
100
AcDbLine
 10
273.776633
 20
432.008907
 30
0.0
 11
273.136633
 21
432.008907
 31
0.0
  0
LINE
  5
41E
100
AcDbEntity
  8
SILK
100
AcDbLine
 10
267.976633
 20
467.008907
 30
0.0
 11
267.976633
 21
468.858907
 31
0.0
  0
LINE
  5
41F
100
AcDbEntity
  8
SILK
100
AcDbLine
 10
267.336633
 20
467.008907
 30
0.0
 11
267.336633
 21
468.858907
 31
0.0
  0
LINE
  5
420
100
AcDbEntity
  8
SILK
100
AcDbLine
 10
267.336633
 20
468.858907
 30
0.0
 11
267.976633
 21
468.858907
 31
0.0
  0
LINE
  5
421
100
AcDbEntity
  8
SILK
100
AcDbLine
 10
267.976633
 20
467.008907
 30
0.0
 11
267.336633
 21
467.008907
 31
0.0
  0
LINE
  5
422
100
AcDbEntity
  8
SILK
100
AcDbLine
 10
267.976633
 20
462.008907
 30
0.0
 11
267.976633
 21
463.858907
 31
0.0
  0
LINE
  5
423
100
AcDbEntity
  8
SILK
100
AcDbLine
 10
267.336633
 20
462.008907
 30
0.0
 11
267.336633
 21
463.858907
 31
0.0
  0
LINE
  5
424
100
AcDbEntity
  8
SILK
100
AcDbLine
 10
267.336633
 20
463.858907
 30
0.0
 11
267.976633
 21
463.858907
 31
0.0
  0
LINE
  5
425
100
AcDbEntity
  8
SILK
100
AcDbLine
 10
267.976633
 20
462.008907
 30
0.0
 11
267.336633
 21
462.008907
 31
0.0
  0
LINE
  5
426
100
AcDbEntity
  8
SILK
100
AcDbLine
 10
267.976633
 20
457.008907
 30
0.0
 11
267.976633
 21
458.858907
 31
0.0
  0
LINE
  5
427
100
AcDbEntity
  8
SILK
100
AcDbLine
 10
267.336633
 20
457.008907
 30
0.0
 11
267.336633
 21
458.858907
 31
0.0
  0
LINE
  5
428
100
AcDbEntity
  8
SILK
100
AcDbLine
 10
267.336633
 20
458.858907
 30
0.0
 11
267.976633
 21
458.858907
 31
0.0
  0
LINE
  5
429
100
AcDbEntity
  8
SILK
100
AcDbLine
 10
267.976633
 20
457.008907
 30
0.0
 11
267.336633
 21
457.008907
 31
0.0
  0
LINE
  5
42A
100
AcDbEntity
  8
SILK
100
AcDbLine
 10
267.976633
 20
447.008907
 30
0.0
 11
267.976633
 21
448.858907
 31
0.0
  0
LINE
  5
42B
100
AcDbEntity
  8
SILK
100
AcDbLine
 10
267.336633
 20
447.008907
 30
0.0
 11
267.336633
 21
448.858907
 31
0.0
  0
LINE
  5
42C
100
AcDbEntity
  8
SILK
100
AcDbLine
 10
267.336633
 20
448.858907
 30
0.0
 11
267.976633
 21
448.858907
 31
0.0
  0
LINE
  5
42D
100
AcDbEntity
  8
SILK
100
AcDbLine
 10
267.976633
 20
447.008907
 30
0.0
 11
267.336633
 21
447.008907
 31
0.0
  0
LINE
  5
42E
100
AcDbEntity
  8
SILK
100
AcDbLine
 10
267.976633
 20
442.008907
 30
0.0
 11
267.976633
 21
443.858907
 31
0.0
  0
LINE
  5
42F
100
AcDbEntity
  8
SILK
100
AcDbLine
 10
267.336633
 20
442.008907
 30
0.0
 11
267.336633
 21
443.858907
 31
0.0
  0
LINE
  5
430
100
AcDbEntity
  8
SILK
100
AcDbLine
 10
267.336633
 20
443.858907
 30
0.0
 11
267.976633
 21
443.858907
 31
0.0
  0
LINE
  5
431
100
AcDbEntity
  8
SILK
100
AcDbLine
 10
267.976633
 20
442.008907
 30
0.0
 11
267.336633
 21
442.008907
 31
0.0
  0
LINE
  5
432
100
AcDbEntity
  8
SILK
100
AcDbLine
 10
267.976633
 20
432.008907
 30
0.0
 11
267.976633
 21
433.858907
 31
0.0
  0
LINE
  5
433
100
AcDbEntity
  8
SILK
100
AcDbLine
 10
278.476633
 20
428.983907
 30
0.0
 11
278.476633
 21
434.833907
 31
0.0
  0
LINE
  5
434
100
AcDbEntity
  8
SILK
100
AcDbLine
 10
264.676633
 20
428.983907
 30
0.0
 11
264.676633
 21
434.833907
 31
0.0
  0
LINE
  5
435
100
AcDbEntity
  8
SILK
100
AcDbLine
 10
278.476633
 20
428.983907
 30
0.0
 11
264.676633
 21
428.983907
 31
0.0
  0
LINE
  5
436
100
AcDbEntity
  8
SILK
100
AcDbLine
 10
264.676633
 20
471.883907
 30
0.0
 11
278.476633
 21
471.883907
 31
0.0
  0
LINE
  5
437
100
AcDbEntity
  8
SILK
100
AcDbLine
 10
267.336633
 20
432.008907
 30
0.0
 11
267.336633
 21
433.858907
 31
0.0
  0
LINE
  5
438
100
AcDbEntity
  8
SILK
100
AcDbLine
 10
267.336633
 20
433.858907
 30
0.0
 11
267.976633
 21
433.858907
 31
0.0
  0
LINE
  5
439
100
AcDbEntity
  8
SILK
100
AcDbLine
 10
267.976633
 20
432.008907
 30
0.0
 11
267.336633
 21
432.008907
 31
0.0
  0
LINE
  5
43A
100
AcDbEntity
  8
SILK
100
AcDbLine
 10
266.076633
 20
441.033907
 30
0.0
 11
266.076633
 21
434.833907
 31
0.0
  0
LINE
  5
43B
100
AcDbEntity
  8
SILK
100
AcDbLine
 10
277.426633
 20
440.083907
 30
0.0
 11
272.326633
 21
440.083907
 31
0.0
  0
LINE
  5
43C
100
AcDbEntity
  8
SILK
100
AcDbLine
 10
277.426633
 20
435.783907
 30
0.0
 11
277.426633
 21
440.083907
 31
0.0
  0
LINE
  5
43D
100
AcDbEntity
  8
SILK
100
AcDbLine
 10
272.326633
 20
435.783907
 30
0.0
 11
277.426633
 21
435.783907
 31
0.0
  0
LINE
  5
43E
100
AcDbEntity
  8
SILK
100
AcDbLine
 10
272.326633
 20
440.083907
 30
0.0
 11
272.326633
 21
438.933907
 31
0.0
  0
LINE
  5
43F
100
AcDbEntity
  8
SILK
100
AcDbLine
 10
271.626633
 20
435.783907
 30
0.0
 11
266.526633
 21
435.783907
 31
0.0
  0
LINE
  5
440
100
AcDbEntity
  8
SILK
100
AcDbLine
 10
271.626633
 20
440.083907
 30
0.0
 11
271.626633
 21
438.933907
 31
0.0
  0
LINE
  5
441
100
AcDbEntity
  8
SILK
100
AcDbLine
 10
266.526633
 20
440.083907
 30
0.0
 11
271.626633
 21
440.083907
 31
0.0
  0
LINE
  5
442
100
AcDbEntity
  8
SILK
100
AcDbLine
 10
266.526633
 20
435.783907
 30
0.0
 11
266.526633
 21
440.083907
 31
0.0
  0
LINE
  5
443
100
AcDbEntity
  8
SILK
100
AcDbLine
 10
279.876633
 20
441.033907
 30
0.0
 11
277.426633
 21
441.033907
 31
0.0
  0
LINE
  5
444
100
AcDbEntity
  8
SILK
100
AcDbLine
 10
279.876633
 20
434.833907
 30
0.0
 11
279.876633
 21
441.033907
 31
0.0
  0
LINE
  5
445
100
AcDbEntity
  8
SILK
100
AcDbLine
 10
262.176633
 20
434.833907
 30
0.0
 11
264.056481
 21
434.833907
 31
0.0
  0
LINE
  5
446
100
AcDbEntity
  8
SILK
100
AcDbLine
 10
262.176633
 20
441.033907
 30
0.0
 11
262.176633
 21
438.433907
 31
0.0
  0
LINE
  5
447
100
AcDbEntity
  8
0
100
AcDbLine
 10
238.556633
 20
427.433907
 30
0.0
 11
281.556633
 21
427.433907
 31
0.0
  0
LINE
  5
448
100
AcDbEntity
  8
0
100
AcDbLine
 10
281.556633
 20
473.433907
 30
0.0
 11
238.556633
 21
473.433907
 31
0.0
  0
LINE
  5
449
100
AcDbEntity
  8
SILK
100
AcDbLine
 10
246.556633
 20
473.433907
 30
0.0
 11
246.556633
 21
460.593907
 31
0.0
  0
LINE
  5
44A
100
AcDbEntity
  8
0
100
AcDbLine
 10
281.556633
 20
476.433907
 30
0.0
 11
281.556633
 21
424.433907
 31
0.0
  0
LINE
  5
44B
100
AcDbEntity
  8
0
100
AcDbLine
 10
281.556633
 20
424.433907
 30
0.0
 11
340.525504
 21
424.433907
 31
0.0
  0
LINE
  5
44C
100
AcDbEntity
  8
0
100
AcDbLine
 10
348.587762
 20
424.433907
 30
0.0
 11
450.556633
 21
424.433907
 31
0.0
  0
LINE
  5
44D
100
AcDbEntity
  8
0
100
AcDbLine
 10
340.525504
 20
476.433907
 30
0.0
 11
281.556633
 21
476.433907
 31
0.0
  0
LINE
  5
44E
100
AcDbEntity
  8
0
100
AcDbLine
 10
450.556633
 20
476.433907
 30
0.0
 11
348.587762
 21
476.433907
 31
0.0
  0
LINE
  5
44F
100
AcDbEntity
  8
SILK
100
AcDbLine
 10
246.556633
 20
462.433907
 30
0.0
 11
263.056481
 21
462.433907
 31
0.0
  0
LINE
  5
450
100
AcDbEntity
  8
SILK
100
AcDbLine
 10
264.056481
 20
473.433907
 30
0.0
 11
264.056481
 21
463.433907
 31
0.0
  0
LINE
  5
451
100
AcDbEntity
  8
SILK
100
AcDbLine
 10
262.176633
 20
438.433907
 30
0.0
 11
246.556633
 21
438.433907
 31
0.0
  0
LINE
  5
452
100
AcDbEntity
  8
SILK
100
AcDbLine
 10
264.056481
 20
434.833907
 30
0.0
 11
264.056481
 21
427.433907
 31
0.0
  0
LINE
  5
453
100
AcDbEntity
  8
SILK
100
AcDbLine
 10
255.356633
 20
460.593907
 30
0.0
 11
240.156633
 21
460.593907
 31
0.0
  0
LINE
  5
454
100
AcDbEntity
  8
SILK
100
AcDbLine
 10
240.156633
 20
440.273907
 30
0.0
 11
255.356633
 21
440.273907
 31
0.0
  0
LINE
  5
455
100
AcDbEntity
  8
SILK
100
AcDbLine
 10
240.156633
 20
460.593907
 30
0.0
 11
240.156633
 21
440.273907
 31
0.0
  0
LINE
  5
456
100
AcDbEntity
  8
SILK
100
AcDbLine
 10
255.356633
 20
460.593907
 30
0.0
 11
255.356633
 21
440.273907
 31
0.0
  0
LINE
  5
457
100
AcDbEntity
  8
0
100
AcDbLine
 10
345.829426
 20
479.706699
 30
0.0
 11
343.283841
 21
477.161115
 31
0.0
  0
LINE
  5
458
100
AcDbEntity
  8
0
100
AcDbLine
 10
343.283841
 20
479.706699
 30
0.0
 11
345.829426
 21
477.161115
 31
0.0
  0
LINE
  5
459
100
AcDbEntity
  8
0
100
AcDbLine
 10
341.843241
 20
424.033907
 30
0.0
 11
238.556633
 21
424.033907
 31
0.0
  0
LINE
  5
45A
100
AcDbEntity
  8
0
100
AcDbLine
 10
347.270026
 20
476.833907
 30
0.0
 11
450.556633
 21
476.833907
 31
0.0
  0
LINE
  5
45B
100
AcDbEntity
  8
0
100
AcDbLine
 10
238.556633
 20
494.433907
 30
0.0
 11
450.556633
 21
494.433907
 31
0.0
  0
LINE
  5
45C
100
AcDbEntity
  8
0
100
AcDbLine
 10
238.556633
 20
406.433907
 30
0.0
 11
238.556633
 21
494.433907
 31
0.0
  0
LINE
  5
45D
100
AcDbEntity
  8
0
100
AcDbLine
 10
238.556633
 20
483.524691
 30
0.0
 11
450.556633
 21
483.524691
 31
0.0
  0
LINE
  5
45E
100
AcDbEntity
  8
0
100
AcDbLine
 10
238.556633
 20
476.833907
 30
0.0
 11
341.843241
 21
476.833907
 31
0.0
  0
LINE
  5
45F
100
AcDbEntity
  8
0
100
AcDbLine
 10
450.556633
 20
406.433907
 30
0.0
 11
238.556633
 21
406.433907
 31
0.0
  0
LINE
  5
460
100
AcDbEntity
  8
0
100
AcDbLine
 10
450.556633
 20
417.343123
 30
0.0
 11
238.556633
 21
417.343123
 31
0.0
  0
LINE
  5
461
100
AcDbEntity
  8
0
100
AcDbLine
 10
450.556633
 20
494.433907
 30
0.0
 11
450.556633
 21
406.433907
 31
0.0
  0
LINE
  5
462
100
AcDbEntity
  8
0
100
AcDbLine
 10
450.556633
 20
424.033907
 30
0.0
 11
347.270026
 21
424.033907
 31
0.0
  0
LINE
  5
463
100
AcDbEntity
  8
0
100
AcDbLine
 10
345.829426
 20
423.706699
 30
0.0
 11
343.283841
 21
421.161115
 31
0.0
  0
LINE
  5
464
100
AcDbEntity
  8
0
100
AcDbLine
 10
343.283841
 20
423.706699
 30
0.0
 11
345.829426
 21
421.161115
 31
0.0
  0
LINE
  5
465
100
AcDbEntity
  8
0
100
AcDbLine
 10
236.256633
 20
578.572617
 30
0.0
 11
236.256633
 21
584.572617
 31
0.0
  0
LINE
  5
466
100
AcDbEntity
  8
0
100
AcDbLine
 10
237.756633
 20
578.572617
 30
0.0
 11
236.256633
 21
578.572617
 31
0.0
  0
LINE
  5
467
100
AcDbEntity
  8
0
100
AcDbLine
 10
237.756633
 20
584.572617
 30
0.0
 11
237.756633
 21
578.572617
 31
0.0
  0
LINE
  5
468
100
AcDbEntity
  8
0
100
AcDbLine
 10
233.856633
 20
580.571347
 30
0.0
 11
235.556633
 21
580.422617
 31
0.0
  0
LINE
  5
469
100
AcDbEntity
  8
0
100
AcDbLine
 10
235.556633
 20
579.572617
 30
0.0
 11
235.556633
 21
584.572617
 31
0.0
  0
LINE
  5
46A
100
AcDbEntity
  8
0
100
AcDbLine
 10
235.556633
 20
579.572617
 30
0.0
 11
236.056633
 21
579.572617
 31
0.0
  0
LINE
  5
46B
100
AcDbEntity
  8
0
100
AcDbLine
 10
236.056633
 20
579.572617
 30
0.0
 11
236.056633
 21
584.572617
 31
0.0
  0
LINE
  5
46C
100
AcDbEntity
  8
0
100
AcDbLine
 10
226.306633
 20
584.572617
 30
0.0
 11
226.157903
 21
582.872617
 31
0.0
  0
LINE
  5
46D
100
AcDbEntity
  8
0
100
AcDbLine
 10
218.006633
 20
584.572617
 30
0.0
 11
218.155364
 21
582.872617
 31
0.0
  0
LINE
  5
46E
100
AcDbEntity
  8
0
100
AcDbLine
 10
188.556633
 20
584.572617
 30
0.0
 11
500.556633
 21
584.572617
 31
0.0
  0
LINE
  5
46F
100
AcDbEntity
  8
0
100
AcDbLine
 10
239.170886
 20
630.572617
 30
0.0
 11
238.573762
 21
630.572617
 31
0.0
  0
LINE
  5
470
100
AcDbEntity
  8
0
100
AcDbLine
 10
188.556633
 20
585.675176
 30
0.0
 11
188.556633
 21
584.572617
 31
0.0
  0
LINE
  5
471
100
AcDbEntity
  8
0
100
AcDbLine
 10
255.185599
 20
593.572617
 30
0.0
 11
433.927668
 21
593.572617
 31
0.0
  0
LINE
  5
472
100
AcDbEntity
  8
0
100
AcDbLine
 10
240.239066
 20
629.072617
 30
0.0
 11
240.163571
 21
629.693349
 31
0.0
  0
LINE
  5
473
100
AcDbEntity
  8
0
100
AcDbLine
 10
243.273377
 20
604.123833
 30
0.0
 11
240.239066
 21
629.072617
 31
0.0
  0
LINE
  5
474
100
AcDbEntity
  8
0
100
AcDbLine
 10
450.539504
 20
630.572617
 30
0.0
 11
449.94238
 21
630.572617
 31
0.0
  0
LINE
  5
475
100
AcDbEntity
  8
0
100
AcDbLine
 10
500.556633
 20
584.572617
 30
0.0
 11
500.556633
 21
585.675176
 31
0.0
  0
LINE
  5
476
100
AcDbEntity
  8
0
100
AcDbLine
 10
448.949695
 20
629.693349
 30
0.0
 11
448.874201
 21
629.072617
 31
0.0
  0
LINE
  5
477
100
AcDbEntity
  8
0
100
AcDbLine
 10
448.874201
 20
629.072617
 30
0.0
 11
445.839889
 21
604.123833
 31
0.0
  0
LINE
  5
478
100
AcDbEntity
  8
0
100
AcDbLine
 10
262.176633
 20
548.472617
 30
0.0
 11
264.676633
 21
548.472617
 31
0.0
  0
LINE
  5
479
100
AcDbEntity
  8
0
100
AcDbLine
 10
279.876633
 20
548.472617
 30
0.0
 11
279.876633
 21
550.472617
 31
0.0
  0
LINE
  5
47A
100
AcDbEntity
  8
0
100
AcDbLine
 10
278.426633
 20
553.972617
 30
0.0
 11
264.676633
 21
553.972617
 31
0.0
  0
LINE
  5
47B
100
AcDbEntity
  8
0
100
AcDbLine
 10
262.176633
 20
555.572617
 30
0.0
 11
262.176633
 21
548.472617
 31
0.0
  0
LINE
  5
47C
100
AcDbEntity
  8
0
100
AcDbLine
 10
272.326633
 20
553.972617
 30
0.0
 11
272.326633
 21
555.572617
 31
0.0
  0
LINE
  5
47D
100
AcDbEntity
  8
0
100
AcDbLine
 10
277.426633
 20
555.572617
 30
0.0
 11
277.426633
 21
553.972617
 31
0.0
  0
LINE
  5
47E
100
AcDbEntity
  8
0
100
AcDbLine
 10
266.526633
 20
555.572617
 30
0.0
 11
266.526633
 21
553.972617
 31
0.0
  0
LINE
  5
47F
100
AcDbEntity
  8
0
100
AcDbLine
 10
271.626633
 20
553.972617
 30
0.0
 11
271.626633
 21
555.572617
 31
0.0
  0
LINE
  5
480
100
AcDbEntity
  8
0
100
AcDbLine
 10
266.076633
 20
548.472617
 30
0.0
 11
266.076633
 21
552.972617
 31
0.0
  0
LINE
  5
481
100
AcDbEntity
  8
0
100
AcDbLine
 10
264.676633
 20
548.472617
 30
0.0
 11
264.676633
 21
552.972617
 31
0.0
  0
LINE
  5
482
100
AcDbEntity
  8
0
100
AcDbLine
 10
264.676633
 20
552.972617
 30
0.0
 11
266.076633
 21
552.972617
 31
0.0
  0
LINE
  5
483
100
AcDbEntity
  8
0
100
AcDbLine
 10
279.876633
 20
550.472617
 30
0.0
 11
278.426633
 21
550.472617
 31
0.0
  0
LINE
  5
484
100
AcDbEntity
  8
0
100
AcDbLine
 10
278.426633
 20
550.472617
 30
0.0
 11
278.426633
 21
553.972617
 31
0.0
  0
LINE
  5
485
100
AcDbEntity
  8
0
100
AcDbLine
 10
264.676633
 20
555.572617
 30
0.0
 11
264.676633
 21
553.972617
 31
0.0
  0
LINE
  5
486
100
AcDbEntity
  8
0
100
AcDbLine
 10
266.076633
 20
548.472617
 30
0.0
 11
279.876633
 21
548.472617
 31
0.0
  0
LINE
  5
487
100
AcDbEntity
  8
0
100
AcDbLine
 10
451.356633
 20
578.572617
 30
0.0
 11
451.356633
 21
584.572617
 31
0.0
  0
LINE
  5
488
100
AcDbEntity
  8
0
100
AcDbLine
 10
452.856633
 20
578.572617
 30
0.0
 11
451.356633
 21
578.572617
 31
0.0
  0
LINE
  5
489
100
AcDbEntity
  8
0
100
AcDbLine
 10
452.856633
 20
584.572617
 30
0.0
 11
452.856633
 21
578.572617
 31
0.0
  0
LINE
  5
48A
100
AcDbEntity
  8
0
100
AcDbLine
 10
281.556633
 20
540.572617
 30
0.0
 11
281.42573
 21
555.572617
 31
0.0
  0
LINE
  5
48B
100
AcDbEntity
  8
0
100
AcDbLine
 10
450.172651
 20
540.572617
 30
0.0
 11
281.556633
 21
540.572617
 31
0.0
  0
LINE
  5
48C
100
AcDbEntity
  8
0
100
AcDbLine
 10
450.340955
 20
555.572617
 30
0.0
 11
450.172651
 21
540.572617
 31
0.0
  0
LINE
  5
48D
100
AcDbEntity
  8
0
100
AcDbLine
 10
450.486818
 20
576.572617
 30
0.0
 11
450.486818
 21
568.572617
 31
0.0
  0
LINE
  5
48E
100
AcDbEntity
  8
0
100
AcDbLine
 10
450.486818
 20
576.572617
 30
0.0
 11
450.556633
 21
584.572617
 31
0.0
  0
LINE
  5
48F
100
AcDbEntity
  8
0
100
AcDbLine
 10
453.056633
 20
584.572617
 30
0.0
 11
453.056633
 21
579.572617
 31
0.0
  0
LINE
  5
490
100
AcDbEntity
  8
0
100
AcDbLine
 10
453.056633
 20
579.572617
 30
0.0
 11
453.556633
 21
579.572617
 31
0.0
  0
LINE
  5
491
100
AcDbEntity
  8
0
100
AcDbLine
 10
453.556633
 20
584.572617
 30
0.0
 11
453.556633
 21
579.572617
 31
0.0
  0
LINE
  5
492
100
AcDbEntity
  8
0
100
AcDbLine
 10
453.556633
 20
580.422617
 30
0.0
 11
455.256633
 21
580.571347
 31
0.0
  0
LINE
  5
493
100
AcDbEntity
  8
0
100
AcDbLine
 10
470.957903
 20
582.872617
 30
0.0
 11
471.106633
 21
584.572617
 31
0.0
  0
LINE
  5
494
100
AcDbEntity
  8
0
100
AcDbLine
 10
462.955364
 20
582.872617
 30
0.0
 11
462.806633
 21
584.572617
 31
0.0
  0
LINE
  5
495
100
AcDbEntity
  8
0
100
AcDbLine
 10
240.156633
 20
555.572617
 30
0.0
 11
240.156633
 21
546.972617
 31
0.0
  0
LINE
  5
496
100
AcDbEntity
  8
0
100
AcDbLine
 10
255.356633
 20
546.972617
 30
0.0
 11
255.356633
 21
555.572617
 31
0.0
  0
LINE
  5
497
100
AcDbEntity
  8
0
100
AcDbLine
 10
240.156633
 20
546.972617
 30
0.0
 11
255.356633
 21
546.972617
 31
0.0
  0
LINE
  5
498
100
AcDbEntity
  8
0
100
AcDbLine
 10
448.81339
 20
628.572617
 30
0.0
 11
240.299877
 21
628.572617
 31
0.0
  0
LINE
  5
499
100
AcDbEntity
  8
0
100
AcDbLine
 10
433.927668
 20
779.201904
 30
0.0
 11
255.185599
 21
779.201904
 31
0.0
  0
LINE
  5
49A
100
AcDbEntity
  8
0
100
AcDbLine
 10
215.53338
 20
671.983695
 30
0.0
 11
473.579887
 21
671.983695
 31
0.0
  0
LINE
  5
49B
100
AcDbEntity
  8
0
100
AcDbLine
 10
473.579887
 20
797.983695
 30
0.0
 11
215.53338
 21
797.983695
 31
0.0
  0
LINE
  5
49C
100
AcDbEntity
  8
0
100
AcDbLine
 10
255.185599
 20
792.930661
 30
0.0
 11
433.927668
 21
792.930661
 31
0.0
  0
LINE
  5
49D
100
AcDbEntity
  8
0
100
AcDbLine
 10
255.185599
 20
690.765486
 30
0.0
 11
433.927668
 21
690.765486
 31
0.0
  0
LINE
  5
49E
100
AcDbEntity
  8
0
100
AcDbLine
 10
433.927668
 20
677.03673
 30
0.0
 11
255.185599
 21
677.03673
 31
0.0
  0
LINE
  5
49F
100
AcDbEntity
  8
SILK
100
AcDbLine
 10
64.440074
 20
732.711538
 30
0.0
 11
66.885478
 21
735.156942
 31
0.0
  0
LINE
  5
4A0
100
AcDbEntity
  8
SILK
100
AcDbLine
 10
66.178371
 20
735.864049
 30
0.0
 11
63.732968
 21
733.418645
 31
0.0
  0
LINE
  5
4A1
100
AcDbEntity
  8
SILK
100
AcDbLine
 10
64.440074
 20
737.791538
 30
0.0
 11
66.885478
 21
740.236942
 31
0.0
  0
LINE
  5
4A2
100
AcDbEntity
  8
SILK
100
AcDbLine
 10
66.178371
 20
740.944049
 30
0.0
 11
63.732968
 21
738.498645
 31
0.0
  0
LINE
  5
4A3
100
AcDbEntity
  8
SILK
100
AcDbLine
 10
66.178371
 20
746.024049
 30
0.0
 11
63.732968
 21
743.578645
 31
0.0
  0
LINE
  5
4A4
100
AcDbEntity
  8
SILK
100
AcDbLine
 10
64.440074
 20
742.871538
 30
0.0
 11
66.885478
 21
745.316942
 31
0.0
  0
LINE
  5
4A5
100
AcDbEntity
  8
SILK
100
AcDbLine
 10
66.178371
 20
751.104049
 30
0.0
 11
63.732968
 21
748.658645
 31
0.0
  0
LINE
  5
4A6
100
AcDbEntity
  8
SILK
100
AcDbLine
 10
64.440074
 20
747.951538
 30
0.0
 11
66.885478
 21
750.396942
 31
0.0
  0
LINE
  5
4A7
100
AcDbEntity
  8
SILK
100
AcDbLine
 10
61.309223
 20
752.067793
 30
0.0
 11
61.309223
 21
731.747793
 31
0.0
  0
LINE
  5
4A8
100
AcDbEntity
  8
SILK
100
AcDbLine
 10
80.909223
 20
752.067793
 30
0.0
 11
61.309223
 21
752.067793
 31
0.0
  0
LINE
  5
4A9
100
AcDbEntity
  8
SILK
100
AcDbLine
 10
61.309223
 20
731.747793
 30
0.0
 11
80.909223
 21
731.747793
 31
0.0
  0
LINE
  5
4AA
100
AcDbEntity
  8
SILK
100
AcDbLine
 10
72.909223
 20
752.067793
 30
0.0
 11
72.909223
 21
731.747793
 31
0.0
  0
LINE
  5
4AB
100
AcDbEntity
  8
SILK
100
AcDbLine
 10
70.309223
 20
720.457793
 30
0.0
 11
70.309223
 21
731.747793
 31
0.0
  0
LINE
  5
4AC
100
AcDbEntity
  8
SILK
100
AcDbLine
 10
71.509223
 20
720.457793
 30
0.0
 11
70.309223
 21
720.457793
 31
0.0
  0
LINE
  5
4AD
100
AcDbEntity
  8
SILK
100
AcDbLine
 10
71.509223
 20
731.747793
 30
0.0
 11
71.509223
 21
720.457793
 31
0.0
  0
LINE
  5
4AE
100
AcDbEntity
  8
SILK
100
AcDbLine
 10
70.309223
 20
763.357793
 30
0.0
 11
71.509223
 21
763.357793
 31
0.0
  0
LINE
  5
4AF
100
AcDbEntity
  8
SILK
100
AcDbLine
 10
71.509223
 20
763.357793
 30
0.0
 11
71.509223
 21
758.042718
 31
0.0
  0
LINE
  5
4B0
100
AcDbEntity
  8
SILK
100
AcDbLine
 10
70.309223
 20
752.067793
 30
0.0
 11
70.309223
 21
753.742718
 31
0.0
  0
LINE
  5
4B1
100
AcDbEntity
  8
SILK
100
AcDbLine
 10
71.509223
 20
720.857793
 30
0.0
 11
73.749289
 21
720.857793
 31
0.0
  0
LINE
  5
4B2
100
AcDbEntity
  8
SILK
100
AcDbLine
 10
73.749289
 20
762.957793
 30
0.0
 11
71.509223
 21
762.957793
 31
0.0
  0
LINE
  5
4B3
100
AcDbEntity
  8
SILK
100
AcDbLine
 10
68.309223
 20
752.792718
 30
0.0
 11
68.309223
 21
758.992718
 31
0.0
  0
LINE
  5
4B4
100
AcDbEntity
  8
SILK
100
AcDbLine
 10
68.309223
 20
753.742718
 30
0.0
 11
73.709223
 21
753.742718
 31
0.0
  0
LINE
  5
4B5
100
AcDbEntity
  8
SILK
100
AcDbLine
 10
72.509223
 20
758.042718
 30
0.0
 11
68.309223
 21
758.042718
 31
0.0
  0
LINE
  5
4B6
100
AcDbEntity
  8
SILK
100
AcDbLine
 10
68.309223
 20
752.792718
 30
0.0
 11
62.809223
 21
752.792718
 31
0.0
  0
LINE
  5
4B7
100
AcDbEntity
  8
SILK
100
AcDbLine
 10
68.309223
 20
758.992718
 30
0.0
 11
62.809223
 21
758.992718
 31
0.0
  0
LINE
  5
4B8
100
AcDbEntity
  8
SILK
100
AcDbLine
 10
62.809223
 20
758.992718
 30
0.0
 11
62.809223
 21
752.792718
 31
0.0
  0
LINE
  5
4B9
100
AcDbEntity
  8
0
100
AcDbLine
 10
80.909223
 20
719.082344
 30
0.0
 11
80.909223
 21
764.733243
 31
0.0
  0
LINE
  5
4BA
100
AcDbEntity
  8
0
100
AcDbLine
 10
70.909223
 20
718.907793
 30
0.0
 11
80.909223
 21
719.082344
 31
0.0
  0
LINE
  5
4BB
100
AcDbEntity
  8
0
100
AcDbLine
 10
80.909223
 20
764.733243
 30
0.0
 11
70.909223
 21
764.907793
 31
0.0
  0
LINE
  5
4BC
100
AcDbEntity
  8
SILK
100
AcDbLine
 10
74.509223
 20
720.707793
 30
0.0
 11
80.909223
 21
720.707793
 31
0.0
  0
LINE
  5
4BD
100
AcDbEntity
  8
SILK
100
AcDbLine
 10
72.509223
 20
727.107793
 30
0.0
 11
72.509223
 21
722.707793
 31
0.0
  0
LINE
  5
4BE
100
AcDbEntity
  8
SILK
100
AcDbLine
 10
80.909223
 20
729.107793
 30
0.0
 11
74.509223
 21
729.107793
 31
0.0
  0
LINE
  5
4BF
100
AcDbEntity
  8
SILK
100
AcDbLine
 10
80.909223
 20
763.107793
 30
0.0
 11
74.509223
 21
763.107793
 31
0.0
  0
LINE
  5
4C0
100
AcDbEntity
  8
SILK
100
AcDbLine
 10
72.509223
 20
761.107793
 30
0.0
 11
72.509223
 21
756.707793
 31
0.0
  0
LINE
  5
4C1
100
AcDbEntity
  8
SILK
100
AcDbLine
 10
74.509223
 20
754.707793
 30
0.0
 11
80.909223
 21
754.707793
 31
0.0
  0
LINE
  5
4C2
100
AcDbEntity
  8
0
100
AcDbLine
 10
99.770037
 20
804.907793
 30
0.0
 11
98.909223
 21
804.907793
 31
0.0
  0
LINE
  5
4C3
100
AcDbEntity
  8
0
100
AcDbLine
 10
98.909223
 20
678.907793
 30
0.0
 11
99.770037
 21
678.907793
 31
0.0
  0
LINE
  5
4C4
100
AcDbEntity
  8
0
100
AcDbLine
 10
70.909223
 20
767.907793
 30
0.0
 11
63.412744
 21
767.907793
 31
0.0
  0
LINE
  5
4C5
100
AcDbEntity
  8
0
100
AcDbLine
 10
70.909223
 20
774.293106
 30
0.0
 11
70.909223
 21
764.907793
 31
0.0
  0
LINE
  5
4C6
100
AcDbEntity
  8
0
100
AcDbLine
 10
70.909223
 20
774.542131
 30
0.0
 11
70.909223
 21
774.293106
 31
0.0
  0
LINE
  5
4C7
100
AcDbEntity
  8
0
100
AcDbLine
 10
63.412744
 20
715.907793
 30
0.0
 11
70.909223
 21
715.907793
 31
0.0
  0
LINE
  5
4C8
100
AcDbEntity
  8
0
100
AcDbLine
 10
70.909223
 20
718.907793
 30
0.0
 11
70.909223
 21
709.52248
 31
0.0
  0
LINE
  5
4C9
100
AcDbEntity
  8
0
100
AcDbLine
 10
70.909223
 20
709.52248
 30
0.0
 11
70.909223
 21
709.273456
 31
0.0
  0
LINE
  5
4CA
100
AcDbEntity
  8
0
100
AcDbLine
 10
68.609223
 20
772.944058
 30
0.0
 11
69.909223
 21
773.057793
 31
0.0
  0
LINE
  5
4CB
100
AcDbEntity
  8
0
100
AcDbLine
 10
70.509223
 20
715.507793
 30
0.0
 11
69.909223
 21
715.507793
 31
0.0
  0
LINE
  5
4CC
100
AcDbEntity
  8
0
100
AcDbLine
 10
69.909223
 20
715.507793
 30
0.0
 11
69.909223
 21
708.817009
 31
0.0
  0
LINE
  5
4CD
100
AcDbEntity
  8
0
100
AcDbLine
 10
70.509223
 20
709.090115
 30
0.0
 11
70.509223
 21
715.507793
 31
0.0
  0
LINE
  5
4CE
100
AcDbEntity
  8
0
100
AcDbLine
 10
69.909223
 20
768.307793
 30
0.0
 11
70.509223
 21
768.307793
 31
0.0
  0
LINE
  5
4CF
100
AcDbEntity
  8
0
100
AcDbLine
 10
69.909223
 20
774.998578
 30
0.0
 11
69.909223
 21
768.307793
 31
0.0
  0
LINE
  5
4D0
100
AcDbEntity
  8
0
100
AcDbLine
 10
70.509223
 20
768.307793
 30
0.0
 11
70.509223
 21
774.725471
 31
0.0
  0
LINE
  5
4D1
100
AcDbEntity
  8
0
100
AcDbLine
 10
98.909223
 20
678.907793
 30
0.0
 11
98.909223
 21
804.907793
 31
0.0
  0
LINE
  5
4D2
100
AcDbEntity
  8
1
  6
HIDDEN
100
AcDbLine
 10
383.306633
 20
756.483695
 30
0.0
 11
343.806633
 21
756.483695
 31
0.0
  0
LINE
  5
4D3
100
AcDbEntity
  8
1
  6
HIDDEN
100
AcDbLine
 10
343.806633
 20
713.483695
 30
0.0
 11
383.306633
 21
713.483695
 31
0.0
  0
LINE
  5
4D4
100
AcDbEntity
  8
1
  6
HIDDEN
100
AcDbLine
 10
383.306633
 20
759.983695
 30
0.0
 11
343.806633
 21
759.983695
 31
0.0
  0
LINE
  5
4D5
100
AcDbEntity
  8
1
  6
HIDDEN
100
AcDbLine
 10
343.806633
 20
709.983695
 30
0.0
 11
383.306633
 21
709.983695
 31
0.0
  0
LINE
  5
4D6
100
AcDbEntity
  8
0
100
AcDbLine
 10
450.268063
 20
549.076138
 30
0.0
 11
281.482424
 21
549.076138
 31
0.0
  0
LINE
  5
4D7
100
AcDbEntity
  8
0
100
AcDbLine
 10
238.556633
 20
555.572617
 30
0.0
 11
450.556633
 21
555.572617
 31
0.0
  0
LINE
  5
4D8
100
AcDbEntity
  8
0
100
AcDbLine
 10
238.556633
 20
584.572617
 30
0.0
 11
238.556633
 21
555.572617
 31
0.0
  0
LINE
  5
4D9
100
AcDbEntity
  8
0
100
AcDbLine
 10
450.556633
 20
555.572617
 30
0.0
 11
450.556633
 21
584.572617
 31
0.0
  0
LINE
  5
4DA
100
AcDbEntity
  8
0
100
AcDbLine
 10
69.909223
 20
710.757793
 30
0.0
 11
68.609223
 21
710.871529
 31
0.0
  0
LINE
  5
4DB
100
AcDbEntity
  8
0
100
AcDbLine
 10
347.706633
 20
555.572617
 30
0.0
 11
347.592898
 21
554.272617
 31
0.0
  0
LINE
  5
4DC
100
AcDbEntity
  8
0
100
AcDbLine
 10
341.520369
 20
554.272617
 30
0.0
 11
341.406633
 21
555.572617
 31
0.0
  0
LINE
  5
4DD
100
AcDbEntity
  8
SILK
100
AcDbLine
 10
246.556633
 20
440.273907
 30
0.0
 11
246.556633
 21
427.433907
 31
0.0
  0
LINE
  5
4DE
100
AcDbEntity
  8
SILK
100
AcDbLine
 10
274.876633
 20
453.933907
 30
0.0
 11
269.076633
 21
453.933907
 31
0.0
  0
LINE
  5
4DF
100
AcDbEntity
  8
SILK
100
AcDbLine
 10
269.076633
 20
451.933907
 30
0.0
 11
274.876633
 21
451.933907
 31
0.0
  0
LINE
  5
4E0
100
AcDbEntity
  8
SILK
100
AcDbLine
 10
271.626633
 20
451.933907
 30
0.0
 11
271.626633
 21
450.783907
 31
0.0
  0
LINE
  5
4E1
100
AcDbEntity
  8
SILK
100
AcDbLine
 10
272.326633
 20
451.933907
 30
0.0
 11
272.326633
 21
450.783907
 31
0.0
  0
LINE
  5
4E2
100
AcDbEntity
  8
SILK
100
AcDbLine
 10
274.876633
 20
438.933907
 30
0.0
 11
269.076633
 21
438.933907
 31
0.0
  0
LINE
  5
4E3
100
AcDbEntity
  8
SILK
100
AcDbLine
 10
269.076633
 20
436.933907
 30
0.0
 11
274.876633
 21
436.933907
 31
0.0
  0
LINE
  5
4E4
100
AcDbEntity
  8
SILK
100
AcDbLine
 10
272.326633
 20
436.933907
 30
0.0
 11
272.326633
 21
435.783907
 31
0.0
  0
LINE
  5
4E5
100
AcDbEntity
  8
SILK
100
AcDbLine
 10
271.626633
 20
436.933907
 30
0.0
 11
271.626633
 21
435.783907
 31
0.0
  0
LINE
  5
4E6
100
AcDbEntity
  8
SILK
100
AcDbLine
 10
92.909223
 20
747.907793
 30
0.0
 11
94.909223
 21
749.907793
 31
0.0
  0
LINE
  5
4E7
100
AcDbEntity
  8
SILK
100
AcDbLine
 10
94.909223
 20
749.907793
 30
0.0
 11
98.909223
 21
749.907793
 31
0.0
  0
LINE
  5
4E8
100
AcDbEntity
  8
SILK
100
AcDbLine
 10
92.909223
 20
735.907793
 30
0.0
 11
92.909223
 21
747.907793
 31
0.0
  0
LINE
  5
4E9
100
AcDbEntity
  8
SILK
100
AcDbLine
 10
94.909223
 20
733.907793
 30
0.0
 11
92.909223
 21
735.907793
 31
0.0
  0
LINE
  5
4EA
100
AcDbEntity
  8
SILK
100
AcDbLine
 10
98.909223
 20
733.907793
 30
0.0
 11
94.909223
 21
733.907793
 31
0.0
  0
LINE
  5
4EB
100
AcDbEntity
  8
SILK
100
AcDbLine
 10
98.909223
 20
746.057793
 30
0.0
 11
97.209223
 21
745.909063
 31
0.0
  0
LINE
  5
4EC
100
AcDbEntity
  8
SILK
100
AcDbLine
 10
98.909223
 20
737.757793
 30
0.0
 11
97.209223
 21
737.906524
 31
0.0
  0
LINE
  5
4ED
100
AcDbEntity
  8
SILK
100
AcDbLine
 10
73.709223
 20
753.742718
 30
0.0
 11
73.709223
 21
754.874763
 31
0.0
  0
LINE
  5
4EE
100
AcDbEntity
  8
SILK
100
AcDbLine
 10
70.309223
 20
758.042718
 30
0.0
 11
70.309223
 21
763.357793
 31
0.0
  0
LINE
  5
4EF
100
AcDbEntity
  8
SILK
100
AcDbLine
 10
71.509223
 20
753.742718
 30
0.0
 11
71.509223
 21
752.067793
 31
0.0
  0
LINE
  5
4F0
100
AcDbEntity
  8
SILK
100
AcDbLine
 10
253.556633
 20
460.053907
 30
0.0
 11
249.556633
 21
460.053907
 31
0.0
  0
LINE
  5
4F1
100
AcDbEntity
  8
SILK
100
AcDbLine
 10
249.556633
 20
460.053907
 30
0.0
 11
249.556633
 21
456.053907
 31
0.0
  0
LINE
  5
4F2
100
AcDbEntity
  8
SILK
100
AcDbLine
 10
249.556633
 20
456.053907
 30
0.0
 11
253.556633
 21
456.053907
 31
0.0
  0
LINE
  5
4F3
100
AcDbEntity
  8
SILK
100
AcDbLine
 10
253.556633
 20
456.053907
 30
0.0
 11
253.556633
 21
460.053907
 31
0.0
  0
LINE
  5
4F4
100
AcDbEntity
  8
SILK
100
AcDbLine
 10
253.556633
 20
454.973907
 30
0.0
 11
249.556633
 21
454.973907
 31
0.0
  0
LINE
  5
4F5
100
AcDbEntity
  8
SILK
100
AcDbLine
 10
253.556633
 20
450.973907
 30
0.0
 11
253.556633
 21
454.973907
 31
0.0
  0
LINE
  5
4F6
100
AcDbEntity
  8
SILK
100
AcDbLine
 10
253.556633
 20
449.893907
 30
0.0
 11
249.556633
 21
449.893907
 31
0.0
  0
LINE
  5
4F7
100
AcDbEntity
  8
SILK
100
AcDbLine
 10
253.556633
 20
445.893907
 30
0.0
 11
253.556633
 21
449.893907
 31
0.0
  0
LINE
  5
4F8
100
AcDbEntity
  8
SILK
100
AcDbLine
 10
253.556633
 20
444.813907
 30
0.0
 11
249.556633
 21
444.813907
 31
0.0
  0
LINE
  5
4F9
100
AcDbEntity
  8
SILK
100
AcDbLine
 10
253.556633
 20
440.813907
 30
0.0
 11
253.556633
 21
444.813907
 31
0.0
  0
LINE
  5
4FA
100
AcDbEntity
  8
SILK
100
AcDbLine
 10
249.556633
 20
454.973907
 30
0.0
 11
249.556633
 21
450.973907
 31
0.0
  0
LINE
  5
4FB
100
AcDbEntity
  8
SILK
100
AcDbLine
 10
249.556633
 20
450.973907
 30
0.0
 11
253.556633
 21
450.973907
 31
0.0
  0
LINE
  5
4FC
100
AcDbEntity
  8
SILK
100
AcDbLine
 10
249.556633
 20
449.893907
 30
0.0
 11
249.556633
 21
445.893907
 31
0.0
  0
LINE
  5
4FD
100
AcDbEntity
  8
SILK
100
AcDbLine
 10
249.556633
 20
445.893907
 30
0.0
 11
253.556633
 21
445.893907
 31
0.0
  0
LINE
  5
4FE
100
AcDbEntity
  8
SILK
100
AcDbLine
 10
249.556633
 20
444.813907
 30
0.0
 11
249.556633
 21
440.813907
 31
0.0
  0
LINE
  5
4FF
100
AcDbEntity
  8
SILK
100
AcDbLine
 10
249.556633
 20
440.813907
 30
0.0
 11
253.556633
 21
440.813907
 31
0.0
  0
LINE
  5
500
100
AcDbEntity
  8
CENTER
100
AcDbLine
 10
459.956633
 20
429.933907
 30
0.0
 11
459.956633
 21
416.933907
 31
0.0
  0
LINE
  5
501
100
AcDbEntity
  8
CENTER
100
AcDbLine
 10
459.956633
 20
483.933907
 30
0.0
 11
459.956633
 21
470.933907
 31
0.0
  0
LINE
  5
502
100
AcDbEntity
  8
CENTER
100
AcDbLine
 10
456.456633
 20
477.433907
 30
0.0
 11
463.456633
 21
477.433907
 31
0.0
  0
LINE
  5
503
100
AcDbEntity
  8
CENTER
100
AcDbLine
 10
456.456633
 20
423.433907
 30
0.0
 11
463.456633
 21
423.433907
 31
0.0
  0
LINE
  5
504
100
AcDbEntity
  8
CENTER
100
AcDbLine
 10
232.656633
 20
477.433907
 30
0.0
 11
225.656633
 21
477.433907
 31
0.0
  0
LINE
  5
505
100
AcDbEntity
  8
CENTER
100
AcDbLine
 10
229.156633
 20
483.933907
 30
0.0
 11
229.156633
 21
470.933907
 31
0.0
  0
LINE
  5
506
100
AcDbEntity
  8
CENTER
100
AcDbLine
 10
232.656633
 20
423.433907
 30
0.0
 11
225.656633
 21
423.433907
 31
0.0
  0
LINE
  5
507
100
AcDbEntity
  8
CENTER
100
AcDbLine
 10
229.156633
 20
429.933907
 30
0.0
 11
229.156633
 21
416.933907
 31
0.0
  0
ARC
  5
508
100
AcDbEntity
  8
1
  6
HIDDEN
100
AcDbCircle
 10
391.815651
 20
734.983695
 30
0.0
 40
21.990982
100
AcDbArc
 50
305.748047
 51
414.251953
  0
ARC
  5
509
100
AcDbEntity
  8
1
  6
HIDDEN
100
AcDbCircle
 10
383.493298
 20
725.079487
 30
0.0
 40
34.904707
100
AcDbArc
 50
52.662596
 51
90.306409
  0
ARC
  5
50A
100
AcDbEntity
  8
1
  6
HIDDEN
100
AcDbCircle
 10
383.493298
 20
744.887903
 30
0.0
 40
34.904707
100
AcDbArc
 50
269.693591
 51
307.337404
  0
ARC
  5
50B
100
AcDbEntity
  8
1
  6
HIDDEN
100
AcDbCircle
 10
335.297615
 20
734.983695
 30
0.0
 40
21.990982
100
AcDbArc
 50
125.748047
 51
234.251953
  0
ARC
  5
50C
100
AcDbEntity
  8
1
  6
HIDDEN
100
AcDbCircle
 10
343.619969
 20
725.079487
 30
0.0
 40
34.904707
100
AcDbArc
 50
89.693591
 51
127.337404
  0
ARC
  5
50D
100
AcDbEntity
  8
1
  6
HIDDEN
100
AcDbCircle
 10
343.619969
 20
744.887903
 30
0.0
 40
34.904707
100
AcDbArc
 50
232.662596
 51
270.306409
  0
CIRCLE
  5
50E
100
AcDbEntity
  8
1
  6
HIDDEN
100
AcDbCircle
 10
291.556633
 20
734.983695
 30
0.0
 40
17.8
  0
LINE
  5
50F
100
AcDbEntity
  8
CENTER
100
AcDbLine
 10
471.970379
 20
490.771407
 30
0.0
 11
471.970379
 21
471.215157
 31
0.0
  0
LINE
  5
510
100
AcDbEntity
  8
CENTER
100
AcDbLine
 10
467.970379
 20
480.993282
 30
0.0
 11
475.970379
 21
480.993282
 31
0.0
  0
CIRCLE
  5
511
100
AcDbEntity
  8
SILK
100
AcDbCircle
 10
410.947712
 20
770.187344
 30
0.0
 40
1.5
  0
CIRCLE
  5
512
100
AcDbEntity
  8
SILK
100
AcDbCircle
 10
414.947712
 20
770.187344
 30
0.0
 40
1.5
  0
CIRCLE
  5
513
100
AcDbEntity
  8
SILK
100
AcDbCircle
 10
418.947712
 20
770.187344
 30
0.0
 40
1.5
  0
CIRCLE
  5
514
100
AcDbEntity
  8
SILK
100
AcDbCircle
 10
422.947712
 20
770.187344
 30
0.0
 40
1.5
  0
CIRCLE
  5
515
100
AcDbEntity
  8
SILK
100
AcDbCircle
 10
426.947712
 20
770.187344
 30
0.0
 40
1.5
  0
CIRCLE
  5
516
100
AcDbEntity
  8
SILK
100
AcDbCircle
 10
430.947712
 20
770.187344
 30
0.0
 40
1.5
  0
CIRCLE
  5
517
100
AcDbEntity
  8
SILK
100
AcDbCircle
 10
412.947712
 20
766.723243
 30
0.0
 40
1.5
  0
CIRCLE
  5
518
100
AcDbEntity
  8
SILK
100
AcDbCircle
 10
416.947712
 20
766.723243
 30
0.0
 40
1.5
  0
CIRCLE
  5
519
100
AcDbEntity
  8
SILK
100
AcDbCircle
 10
420.947712
 20
766.723243
 30
0.0
 40
1.5
  0
CIRCLE
  5
51A
100
AcDbEntity
  8
SILK
100
AcDbCircle
 10
424.947712
 20
766.723243
 30
0.0
 40
1.5
  0
CIRCLE
  5
51B
100
AcDbEntity
  8
SILK
100
AcDbCircle
 10
428.947712
 20
766.723243
 30
0.0
 40
1.5
  0
CIRCLE
  5
51C
100
AcDbEntity
  8
SILK
100
AcDbCircle
 10
432.947712
 20
766.723243
 30
0.0
 40
1.5
  0
CIRCLE
  5
51D
100
AcDbEntity
  8
SILK
100
AcDbCircle
 10
414.947712
 20
763.259141
 30
0.0
 40
1.5
  0
CIRCLE
  5
51E
100
AcDbEntity
  8
SILK
100
AcDbCircle
 10
418.947712
 20
763.259141
 30
0.0
 40
1.5
  0
CIRCLE
  5
51F
100
AcDbEntity
  8
SILK
100
AcDbCircle
 10
422.947712
 20
763.259141
 30
0.0
 40
1.5
  0
CIRCLE
  5
520
100
AcDbEntity
  8
SILK
100
AcDbCircle
 10
426.947712
 20
763.259141
 30
0.0
 40
1.5
  0
CIRCLE
  5
521
100
AcDbEntity
  8
SILK
100
AcDbCircle
 10
430.947712
 20
763.259141
 30
0.0
 40
1.5
  0
CIRCLE
  5
522
100
AcDbEntity
  8
SILK
100
AcDbCircle
 10
434.947712
 20
763.259141
 30
0.0
 40
1.5
  0
CIRCLE
  5
523
100
AcDbEntity
  8
SILK
100
AcDbCircle
 10
434.947712
 20
613.645346
 30
0.0
 40
1.5
  0
CIRCLE
  5
524
100
AcDbEntity
  8
SILK
100
AcDbCircle
 10
430.947712
 20
613.645346
 30
0.0
 40
1.5
  0
CIRCLE
  5
525
100
AcDbEntity
  8
SILK
100
AcDbCircle
 10
426.947712
 20
613.645346
 30
0.0
 40
1.5
  0
CIRCLE
  5
526
100
AcDbEntity
  8
SILK
100
AcDbCircle
 10
422.947712
 20
613.645346
 30
0.0
 40
1.5
  0
CIRCLE
  5
527
100
AcDbEntity
  8
SILK
100
AcDbCircle
 10
418.947712
 20
613.645346
 30
0.0
 40
1.5
  0
CIRCLE
  5
528
100
AcDbEntity
  8
SILK
100
AcDbCircle
 10
414.947712
 20
613.645346
 30
0.0
 40
1.5
  0
CIRCLE
  5
529
100
AcDbEntity
  8
SILK
100
AcDbCircle
 10
432.947712
 20
617.109448
 30
0.0
 40
1.5
  0
CIRCLE
  5
52A
100
AcDbEntity
  8
SILK
100
AcDbCircle
 10
428.947712
 20
617.109448
 30
0.0
 40
1.5
  0
CIRCLE
  5
52B
100
AcDbEntity
  8
SILK
100
AcDbCircle
 10
424.947712
 20
617.109448
 30
0.0
 40
1.5
  0
CIRCLE
  5
52C
100
AcDbEntity
  8
SILK
100
AcDbCircle
 10
420.947712
 20
617.109448
 30
0.0
 40
1.5
  0
CIRCLE
  5
52D
100
AcDbEntity
  8
SILK
100
AcDbCircle
 10
416.947712
 20
617.109448
 30
0.0
 40
1.5
  0
CIRCLE
  5
52E
100
AcDbEntity
  8
SILK
100
AcDbCircle
 10
412.947712
 20
617.109448
 30
0.0
 40
1.5
  0
CIRCLE
  5
52F
100
AcDbEntity
  8
SILK
100
AcDbCircle
 10
430.947712
 20
620.573549
 30
0.0
 40
1.5
  0
CIRCLE
  5
530
100
AcDbEntity
  8
SILK
100
AcDbCircle
 10
426.947712
 20
620.573549
 30
0.0
 40
1.5
  0
CIRCLE
  5
531
100
AcDbEntity
  8
SILK
100
AcDbCircle
 10
422.947712
 20
620.573549
 30
0.0
 40
1.5
  0
CIRCLE
  5
532
100
AcDbEntity
  8
SILK
100
AcDbCircle
 10
418.947712
 20
620.573549
 30
0.0
 40
1.5
  0
CIRCLE
  5
533
100
AcDbEntity
  8
SILK
100
AcDbCircle
 10
414.947712
 20
620.573549
 30
0.0
 40
1.5
  0
CIRCLE
  5
534
100
AcDbEntity
  8
SILK
100
AcDbCircle
 10
410.947712
 20
620.573549
 30
0.0
 40
1.5
  0
DIMENSION
  5
535
100
AcDbEntity
  8
SCALE
100
AcDbDimension
  2
*D2
 10
861.990384
 20
685.983695
 30
0.0
 11
850.990384
 21
734.983695
 31
0.0
 12
-13.783069
 22
-43.558872
 32
0.0
  1
98
  3
STANDARD
100
AcDbAlignedDimension
 13
836.756354
 23
783.983695
 33
0.0
 14
836.756354
 24
685.983695
 34
0.0
 50
90.0
100
AcDbRotatedDimension
  0
DIMENSION
  5
536
100
AcDbEntity
  8
SCALE
100
AcDbDimension
  2
*D13
 10
861.990384
 20
585.701289
 30
0.0
 11
850.990384
 21
529.132242
 31
0.0
 12
0.0
 22
14.099982
 32
0.0
  1
9-30 mm
  3
STANDARD
100
AcDbAlignedDimension
 13
847.756354
 23
598.930456
 33
0.0
 14
847.756354
 24
585.701289
 34
0.0
 50
90.0
100
AcDbRotatedDimension
  0
LINE
  5
537
100
AcDbEntity
  8
CENTER
100
AcDbLine
 10
467.970379
 20
419.874532
 30
0.0
 11
475.970379
 21
419.874532
 31
0.0
  0
LINE
  5
538
100
AcDbEntity
  8
CENTER
100
AcDbLine
 10
471.970379
 20
429.652657
 30
0.0
 11
471.970379
 21
410.096407
 31
0.0
  0
DIMENSION
  5
539
100
AcDbEntity
  8
SCALE
100
AcDbDimension
  2
*D4
 10
524.682346
 20
423.433907
 30
0.0
 11
513.682346
 21
450.433907
 31
0.0
 12
11.108742
 22
-15.694622
 32
0.0
  1
54
  3
STANDARD
100
AcDbAlignedDimension
 13
463.456633
 23
477.433907
 33
0.0
 14
463.456633
 24
423.433907
 34
0.0
 50
90.0
100
AcDbRotatedDimension
  0
DIMENSION
  5
53A
100
AcDbEntity
  8
SCALE
100
AcDbDimension
  2
*D3
 10
549.025577
 20
419.874532
 30
0.0
 11
538.025577
 21
450.433907
 31
0.0
 12
11.108742
 22
-15.694622
 32
0.0
  1
61
  3
STANDARD
100
AcDbAlignedDimension
 13
475.970379
 23
480.993282
 33
0.0
 14
475.970379
 24
419.874532
 34
0.0
 50
90.0
100
AcDbRotatedDimension
  0
DIMENSION
  5
53B
100
AcDbEntity
  8
SCALE
100
AcDbDimension
  2
*D7
 10
572.203076
 20
387.433907
 30
0.0
 11
561.203076
 21
450.433907
 31
0.0
 12
11.108742
 22
-15.694622
 32
0.0
  1
126
  3
STANDARD
100
AcDbAlignedDimension
 13
473.579887
 23
513.433907
 33
0.0
 14
473.579887
 24
387.433907
 34
0.0
 50
90.0
100
AcDbRotatedDimension
  0
DIMENSION
  5
53C
100
AcDbEntity
  8
SCALE
100
AcDbDimension
  2
*D5
 10
524.682346
 20
584.572617
 30
0.0
 11
513.682346
 21
562.572617
 31
0.0
 12
11.108742
 22
-27.822285
 32
0.0
  1
44
  3
STANDARD
100
AcDbAlignedDimension
 13
450.172651
 23
540.572617
 33
0.0
 14
500.556633
 24
584.572617
 34
0.0
 50
90.0
100
AcDbRotatedDimension
  0
DIMENSION
  5
53D
100
AcDbEntity
  8
SCALE
100
AcDbDimension
  2
*D6
 10
524.682346
 20
630.572617
 30
0.0
 11
513.682346
 21
607.572617
 31
0.0
 12
11.108742
 22
-27.822285
 32
0.0
  1
46
  3
STANDARD
100
AcDbAlignedDimension
 13
500.556633
 23
584.572617
 33
0.0
 14
450.539504
 24
630.572617
 34
0.0
 50
90.0
100
AcDbRotatedDimension
  0
LINE
  5
53E
100
AcDbEntity
  8
CENTER
100
AcDbLine
 10
217.142888
 20
429.652657
 30
0.0
 11
217.142888
 21
410.096407
 31
0.0
  0
LINE
  5
53F
100
AcDbEntity
  8
CENTER
100
AcDbLine
 10
213.142888
 20
419.874532
 30
0.0
 11
221.142888
 21
419.874532
 31
0.0
  0
LINE
  5
540
100
AcDbEntity
  8
CENTER
100
AcDbLine
 10
213.142888
 20
480.993282
 30
0.0
 11
221.142888
 21
480.993282
 31
0.0
  0
LINE
  5
541
100
AcDbEntity
  8
CENTER
100
AcDbLine
 10
217.142888
 20
490.771407
 30
0.0
 11
217.142888
 21
471.215157
 31
0.0
  0
DIMENSION
  5
542
100
AcDbEntity
  8
SCALE
100
AcDbDimension
  2
*D8
 10
459.956633
 20
366.158899
 30
0.0
 11
344.556633
 21
377.158899
 31
0.0
 12
11.108742
 22
-15.694622
 32
0.0
  1
230.8
  3
STANDARD
100
AcDbAlignedDimension
 13
229.156633
 23
416.933907
 33
0.0
 14
459.956633
 24
416.933907
 34
0.0
100
AcDbRotatedDimension
  0
DIMENSION
  5
543
100
AcDbEntity
  8
SCALE
100
AcDbDimension
  2
*D11
 10
471.970379
 20
345.386605
 30
0.0
 11
344.556633
 21
356.386605
 31
0.0
 12
0.0
 22
-8.770524
 32
0.0
  1
254.8
  3
STANDARD
100
AcDbAlignedDimension
 13
217.142888
 23
410.096407
 33
0.0
 14
471.970379
 24
410.096407
 34
0.0
100
AcDbRotatedDimension
  0
DIMENSION
  5
544
100
AcDbEntity
  8
SCALE
100
AcDbDimension
  2
*D12
 10
500.556633
 20
325.495559
 30
0.0
 11
344.556633
 21
336.495559
 31
0.0
 12
0.0
 22
-8.770524
 32
0.0
  1
312
  3
STANDARD
100
AcDbAlignedDimension
 13
188.556633
 23
450.433907
 33
0.0
 14
500.556633
 24
450.433907
 34
0.0
100
AcDbRotatedDimension
  0
DIMENSION
  5
545
100
AcDbEntity
  8
SCALE
100
AcDbDimension
  2
*D9
 10
677.571027
 20
117.373132
 30
0.0
 11
700.878169
 21
128.373132
 31
0.0
 12
60.138067
 22
-20.940151
 32
0.0
  1
10
  3
STANDARD
100
AcDbAlignedDimension
 13
667.571027
 23
152.570245
 33
0.0
 14
677.571027
 24
138.570245
 34
0.0
100
AcDbRotatedDimension
  0
DIMENSION
  5
546
100
AcDbEntity
  8
SCALE
100
AcDbDimension
  2
*D10
 10
677.571027
 20
273.515006
 30
0.0
 11
703.497217
 21
284.515006
 31
0.0
 12
51.223644
 22
-20.940151
 32
0.0
  1
1.5
  3
STANDARD
100
AcDbAlignedDimension
 13
676.071027
 23
260.570245
 33
0.0
 14
677.571027
 24
260.570245
 34
0.0
100
AcDbRotatedDimension
  0
INSERT
  5
547
100
AcDbEntity
  8
SCALE
100
AcDbBlockReference
  2
YAZ3
 10
226.758885
 20
481.141582
 30
0.0
 41
7.5
 42
7.5
 43
7.5
 50
303.10181
  0
LINE
  5
548
100
AcDbEntity
  8
SCALE
100
AcDbLine
 10
222.662922
 20
487.424343
 30
0.0
 11
198.068998
 21
525.148741
 31
0.0
  0
INSERT
  5
549
100
AcDbEntity
  8
SCALE
100
AcDbBlockReference
  2
YAZ3
 10
214.142888
 20
486.008622
 30
0.0
 41
7.5
 42
7.5
 43
7.5
 50
332.859573
  0
LINE
  5
54A
100
AcDbEntity
  8
SCALE
100
AcDbLine
 10
207.468704
 20
489.429919
 30
0.0
 11
182.765818
 21
502.093027
 31
0.0
  0
TEXT
  5
54B
100
AcDbEntity
  8
SCALE
100
AcDbText
 10
763.34062
 20
635.104349
 30
0.0
 40
11.0
  1
Adapter frame
100
AcDbText
  0
TEXT
  5
54C
100
AcDbEntity
  8
1
100
AcDbText
 10
568.232545
 20
656.16344
 30
0.0
 40
12.5
  1
Mounting hole dimensional diagram
 41
0.8
  7
UT7
 72
     4
 11
702.756354
 21
660.330107
 31
0.0
100
AcDbText
  0
LINE
  5
54D
100
AcDbEntity
  8
1
100
AcDbLine
 10
567.756354
 20
650.546932
 30
0.0
 11
837.756354
 21
650.546932
 31
0.0
  0
LINE
  5
54E
100
AcDbEntity
  8
1
100
AcDbLine
 10
616.756354
 20
521.089933
 30
0.0
 11
788.756354
 21
521.089933
 31
0.0
  0
TEXT
  5
54F
100
AcDbEntity
  8
1
100
AcDbText
 10
617.99445
 20
526.706442
 30
0.0
 40
12.5
  1
Installation example 1
 41
0.8
  7
UT7
 72
     4
 11
702.756354
 21
530.873108
 31
0.0
100
AcDbText
  0
LINE
  5
550
100
AcDbEntity
  8
SCALE
100
AcDbLine
 10
776.807651
 20
337.633139
 30
0.0
 11
884.413586
 21
337.633139
 31
0.0
  0
TEXT
  5
581
100
AcDbEntity
  8
SCALE
100
AcDbText
 10
778.886165
 20
345.129533
 30
0.0
 40
11.0
  1
 Switch box
100
AcDbText
  0
TEXT
  5
582
100
AcDbEntity
  8
1
100
AcDbText
 10
615.851592
 20
319.120214
 30
0.0
 40
12.5
  1
Installation example 2
 41
0.8
  7
UT7
 72
     4
 11
702.756354
 21
323.286881
 31
0.0
100
AcDbText
  0
LINE
  5
583
100
AcDbEntity
  8
1
100
AcDbLine
 10
615.756354
 20
313.503706
 30
0.0
 11
789.756354
 21
313.503706
 31
0.0
  0
INSERT
  5
584
100
AcDbEntity
  8
SCALE
100
AcDbBlockReference
  2
YAZ3
 10
739.01514
 20
382.441021
 30
0.0
 41
7.5
 42
7.5
 43
7.5
 50
130.145437
  0
LINE
  5
585
100
AcDbEntity
  8
SCALE
100
AcDbLine
 10
743.850615
 20
376.707944
 30
0.0
 11
776.807651
 21
337.633139
 31
0.0
  0
INSERT
  5
586
100
AcDbEntity
  8
SCALE
100
AcDbBlockReference
  2
YAZ3
 10
724.159696
 20
600.180456
 30
0.0
 41
7.5
 42
7.5
 43
7.5
 50
216.473207
  0
LINE
  5
587
100
AcDbEntity
  8
SCALE
100
AcDbLine
 10
730.190708
 20
604.638807
 30
0.0
 11
761.262106
 21
627.607955
 31
0.0
  0
DIMENSION
  5
58A
100
AcDbEntity
  8
SCALE
100
AcDbDimension
  2
*D14
 10
836.756354
 20
798.054767
 30
0.0
 11
702.756354
 21
809.054767
 31
0.0
 12
0.0
 22
-4.616065
 32
0.0
  1
268
  3
STANDARD
100
AcDbAlignedDimension
 13
568.756354
 23
783.983695
 33
0.0
 14
836.756354
 24
783.983695
 34
0.0
100
AcDbRotatedDimension
  0
TEXT
  5
58C
100
AcDbEntity
  8
1
100
AcDbText
 10
57.5
 20
863.50383
 30
0.0
 40
11.25
  1
When installing, mount the Adapter Frame as a switch box cover. (The Adapter Frame is also available as 
 41
0.8
  7
UT7
100
AcDbText
  0
TEXT
  5
58D
100
AcDbEntity
  8
1
100
AcDbText
 10
57.5
 20
847.75383
 30
0.0
 40
11.25
  1
   an optional accessory under the model number of HY-H1.)
 41
0.8
  7
UT7
100
AcDbText
  0
TEXT
  5
58E
100
AcDbEntity
  8
1
100
AcDbText
 10
57.5
 20
832.00383
 30
0.0
 40
11.25
  1
It is also possible to mount the speaker directly to the switch box (without a cover.)
 41
0.8
  7
UT7
100
AcDbText
  0
INSERT
  5
58F
100
AcDbEntity
  8
0
100
AcDbBlockReference
  2
INSLYTXT
 10
943.591638
 20
56.504837
 30
0.0
 41
2.0
 42
2.0
 43
2.0
  0
TEXT
  5
590
100
AcDbEntity
  8
SCALE
100
AcDbText
 10
12.806059
 20
225.888221
 30
0.0
 40
11.0
  1
Switch box
100
AcDbText
  0
TEXT
  5
591
100
AcDbEntity
  8
SCALE
100
AcDbText
 10
13.286066
 20
210.094467
 30
0.0
 40
11.0
  1
mounting hole 4-%%C5
  7
UT7
100
AcDbText
  0
LINE
  5
592
100
AcDbEntity
  8
SCALE
100
AcDbLine
 10
11.023174
 20
202.598072
 30
0.0
 11
186.980163
 21
202.598072
 31
0.0
  0
LINE
  5
593
100
AcDbEntity
  8
SCALE
100
AcDbLine
 10
10.896672
 20
261.725442
 30
0.0
 11
186.853661
 21
261.725442
 31
0.0
  0
TEXT
  5
594
100
AcDbEntity
  8
SCALE
100
AcDbText
 10
13.159564
 20
269.221837
 30
0.0
 40
11.0
  1
mounting hole 4-%%C5
  7
UT7
100
AcDbText
  0
TEXT
  5
595
100
AcDbEntity
  8
SCALE
100
AcDbText
 10
12.679557
 20
285.015591
 30
0.0
 40
11.0
  1
Switch box
100
AcDbText
  0
ARC
  5
596
100
AcDbEntity
  8
0
100
AcDbCircle
 10
202.956633
 20
258.570245
 30
0.0
 40
2.0
100
AcDbArc
 50
90.0
 51
180.0
  0
ARC
  5
597
100
AcDbEntity
  8
0
100
AcDbCircle
 10
202.956633
 20
140.570245
 30
0.0
 40
2.0
100
AcDbArc
 50
180.0
 51
270.0
  0
ARC
  5
598
100
AcDbEntity
  8
0
100
AcDbCircle
 10
486.156633
 20
140.570245
 30
0.0
 40
2.0
100
AcDbArc
 50
270.0
 51
360.0
  0
ARC
  5
599
100
AcDbEntity
  8
0
100
AcDbCircle
 10
486.156633
 20
258.570245
 30
0.0
 40
2.0
100
AcDbArc
 50
0.0
 51
90.0
  0
ARC
  5
59A
100
AcDbEntity
  8
0
100
AcDbCircle
 10
487.156633
 20
211.070245
 30
0.0
 40
1.0
100
AcDbArc
 50
270.0
 51
360.0
  0
ARC
  5
59B
100
AcDbEntity
  8
0
100
AcDbCircle
 10
487.156633
 20
212.070245
 30
0.0
 40
1.0
100
AcDbArc
 50
0.0
 51
90.0
  0
ARC
  5
59C
100
AcDbEntity
  8
0
100
AcDbCircle
 10
201.956633
 20
187.070245
 30
0.0
 40
1.0
100
AcDbArc
 50
180.0
 51
270.0
  0
ARC
  5
59D
100
AcDbEntity
  8
0
100
AcDbCircle
 10
201.956633
 20
188.070245
 30
0.0
 40
1.0
100
AcDbArc
 50
90.0
 51
180.0
  0
CIRCLE
  5
59E
100
AcDbEntity
  8
0
100
AcDbCircle
 10
229.156633
 20
172.570245
 30
0.0
 40
2.0
  0
CIRCLE
  5
59F
100
AcDbEntity
  8
0
100
AcDbCircle
 10
229.156633
 20
172.570245
 30
0.0
 40
1.5
  0
CIRCLE
  5
5A0
100
AcDbEntity
  8
0
100
AcDbCircle
 10
229.156633
 20
226.570245
 30
0.0
 40
1.5
  0
CIRCLE
  5
5A1
100
AcDbEntity
  8
0
100
AcDbCircle
 10
229.156633
 20
226.570245
 30
0.0
 40
2.0
  0
CIRCLE
  5
5A2
100
AcDbEntity
  8
0
100
AcDbCircle
 10
222.556633
 20
252.570245
 30
0.0
 40
2.5
  0
CIRCLE
  5
5A3
100
AcDbEntity
  8
0
100
AcDbCircle
 10
217.556633
 20
232.907745
 30
0.0
 40
2.5
  0
CIRCLE
  5
5A4
100
AcDbEntity
  8
0
100
AcDbCircle
 10
216.762883
 20
227.351495
 30
0.0
 40
2.5
  0
CIRCLE
  5
5A5
100
AcDbEntity
  8
0
100
AcDbCircle
 10
216.762883
 20
171.788995
 30
0.0
 40
2.5
  0
CIRCLE
  5
5A6
100
AcDbEntity
  8
0
100
AcDbCircle
 10
217.556633
 20
166.232745
 30
0.0
 40
2.5
  0
CIRCLE
  5
5A7
100
AcDbEntity
  8
0
100
AcDbCircle
 10
222.556633
 20
146.570245
 30
0.0
 40
2.5
  0
CIRCLE
  5
5A8
100
AcDbEntity
  8
0
100
AcDbCircle
 10
466.556633
 20
146.570245
 30
0.0
 40
2.5
  0
CIRCLE
  5
5A9
100
AcDbEntity
  8
0
100
AcDbCircle
 10
471.556633
 20
166.232745
 30
0.0
 40
2.5
  0
CIRCLE
  5
5AA
100
AcDbEntity
  8
0
100
AcDbCircle
 10
472.350383
 20
171.788995
 30
0.0
 40
2.5
  0
CIRCLE
  5
5AB
100
AcDbEntity
  8
0
100
AcDbCircle
 10
472.350383
 20
227.351495
 30
0.0
 40
2.5
  0
CIRCLE
  5
5AC
100
AcDbEntity
  8
0
100
AcDbCircle
 10
471.556633
 20
232.907745
 30
0.0
 40
2.5
  0
CIRCLE
  5
5AD
100
AcDbEntity
  8
0
100
AcDbCircle
 10
466.556633
 20
252.570245
 30
0.0
 40
2.5
  0
CIRCLE
  5
5AE
100
AcDbEntity
  8
0
100
AcDbCircle
 10
459.956633
 20
226.570245
 30
0.0
 40
2.0
  0
CIRCLE
  5
5AF
100
AcDbEntity
  8
0
100
AcDbCircle
 10
459.956633
 20
226.570245
 30
0.0
 40
1.5
  0
CIRCLE
  5
5B0
100
AcDbEntity
  8
0
100
AcDbCircle
 10
459.956633
 20
172.570245
 30
0.0
 40
1.5
  0
CIRCLE
  5
5B1
100
AcDbEntity
  8
0
100
AcDbCircle
 10
459.956633
 20
172.570245
 30
0.0
 40
2.0
  0
ARC
  5
5B2
100
AcDbEntity
  8
0
100
AcDbCircle
 10
468.639053
 20
211.570245
 30
0.0
 40
7.98242
100
AcDbArc
 50
180.0
 51
202.356539
  0
ARC
  5
5B3
100
AcDbEntity
  8
0
100
AcDbCircle
 10
468.639053
 20
211.570245
 30
0.0
 40
7.98242
100
AcDbArc
 50
157.643461
 51
180.0
  0
ARC
  5
5B4
100
AcDbEntity
  8
0
100
AcDbCircle
 10
220.474214
 20
187.570245
 30
0.0
 40
7.98242
100
AcDbArc
 50
337.643461
 51
360.0
  0
ARC
  5
5B5
100
AcDbEntity
  8
0
100
AcDbCircle
 10
220.474214
 20
187.570245
 30
0.0
 40
7.98242
100
AcDbArc
 50
0.0
 51
22.356539
  0
LINE
  5
5B6
100
AcDbEntity
  8
0
100
AcDbLine
 10
225.056633
 20
208.570245
 30
0.0
 11
223.556633
 21
208.570245
 31
0.0
  0
LINE
  5
5B7
100
AcDbEntity
  8
0
100
AcDbLine
 10
225.056633
 20
206.070245
 30
0.0
 11
223.556633
 21
206.070245
 31
0.0
  0
LINE
  5
5B8
100
AcDbEntity
  8
0
100
AcDbLine
 10
223.556633
 20
190.570245
 30
0.0
 11
225.056633
 21
190.570245
 31
0.0
  0
LINE
  5
5B9
100
AcDbEntity
  8
0
100
AcDbLine
 10
223.556633
 20
193.070245
 30
0.0
 11
225.056633
 21
193.070245
 31
0.0
  0
LINE
  5
5BA
100
AcDbEntity
  8
0
100
AcDbLine
 10
231.156633
 20
167.570245
 30
0.0
 11
234.156633
 21
170.570245
 31
0.0
  0
LINE
  5
5BB
100
AcDbEntity
  8
0
100
AcDbLine
 10
231.156633
 20
177.570245
 30
0.0
 11
234.156633
 21
174.570245
 31
0.0
  0
LINE
  5
5BC
100
AcDbEntity
  8
0
100
AcDbLine
 10
234.156633
 20
170.570245
 30
0.0
 11
234.156633
 21
174.570245
 31
0.0
  0
LINE
  5
5BD
100
AcDbEntity
  8
0
100
AcDbLine
 10
231.156633
 20
221.570245
 30
0.0
 11
234.156633
 21
224.570245
 31
0.0
  0
LINE
  5
5BE
100
AcDbEntity
  8
0
100
AcDbLine
 10
231.156633
 20
231.570245
 30
0.0
 11
234.156633
 21
228.570245
 31
0.0
  0
LINE
  5
5BF
100
AcDbEntity
  8
0
100
AcDbLine
 10
234.156633
 20
224.570245
 30
0.0
 11
234.156633
 21
228.570245
 31
0.0
  0
LINE
  5
5C0
100
AcDbEntity
  8
0
100
AcDbLine
 10
212.556633
 20
192.570245
 30
0.0
 11
219.556633
 21
192.570245
 31
0.0
  0
LINE
  5
5C1
100
AcDbEntity
  8
0
100
AcDbLine
 10
219.556633
 20
192.570245
 30
0.0
 11
219.556633
 21
206.570245
 31
0.0
  0
LINE
  5
5C2
100
AcDbEntity
  8
0
100
AcDbLine
 10
219.556633
 20
206.570245
 30
0.0
 11
212.556633
 21
206.570245
 31
0.0
  0
LINE
  5
5C3
100
AcDbEntity
  8
0
100
AcDbLine
 10
212.556633
 20
206.570245
 30
0.0
 11
212.556633
 21
192.570245
 31
0.0
  0
LINE
  5
5C4
100
AcDbEntity
  8
0
100
AcDbLine
 10
212.556633
 20
194.570245
 30
0.0
 11
214.056633
 21
194.570245
 31
0.0
  0
LINE
  5
5C5
100
AcDbEntity
  8
0
100
AcDbLine
 10
214.056633
 20
194.570245
 30
0.0
 11
214.056633
 21
204.570245
 31
0.0
  0
LINE
  5
5C6
100
AcDbEntity
  8
0
100
AcDbLine
 10
214.056633
 20
204.570245
 30
0.0
 11
212.556633
 21
204.570245
 31
0.0
  0
LINE
  5
5C7
100
AcDbEntity
  8
0
100
AcDbLine
 10
223.556633
 20
165.570245
 30
0.0
 11
225.056633
 21
165.570245
 31
0.0
  0
LINE
  5
5C8
100
AcDbEntity
  8
0
100
AcDbLine
 10
225.056633
 20
179.570245
 30
0.0
 11
223.556633
 21
179.570245
 31
0.0
  0
LINE
  5
5C9
100
AcDbEntity
  8
0
100
AcDbLine
 10
225.056633
 20
219.570245
 30
0.0
 11
223.556633
 21
219.570245
 31
0.0
  0
LINE
  5
5CA
100
AcDbEntity
  8
0
100
AcDbLine
 10
223.556633
 20
233.570245
 30
0.0
 11
225.056633
 21
233.570245
 31
0.0
  0
LINE
  5
5CB
100
AcDbEntity
  8
0
100
AcDbLine
 10
234.556633
 20
152.570245
 30
0.0
 11
234.556633
 21
154.070245
 31
0.0
  0
LINE
  5
5CC
100
AcDbEntity
  8
0
100
AcDbLine
 10
234.556633
 20
245.070245
 30
0.0
 11
234.556633
 21
246.570245
 31
0.0
  0
LINE
  5
5CD
100
AcDbEntity
  8
0
100
AcDbLine
 10
227.556633
 20
152.570245
 30
0.0
 11
227.556633
 21
154.070245
 31
0.0
  0
LINE
  5
5CE
100
AcDbEntity
  8
0
100
AcDbLine
 10
225.056633
 20
156.570245
 30
0.0
 11
223.556633
 21
156.570245
 31
0.0
  0
LINE
  5
5CF
100
AcDbEntity
  8
0
100
AcDbLine
 10
231.156633
 20
177.570245
 30
0.0
 11
223.556633
 21
177.570245
 31
0.0
  0
LINE
  5
5D0
100
AcDbEntity
  8
0
100
AcDbLine
 10
223.556633
 20
167.570245
 30
0.0
 11
231.156633
 21
167.570245
 31
0.0
  0
LINE
  5
5D1
100
AcDbEntity
  8
0
100
AcDbLine
 10
225.056633
 20
156.570245
 30
0.0
 11
225.056633
 21
167.570245
 31
0.0
  0
LINE
  5
5D2
100
AcDbEntity
  8
0
100
AcDbLine
 10
225.056633
 20
163.570245
 30
0.0
 11
223.556633
 21
163.570245
 31
0.0
  0
LINE
  5
5D3
100
AcDbEntity
  8
0
100
AcDbLine
 10
223.556633
 20
221.570245
 30
0.0
 11
231.156633
 21
221.570245
 31
0.0
  0
LINE
  5
5D4
100
AcDbEntity
  8
0
100
AcDbLine
 10
231.156633
 20
231.570245
 30
0.0
 11
223.556633
 21
231.570245
 31
0.0
  0
LINE
  5
5D5
100
AcDbEntity
  8
0
100
AcDbLine
 10
223.556633
 20
235.570245
 30
0.0
 11
225.056633
 21
235.570245
 31
0.0
  0
LINE
  5
5D6
100
AcDbEntity
  8
0
100
AcDbLine
 10
225.056633
 20
231.570245
 30
0.0
 11
225.056633
 21
242.570245
 31
0.0
  0
LINE
  5
5D7
100
AcDbEntity
  8
0
100
AcDbLine
 10
223.556633
 20
242.570245
 30
0.0
 11
225.056633
 21
242.570245
 31
0.0
  0
LINE
  5
5D8
100
AcDbEntity
  8
0
100
AcDbLine
 10
227.556633
 20
245.070245
 30
0.0
 11
227.556633
 21
246.570245
 31
0.0
  0
LINE
  5
5D9
100
AcDbEntity
  8
0
100
AcDbLine
 10
223.556633
 20
246.570245
 30
0.0
 11
223.556633
 21
189.070245
 31
0.0
  0
LINE
  5
5DA
100
AcDbEntity
  8
0
100
AcDbLine
 10
465.556633
 20
246.570245
 30
0.0
 11
223.556633
 21
246.570245
 31
0.0
  0
LINE
  5
5DB
100
AcDbEntity
  8
0
100
AcDbLine
 10
227.556633
 20
245.070245
 30
0.0
 11
461.556633
 21
245.070245
 31
0.0
  0
LINE
  5
5DC
100
AcDbEntity
  8
0
100
AcDbLine
 10
223.556633
 20
152.570245
 30
0.0
 11
465.556633
 21
152.570245
 31
0.0
  0
LINE
  5
5DD
100
AcDbEntity
  8
0
100
AcDbLine
 10
461.556633
 20
154.070245
 30
0.0
 11
227.556633
 21
154.070245
 31
0.0
  0
LINE
  5
5DE
100
AcDbEntity
  8
0
100
AcDbLine
 10
202.956633
 20
260.570245
 30
0.0
 11
486.156633
 21
260.570245
 31
0.0
  0
LINE
  5
5DF
100
AcDbEntity
  8
0
100
AcDbLine
 10
200.956633
 20
140.570245
 30
0.0
 11
200.956633
 21
258.570245
 31
0.0
  0
LINE
  5
5E0
100
AcDbEntity
  8
0
100
AcDbLine
 10
486.156633
 20
138.570245
 30
0.0
 11
202.956633
 21
138.570245
 31
0.0
  0
LINE
  5
5E1
100
AcDbEntity
  8
0
100
AcDbLine
 10
488.156633
 20
258.570245
 30
0.0
 11
488.156633
 21
140.570245
 31
0.0
  0
LINE
  5
5E2
100
AcDbEntity
  8
0
100
AcDbLine
 10
465.556633
 20
152.570245
 30
0.0
 11
465.556633
 21
210.070245
 31
0.0
  0
LINE
  5
5E3
100
AcDbEntity
  8
0
100
AcDbLine
 10
461.556633
 20
246.570245
 30
0.0
 11
461.556633
 21
245.070245
 31
0.0
  0
LINE
  5
5E4
100
AcDbEntity
  8
0
100
AcDbLine
 10
464.056633
 20
242.570245
 30
0.0
 11
465.556633
 21
242.570245
 31
0.0
  0
LINE
  5
5E5
100
AcDbEntity
  8
0
100
AcDbLine
 10
464.056633
 20
242.570245
 30
0.0
 11
464.056633
 21
231.570245
 31
0.0
  0
LINE
  5
5E6
100
AcDbEntity
  8
0
100
AcDbLine
 10
464.056633
 20
235.570245
 30
0.0
 11
465.556633
 21
235.570245
 31
0.0
  0
LINE
  5
5E7
100
AcDbEntity
  8
0
100
AcDbLine
 10
465.556633
 20
231.570245
 30
0.0
 11
457.956633
 21
231.570245
 31
0.0
  0
LINE
  5
5E8
100
AcDbEntity
  8
0
100
AcDbLine
 10
457.956633
 20
221.570245
 30
0.0
 11
465.556633
 21
221.570245
 31
0.0
  0
LINE
  5
5E9
100
AcDbEntity
  8
0
100
AcDbLine
 10
465.556633
 20
163.570245
 30
0.0
 11
464.056633
 21
163.570245
 31
0.0
  0
LINE
  5
5EA
100
AcDbEntity
  8
0
100
AcDbLine
 10
464.056633
 20
167.570245
 30
0.0
 11
464.056633
 21
156.570245
 31
0.0
  0
LINE
  5
5EB
100
AcDbEntity
  8
0
100
AcDbLine
 10
457.956633
 20
167.570245
 30
0.0
 11
465.556633
 21
167.570245
 31
0.0
  0
LINE
  5
5EC
100
AcDbEntity
  8
0
100
AcDbLine
 10
465.556633
 20
177.570245
 30
0.0
 11
457.956633
 21
177.570245
 31
0.0
  0
LINE
  5
5ED
100
AcDbEntity
  8
0
100
AcDbLine
 10
465.556633
 20
156.570245
 30
0.0
 11
464.056633
 21
156.570245
 31
0.0
  0
LINE
  5
5EE
100
AcDbEntity
  8
0
100
AcDbLine
 10
461.556633
 20
154.070245
 30
0.0
 11
461.556633
 21
152.570245
 31
0.0
  0
LINE
  5
5EF
100
AcDbEntity
  8
0
100
AcDbLine
 10
454.556633
 20
246.570245
 30
0.0
 11
454.556633
 21
245.070245
 31
0.0
  0
LINE
  5
5F0
100
AcDbEntity
  8
0
100
AcDbLine
 10
454.556633
 20
154.070245
 30
0.0
 11
454.556633
 21
152.570245
 31
0.0
  0
LINE
  5
5F1
100
AcDbEntity
  8
0
100
AcDbLine
 10
464.056633
 20
221.570245
 30
0.0
 11
464.056633
 21
213.070245
 31
0.0
  0
LINE
  5
5F2
100
AcDbEntity
  8
0
100
AcDbLine
 10
464.056633
 20
233.570245
 30
0.0
 11
465.556633
 21
233.570245
 31
0.0
  0
LINE
  5
5F3
100
AcDbEntity
  8
0
100
AcDbLine
 10
465.556633
 20
219.570245
 30
0.0
 11
464.056633
 21
219.570245
 31
0.0
  0
LINE
  5
5F4
100
AcDbEntity
  8
0
100
AcDbLine
 10
465.556633
 20
179.570245
 30
0.0
 11
464.056633
 21
179.570245
 31
0.0
  0
LINE
  5
5F5
100
AcDbEntity
  8
0
100
AcDbLine
 10
464.056633
 20
165.570245
 30
0.0
 11
465.556633
 21
165.570245
 31
0.0
  0
LINE
  5
5F6
100
AcDbEntity
  8
0
100
AcDbLine
 10
476.556633
 20
204.570245
 30
0.0
 11
475.056633
 21
204.570245
 31
0.0
  0
LINE
  5
5F7
100
AcDbEntity
  8
0
100
AcDbLine
 10
475.056633
 20
204.570245
 30
0.0
 11
475.056633
 21
194.570245
 31
0.0
  0
LINE
  5
5F8
100
AcDbEntity
  8
0
100
AcDbLine
 10
475.056633
 20
194.570245
 30
0.0
 11
476.556633
 21
194.570245
 31
0.0
  0
LINE
  5
5F9
100
AcDbEntity
  8
0
100
AcDbLine
 10
476.556633
 20
192.570245
 30
0.0
 11
476.556633
 21
206.570245
 31
0.0
  0
LINE
  5
5FA
100
AcDbEntity
  8
0
100
AcDbLine
 10
476.556633
 20
206.570245
 30
0.0
 11
469.556633
 21
206.570245
 31
0.0
  0
LINE
  5
5FB
100
AcDbEntity
  8
0
100
AcDbLine
 10
469.556633
 20
206.570245
 30
0.0
 11
469.556633
 21
192.570245
 31
0.0
  0
LINE
  5
5FC
100
AcDbEntity
  8
0
100
AcDbLine
 10
469.556633
 20
192.570245
 30
0.0
 11
476.556633
 21
192.570245
 31
0.0
  0
LINE
  5
5FD
100
AcDbEntity
  8
0
100
AcDbLine
 10
454.956633
 20
228.570245
 30
0.0
 11
454.956633
 21
224.570245
 31
0.0
  0
LINE
  5
5FE
100
AcDbEntity
  8
0
100
AcDbLine
 10
454.956633
 20
228.570245
 30
0.0
 11
457.956633
 21
231.570245
 31
0.0
  0
LINE
  5
5FF
100
AcDbEntity
  8
0
100
AcDbLine
 10
454.956633
 20
224.570245
 30
0.0
 11
457.956633
 21
221.570245
 31
0.0
  0
LINE
  5
600
100
AcDbEntity
  8
0
100
AcDbLine
 10
454.956633
 20
174.570245
 30
0.0
 11
454.956633
 21
170.570245
 31
0.0
  0
LINE
  5
601
100
AcDbEntity
  8
0
100
AcDbLine
 10
454.956633
 20
174.570245
 30
0.0
 11
457.956633
 21
177.570245
 31
0.0
  0
LINE
  5
602
100
AcDbEntity
  8
0
100
AcDbLine
 10
454.956633
 20
170.570245
 30
0.0
 11
457.956633
 21
167.570245
 31
0.0
  0
LINE
  5
603
100
AcDbEntity
  8
0
100
AcDbLine
 10
464.056633
 20
193.070245
 30
0.0
 11
465.556633
 21
193.070245
 31
0.0
  0
LINE
  5
604
100
AcDbEntity
  8
0
100
AcDbLine
 10
464.056633
 20
190.570245
 30
0.0
 11
465.556633
 21
190.570245
 31
0.0
  0
LINE
  5
605
100
AcDbEntity
  8
0
100
AcDbLine
 10
465.556633
 20
206.070245
 30
0.0
 11
464.056633
 21
206.070245
 31
0.0
  0
LINE
  5
606
100
AcDbEntity
  8
0
100
AcDbLine
 10
465.556633
 20
208.570245
 30
0.0
 11
464.056633
 21
208.570245
 31
0.0
  0
LINE
  5
607
100
AcDbEntity
  8
0
100
AcDbLine
 10
462.556633
 20
216.570245
 30
0.0
 11
462.556633
 21
206.570245
 31
0.0
  0
LINE
  5
608
100
AcDbEntity
  8
0
100
AcDbLine
 10
462.556633
 20
206.570245
 30
0.0
 11
464.056633
 21
206.570245
 31
0.0
  0
LINE
  5
609
100
AcDbEntity
  8
0
100
AcDbLine
 10
462.556633
 20
216.570245
 30
0.0
 11
464.056633
 21
216.570245
 31
0.0
  0
LINE
  5
60A
100
AcDbEntity
  8
0
100
AcDbLine
 10
462.556633
 20
210.070245
 30
0.0
 11
487.156633
 21
210.070245
 31
0.0
  0
LINE
  5
60B
100
AcDbEntity
  8
0
100
AcDbLine
 10
488.156633
 20
211.070245
 30
0.0
 11
488.156633
 21
212.070245
 31
0.0
  0
LINE
  5
60C
100
AcDbEntity
  8
0
100
AcDbLine
 10
487.156633
 20
213.070245
 30
0.0
 11
462.556633
 21
213.070245
 31
0.0
  0
LINE
  5
60D
100
AcDbEntity
  8
0
100
AcDbLine
 10
462.556633
 20
208.570245
 30
0.0
 11
464.056633
 21
208.570245
 31
0.0
  0
LINE
  5
60E
100
AcDbEntity
  8
0
100
AcDbLine
 10
462.556633
 20
214.570245
 30
0.0
 11
464.056633
 21
214.570245
 31
0.0
  0
LINE
  5
60F
100
AcDbEntity
  8
0
100
AcDbLine
 10
226.556633
 20
184.570245
 30
0.0
 11
225.056633
 21
184.570245
 31
0.0
  0
LINE
  5
610
100
AcDbEntity
  8
0
100
AcDbLine
 10
226.556633
 20
190.570245
 30
0.0
 11
225.056633
 21
190.570245
 31
0.0
  0
LINE
  5
611
100
AcDbEntity
  8
0
100
AcDbLine
 10
201.956633
 20
186.070245
 30
0.0
 11
226.556633
 21
186.070245
 31
0.0
  0
LINE
  5
612
100
AcDbEntity
  8
0
100
AcDbLine
 10
200.956633
 20
188.070245
 30
0.0
 11
200.956633
 21
187.070245
 31
0.0
  0
LINE
  5
613
100
AcDbEntity
  8
0
100
AcDbLine
 10
226.556633
 20
189.070245
 30
0.0
 11
201.956633
 21
189.070245
 31
0.0
  0
LINE
  5
614
100
AcDbEntity
  8
0
100
AcDbLine
 10
226.556633
 20
182.570245
 30
0.0
 11
225.056633
 21
182.570245
 31
0.0
  0
LINE
  5
615
100
AcDbEntity
  8
0
100
AcDbLine
 10
226.556633
 20
192.570245
 30
0.0
 11
225.056633
 21
192.570245
 31
0.0
  0
LINE
  5
616
100
AcDbEntity
  8
0
100
AcDbLine
 10
226.556633
 20
182.570245
 30
0.0
 11
226.556633
 21
192.570245
 31
0.0
  0
LINE
  5
617
100
AcDbEntity
  8
0
100
AcDbLine
 10
465.556633
 20
213.070245
 30
0.0
 11
465.556633
 21
246.570245
 31
0.0
  0
LINE
  5
618
100
AcDbEntity
  8
0
100
AcDbLine
 10
464.056633
 20
210.070245
 30
0.0
 11
464.056633
 21
177.570245
 31
0.0
  0
LINE
  5
619
100
AcDbEntity
  8
0
100
AcDbLine
 10
223.556633
 20
186.070245
 30
0.0
 11
223.556633
 21
152.570245
 31
0.0
  0
LINE
  5
61A
100
AcDbEntity
  8
0
100
AcDbLine
 10
225.056633
 20
177.570245
 30
0.0
 11
225.056633
 21
186.070245
 31
0.0
  0
LINE
  5
61B
100
AcDbEntity
  8
0
100
AcDbLine
 10
225.056633
 20
189.070245
 30
0.0
 11
225.056633
 21
221.570245
 31
0.0
  0
LINE
  5
61C
100
AcDbEntity
  8
0
100
AcDbLine
 10
461.256633
 20
214.60651
 30
0.0
 11
462.556633
 21
214.720245
 31
0.0
  0
LINE
  5
61D
100
AcDbEntity
  8
0
100
AcDbLine
 10
461.256633
 20
208.533981
 30
0.0
 11
462.556633
 21
208.420245
 31
0.0
  0
LINE
  5
61E
100
AcDbEntity
  8
0
100
AcDbLine
 10
227.856633
 20
184.533981
 30
0.0
 11
226.556633
 21
184.420245
 31
0.0
  0
LINE
  5
61F
100
AcDbEntity
  8
0
100
AcDbLine
 10
227.856633
 20
190.60651
 30
0.0
 11
226.556633
 21
190.720245
 31
0.0
  0
LINE
  5
620
100
AcDbEntity
  8
CENTER
100
AcDbLine
 10
468.056633
 20
232.907745
 30
0.0
 11
475.056633
 21
232.907745
 31
0.0
  0
LINE
  5
621
100
AcDbEntity
  8
CENTER
100
AcDbLine
 10
471.556633
 20
236.407745
 30
0.0
 11
471.556633
 21
229.407745
 31
0.0
  0
LINE
  5
622
100
AcDbEntity
  8
CENTER
100
AcDbLine
 10
456.956633
 20
226.570245
 30
0.0
 11
462.956633
 21
226.570245
 31
0.0
  0
LINE
  5
623
100
AcDbEntity
  8
CENTER
100
AcDbLine
 10
459.956633
 20
229.570245
 30
0.0
 11
459.956633
 21
223.570245
 31
0.0
  0
LINE
  5
624
100
AcDbEntity
  8
CENTER
100
AcDbLine
 10
456.956633
 20
172.570245
 30
0.0
 11
462.956633
 21
172.570245
 31
0.0
  0
LINE
  5
625
100
AcDbEntity
  8
CENTER
100
AcDbLine
 10
459.956633
 20
175.570245
 30
0.0
 11
459.956633
 21
169.570245
 31
0.0
  0
LINE
  5
626
100
AcDbEntity
  8
CENTER
100
AcDbLine
 10
471.556633
 20
169.732745
 30
0.0
 11
471.556633
 21
162.732745
 31
0.0
  0
LINE
  5
627
100
AcDbEntity
  8
CENTER
100
AcDbLine
 10
475.056633
 20
166.232745
 30
0.0
 11
468.056633
 21
166.232745
 31
0.0
  0
LINE
  5
628
100
AcDbEntity
  8
CENTER
100
AcDbLine
 10
214.056633
 20
166.232745
 30
0.0
 11
221.056633
 21
166.232745
 31
0.0
  0
LINE
  5
629
100
AcDbEntity
  8
CENTER
100
AcDbLine
 10
217.556633
 20
169.732745
 30
0.0
 11
217.556633
 21
162.732745
 31
0.0
  0
LINE
  5
62A
100
AcDbEntity
  8
CENTER
100
AcDbLine
 10
229.156633
 20
175.570245
 30
0.0
 11
229.156633
 21
169.570245
 31
0.0
  0
LINE
  5
62B
100
AcDbEntity
  8
CENTER
100
AcDbLine
 10
232.156633
 20
172.570245
 30
0.0
 11
226.156633
 21
172.570245
 31
0.0
  0
LINE
  5
62C
100
AcDbEntity
  8
CENTER
100
AcDbLine
 10
229.156633
 20
229.570245
 30
0.0
 11
229.156633
 21
223.570245
 31
0.0
  0
LINE
  5
62D
100
AcDbEntity
  8
CENTER
100
AcDbLine
 10
232.156633
 20
226.570245
 30
0.0
 11
226.156633
 21
226.570245
 31
0.0
  0
LINE
  5
62E
100
AcDbEntity
  8
CENTER
100
AcDbLine
 10
217.556633
 20
236.407745
 30
0.0
 11
217.556633
 21
229.407745
 31
0.0
  0
LINE
  5
62F
100
AcDbEntity
  8
CENTER
100
AcDbLine
 10
221.056633
 20
232.907745
 30
0.0
 11
214.056633
 21
232.907745
 31
0.0
  0
LINE
  5
630
100
AcDbEntity
  8
CENTER
100
AcDbLine
 10
472.350383
 20
230.851495
 30
0.0
 11
472.350383
 21
223.851495
 31
0.0
  0
LINE
  5
631
100
AcDbEntity
  8
CENTER
100
AcDbLine
 10
468.850383
 20
227.351495
 30
0.0
 11
475.850383
 21
227.351495
 31
0.0
  0
LINE
  5
632
100
AcDbEntity
  8
CENTER
100
AcDbLine
 10
475.850383
 20
171.788995
 30
0.0
 11
468.850383
 21
171.788995
 31
0.0
  0
LINE
  5
633
100
AcDbEntity
  8
CENTER
100
AcDbLine
 10
472.350383
 20
175.288995
 30
0.0
 11
472.350383
 21
168.288995
 31
0.0
  0
LINE
  5
634
100
AcDbEntity
  8
CENTER
100
AcDbLine
 10
216.762883
 20
175.288995
 30
0.0
 11
216.762883
 21
168.288995
 31
0.0
  0
LINE
  5
635
100
AcDbEntity
  8
CENTER
100
AcDbLine
 10
213.262883
 20
171.788995
 30
0.0
 11
220.262883
 21
171.788995
 31
0.0
  0
LINE
  5
636
100
AcDbEntity
  8
CENTER
100
AcDbLine
 10
220.262883
 20
227.351495
 30
0.0
 11
213.262883
 21
227.351495
 31
0.0
  0
LINE
  5
637
100
AcDbEntity
  8
CENTER
100
AcDbLine
 10
216.762883
 20
230.851495
 30
0.0
 11
216.762883
 21
223.851495
 31
0.0
  0
DIMENSION
  5
638
100
AcDbEntity
  8
SCALE
100
AcDbDimension
  2
*D25
 10
488.156633
 20
77.344148
 30
0.0
 11
344.556633
 21
88.344148
 31
0.0
 12
-958.708293
 22
-342.355731
 32
0.0
  1
287.2
  3
STANDARD
100
AcDbAlignedDimension
 13
200.956633
 23
140.570245
 33
0.0
 14
488.156633
 24
140.570245
 34
0.0
100
AcDbRotatedDimension
  0
DIMENSION
  5
639
100
AcDbEntity
  8
SCALE
100
AcDbDimension
  2
*D24
 10
259.967958
 20
172.570245
 30
0.0
 11
248.967958
 21
199.570245
 31
0.0
 12
-958.708293
 22
-342.355731
 32
0.0
  1
54
  3
STANDARD
100
AcDbAlignedDimension
 13
232.156633
 23
226.570245
 33
0.0
 14
232.156633
 24
172.570245
 34
0.0
 50
90.0
100
AcDbRotatedDimension
  0
DIMENSION
  5
63A
100
AcDbEntity
  8
SCALE
100
AcDbDimension
  2
*D23
 10
524.682346
 20
171.788995
 30
0.0
 11
513.682346
 21
199.570245
 31
0.0
 12
-958.708293
 22
-342.355731
 32
0.0
  1
55.6
  3
STANDARD
100
AcDbAlignedDimension
 13
475.850383
 23
227.351495
 33
0.0
 14
475.850383
 24
171.788995
 34
0.0
 50
90.0
100
AcDbRotatedDimension
  0
DIMENSION
  5
63B
100
AcDbEntity
  8
SCALE
100
AcDbDimension
  2
*D22
 10
564.86582
 20
166.232745
 30
0.0
 11
553.86582
 21
199.570245
 31
0.0
 12
-958.708293
 22
-342.355731
 32
0.0
  1
66.7
  3
STANDARD
100
AcDbAlignedDimension
 13
475.056633
 23
232.907745
 33
0.0
 14
475.056633
 24
166.232745
 34
0.0
 50
90.0
100
AcDbRotatedDimension
  0
DIMENSION
  5
63C
100
AcDbEntity
  8
SCALE
100
AcDbDimension
  2
*D21
 10
629.872533
 20
260.570245
 30
0.0
 11
618.872533
 21
199.570245
 31
0.0
 12
-958.708293
 22
-342.355731
 32
0.0
  1
122
  3
STANDARD
100
AcDbAlignedDimension
 13
486.156633
 23
138.570245
 33
0.0
 14
486.156633
 24
260.570245
 34
0.0
 50
90.0
100
AcDbRotatedDimension
  0
INSERT
  5
63D
100
AcDbEntity
  8
SCALE
100
AcDbBlockReference
  2
YAZ3
 10
215.844512
 20
234.729459
 30
0.0
 41
7.5
 42
7.5
 43
7.5
 50
317.040644
  0
LINE
  5
63E
100
AcDbEntity
  8
SCALE
100
AcDbLine
 10
210.355732
 20
239.840555
 30
0.0
 11
186.853661
 21
261.725442
 31
0.0
  0
LINE
  5
63F
100
AcDbEntity
  8
SCALE
100
AcDbLine
 10
216.762883
 20
168.288995
 30
0.0
 11
187.995128
 21
89.250238
 31
0.0
  0
LINE
  5
640
100
AcDbEntity
  8
SCALE
100
AcDbLine
 10
472.350383
 20
168.288995
 30
0.0
 11
443.582628
 21
89.250238
 31
0.0
  0
DIMENSION
  5
641
100
AcDbEntity
  8
SCALE
100
AcDbDimension
  2
*D20
 10
446.312405
 20
96.750238
 30
0.0
 11
318.518655
 21
107.750238
 31
0.0
 12
-958.708293
 22
-342.355731
 32
0.0
  1
255.6(10  ")
  3
STANDARD
100
AcDbAlignedDimension
 13
190.724905
 23
96.750238
 33
0.0
 14
446.312405
 24
96.750238
 34
0.0
100
AcDbRotatedDimension
  0
LINE
  5
642
100
AcDbEntity
  8
CENTER
100
AcDbLine
 10
222.556633
 20
256.070245
 30
0.0
 11
222.556633
 21
249.070245
 31
0.0
  0
LINE
  5
643
100
AcDbEntity
  8
CENTER
100
AcDbLine
 10
226.056633
 20
252.570245
 30
0.0
 11
219.056633
 21
252.570245
 31
0.0
  0
LINE
  5
644
100
AcDbEntity
  8
CENTER
100
AcDbLine
 10
470.056633
 20
252.570245
 30
0.0
 11
463.056633
 21
252.570245
 31
0.0
  0
LINE
  5
645
100
AcDbEntity
  8
CENTER
100
AcDbLine
 10
466.556633
 20
256.070245
 30
0.0
 11
466.556633
 21
249.070245
 31
0.0
  0
LINE
  5
646
100
AcDbEntity
  8
CENTER
100
AcDbLine
 10
470.056633
 20
146.570245
 30
0.0
 11
463.056633
 21
146.570245
 31
0.0
  0
LINE
  5
647
100
AcDbEntity
  8
CENTER
100
AcDbLine
 10
466.556633
 20
150.070245
 30
0.0
 11
466.556633
 21
143.070245
 31
0.0
  0
LINE
  5
648
100
AcDbEntity
  8
CENTER
100
AcDbLine
 10
226.056633
 20
146.570245
 30
0.0
 11
219.056633
 21
146.570245
 31
0.0
  0
LINE
  5
649
100
AcDbEntity
  8
CENTER
100
AcDbLine
 10
222.556633
 20
150.070245
 30
0.0
 11
222.556633
 21
143.070245
 31
0.0
  0
DIMENSION
  5
64A
100
AcDbEntity
  8
SCALE
100
AcDbDimension
  2
*D19
 10
466.556633
 20
117.940472
 30
0.0
 11
344.556633
 21
128.940472
 31
0.0
 12
-958.708293
 22
-342.355731
 32
0.0
  1
244
  3
STANDARD
100
AcDbAlignedDimension
 13
222.556633
 23
143.070245
 33
0.0
 14
466.556633
 24
143.070245
 34
0.0
100
AcDbRotatedDimension
  0
DIMENSION
  5
64B
100
AcDbEntity
  8
SCALE
100
AcDbDimension
  2
*D18
 10
459.956633
 20
265.780458
 30
0.0
 11
344.556633
 21
276.780458
 31
0.0
 12
-958.708293
 22
-342.355731
 32
0.0
  1
230.8
  3
STANDARD
100
AcDbAlignedDimension
 13
229.156633
 23
229.570245
 33
0.0
 14
459.956633
 24
229.570245
 34
0.0
100
AcDbRotatedDimension
  0
LINE
  5
64C
100
AcDbEntity
  8
SCALE
100
AcDbLine
 10
11.023174
 20
159.290986
 30
0.0
 11
186.980163
 21
159.290986
 31
0.0
  0
TEXT
  5
64D
100
AcDbEntity
  8
SCALE
100
AcDbText
 10
13.286066
 20
166.78738
 30
0.0
 40
11.0
  1
mounting hole 4-%%C5
  7
UT7
100
AcDbText
  0
TEXT
  5
64E
100
AcDbEntity
  8
SCALE
100
AcDbText
 10
12.806059
 20
182.581134
 30
0.0
 40
11.0
  1
Switch box
100
AcDbText
  0
INSERT
  5
64F
100
AcDbEntity
  8
SCALE
100
AcDbBlockReference
  2
YAZ3
 10
214.691535
 20
225.951668
 30
0.0
 41
7.5
 42
7.5
 43
7.5
 50
40.122317
  0
LINE
  5
650
100
AcDbEntity
  8
SCALE
100
AcDbLine
 10
208.956507
 20
221.118507
 30
0.0
 11
186.980163
 21
202.598072
 31
0.0
  0
INSERT
  5
651
100
AcDbEntity
  8
SCALE
100
AcDbBlockReference
  2
YAZ3
 10
220.487638
 20
147.973548
 30
0.0
 41
7.5
 42
7.5
 43
7.5
 50
341.337162
  0
LINE
  5
652
100
AcDbEntity
  8
SCALE
100
AcDbLine
 10
213.382003
 20
150.373538
 30
0.0
 11
186.980163
 21
159.290986
 31
0.0
  0
TEXT
  5
653
100
AcDbEntity
  8
SCALE
  6
CONTINUOUS
100
AcDbText
 10
582.413439
 20
174.951198
 30
0.0
 40
11.0
  1
(2  ")
 50
90.0
 72
     4
 11
575.86582
 21
199.570245
 31
0.0
100
AcDbText
  0
TEXT
  5
654
100
AcDbEntity
  8
SCALE
  6
CONTINUOUS
100
AcDbText
 10
542.229965
 20
174.951198
 30
0.0
 40
11.0
  1
(2  ")
 50
90.0
 72
     4
 11
535.682346
 21
199.570245
 31
0.0
100
AcDbText
  0
LINE
  5
655
100
AcDbEntity
  8
SCALE
100
AcDbLine
 10
217.556633
 20
236.407745
 30
0.0
 11
202.411845
 21
292.928865
 31
0.0
  0
LINE
  5
656
100
AcDbEntity
  8
SCALE
100
AcDbLine
 10
471.556633
 20
236.407745
 30
0.0
 11
456.411845
 21
292.928865
 31
0.0
  0
DIMENSION
  5
657
100
AcDbEntity
  8
SCALE
100
AcDbDimension
  2
*D17
 10
458.421464
 20
285.428865
 30
0.0
 11
331.421464
 21
296.428865
 31
0.0
 12
-958.708293
 22
-342.355731
 32
0.0
  1
254(10")
  3
STANDARD
100
AcDbAlignedDimension
 13
204.421464
 23
285.428865
 33
0.0
 14
458.421464
 24
285.428865
 34
0.0
100
AcDbRotatedDimension
  0
DIMENSION
  5
658
100
AcDbEntity
  8
SCALE
100
AcDbDimension
  2
*D16
 10
607.380759
 20
146.570245
 30
0.0
 11
596.380759
 21
199.570245
 31
0.0
 12
-958.708293
 22
-342.355731
 32
0.0
  1
106
  3
STANDARD
100
AcDbAlignedDimension
 13
470.056633
 23
252.570245
 33
0.0
 14
470.056633
 24
146.570245
 34
0.0
 50
90.0
100
AcDbRotatedDimension
  0
TEXT
  5
659
100
AcDbEntity
  8
SCALE
100
AcDbText
 10
1139.448978
 20
413.65073
 30
0.0
 40
3.3
  1
  
 72
     4
 11
1142.434692
 21
413.65073
 31
0.0
100
AcDbText
  0
TEXT
  5
65A
100
AcDbEntity
  8
SCALE
100
AcDbText
 10
340.857561
 20
106.950238
 30
0.0
 40
6.6
  1
1   
 72
     4
 11
352.328989
 21
110.250238
 31
0.0
100
AcDbText
  0
TEXT
  5
65B
100
AcDbEntity
  8
SCALE
100
AcDbText
 10
344.628989
 20
101.950238
 30
0.0
 40
6.6
  1
 10
 72
     4
 11
352.328989
 21
105.250238
 31
0.0
100
AcDbText
  0
LINE
  5
65C
100
AcDbEntity
  8
SCALE
100
AcDbLine
 10
350.614677
 20
113.669569
 30
0.0
 11
342.454552
 21
101.793692
 31
0.0
  0
LINE
  5
65D
100
AcDbEntity
  8
SCALE
100
AcDbLine
 10
529.763014
 20
203.927911
 30
0.0
 11
541.638891
 21
195.767785
 31
0.0
  0
TEXT
  5
65E
100
AcDbEntity
  8
SCALE
100
AcDbText
 10
541.482346
 20
198.099366
 30
0.0
 40
6.6
  1
 16
 50
90.0
 72
     4
 11
538.182346
 21
205.642223
 31
0.0
100
AcDbText
  0
TEXT
  5
65F
100
AcDbEntity
  8
SCALE
100
AcDbText
 10
536.482346
 20
193.542223
 30
0.0
 40
6.6
  1
3   
 50
90.0
 72
     4
 11
533.182346
 21
205.642223
 31
0.0
100
AcDbText
  0
TEXT
  5
660
100
AcDbEntity
  8
SCALE
100
AcDbText
 10
576.66582
 20
193.542223
 30
0.0
 40
6.6
  1
5   
 50
90.0
 72
     4
 11
573.36582
 21
205.642223
 31
0.0
100
AcDbText
  0
TEXT
  5
661
100
AcDbEntity
  8
SCALE
100
AcDbText
 10
581.66582
 20
203.442223
 30
0.0
 40
6.6
  1
8
 50
90.0
 72
     4
 11
578.36582
 21
205.642223
 31
0.0
100
AcDbText
  0
LINE
  5
662
100
AcDbEntity
  8
SCALE
100
AcDbLine
 10
569.946488
 20
203.927911
 30
0.0
 11
581.822366
 21
195.767785
 31
0.0
  0
ENDSEC
  0
SECTION
  2
OBJECTS
  0
DICTIONARY
  5
7D0
100
AcDbDictionary
  3
ACAD_GROUP
350
7D1
  3
ACAD_MLINESTYLE
350
7D2
  0
DICTIONARY
  5
7D1
102
{ACAD_REACTORS
330
7D0
102
}
100
AcDbDictionary
  0
DICTIONARY
  5
7D2
102
{ACAD_REACTORS
330
7D0
102
}
100
AcDbDictionary
  3
STANDARD
350
7D3
  0
MLINESTYLE
  5
7D3
102
{ACAD_REACTORS
330
7D2
102
}
100
AcDbMlineStyle
  2
STANDARD
 70
     0
  3

 62
     0
 51
90.0
 52
90.0
 71
     2
 49
0.5
 62
   256
  6
BYLAYER
 49
-0.5
 62
   256
  6
BYLAYER
  0
ENDSEC
  0
EOF
