  0
SECTION
  2
HEADER
  9
$ACADVER
  1
AC1014
  9
$ACADMAINTVER
 70
     0
  9
$DWGCODEPAGE
  3
ANSI_1252
  9
$INSBASE
 10
0.0
 20
0.0
 30
0.0
  9
$EXTMIN
 10
13.673802
 20
18.382154
 30
0.0
  9
$EXTMAX
 10
317.464767
 20
187.252274
 30
0.0
  9
$LIMMIN
 10
0.0
 20
0.0
  9
$LIMMAX
 10
198.0
 20
285.0
  9
$ORTHOMODE
 70
     1
  9
$REGENMODE
 70
     0
  9
$FILLMODE
 70
     1
  9
$QTEXTMODE
 70
     0
  9
$MIRRTEXT
 70
     0
  9
$DRAGMODE
 70
     2
  9
$LTSCALE
 40
16.0
  9
$OSMODE
 70
     0
  9
$ATTMODE
 70
     1
  9
$TEXTSIZE
 40
4.5
  9
$TRACEWID
 40
0.05
  9
$TEXTSTYLE
  7
STANDARD
  9
$CLAYER
  8
SCALE
  9
$CELTYPE
  6
BYLAYER
  9
$CECOLOR
 62
   256
  9
$CELTSCALE
 40
1.0
  9
$DELOBJ
 70
     1
  9
$DISPSILH
 70
     0
  9
$DIMSCALE
 40
2.0
  9
$DIMASZ
 40
1.5
  9
$DIMEXO
 40
2.0
  9
$DIMDLI
 40
10.0
  9
$DIMRND
 40
0.0
  9
$DIMDLE
 40
0.0
  9
$DIMEXE
 40
1.5
  9
$DIMTP
 40
0.0
  9
$DIMTM
 40
0.0
  9
$DIMTXT
 40
2.2
  9
$DIMCEN
 40
0.09
  9
$DIMTSZ
 40
0.0
  9
$DIMTOL
 70
     0
  9
$DIMLIM
 70
     0
  9
$DIMTIH
 70
     0
  9
$DIMTOH
 70
     0
  9
$DIMSE1
 70
     0
  9
$DIMSE2
 70
     0
  9
$DIMTAD
 70
     0
  9
$DIMZIN
 70
     0
  9
$DIMBLK
  1

  9
$DIMASO
 70
     1
  9
$DIMSHO
 70
     0
  9
$DIMPOST
  1

  9
$DIMAPOST
  1

  9
$DIMALT
 70
     0
  9
$DIMALTD
 70
     2
  9
$DIMALTF
 40
25.4
  9
$DIMLFAC
 40
1.0
  9
$DIMTOFL
 70
     1
  9
$DIMTVP
 40
1.0
  9
$DIMTIX
 70
     0
  9
$DIMSOXD
 70
     0
  9
$DIMSAH
 70
     0
  9
$DIMBLK1
  1

  9
$DIMBLK2
  1

  9
$DIMSTYLE
  2
STANDARD
  9
$DIMCLRD
 70
     0
  9
$DIMCLRE
 70
     0
  9
$DIMCLRT
 70
     0
  9
$DIMTFAC
 40
1.0
  9
$DIMGAP
 40
0.09
  9
$DIMJUST
 70
     0
  9
$DIMSD1
 70
     0
  9
$DIMSD2
 70
     0
  9
$DIMTOLJ
 70
     1
  9
$DIMTZIN
 70
     0
  9
$DIMALTZ
 70
     0
  9
$DIMALTTZ
 70
     0
  9
$DIMFIT
 70
     3
  9
$DIMUPT
 70
     0
  9
$DIMUNIT
 70
     2
  9
$DIMDEC
 70
     4
  9
$DIMTDEC
 70
     4
  9
$DIMALTU
 70
     2
  9
$DIMALTTD
 70
     2
  9
$DIMTXSTY
  7
STANDARD
  9
$DIMAUNIT
 70
     0
  9
$LUNITS
 70
     2
  9
$LUPREC
 70
     3
  9
$SKETCHINC
 40
0.1
  9
$FILLETRAD
 40
0.0
  9
$AUNITS
 70
     0
  9
$AUPREC
 70
     0
  9
$MENU
  1
AMECEX
  9
$ELEVATION
 40
0.0
  9
$PELEVATION
 40
0.0
  9
$THICKNESS
 40
0.0
  9
$LIMCHECK
 70
     0
  9
$BLIPMODE
 70
     0
  9
$CHAMFERA
 40
0.0
  9
$CHAMFERB
 40
0.0
  9
$CHAMFERC
 40
0.0
  9
$CHAMFERD
 40
0.0
  9
$SKPOLY
 70
     0
  9
$TDCREATE
 40
2453039.677501505
  9
$TDUPDATE
 40
2453153.525798611
  9
$TDINDWG
 40
0.0004629514
  9
$TDUSRTIMER
 40
0.0004629514
  9
$USRTIMER
 70
     1
  9
$ANGBASE
 50
0.0
  9
$ANGDIR
 70
     0
  9
$PDMODE
 70
     0
  9
$PDSIZE
 40
0.0
  9
$PLINEWID
 40
0.0
  9
$COORDS
 70
     2
  9
$SPLFRAME
 70
     0
  9
$SPLINETYPE
 70
     6
  9
$SPLINESEGS
 70
     8
  9
$ATTDIA
 70
     0
  9
$ATTREQ
 70
     1
  9
$HANDLING
 70
     1
  9
$HANDSEED
  5
ADD
  9
$SURFTAB1
 70
     6
  9
$SURFTAB2
 70
     6
  9
$SURFTYPE
 70
     6
  9
$SURFU
 70
     6
  9
$SURFV
 70
     6
  9
$UCSNAME
  2

  9
$UCSORG
 10
0.0
 20
0.0
 30
0.0
  9
$UCSXDIR
 10
1.0
 20
0.0
 30
0.0
  9
$UCSYDIR
 10
0.0
 20
1.0
 30
0.0
  9
$PUCSNAME
  2

  9
$PUCSORG
 10
0.0
 20
0.0
 30
0.0
  9
$PUCSXDIR
 10
1.0
 20
0.0
 30
0.0
  9
$PUCSYDIR
 10
0.0
 20
1.0
 30
0.0
  9
$USERI1
 70
     0
  9
$USERI2
 70
     0
  9
$USERI3
 70
     0
  9
$USERI4
 70
     0
  9
$USERI5
 70
     0
  9
$USERR1
 40
30.0
  9
$USERR2
 40
0.0
  9
$USERR3
 40
0.0
  9
$USERR4
 40
0.0
  9
$USERR5
 40
0.0
  9
$WORLDVIEW
 70
     1
  9
$SHADEDGE
 70
     3
  9
$SHADEDIF
 70
    70
  9
$TILEMODE
 70
     1
  9
$MAXACTVP
 70
    16
  9
$PINSBASE
 10
0.0
 20
0.0
 30
0.0
  9
$PLIMCHECK
 70
     0
  9
$PEXTMIN
 10
1.000000E+20
 20
1.000000E+20
 30
1.000000E+20
  9
$PEXTMAX
 10
-1.000000E+20
 20
-1.000000E+20
 30
-1.000000E+20
  9
$PLIMMIN
 10
0.0
 20
0.0
  9
$PLIMMAX
 10
12.0
 20
9.0
  9
$UNITMODE
 70
     0
  9
$VISRETAIN
 70
     0
  9
$PLINEGEN
 70
     0
  9
$PSLTSCALE
 70
     0
  9
$TREEDEPTH
 70
  3020
  9
$PICKSTYLE
 70
     1
  9
$CMLSTYLE
  2
Standard
  9
$CMLJUST
 70
     0
  9
$CMLSCALE
 40
1.0
  9
$PROXYGRAPHICS
 70
     0
  9
$MEASUREMENT
 70
     0
  0
ENDSEC
  0
SECTION
  2
CLASSES
  0
CLASS
  1
LWPOLYLINE
  2
AcDbPolyline
  3
"AutoCAD"
 90
        0
280
     0
281
     1
  0
CLASS
  1
IMAGE
  2
AcDbRasterImage
  3
ISM
 90
      127
280
     0
281
     1
  0
CLASS
  1
OLE2FRAME
  2
AcDbOle2Frame
  3
""
 90
        0
280
     0
281
     1
  0
CLASS
  1
HATCH
  2
AcDbHatch
  3
"ACAD_SEDONA"
 90
        0
280
     0
281
     1
  0
CLASS
  1
DICTIONARYVAR
  2
AcDbDictionaryVar
  3
"AutoCAD"
 90
        0
280
     0
281
     0
  0
CLASS
  1
RASTERVARIABLES
  2
AcDbRasterVariables
  3
ISM
 90
        0
280
     0
281
     0
  0
CLASS
  1
IMAGEDEF
  2
AcDbRasterImageDef
  3
ISM
 90
        0
280
     0
281
     0
  0
CLASS
  1
IMAGEDEF_REACTOR
  2
AcDbRasterImageDefReactor
  3
ISM
 90
        1
280
     0
281
     0
  0
CLASS
  1
IDBUFFER
  2
AcDbIdBuffer
  3
"Acad"
 90
        0
280
     0
281
     0
  0
CLASS
  1
SPATIAL_FILTER
  2
AcDbSpatialFilter
  3
"Acad"
 90
        0
280
     0
281
     0
  0
CLASS
  1
XRECORD
  2
AcDbXrecord
  3
"<Built In>"
 90
        0
280
     0
281
     0
  0
CLASS
  1
SORTENTSTABLE
  2
AcDbSortentsTable
  3
"AutoCAD"
 90
        0
280
     0
281
     0
  0
CLASS
  1
LAYER_INDEX
  2
AcDbLayerIndex
  3
"Acad"
 90
        0
280
     0
281
     0
  0
CLASS
  1
SPATIAL_INDEX
  2
AcDbSpatialIndex
  3
"Acad"
 90
        0
280
     0
281
     0
  0
CLASS
  1
OBJECT_PTR
  2
CAseDLPNTableRecord
  3
"ASE-LPNTableRecord"
 90
        1
280
     0
281
     0
  0
CLASS
  1
LAYOUT
  2
AcDbLayout
  3
"AutoCAD 2000"
 90
        1
280
     0
281
     0
  0
CLASS
  1
PLOTSETTINGS
  2
AcDbPlotSettings
  3
"AutoCAD 2000"
 90
        1
280
     0
281
     0
  0
CLASS
  1
ACDBDICTIONARYWDFLT
  2
AcDbDictionaryWithDefault
  3
"AutoCAD 2000"
 90
        1
280
     0
281
     0
  0
CLASS
  1
ACDBPLACEHOLDER
  2
AcDbPlaceHolder
  3
"AutoCAD 2000"
 90
        1
280
     0
281
     0
  0
CLASS
  1
VBA_PROJECT
  2
AcDbVbaProject
  3
"acadvba"
 90
        1
280
     0
281
     0
  0
CLASS
  1
WIPEOUT
  2
AcDbWipeout
  3
WipeOut|AutoCAD Express Tool|expresstools@autodesk.com
 90
      127
280
     0
281
     1
  0
CLASS
  1
WIPEOUTVARIABLES
  2
AcDbWipeoutVariables
  3
WipeOut|AutoCAD Express Tool|expresstools@autodesk.com
 90
        0
280
     0
281
     0
  0
CLASS
  1
RTEXT
  2
RText
  3
RText|AutoCAD Express Tool|expresstools@autodesk.com
 90
        0
280
     0
281
     1
  0
CLASS
  1
ARCALIGNEDTEXT
  2
AcDbArcAlignedText
  3
ATEXT|AutoCAD Express Tool|expresstools@autodesk.com
 90
        0
280
     0
281
     1
  0
ENDSEC
  0
SECTION
  2
TABLES
  0
TABLE
  2
VPORT
  5
A9F
100
AcDbSymbolTable
 70
     1
  0
VPORT
  5
AAF
100
AcDbSymbolTableRecord
100
AcDbViewportTableRecord
  2
*ACTIVE
 70
     0
 10
0.0
 20
0.0
 11
1.0
 21
1.0
 12
165.569285
 22
102.817214
 13
0.0
 23
0.0
 14
1.0
 24
1.0
 15
0.0
 25
0.0
 16
0.0
 26
0.0
 36
1.0
 17
0.0
 27
0.0
 37
0.0
 40
172.247523
 41
1.505038
 42
50.0
 43
0.0
 44
0.0
 50
0.0
 51
0.0
 71
     0
 72
   100
 73
     1
 74
     0
 75
     0
 76
     0
 77
     0
 78
     0
  0
ENDTAB
  0
TABLE
  2
LTYPE
  5
A9C
100
AcDbSymbolTable
 70
     3
  0
LTYPE
  5
AA5
100
AcDbSymbolTableRecord
100
AcDbLinetypeTableRecord
  2
BYBLOCK
 70
    64
  3

 72
    65
 73
     0
 40
0.0
  0
LTYPE
  5
AA6
100
AcDbSymbolTableRecord
100
AcDbLinetypeTableRecord
  2
BYLAYER
 70
    64
  3

 72
    65
 73
     0
 40
0.0
  0
LTYPE
  5
AA7
100
AcDbSymbolTableRecord
100
AcDbLinetypeTableRecord
  2
CONTINUOUS
 70
    64
  3
Solid line
 72
    65
 73
     0
 40
0.0
  0
ENDTAB
  0
TABLE
  2
LAYER
  5
A9A
100
AcDbSymbolTable
 70
     7
  0
LAYER
  5
AA8
100
AcDbSymbolTableRecord
100
AcDbLayerTableRecord
  2
0
 70
    64
 62
     7
  6
CONTINUOUS
  0
LAYER
  5
AA9
100
AcDbSymbolTableRecord
100
AcDbLayerTableRecord
  2
GAWA
 70
    64
 62
     2
  6
CONTINUOUS
  0
LAYER
  5
AAA
100
AcDbSymbolTableRecord
100
AcDbLayerTableRecord
  2
1
 70
    64
 62
     3
  6
CONTINUOUS
  0
LAYER
  5
AAB
100
AcDbSymbolTableRecord
100
AcDbLayerTableRecord
  2
SCALE
 70
     0
 62
     4
  6
CONTINUOUS
  0
LAYER
  5
AAC
100
AcDbSymbolTableRecord
100
AcDbLayerTableRecord
  2
PEN1
 70
     0
 62
     5
  6
CONTINUOUS
  0
LAYER
  5
AAD
100
AcDbSymbolTableRecord
100
AcDbLayerTableRecord
  2
SILK
 70
    64
 62
     5
  6
CONTINUOUS
  0
LAYER
  5
AAE
100
AcDbSymbolTableRecord
100
AcDbLayerTableRecord
  2
DEFPOINTS
 70
    64
 62
     7
  6
CONTINUOUS
  0
ENDTAB
  0
TABLE
  2
STYLE
  5
A9B
100
AcDbSymbolTable
 70
     4
  0
STYLE
  5
AB1
100
AcDbSymbolTableRecord
100
AcDbTextStyleTableRecord
  2
STANDARD
 70
    64
 40
0.0
 41
1.0
 50
0.0
 71
     0
 42
3.0
  3
SIMPLEX
  4

  0
STYLE
  5
AB2
100
AcDbSymbolTableRecord
100
AcDbTextStyleTableRecord
  2
CMP-SET
 70
    64
 40
0.0
 41
1.0
 50
0.0
 71
     0
 42
20.0
  3
COMPLEX
  4

  0
STYLE
  5
AB3
100
AcDbSymbolTableRecord
100
AcDbTextStyleTableRecord
  2
TOALOGO
 70
    64
 40
3.0
 41
1.0
 50
0.0
 71
     0
 42
3.0
  3
SIMPLEX
  4
SLFONT
  0
STYLE
  5
AB4
100
AcDbSymbolTableRecord
100
AcDbTextStyleTableRecord
  2
UT7
 70
    64
 40
0.0
 41
0.8
 50
0.0
 71
     0
 42
4.5
  3
TOAFONT
  4

  0
ENDTAB
  0
TABLE
  2
VIEW
  5
A9D
100
AcDbSymbolTable
 70
     0
  0
ENDTAB
  0
TABLE
  2
UCS
  5
A9E
100
AcDbSymbolTable
 70
     0
  0
ENDTAB
  0
TABLE
  2
APPID
  5
AA0
100
AcDbSymbolTable
 70
     1
  0
APPID
  5
AB0
100
AcDbSymbolTableRecord
100
AcDbRegAppTableRecord
  2
ACAD
 70
    64
  0
ENDTAB
  0
TABLE
  2
DIMSTYLE
  5
AA1
100
AcDbSymbolTable
 70
     1
  0
DIMSTYLE
105
AD1
100
AcDbSymbolTableRecord
100
AcDbDimStyleTableRecord
  2
STANDARD
 70
     0
  3

  4

  5

  6

  7

 40
1.0
 41
0.18
 42
0.0625
 43
0.38
 44
0.18
 45
0.0
 46
0.0
 47
0.0
 48
0.0
 71
     0
 72
     0
 73
     1
 74
     1
 75
     0
 76
     0
 77
     0
 78
     0
140
0.18
141
0.09
142
0.0
143
25.4
144
1.0
145
0.0
146
1.0
147
0.09
170
     0
171
     2
172
     0
173
     0
174
     0
175
     0
176
     0
177
     0
178
     0
270
     2
271
     4
272
     4
273
     2
274
     2
275
     0
280
     0
281
     0
282
     0
283
     1
284
     0
285
     0
286
     0
287
     0
288
     0
340
AB1
  0
ENDTAB
  0
TABLE
  2
BLOCK_RECORD
  5
ACC
100
AcDbSymbolTable
 70
    14
  0
BLOCK_RECORD
  5
ACA
100
AcDbSymbolTableRecord
100
AcDbBlockTableRecord
  2
*MODEL_SPACE
  0
BLOCK_RECORD
  5
ACB
100
AcDbSymbolTableRecord
100
AcDbBlockTableRecord
  2
*PAPER_SPACE
  0
BLOCK_RECORD
  5
AB5
100
AcDbSymbolTableRecord
100
AcDbBlockTableRecord
  2
LOGO8911
  0
BLOCK_RECORD
  5
AB6
100
AcDbSymbolTableRecord
100
AcDbBlockTableRecord
  2
TOA8911
  0
BLOCK_RECORD
  5
AB7
100
AcDbSymbolTableRecord
100
AcDbBlockTableRecord
  2
YAZ3
  0
BLOCK_RECORD
  5
AB8
100
AcDbSymbolTableRecord
100
AcDbBlockTableRecord
  2
YAZ1
  0
BLOCK_RECORD
  5
AB9
100
AcDbSymbolTableRecord
100
AcDbBlockTableRecord
  2
*X4
  0
BLOCK_RECORD
  5
ABA
100
AcDbSymbolTableRecord
100
AcDbBlockTableRecord
  2
*X5
  0
BLOCK_RECORD
  5
ABB
100
AcDbSymbolTableRecord
100
AcDbBlockTableRecord
  2
*X6
  0
BLOCK_RECORD
  5
ABC
100
AcDbSymbolTableRecord
100
AcDbBlockTableRecord
  2
*X7
  0
BLOCK_RECORD
  5
ABD
100
AcDbSymbolTableRecord
100
AcDbBlockTableRecord
  2
*X8
  0
BLOCK_RECORD
  5
AC0
100
AcDbSymbolTableRecord
100
AcDbBlockTableRecord
  2
*D9
  0
BLOCK_RECORD
  5
AC3
100
AcDbSymbolTableRecord
100
AcDbBlockTableRecord
  2
*D10
  0
BLOCK_RECORD
  5
AC7
100
AcDbSymbolTableRecord
100
AcDbBlockTableRecord
  2
*D11
  0
BLOCK_RECORD
  5
AC8
100
AcDbSymbolTableRecord
100
AcDbBlockTableRecord
  2
*D12
  0
BLOCK_RECORD
  5
AC9
100
AcDbSymbolTableRecord
100
AcDbBlockTableRecord
  2
*D13
  0
ENDTAB
  0
ENDSEC
  0
SECTION
  2
BLOCKS
  0
BLOCK
  5
ACD
100
AcDbEntity
  8
0
100
AcDbBlockBegin
  2
*MODEL_SPACE
 70
     0
 10
0.0
 20
0.0
 30
0.0
  3
*MODEL_SPACE
  1

  0
ENDBLK
  5
ACE
100
AcDbEntity
  8
0
100
AcDbBlockEnd
  0
BLOCK
  5
ACF
100
AcDbEntity
 67
     1
  8
0
100
AcDbBlockBegin
  2
*PAPER_SPACE
 70
     0
 10
0.0
 20
0.0
 30
0.0
  3
*PAPER_SPACE
  1

  0
ENDBLK
  5
AD0
100
AcDbEntity
 67
     1
  8
0
100
AcDbBlockEnd
  0
BLOCK
  5
32D
100
AcDbEntity
  8
0
100
AcDbBlockBegin
  2
LOGO8911
 70
    64
 10
0.0
 20
0.0
 30
0.0
  3
LOGO8911
  1

  0
TEXT
  5
32B
100
AcDbEntity
  8
0
100
AcDbText
 10
0.008136
 20
0.013361
 30
0.0
 40
11.4
  1
z
  7
TOALOGO
100
AcDbText
  0
TEXT
  5
32C
100
AcDbEntity
  8
1
100
AcDbText
 10
0.008136
 20
0.013361
 30
0.0
 40
11.4
  1
y
  7
TOALOGO
100
AcDbText
  0
ENDBLK
  5
32E
100
AcDbEntity
  8
0
100
AcDbBlockEnd
  0
BLOCK
  5
67
100
AcDbEntity
  8
0
100
AcDbBlockBegin
  2
TOA8911
 70
    64
 10
0.0
 20
0.0
 30
0.0
  3
TOA8911
  1

  0
TEXT
  5
65
100
AcDbEntity
  8
1
100
AcDbText
 10
0.051707
 20
0.1026
 30
0.0
 40
3.8475
  1
{
  7
TOALOGO
100
AcDbText
  0
ENDBLK
  5
68
100
AcDbEntity
  8
0
100
AcDbBlockEnd
  0
BLOCK
  5
92
100
AcDbEntity
  8
0
100
AcDbBlockBegin
  2
YAZ3
 70
    64
 10
0.0
 20
0.0
 30
0.0
  3
YAZ3
  1

  0
INSERT
  5
80
100
AcDbEntity
  8
0
100
AcDbBlockReference
  2
YAZ1
 10
0.0
 20
0.0
 30
0.0
  0
LINE
  5
87
100
AcDbEntity
  8
0
100
AcDbLine
 10
-0.999365
 20
0.04706
 30
0.0
 11
-0.175629
 21
0.04706
 31
0.0
  0
LINE
  5
88
100
AcDbEntity
  8
0
100
AcDbLine
 10
-0.999365
 20
0.09706
 30
0.0
 11
-0.362232
 21
0.09706
 31
0.0
  0
LINE
  5
89
100
AcDbEntity
  8
0
100
AcDbLine
 10
-0.999365
 20
0.14706
 30
0.0
 11
-0.548834
 21
0.14706
 31
0.0
  0
LINE
  5
8A
100
AcDbEntity
  8
0
100
AcDbLine
 10
-0.999365
 20
0.19706
 30
0.0
 11
-0.735437
 21
0.19706
 31
0.0
  0
LINE
  5
8B
100
AcDbEntity
  8
0
100
AcDbLine
 10
-0.999365
 20
0.24706
 30
0.0
 11
-0.922039
 21
0.24706
 31
0.0
  0
LINE
  5
8C
100
AcDbEntity
  8
0
100
AcDbLine
 10
-0.999365
 20
-0.05294
 30
0.0
 11
-0.197576
 21
-0.05294
 31
0.0
  0
LINE
  5
8D
100
AcDbEntity
  8
0
100
AcDbLine
 10
-0.999365
 20
-0.10294
 30
0.0
 11
-0.384179
 21
-0.10294
 31
0.0
  0
LINE
  5
8E
100
AcDbEntity
  8
0
100
AcDbLine
 10
-0.999365
 20
-0.15294
 30
0.0
 11
-0.570781
 21
-0.15294
 31
0.0
  0
LINE
  5
8F
100
AcDbEntity
  8
0
100
AcDbLine
 10
-0.999365
 20
-0.20294
 30
0.0
 11
-0.757384
 21
-0.20294
 31
0.0
  0
LINE
  5
90
100
AcDbEntity
  8
0
100
AcDbLine
 10
-0.999365
 20
-0.25294
 30
0.0
 11
-0.943986
 21
-0.25294
 31
0.0
  0
SOLID
  5
91
100
AcDbEntity
  8
0
100
AcDbTrace
 10
0.0
 20
0.0
 30
0.0
 11
-1.0
 21
0.267949
 31
0.0
 12
-1.0
 22
-0.267949
 32
0.0
 13
-1.0
 23
-0.267949
 33
0.0
  0
ENDBLK
  5
93
100
AcDbEntity
  8
0
100
AcDbBlockEnd
  0
BLOCK
  5
85
100
AcDbEntity
  8
0
100
AcDbBlockBegin
  2
YAZ1
 70
    64
 10
184.0
 20
133.0
 30
0.0
  3
YAZ1
  1

  0
LINE
  5
82
100
AcDbEntity
  8
0
100
AcDbLine
 10
184.0
 20
133.0
 30
0.0
 11
183.0
 21
132.732051
 31
0.0
  0
LINE
  5
83
100
AcDbEntity
  8
0
100
AcDbLine
 10
184.0
 20
133.0
 30
0.0
 11
183.0
 21
133.267949
 31
0.0
  0
LINE
  5
84
100
AcDbEntity
  8
0
100
AcDbLine
 10
183.0
 20
133.0
 30
0.0
 11
184.0
 21
133.0
 31
0.0
  0
ENDBLK
  5
86
100
AcDbEntity
  8
0
100
AcDbBlockEnd
  0
BLOCK
  5
551
100
AcDbEntity
  8
0
100
AcDbBlockBegin
  2
*X4
 70
    65
 10
0.0
 20
0.0
 30
0.0
  3
*X4
  1

  0
LINE
  5
54D
100
AcDbEntity
  8
0
 62
     0
100
AcDbLine
 10
273.106703
 20
251.26554
 30
0.0
 11
273.587047
 21
251.614531
 31
0.0
  0
LINE
  5
54E
100
AcDbEntity
  8
0
 62
     0
100
AcDbLine
 10
273.271382
 20
251.076169
 30
0.0
 11
273.733993
 21
251.412277
 31
0.0
  0
LINE
  5
54F
100
AcDbEntity
  8
0
 62
     0
100
AcDbLine
 10
272.96913
 20
251.474605
 30
0.0
 11
273.440101
 21
251.816785
 31
0.0
  0
LINE
  5
550
100
AcDbEntity
  8
0
 62
     0
100
AcDbLine
 10
272.859181
 20
251.703739
 30
0.0
 11
273.293154
 21
252.019039
 31
0.0
  0
ENDBLK
  5
552
100
AcDbEntity
  8
0
100
AcDbBlockEnd
  0
BLOCK
  5
204
100
AcDbEntity
  8
0
100
AcDbBlockBegin
  2
*X5
 70
    65
 10
0.0
 20
0.0
 30
0.0
  3
*X5
  1

  0
LINE
  5
10A
100
AcDbEntity
  8
0
 62
     0
100
AcDbLine
 10
117.461908
 20
133.018258
 30
0.0
 11
117.916068
 21
133.472418
 31
0.0
  0
LINE
  5
10B
100
AcDbEntity
  8
0
 62
     0
100
AcDbLine
 10
119.181578
 20
134.737927
 30
0.0
 11
119.440748
 21
134.997098
 31
0.0
  0
LINE
  5
10C
100
AcDbEntity
  8
0
 62
     0
100
AcDbLine
 10
117.461908
 20
133.195034
 30
0.0
 11
117.916068
 21
133.649194
 31
0.0
  0
LINE
  5
10D
100
AcDbEntity
  8
0
 62
     0
100
AcDbLine
 10
119.004801
 20
134.737927
 30
0.0
 11
119.402191
 21
135.135317
 31
0.0
  0
LINE
  5
10E
100
AcDbEntity
  8
0
 62
     0
100
AcDbLine
 10
117.461908
 20
133.371811
 30
0.0
 11
117.916068
 21
133.825971
 31
0.0
  0
LINE
  5
10F
100
AcDbEntity
  8
0
 62
     0
100
AcDbLine
 10
118.828024
 20
134.737927
 30
0.0
 11
119.225414
 21
135.135317
 31
0.0
  0
LINE
  5
110
100
AcDbEntity
  8
0
 62
     0
100
AcDbLine
 10
117.461908
 20
133.548588
 30
0.0
 11
117.916068
 21
134.002748
 31
0.0
  0
LINE
  5
111
100
AcDbEntity
  8
0
 62
     0
100
AcDbLine
 10
118.651248
 20
134.737927
 30
0.0
 11
119.048638
 21
135.135317
 31
0.0
  0
LINE
  5
112
100
AcDbEntity
  8
0
 62
     0
100
AcDbLine
 10
117.461908
 20
133.725364
 30
0.0
 11
117.916068
 21
134.179524
 31
0.0
  0
LINE
  5
113
100
AcDbEntity
  8
0
 62
     0
100
AcDbLine
 10
118.474471
 20
134.737927
 30
0.0
 11
118.871861
 21
135.135317
 31
0.0
  0
LINE
  5
114
100
AcDbEntity
  8
0
 62
     0
100
AcDbLine
 10
117.461908
 20
133.902141
 30
0.0
 11
117.916068
 21
134.356301
 31
0.0
  0
LINE
  5
115
100
AcDbEntity
  8
0
 62
     0
100
AcDbLine
 10
118.297694
 20
134.737927
 30
0.0
 11
118.695084
 21
135.135317
 31
0.0
  0
LINE
  5
116
100
AcDbEntity
  8
0
 62
     0
100
AcDbLine
 10
117.461908
 20
134.078918
 30
0.0
 11
117.916068
 21
134.533078
 31
0.0
  0
LINE
  5
117
100
AcDbEntity
  8
0
 62
     0
100
AcDbLine
 10
118.120917
 20
134.737927
 30
0.0
 11
118.518307
 21
135.135317
 31
0.0
  0
LINE
  5
118
100
AcDbEntity
  8
0
 62
     0
100
AcDbLine
 10
117.944141
 20
134.737927
 30
0.0
 11
118.341531
 21
135.135317
 31
0.0
  0
LINE
  5
119
100
AcDbEntity
  8
0
 62
     0
100
AcDbLine
 10
117.767364
 20
134.737927
 30
0.0
 11
118.164754
 21
135.135317
 31
0.0
  0
LINE
  5
11A
100
AcDbEntity
  8
0
 62
     0
100
AcDbLine
 10
113.932977
 20
131.080317
 30
0.0
 11
113.941283
 21
131.088623
 31
0.0
  0
LINE
  5
11B
100
AcDbEntity
  8
0
 62
     0
100
AcDbLine
 10
117.590587
 20
134.737927
 30
0.0
 11
117.987977
 21
135.135317
 31
0.0
  0
LINE
  5
11C
100
AcDbEntity
  8
0
 62
     0
100
AcDbLine
 10
113.756201
 20
131.080317
 30
0.0
 11
113.941283
 21
131.2654
 31
0.0
  0
LINE
  5
11D
100
AcDbEntity
  8
0
 62
     0
100
AcDbLine
 10
117.413811
 20
134.737927
 30
0.0
 11
117.811201
 21
135.135317
 31
0.0
  0
LINE
  5
11E
100
AcDbEntity
  8
0
 62
     0
100
AcDbLine
 10
113.579424
 20
131.080317
 30
0.0
 11
113.941283
 21
131.442176
 31
0.0
  0
LINE
  5
11F
100
AcDbEntity
  8
0
 62
     0
100
AcDbLine
 10
117.237034
 20
134.737927
 30
0.0
 11
117.634424
 21
135.135317
 31
0.0
  0
LINE
  5
120
100
AcDbEntity
  8
0
 62
     0
100
AcDbLine
 10
113.402647
 20
131.080317
 30
0.0
 11
113.941283
 21
131.618953
 31
0.0
  0
LINE
  5
121
100
AcDbEntity
  8
0
 62
     0
100
AcDbLine
 10
117.060257
 20
134.737927
 30
0.0
 11
117.457647
 21
135.135317
 31
0.0
  0
LINE
  5
122
100
AcDbEntity
  8
0
 62
     0
100
AcDbLine
 10
113.225871
 20
131.080317
 30
0.0
 11
113.941283
 21
131.79573
 31
0.0
  0
LINE
  5
123
100
AcDbEntity
  8
0
 62
     0
100
AcDbLine
 10
116.883481
 20
134.737927
 30
0.0
 11
117.280871
 21
135.135317
 31
0.0
  0
LINE
  5
124
100
AcDbEntity
  8
0
 62
     0
100
AcDbLine
 10
113.049094
 20
131.080317
 30
0.0
 11
113.941283
 21
131.972506
 31
0.0
  0
LINE
  5
125
100
AcDbEntity
  8
0
 62
     0
100
AcDbLine
 10
116.706704
 20
134.737927
 30
0.0
 11
117.104094
 21
135.135317
 31
0.0
  0
LINE
  5
126
100
AcDbEntity
  8
0
 62
     0
100
AcDbLine
 10
112.872317
 20
131.080317
 30
0.0
 11
113.941283
 21
132.149283
 31
0.0
  0
LINE
  5
127
100
AcDbEntity
  8
0
 62
     0
100
AcDbLine
 10
116.529927
 20
134.737927
 30
0.0
 11
116.927317
 21
135.135317
 31
0.0
  0
LINE
  5
128
100
AcDbEntity
  8
0
 62
     0
100
AcDbLine
 10
112.69554
 20
131.080317
 30
0.0
 11
113.941283
 21
132.32606
 31
0.0
  0
LINE
  5
129
100
AcDbEntity
  8
0
 62
     0
100
AcDbLine
 10
116.35315
 20
134.737927
 30
0.0
 11
116.75054
 21
135.135317
 31
0.0
  0
LINE
  5
12A
100
AcDbEntity
  8
0
 62
     0
100
AcDbLine
 10
112.518764
 20
131.080317
 30
0.0
 11
113.941283
 21
132.502836
 31
0.0
  0
LINE
  5
12B
100
AcDbEntity
  8
0
 62
     0
100
AcDbLine
 10
116.176374
 20
134.737927
 30
0.0
 11
116.573764
 21
135.135317
 31
0.0
  0
LINE
  5
12C
100
AcDbEntity
  8
0
 62
     0
100
AcDbLine
 10
112.341987
 20
131.080317
 30
0.0
 11
113.941283
 21
132.679613
 31
0.0
  0
LINE
  5
12D
100
AcDbEntity
  8
0
 62
     0
100
AcDbLine
 10
115.999597
 20
134.737927
 30
0.0
 11
116.396987
 21
135.135317
 31
0.0
  0
LINE
  5
12E
100
AcDbEntity
  8
0
 62
     0
100
AcDbLine
 10
112.16521
 20
131.080317
 30
0.0
 11
113.941283
 21
132.85639
 31
0.0
  0
LINE
  5
12F
100
AcDbEntity
  8
0
 62
     0
100
AcDbLine
 10
115.941283
 20
134.85639
 30
0.0
 11
116.22021
 21
135.135317
 31
0.0
  0
LINE
  5
130
100
AcDbEntity
  8
0
 62
     0
100
AcDbLine
 10
112.096283
 20
131.188167
 30
0.0
 11
113.941283
 21
133.033167
 31
0.0
  0
LINE
  5
131
100
AcDbEntity
  8
0
 62
     0
100
AcDbLine
 10
115.941283
 20
135.033167
 30
0.0
 11
116.043434
 21
135.135317
 31
0.0
  0
LINE
  5
132
100
AcDbEntity
  8
0
 62
     0
100
AcDbLine
 10
112.096283
 20
131.364943
 30
0.0
 11
113.941283
 21
133.209943
 31
0.0
  0
LINE
  5
133
100
AcDbEntity
  8
0
 62
     0
100
AcDbLine
 10
112.096283
 20
131.54172
 30
0.0
 11
113.941283
 21
133.38672
 31
0.0
  0
LINE
  5
134
100
AcDbEntity
  8
0
 62
     0
100
AcDbLine
 10
112.096283
 20
131.718497
 30
0.0
 11
113.941283
 21
133.563497
 31
0.0
  0
LINE
  5
135
100
AcDbEntity
  8
0
 62
     0
100
AcDbLine
 10
112.096283
 20
131.895273
 30
0.0
 11
113.941283
 21
133.740273
 31
0.0
  0
LINE
  5
136
100
AcDbEntity
  8
0
 62
     0
100
AcDbLine
 10
112.096283
 20
132.07205
 30
0.0
 11
113.941283
 21
133.91705
 31
0.0
  0
LINE
  5
137
100
AcDbEntity
  8
0
 62
     0
100
AcDbLine
 10
112.096283
 20
132.248827
 30
0.0
 11
113.941283
 21
134.093827
 31
0.0
  0
LINE
  5
138
100
AcDbEntity
  8
0
 62
     0
100
AcDbLine
 10
110.750997
 20
131.080317
 30
0.0
 11
110.871283
 21
131.200603
 31
0.0
  0
LINE
  5
139
100
AcDbEntity
  8
0
 62
     0
100
AcDbLine
 10
112.096283
 20
132.425603
 30
0.0
 11
113.941283
 21
134.270603
 31
0.0
  0
LINE
  5
13A
100
AcDbEntity
  8
0
 62
     0
100
AcDbLine
 10
110.57422
 20
131.080317
 30
0.0
 11
110.871283
 21
131.37738
 31
0.0
  0
LINE
  5
13B
100
AcDbEntity
  8
0
 62
     0
100
AcDbLine
 10
112.096283
 20
132.60238
 30
0.0
 11
113.941283
 21
134.44738
 31
0.0
  0
LINE
  5
13C
100
AcDbEntity
  8
0
 62
     0
100
AcDbLine
 10
110.397443
 20
131.080317
 30
0.0
 11
110.871283
 21
131.554157
 31
0.0
  0
LINE
  5
13D
100
AcDbEntity
  8
0
 62
     0
100
AcDbLine
 10
112.096283
 20
132.779157
 30
0.0
 11
113.941283
 21
134.624157
 31
0.0
  0
LINE
  5
13E
100
AcDbEntity
  8
0
 62
     0
100
AcDbLine
 10
110.220667
 20
131.080317
 30
0.0
 11
110.871283
 21
131.730934
 31
0.0
  0
LINE
  5
13F
100
AcDbEntity
  8
0
 62
     0
100
AcDbLine
 10
112.096283
 20
132.955934
 30
0.0
 11
113.941283
 21
134.800934
 31
0.0
  0
LINE
  5
140
100
AcDbEntity
  8
0
 62
     0
100
AcDbLine
 10
110.04389
 20
131.080317
 30
0.0
 11
110.871283
 21
131.90771
 31
0.0
  0
LINE
  5
141
100
AcDbEntity
  8
0
 62
     0
100
AcDbLine
 10
112.096283
 20
133.13271
 30
0.0
 11
113.941283
 21
134.97771
 31
0.0
  0
LINE
  5
142
100
AcDbEntity
  8
0
 62
     0
100
AcDbLine
 10
109.867113
 20
131.080317
 30
0.0
 11
110.871283
 21
132.084487
 31
0.0
  0
LINE
  5
143
100
AcDbEntity
  8
0
 62
     0
100
AcDbLine
 10
112.096283
 20
133.309487
 30
0.0
 11
113.941283
 21
135.154487
 31
0.0
  0
LINE
  5
144
100
AcDbEntity
  8
0
 62
     0
100
AcDbLine
 10
109.690337
 20
131.080317
 30
0.0
 11
110.871283
 21
132.261264
 31
0.0
  0
LINE
  5
145
100
AcDbEntity
  8
0
 62
     0
100
AcDbLine
 10
112.096283
 20
133.486264
 30
0.0
 11
112.690337
 21
134.080317
 31
0.0
  0
LINE
  5
146
100
AcDbEntity
  8
0
 62
     0
100
AcDbLine
 10
109.51356
 20
131.080317
 30
0.0
 11
110.871283
 21
132.43804
 31
0.0
  0
LINE
  5
147
100
AcDbEntity
  8
0
 62
     0
100
AcDbLine
 10
112.096283
 20
133.66304
 30
0.0
 11
112.51356
 21
134.080317
 31
0.0
  0
LINE
  5
148
100
AcDbEntity
  8
0
 62
     0
100
AcDbLine
 10
109.336783
 20
131.080317
 30
0.0
 11
110.871283
 21
132.614817
 31
0.0
  0
LINE
  5
149
100
AcDbEntity
  8
0
 62
     0
100
AcDbLine
 10
112.096283
 20
133.839817
 30
0.0
 11
112.336783
 21
134.080317
 31
0.0
  0
LINE
  5
14A
100
AcDbEntity
  8
0
 62
     0
100
AcDbLine
 10
109.160007
 20
131.080317
 30
0.0
 11
110.871283
 21
132.791594
 31
0.0
  0
LINE
  5
14B
100
AcDbEntity
  8
0
 62
     0
100
AcDbLine
 10
112.096283
 20
134.016594
 30
0.0
 11
112.160007
 21
134.080317
 31
0.0
  0
LINE
  5
14C
100
AcDbEntity
  8
0
 62
     0
100
AcDbLine
 10
108.98323
 20
131.080317
 30
0.0
 11
110.871283
 21
132.96837
 31
0.0
  0
LINE
  5
14D
100
AcDbEntity
  8
0
 62
     0
100
AcDbLine
 10
113.87823
 20
135.975317
 30
0.0
 11
113.941283
 21
136.03837
 31
0.0
  0
LINE
  5
14E
100
AcDbEntity
  8
0
 62
     0
100
AcDbLine
 10
113.701453
 20
135.975317
 30
0.0
 11
113.941283
 21
136.215147
 31
0.0
  0
LINE
  5
14F
100
AcDbEntity
  8
0
 62
     0
100
AcDbLine
 10
113.524676
 20
135.975317
 30
0.0
 11
113.804676
 21
136.255317
 31
0.0
  0
LINE
  5
150
100
AcDbEntity
  8
0
 62
     0
100
AcDbLine
 10
108.941283
 20
131.5687
 30
0.0
 11
111.4529
 21
134.080317
 31
0.0
  0
LINE
  5
151
100
AcDbEntity
  8
0
 62
     0
100
AcDbLine
 10
113.3479
 20
135.975317
 30
0.0
 11
113.6279
 21
136.255317
 31
0.0
  0
LINE
  5
152
100
AcDbEntity
  8
0
 62
     0
100
AcDbLine
 10
108.941283
 20
131.745477
 30
0.0
 11
111.276123
 21
134.080317
 31
0.0
  0
LINE
  5
153
100
AcDbEntity
  8
0
 62
     0
100
AcDbLine
 10
113.171123
 20
135.975317
 30
0.0
 11
113.451123
 21
136.255317
 31
0.0
  0
LINE
  5
154
100
AcDbEntity
  8
0
 62
     0
100
AcDbLine
 10
108.941283
 20
131.922254
 30
0.0
 11
111.099346
 21
134.080317
 31
0.0
  0
LINE
  5
155
100
AcDbEntity
  8
0
 62
     0
100
AcDbLine
 10
112.994346
 20
135.975317
 30
0.0
 11
113.274346
 21
136.255317
 31
0.0
  0
LINE
  5
156
100
AcDbEntity
  8
0
 62
     0
100
AcDbLine
 10
108.941283
 20
132.099031
 30
0.0
 11
110.92257
 21
134.080317
 31
0.0
  0
LINE
  5
157
100
AcDbEntity
  8
0
 62
     0
100
AcDbLine
 10
112.81757
 20
135.975317
 30
0.0
 11
113.09757
 21
136.255317
 31
0.0
  0
LINE
  5
158
100
AcDbEntity
  8
0
 62
     0
100
AcDbLine
 10
108.941283
 20
132.275807
 30
0.0
 11
110.745793
 21
134.080317
 31
0.0
  0
LINE
  5
159
100
AcDbEntity
  8
0
 62
     0
100
AcDbLine
 10
112.640793
 20
135.975317
 30
0.0
 11
112.920793
 21
136.255317
 31
0.0
  0
LINE
  5
15A
100
AcDbEntity
  8
0
 62
     0
100
AcDbLine
 10
108.941283
 20
132.452584
 30
0.0
 11
110.569016
 21
134.080317
 31
0.0
  0
LINE
  5
15B
100
AcDbEntity
  8
0
 62
     0
100
AcDbLine
 10
112.464016
 20
135.975317
 30
0.0
 11
112.744016
 21
136.255317
 31
0.0
  0
LINE
  5
15C
100
AcDbEntity
  8
0
 62
     0
100
AcDbLine
 10
108.941283
 20
132.629361
 30
0.0
 11
110.39224
 21
134.080317
 31
0.0
  0
LINE
  5
15D
100
AcDbEntity
  8
0
 62
     0
100
AcDbLine
 10
112.28724
 20
135.975317
 30
0.0
 11
112.56724
 21
136.255317
 31
0.0
  0
LINE
  5
15E
100
AcDbEntity
  8
0
 62
     0
100
AcDbLine
 10
112.110463
 20
135.975317
 30
0.0
 11
112.390463
 21
136.255317
 31
0.0
  0
LINE
  5
15F
100
AcDbEntity
  8
0
 62
     0
100
AcDbLine
 10
111.933686
 20
135.975317
 30
0.0
 11
112.213686
 21
136.255317
 31
0.0
  0
LINE
  5
160
100
AcDbEntity
  8
0
 62
     0
100
AcDbLine
 10
108.941283
 20
133.159691
 30
0.0
 11
109.613308
 21
133.831715
 31
0.0
  0
LINE
  5
161
100
AcDbEntity
  8
0
 62
     0
100
AcDbLine
 10
111.75691
 20
135.975317
 30
0.0
 11
112.03691
 21
136.255317
 31
0.0
  0
LINE
  5
162
100
AcDbEntity
  8
0
 62
     0
100
AcDbLine
 10
108.941283
 20
133.336467
 30
0.0
 11
110.740133
 21
135.135317
 31
0.0
  0
LINE
  5
163
100
AcDbEntity
  8
0
 62
     0
100
AcDbLine
 10
111.580133
 20
135.975317
 30
0.0
 11
111.860133
 21
136.255317
 31
0.0
  0
LINE
  5
164
100
AcDbEntity
  8
0
 62
     0
100
AcDbLine
 10
108.941283
 20
133.513244
 30
0.0
 11
110.563356
 21
135.135317
 31
0.0
  0
LINE
  5
165
100
AcDbEntity
  8
0
 62
     0
100
AcDbLine
 10
111.403356
 20
135.975317
 30
0.0
 11
111.683356
 21
136.255317
 31
0.0
  0
LINE
  5
166
100
AcDbEntity
  8
0
 62
     0
100
AcDbLine
 10
108.941283
 20
133.690021
 30
0.0
 11
110.386579
 21
135.135317
 31
0.0
  0
LINE
  5
167
100
AcDbEntity
  8
0
 62
     0
100
AcDbLine
 10
111.226579
 20
135.975317
 30
0.0
 11
111.506579
 21
136.255317
 31
0.0
  0
LINE
  5
168
100
AcDbEntity
  8
0
 62
     0
100
AcDbLine
 10
108.941283
 20
133.866798
 30
0.0
 11
110.209803
 21
135.135317
 31
0.0
  0
LINE
  5
169
100
AcDbEntity
  8
0
 62
     0
100
AcDbLine
 10
111.049803
 20
135.975317
 30
0.0
 11
111.329803
 21
136.255317
 31
0.0
  0
LINE
  5
16A
100
AcDbEntity
  8
0
 62
     0
100
AcDbLine
 10
108.941283
 20
134.043574
 30
0.0
 11
110.033026
 21
135.135317
 31
0.0
  0
LINE
  5
16B
100
AcDbEntity
  8
0
 62
     0
100
AcDbLine
 10
110.873026
 20
135.975317
 30
0.0
 11
111.153026
 21
136.255317
 31
0.0
  0
LINE
  5
16C
100
AcDbEntity
  8
0
 62
     0
100
AcDbLine
 10
108.941283
 20
134.220351
 30
0.0
 11
109.856249
 21
135.135317
 31
0.0
  0
LINE
  5
16D
100
AcDbEntity
  8
0
 62
     0
100
AcDbLine
 10
110.696249
 20
135.975317
 30
0.0
 11
110.976249
 21
136.255317
 31
0.0
  0
LINE
  5
16E
100
AcDbEntity
  8
0
 62
     0
100
AcDbLine
 10
108.941283
 20
134.397128
 30
0.0
 11
109.679473
 21
135.135317
 31
0.0
  0
LINE
  5
16F
100
AcDbEntity
  8
0
 62
     0
100
AcDbLine
 10
110.519473
 20
135.975317
 30
0.0
 11
110.799473
 21
136.255317
 31
0.0
  0
LINE
  5
170
100
AcDbEntity
  8
0
 62
     0
100
AcDbLine
 10
108.941283
 20
134.573904
 30
0.0
 11
109.502696
 21
135.135317
 31
0.0
  0
LINE
  5
171
100
AcDbEntity
  8
0
 62
     0
100
AcDbLine
 10
110.342696
 20
135.975317
 30
0.0
 11
110.622696
 21
136.255317
 31
0.0
  0
LINE
  5
172
100
AcDbEntity
  8
0
 62
     0
100
AcDbLine
 10
108.941283
 20
134.750681
 30
0.0
 11
109.325919
 21
135.135317
 31
0.0
  0
LINE
  5
173
100
AcDbEntity
  8
0
 62
     0
100
AcDbLine
 10
110.165919
 20
135.975317
 30
0.0
 11
110.445919
 21
136.255317
 31
0.0
  0
LINE
  5
174
100
AcDbEntity
  8
0
 62
     0
100
AcDbLine
 10
108.941283
 20
134.927458
 30
0.0
 11
109.149143
 21
135.135317
 31
0.0
  0
LINE
  5
175
100
AcDbEntity
  8
0
 62
     0
100
AcDbLine
 10
109.989143
 20
135.975317
 30
0.0
 11
110.269143
 21
136.255317
 31
0.0
  0
LINE
  5
176
100
AcDbEntity
  8
0
 62
     0
100
AcDbLine
 10
108.941283
 20
135.104234
 30
0.0
 11
108.972366
 21
135.135317
 31
0.0
  0
LINE
  5
177
100
AcDbEntity
  8
0
 62
     0
100
AcDbLine
 10
109.812366
 20
135.975317
 30
0.0
 11
110.092366
 21
136.255317
 31
0.0
  0
LINE
  5
178
100
AcDbEntity
  8
0
 62
     0
100
AcDbLine
 10
109.635589
 20
135.975317
 30
0.0
 11
109.915589
 21
136.255317
 31
0.0
  0
LINE
  5
179
100
AcDbEntity
  8
0
 62
     0
100
AcDbLine
 10
109.458813
 20
135.975317
 30
0.0
 11
109.738813
 21
136.255317
 31
0.0
  0
LINE
  5
17A
100
AcDbEntity
  8
0
 62
     0
100
AcDbLine
 10
109.282036
 20
135.975317
 30
0.0
 11
109.562036
 21
136.255317
 31
0.0
  0
LINE
  5
17B
100
AcDbEntity
  8
0
 62
     0
100
AcDbLine
 10
109.105259
 20
135.975317
 30
0.0
 11
109.385259
 21
136.255317
 31
0.0
  0
LINE
  5
17C
100
AcDbEntity
  8
0
 62
     0
100
AcDbLine
 10
108.941283
 20
135.988118
 30
0.0
 11
109.208482
 21
136.255317
 31
0.0
  0
LINE
  5
17D
100
AcDbEntity
  8
0
 62
     0
100
AcDbLine
 10
108.941283
 20
136.164895
 30
0.0
 11
109.031706
 21
136.255317
 31
0.0
  0
LINE
  5
17E
100
AcDbEntity
  8
0
 62
     0
100
AcDbLine
 10
117.461908
 20
132.841481
 30
0.0
 11
117.916068
 21
133.295641
 31
0.0
  0
LINE
  5
17F
100
AcDbEntity
  8
0
 62
     0
100
AcDbLine
 10
119.358354
 20
134.737927
 30
0.0
 11
119.440748
 21
134.820321
 31
0.0
  0
LINE
  5
180
100
AcDbEntity
  8
0
 62
     0
100
AcDbLine
 10
117.461908
 20
132.664704
 30
0.0
 11
117.916068
 21
133.118864
 31
0.0
  0
LINE
  5
181
100
AcDbEntity
  8
0
 62
     0
100
AcDbLine
 10
117.461908
 20
132.487928
 30
0.0
 11
117.916068
 21
132.942088
 31
0.0
  0
LINE
  5
182
100
AcDbEntity
  8
0
 62
     0
100
AcDbLine
 10
119.499012
 20
134.525031
 30
0.0
 11
119.917811
 21
134.94383
 31
0.0
  0
LINE
  5
183
100
AcDbEntity
  8
0
 62
     0
100
AcDbLine
 10
117.46179
 20
132.311033
 30
0.0
 11
117.916068
 21
132.765311
 31
0.0
  0
LINE
  5
184
100
AcDbEntity
  8
0
 62
     0
100
AcDbLine
 10
119.395945
 20
134.245187
 30
0.0
 11
120.204093
 21
135.053336
 31
0.0
  0
LINE
  5
185
100
AcDbEntity
  8
0
 62
     0
100
AcDbLine
 10
117.460895
 20
132.133361
 30
0.0
 11
117.916068
 21
132.588534
 31
0.0
  0
LINE
  5
186
100
AcDbEntity
  8
0
 62
     0
100
AcDbLine
 10
119.379057
 20
134.051523
 30
0.0
 11
120.443981
 21
135.116446
 31
0.0
  0
LINE
  5
187
100
AcDbEntity
  8
0
 62
     0
100
AcDbLine
 10
117.459213
 20
131.954902
 30
0.0
 11
117.916025
 21
132.411714
 31
0.0
  0
LINE
  5
188
100
AcDbEntity
  8
0
 62
     0
100
AcDbLine
 10
119.365492
 20
133.861181
 30
0.0
 11
120.663761
 21
135.15945
 31
0.0
  0
LINE
  5
189
100
AcDbEntity
  8
0
 62
     0
100
AcDbLine
 10
117.456732
 20
131.775645
 30
0.0
 11
117.916473
 21
132.235385
 31
0.0
  0
LINE
  5
18A
100
AcDbEntity
  8
0
 62
     0
100
AcDbLine
 10
120.472402
 20
134.791315
 30
0.0
 11
120.868287
 21
135.187199
 31
0.0
  0
LINE
  5
18B
100
AcDbEntity
  8
0
 62
     0
100
AcDbLine
 10
119.355073
 20
133.673985
 30
0.0
 11
119.874894
 21
134.193806
 31
0.0
  0
LINE
  5
18C
100
AcDbEntity
  8
0
 62
     0
100
AcDbLine
 10
117.453442
 20
131.595578
 30
0.0
 11
117.91768
 21
132.059815
 31
0.0
  0
LINE
  5
18D
100
AcDbEntity
  8
0
 62
     0
100
AcDbLine
 10
120.717775
 20
134.85991
 30
0.0
 11
121.060614
 21
135.202749
 31
0.0
  0
LINE
  5
18E
100
AcDbEntity
  8
0
 62
     0
100
AcDbLine
 10
119.347643
 20
133.489778
 30
0.0
 11
119.835514
 21
133.97765
 31
0.0
  0
LINE
  5
18F
100
AcDbEntity
  8
0
 62
     0
100
AcDbLine
 10
117.449331
 20
131.41469
 30
0.0
 11
117.919637
 21
131.884996
 31
0.0
  0
LINE
  5
190
100
AcDbEntity
  8
0
 62
     0
100
AcDbLine
 10
120.933069
 20
134.898428
 30
0.0
 11
121.242818
 21
135.208177
 31
0.0
  0
LINE
  5
191
100
AcDbEntity
  8
0
 62
     0
100
AcDbLine
 10
119.343057
 20
133.308416
 30
0.0
 11
119.823184
 21
133.788543
 31
0.0
  0
LINE
  5
192
100
AcDbEntity
  8
0
 62
     0
100
AcDbLine
 10
117.444388
 20
131.232971
 30
0.0
 11
117.922335
 21
131.710918
 31
0.0
  0
LINE
  5
193
100
AcDbEntity
  8
0
 62
     0
100
AcDbLine
 10
121.128107
 20
134.91669
 30
0.0
 11
121.416384
 21
135.204966
 31
0.0
  0
LINE
  5
194
100
AcDbEntity
  8
0
 62
     0
100
AcDbLine
 10
119.341184
 20
133.129767
 30
0.0
 11
119.813937
 21
133.602519
 31
0.0
  0
LINE
  5
195
100
AcDbEntity
  8
0
 62
     0
100
AcDbLine
 10
117.468511
 20
131.080317
 30
0.0
 11
117.925765
 21
131.537571
 31
0.0
  0
LINE
  5
196
100
AcDbEntity
  8
0
 62
     0
100
AcDbLine
 10
121.308036
 20
134.919841
 30
0.0
 11
121.582418
 21
135.194224
 31
0.0
  0
LINE
  5
197
100
AcDbEntity
  8
0
 62
     0
100
AcDbLine
 10
119.341906
 20
132.953711
 30
0.0
 11
119.807621
 21
133.419427
 31
0.0
  0
LINE
  5
198
100
AcDbEntity
  8
0
 62
     0
100
AcDbLine
 10
117.645288
 20
131.080317
 30
0.0
 11
117.929918
 21
131.364946
 31
0.0
  0
LINE
  5
199
100
AcDbEntity
  8
0
 62
     0
100
AcDbLine
 10
121.47595
 20
134.910978
 30
0.0
 11
121.741769
 21
135.176798
 31
0.0
  0
LINE
  5
19A
100
AcDbEntity
  8
0
 62
     0
100
AcDbLine
 10
119.345112
 20
132.780141
 30
0.0
 11
119.804098
 21
133.239126
 31
0.0
  0
LINE
  5
19B
100
AcDbEntity
  8
0
 62
     0
100
AcDbLine
 10
117.822065
 20
131.080317
 30
0.0
 11
117.934784
 21
131.193036
 31
0.0
  0
LINE
  5
19C
100
AcDbEntity
  8
0
 62
     0
100
AcDbLine
 10
121.633882
 20
134.892134
 30
0.0
 11
121.895104
 21
135.153356
 31
0.0
  0
LINE
  5
19D
100
AcDbEntity
  8
0
 62
     0
100
AcDbLine
 10
119.350703
 20
132.608955
 30
0.0
 11
119.80324
 21
133.061492
 31
0.0
  0
LINE
  5
19E
100
AcDbEntity
  8
0
 62
     0
100
AcDbLine
 10
119.358585
 20
132.44006
 30
0.0
 11
119.804934
 21
132.886409
 31
0.0
  0
LINE
  5
19F
100
AcDbEntity
  8
0
 62
     0
100
AcDbLine
 10
121.783248
 20
134.864723
 30
0.0
 11
122.042957
 21
135.124433
 31
0.0
  0
LINE
  5
1A0
100
AcDbEntity
  8
0
 62
     0
100
AcDbLine
 10
119.368673
 20
132.273372
 30
0.0
 11
119.809072
 21
132.713771
 31
0.0
  0
LINE
  5
1A1
100
AcDbEntity
  8
0
 62
     0
100
AcDbLine
 10
121.925074
 20
134.829773
 30
0.0
 11
122.185765
 21
135.090464
 31
0.0
  0
LINE
  5
1A2
100
AcDbEntity
  8
0
 62
     0
100
AcDbLine
 10
119.380888
 20
132.10881
 30
0.0
 11
119.815557
 21
132.54348
 31
0.0
  0
LINE
  5
1A3
100
AcDbEntity
  8
0
 62
     0
100
AcDbLine
 10
122.060131
 20
134.788053
 30
0.0
 11
122.323885
 21
135.051807
 31
0.0
  0
LINE
  5
1A4
100
AcDbEntity
  8
0
 62
     0
100
AcDbLine
 10
119.395157
 20
131.946303
 30
0.0
 11
119.824301
 21
132.375446
 31
0.0
  0
LINE
  5
1A5
100
AcDbEntity
  8
0
 62
     0
100
AcDbLine
 10
122.191122
 20
134.742267
 30
0.0
 11
122.457617
 21
135.008762
 31
0.0
  0
LINE
  5
1A6
100
AcDbEntity
  8
0
 62
     0
100
AcDbLine
 10
119.434617
 20
131.808986
 30
0.0
 11
119.83522
 21
132.209588
 31
0.0
  0
LINE
  5
1A7
100
AcDbEntity
  8
0
 62
     0
100
AcDbLine
 10
122.312801
 20
134.68717
 30
0.0
 11
122.591644
 21
134.966013
 31
0.0
  0
LINE
  5
1A8
100
AcDbEntity
  8
0
 62
     0
100
AcDbLine
 10
119.488909
 20
131.686501
 30
0.0
 11
119.857361
 21
132.054953
 31
0.0
  0
LINE
  5
1A9
100
AcDbEntity
  8
0
 62
     0
100
AcDbLine
 10
122.417354
 20
134.614946
 30
0.0
 11
122.711481
 21
134.909073
 31
0.0
  0
LINE
  5
1AA
100
AcDbEntity
  8
0
 62
     0
100
AcDbLine
 10
119.555015
 20
131.57583
 30
0.0
 11
119.903244
 21
131.924059
 31
0.0
  0
LINE
  5
1AB
100
AcDbEntity
  8
0
 62
     0
100
AcDbLine
 10
122.506403
 20
134.527218
 30
0.0
 11
122.816497
 21
134.837312
 31
0.0
  0
LINE
  5
1AC
100
AcDbEntity
  8
0
 62
     0
100
AcDbLine
 10
119.631903
 20
131.475941
 30
0.0
 11
119.963074
 21
131.807112
 31
0.0
  0
LINE
  5
1AD
100
AcDbEntity
  8
0
 62
     0
100
AcDbLine
 10
122.580009
 20
134.424047
 30
0.0
 11
122.907947
 21
134.751985
 31
0.0
  0
LINE
  5
1AE
100
AcDbEntity
  8
0
 62
     0
100
AcDbLine
 10
119.719087
 20
131.386348
 30
0.0
 11
120.035139
 21
131.702401
 31
0.0
  0
LINE
  5
1AF
100
AcDbEntity
  8
0
 62
     0
100
AcDbLine
 10
122.636705
 20
134.303967
 30
0.0
 11
122.986046
 21
134.653308
 31
0.0
  0
LINE
  5
1B0
100
AcDbEntity
  8
0
 62
     0
100
AcDbLine
 10
119.816517
 20
131.307002
 30
0.0
 11
120.118588
 21
131.609073
 31
0.0
  0
LINE
  5
1B1
100
AcDbEntity
  8
0
 62
     0
100
AcDbLine
 10
122.672629
 20
134.163114
 30
0.0
 11
123.050052
 21
134.540537
 31
0.0
  0
LINE
  5
1B2
100
AcDbEntity
  8
0
 62
     0
100
AcDbLine
 10
119.924571
 20
131.23828
 30
0.0
 11
120.213178
 21
131.526887
 31
0.0
  0
LINE
  5
1B3
100
AcDbEntity
  8
0
 62
     0
100
AcDbLine
 10
122.68576
 20
133.999468
 30
0.0
 11
123.097964
 21
134.411673
 31
0.0
  0
LINE
  5
1B4
100
AcDbEntity
  8
0
 62
     0
100
AcDbLine
 10
120.044643
 20
131.181575
 30
0.0
 11
120.319216
 21
131.456148
 31
0.0
  0
LINE
  5
1B5
100
AcDbEntity
  8
0
 62
     0
100
AcDbLine
 10
122.697013
 20
133.833944
 30
0.0
 11
123.125495
 21
134.262426
 31
0.0
  0
LINE
  5
1B6
100
AcDbEntity
  8
0
 62
     0
100
AcDbLine
 10
120.17771
 20
131.137865
 30
0.0
 11
120.442114
 21
131.40227
 31
0.0
  0
LINE
  5
1B7
100
AcDbEntity
  8
0
 62
     0
100
AcDbLine
 10
122.706103
 20
133.666258
 30
0.0
 11
123.139891
 21
134.100046
 31
0.0
  0
LINE
  5
1B8
100
AcDbEntity
  8
0
 62
     0
100
AcDbLine
 10
120.315122
 20
131.098501
 30
0.0
 11
120.576165
 21
131.359543
 31
0.0
  0
LINE
  5
1B9
100
AcDbEntity
  8
0
 62
     0
100
AcDbLine
 10
122.712949
 20
133.496328
 30
0.0
 11
123.152434
 21
133.935812
 31
0.0
  0
LINE
  5
1BA
100
AcDbEntity
  8
0
 62
     0
100
AcDbLine
 10
120.457171
 20
131.063773
 30
0.0
 11
120.716882
 21
131.323484
 31
0.0
  0
LINE
  5
1BB
100
AcDbEntity
  8
0
 62
     0
100
AcDbLine
 10
122.717463
 20
133.324064
 30
0.0
 11
123.162862
 21
133.769463
 31
0.0
  0
LINE
  5
1BC
100
AcDbEntity
  8
0
 62
     0
100
AcDbLine
 10
120.604205
 20
131.034031
 30
0.0
 11
120.865003
 21
131.294828
 31
0.0
  0
LINE
  5
1BD
100
AcDbEntity
  8
0
 62
     0
100
AcDbLine
 10
122.719547
 20
133.149372
 30
0.0
 11
123.171096
 21
133.600921
 31
0.0
  0
LINE
  5
1BE
100
AcDbEntity
  8
0
 62
     0
100
AcDbLine
 10
120.756647
 20
131.009695
 30
0.0
 11
121.021508
 21
131.274557
 31
0.0
  0
LINE
  5
1BF
100
AcDbEntity
  8
0
 62
     0
100
AcDbLine
 10
124.635518
 20
134.888566
 30
0.0
 11
124.882268
 21
135.135317
 31
0.0
  0
LINE
  5
1C0
100
AcDbEntity
  8
0
 62
     0
100
AcDbLine
 10
122.719097
 20
132.972146
 30
0.0
 11
123.177052
 21
133.4301
 31
0.0
  0
LINE
  5
1C1
100
AcDbEntity
  8
0
 62
     0
100
AcDbLine
 10
120.915012
 20
130.991284
 30
0.0
 11
121.187739
 21
131.264011
 31
0.0
  0
LINE
  5
1C2
100
AcDbEntity
  8
0
 62
     0
100
AcDbLine
 10
124.504321
 20
134.580593
 30
0.0
 11
125.059045
 21
135.135317
 31
0.0
  0
LINE
  5
1C3
100
AcDbEntity
  8
0
 62
     0
100
AcDbLine
 10
122.716001
 20
132.792273
 30
0.0
 11
123.180639
 21
133.256911
 31
0.0
  0
LINE
  5
1C4
100
AcDbEntity
  8
0
 62
     0
100
AcDbLine
 10
121.079946
 20
130.979441
 30
0.0
 11
121.36561
 21
131.265105
 31
0.0
  0
LINE
  5
1C5
100
AcDbEntity
  8
0
 62
     0
100
AcDbLine
 10
124.373124
 20
134.272619
 30
0.0
 11
125.235822
 21
135.135317
 31
0.0
  0
LINE
  5
1C6
100
AcDbEntity
  8
0
 62
     0
100
AcDbLine
 10
122.710133
 20
132.609627
 30
0.0
 11
123.181758
 21
133.081253
 31
0.0
  0
LINE
  5
1C7
100
AcDbEntity
  8
0
 62
     0
100
AcDbLine
 10
121.252263
 20
130.974981
 30
0.0
 11
121.558004
 21
131.280722
 31
0.0
  0
LINE
  5
1C8
100
AcDbEntity
  8
0
 62
     0
100
AcDbLine
 10
124.96166
 20
134.684378
 30
0.0
 11
125.332559
 21
135.055278
 31
0.0
  0
LINE
  5
1C9
100
AcDbEntity
  8
0
 62
     0
100
AcDbLine
 10
122.701356
 20
132.424074
 30
0.0
 11
123.180301
 21
132.903019
 31
0.0
  0
LINE
  5
1CA
100
AcDbEntity
  8
0
 62
     0
100
AcDbLine
 10
124.241928
 20
133.964646
 30
0.0
 11
124.897873
 21
134.620591
 31
0.0
  0
LINE
  5
1CB
100
AcDbEntity
  8
0
 62
     0
100
AcDbLine
 10
121.433023
 20
130.978965
 30
0.0
 11
121.769638
 21
131.315579
 31
0.0
  0
LINE
  5
1CC
100
AcDbEntity
  8
0
 62
     0
100
AcDbLine
 10
125.012368
 20
134.558309
 30
0.0
 11
125.383427
 21
134.929368
 31
0.0
  0
LINE
  5
1CD
100
AcDbEntity
  8
0
 62
     0
100
AcDbLine
 10
122.689521
 20
132.235462
 30
0.0
 11
123.176149
 21
132.722091
 31
0.0
  0
LINE
  5
1CE
100
AcDbEntity
  8
0
 62
     0
100
AcDbLine
 10
124.110731
 20
133.656673
 30
0.0
 11
124.771604
 21
134.317545
 31
0.0
  0
LINE
  5
1CF
100
AcDbEntity
  8
0
 62
     0
100
AcDbLine
 10
121.623641
 20
130.992806
 30
0.0
 11
122.009272
 21
131.378437
 31
0.0
  0
LINE
  5
1D0
100
AcDbEntity
  8
0
 62
     0
100
AcDbLine
 10
125.063075
 20
134.43224
 30
0.0
 11
125.434294
 21
134.803459
 31
0.0
  0
LINE
  5
1D1
100
AcDbEntity
  8
0
 62
     0
100
AcDbLine
 10
122.674479
 20
132.043644
 30
0.0
 11
123.169175
 21
132.53834
 31
0.0
  0
LINE
  5
1D2
100
AcDbEntity
  8
0
 62
     0
100
AcDbLine
 10
123.979534
 20
133.348699
 30
0.0
 11
124.645335
 21
134.014499
 31
0.0
  0
LINE
  5
1D3
100
AcDbEntity
  8
0
 62
     0
100
AcDbLine
 10
121.826079
 20
131.018468
 30
0.0
 11
122.298616
 21
131.491004
 31
0.0
  0
LINE
  5
1D4
100
AcDbEntity
  8
0
 62
     0
100
AcDbLine
 10
125.113783
 20
134.306171
 30
0.0
 11
125.485161
 21
134.67755
 31
0.0
  0
LINE
  5
1D5
100
AcDbEntity
  8
0
 62
     0
100
AcDbLine
 10
122.586274
 20
131.778662
 30
0.0
 11
123.159236
 21
132.351624
 31
0.0
  0
LINE
  5
1D6
100
AcDbEntity
  8
0
 62
     0
100
AcDbLine
 10
123.848338
 20
133.040726
 30
0.0
 11
124.519065
 21
133.711454
 31
0.0
  0
LINE
  5
1D7
100
AcDbEntity
  8
0
 62
     0
100
AcDbLine
 10
122.043203
 20
131.058814
 30
0.0
 11
123.146176
 21
132.161788
 31
0.0
  0
LINE
  5
1D8
100
AcDbEntity
  8
0
 62
     0
100
AcDbLine
 10
125.164491
 20
134.180102
 30
0.0
 11
125.536029
 21
134.55164
 31
0.0
  0
LINE
  5
1D9
100
AcDbEntity
  8
0
 62
     0
100
AcDbLine
 10
123.717141
 20
132.732753
 30
0.0
 11
124.392796
 21
133.408408
 31
0.0
  0
LINE
  5
1DA
100
AcDbEntity
  8
0
 62
     0
100
AcDbLine
 10
122.279495
 20
131.118329
 30
0.0
 11
123.129823
 21
131.968658
 31
0.0
  0
LINE
  5
1DB
100
AcDbEntity
  8
0
 62
     0
100
AcDbLine
 10
125.215199
 20
134.054033
 30
0.0
 11
125.586896
 21
134.425731
 31
0.0
  0
LINE
  5
1DC
100
AcDbEntity
  8
0
 62
     0
100
AcDbLine
 10
123.585944
 20
132.424779
 30
0.0
 11
124.266527
 21
133.105362
 31
0.0
  0
LINE
  5
1DD
100
AcDbEntity
  8
0
 62
     0
100
AcDbLine
 10
122.537041
 20
131.199099
 30
0.0
 11
123.090419
 21
131.752478
 31
0.0
  0
LINE
  5
1DE
100
AcDbEntity
  8
0
 62
     0
100
AcDbLine
 10
125.265906
 20
133.927964
 30
0.0
 11
125.637764
 21
134.299822
 31
0.0
  0
LINE
  5
1DF
100
AcDbEntity
  8
0
 62
     0
100
AcDbLine
 10
123.454748
 20
132.116806
 30
0.0
 11
124.140258
 21
132.802316
 31
0.0
  0
LINE
  5
1E0
100
AcDbEntity
  8
0
 62
     0
100
AcDbLine
 10
123.323551
 20
131.808833
 30
0.0
 11
124.013989
 21
132.499271
 31
0.0
  0
LINE
  5
1E1
100
AcDbEntity
  8
0
 62
     0
100
AcDbLine
 10
125.316614
 20
133.801895
 30
0.0
 11
125.688631
 21
134.173912
 31
0.0
  0
LINE
  5
1E2
100
AcDbEntity
  8
0
 62
     0
100
AcDbLine
 10
123.192355
 20
131.500859
 30
0.0
 11
123.891551
 21
132.200055
 31
0.0
  0
LINE
  5
1E3
100
AcDbEntity
  8
0
 62
     0
100
AcDbLine
 10
125.367322
 20
133.675826
 30
0.0
 11
125.739498
 21
134.048003
 31
0.0
  0
LINE
  5
1E4
100
AcDbEntity
  8
0
 62
     0
100
AcDbLine
 10
124.373537
 20
132.682042
 30
0.0
 11
124.701992
 21
133.010497
 31
0.0
  0
LINE
  5
1E5
100
AcDbEntity
  8
0
 62
     0
100
AcDbLine
 10
123.061158
 20
131.192886
 30
0.0
 11
123.774363
 21
131.906091
 31
0.0
  0
LINE
  5
1E6
100
AcDbEntity
  8
0
 62
     0
100
AcDbLine
 10
125.41803
 20
133.549758
 30
0.0
 11
125.790366
 21
133.922094
 31
0.0
  0
LINE
  5
1E7
100
AcDbEntity
  8
0
 62
     0
100
AcDbLine
 10
124.550314
 20
132.682042
 30
0.0
 11
124.878769
 21
133.010497
 31
0.0
  0
LINE
  5
1E8
100
AcDbEntity
  8
0
 62
     0
100
AcDbLine
 10
123.125366
 20
131.080317
 30
0.0
 11
123.66148
 21
131.616431
 31
0.0
  0
LINE
  5
1E9
100
AcDbEntity
  8
0
 62
     0
100
AcDbLine
 10
125.468737
 20
133.423689
 30
0.0
 11
125.841233
 21
133.796184
 31
0.0
  0
LINE
  5
1EA
100
AcDbEntity
  8
0
 62
     0
100
AcDbLine
 10
124.727091
 20
132.682042
 30
0.0
 11
125.055546
 21
133.010497
 31
0.0
  0
LINE
  5
1EB
100
AcDbEntity
  8
0
 62
     0
100
AcDbLine
 10
123.302142
 20
131.080317
 30
0.0
 11
123.552682
 21
131.330857
 31
0.0
  0
LINE
  5
1EC
100
AcDbEntity
  8
0
 62
     0
100
AcDbLine
 10
125.519445
 20
133.29762
 30
0.0
 11
125.8921
 21
133.670275
 31
0.0
  0
LINE
  5
1ED
100
AcDbEntity
  8
0
 62
     0
100
AcDbLine
 10
124.903867
 20
132.682042
 30
0.0
 11
125.232322
 21
133.010497
 31
0.0
  0
LINE
  5
1EE
100
AcDbEntity
  8
0
 62
     0
100
AcDbLine
 10
125.080644
 20
132.682042
 30
0.0
 11
125.409099
 21
133.010497
 31
0.0
  0
LINE
  5
1EF
100
AcDbEntity
  8
0
 62
     0
100
AcDbLine
 10
125.570153
 20
133.171551
 30
0.0
 11
125.942968
 21
133.544366
 31
0.0
  0
LINE
  5
1F0
100
AcDbEntity
  8
0
 62
     0
100
AcDbLine
 10
125.257421
 20
132.682042
 30
0.0
 11
125.585876
 21
133.010497
 31
0.0
  0
LINE
  5
1F1
100
AcDbEntity
  8
0
 62
     0
100
AcDbLine
 10
125.62086
 20
133.045482
 30
0.0
 11
125.993835
 21
133.418456
 31
0.0
  0
LINE
  5
1F2
100
AcDbEntity
  8
0
 62
     0
100
AcDbLine
 10
125.434197
 20
132.682042
 30
0.0
 11
126.044702
 21
133.292547
 31
0.0
  0
LINE
  5
1F3
100
AcDbEntity
  8
0
 62
     0
100
AcDbLine
 10
125.610974
 20
132.682042
 30
0.0
 11
126.09557
 21
133.166638
 31
0.0
  0
LINE
  5
1F4
100
AcDbEntity
  8
0
 62
     0
100
AcDbLine
 10
125.772984
 20
132.667275
 30
0.0
 11
126.146437
 21
133.040728
 31
0.0
  0
LINE
  5
1F5
100
AcDbEntity
  8
0
 62
     0
100
AcDbLine
 10
125.823691
 20
132.541206
 30
0.0
 11
126.197305
 21
132.914819
 31
0.0
  0
LINE
  5
1F6
100
AcDbEntity
  8
0
 62
     0
100
AcDbLine
 10
125.874399
 20
132.415137
 30
0.0
 11
126.248172
 21
132.78891
 31
0.0
  0
LINE
  5
1F7
100
AcDbEntity
  8
0
 62
     0
100
AcDbLine
 10
125.925107
 20
132.289068
 30
0.0
 11
126.299039
 21
132.663
 31
0.0
  0
LINE
  5
1F8
100
AcDbEntity
  8
0
 62
     0
100
AcDbLine
 10
125.975815
 20
132.162999
 30
0.0
 11
126.349907
 21
132.537091
 31
0.0
  0
LINE
  5
1F9
100
AcDbEntity
  8
0
 62
     0
100
AcDbLine
 10
126.026522
 20
132.03693
 30
0.0
 11
126.400774
 21
132.411182
 31
0.0
  0
LINE
  5
1FA
100
AcDbEntity
  8
0
 62
     0
100
AcDbLine
 10
126.07723
 20
131.910861
 30
0.0
 11
126.451641
 21
132.285272
 31
0.0
  0
LINE
  5
1FB
100
AcDbEntity
  8
0
 62
     0
100
AcDbLine
 10
126.127938
 20
131.784792
 30
0.0
 11
126.502509
 21
132.159363
 31
0.0
  0
LINE
  5
1FC
100
AcDbEntity
  8
0
 62
     0
100
AcDbLine
 10
126.178646
 20
131.658723
 30
0.0
 11
126.553376
 21
132.033454
 31
0.0
  0
LINE
  5
1FD
100
AcDbEntity
  8
0
 62
     0
100
AcDbLine
 10
126.229353
 20
131.532654
 30
0.0
 11
126.604244
 21
131.907544
 31
0.0
  0
LINE
  5
1FE
100
AcDbEntity
  8
0
 62
     0
100
AcDbLine
 10
126.280061
 20
131.406585
 30
0.0
 11
126.655111
 21
131.781635
 31
0.0
  0
LINE
  5
1FF
100
AcDbEntity
  8
0
 62
     0
100
AcDbLine
 10
126.330769
 20
131.280516
 30
0.0
 11
126.705978
 21
131.655726
 31
0.0
  0
LINE
  5
200
100
AcDbEntity
  8
0
 62
     0
100
AcDbLine
 10
126.381477
 20
131.154447
 30
0.0
 11
126.756846
 21
131.529816
 31
0.0
  0
LINE
  5
201
100
AcDbEntity
  8
0
 62
     0
100
AcDbLine
 10
126.484123
 20
131.080317
 30
0.0
 11
126.807713
 21
131.403907
 31
0.0
  0
LINE
  5
202
100
AcDbEntity
  8
0
 62
     0
100
AcDbLine
 10
126.660899
 20
131.080317
 30
0.0
 11
126.85858
 21
131.277998
 31
0.0
  0
LINE
  5
203
100
AcDbEntity
  8
0
 62
     0
100
AcDbLine
 10
126.837676
 20
131.080317
 30
0.0
 11
126.909448
 21
131.152088
 31
0.0
  0
ENDBLK
  5
205
100
AcDbEntity
  8
0
100
AcDbBlockEnd
  0
BLOCK
  5
215
100
AcDbEntity
  8
0
100
AcDbBlockBegin
  2
*X6
 70
    65
 10
0.0
 20
0.0
 30
0.0
  3
*X6
  1

  0
LINE
  5
208
100
AcDbEntity
  8
0
 62
     0
100
AcDbLine
 10
116.022141
 20
123.623539
 30
0.0
 11
116.198062
 21
123.79946
 31
0.0
  0
LINE
  5
209
100
AcDbEntity
  8
0
 62
     0
100
AcDbLine
 10
115.803894
 20
123.582068
 30
0.0
 11
116.239532
 21
124.017707
 31
0.0
  0
LINE
  5
20A
100
AcDbEntity
  8
0
 62
     0
100
AcDbLine
 10
115.665876
 20
123.620828
 30
0.0
 11
116.200773
 21
124.155724
 31
0.0
  0
LINE
  5
20B
100
AcDbEntity
  8
0
 62
     0
100
AcDbLine
 10
115.562117
 20
123.693845
 30
0.0
 11
116.127755
 21
124.259483
 31
0.0
  0
LINE
  5
20C
100
AcDbEntity
  8
0
 62
     0
100
AcDbLine
 10
115.486696
 20
123.795201
 30
0.0
 11
116.026399
 21
124.334904
 31
0.0
  0
LINE
  5
20D
100
AcDbEntity
  8
0
 62
     0
100
AcDbLine
 10
115.44449
 20
123.929771
 30
0.0
 11
115.891829
 21
124.37711
 31
0.0
  0
LINE
  5
20E
100
AcDbEntity
  8
0
 62
     0
100
AcDbLine
 10
115.472015
 20
124.134074
 30
0.0
 11
115.687527
 21
124.349585
 31
0.0
  0
LINE
  5
20F
100
AcDbEntity
  8
0
 62
     0
100
AcDbLine
 10
145.449128
 20
124.059148
 30
0.0
 11
145.762452
 21
124.372472
 31
0.0
  0
LINE
  5
210
100
AcDbEntity
  8
0
 62
     0
100
AcDbLine
 10
145.4526
 20
123.885843
 30
0.0
 11
145.935757
 21
124.369
 31
0.0
  0
LINE
  5
211
100
AcDbEntity
  8
0
 62
     0
100
AcDbLine
 10
145.505886
 20
123.762352
 30
0.0
 11
146.059248
 21
124.315714
 31
0.0
  0
LINE
  5
212
100
AcDbEntity
  8
0
 62
     0
100
AcDbLine
 10
145.589673
 20
123.669363
 30
0.0
 11
146.152237
 21
124.231927
 31
0.0
  0
LINE
  5
213
100
AcDbEntity
  8
0
 62
     0
100
AcDbLine
 10
145.702319
 20
123.605232
 30
0.0
 11
146.216369
 21
124.119282
 31
0.0
  0
LINE
  5
214
100
AcDbEntity
  8
0
 62
     0
100
AcDbLine
 10
145.854395
 20
123.580532
 30
0.0
 11
146.241069
 21
123.967205
 31
0.0
  0
ENDBLK
  5
216
100
AcDbEntity
  8
0
100
AcDbBlockEnd
  0
BLOCK
  5
474
100
AcDbEntity
  8
0
100
AcDbBlockBegin
  2
*X7
 70
    65
 10
0.0
 20
0.0
 30
0.0
  3
*X7
  1

  0
LINE
  5
36D
100
AcDbEntity
  8
0
 62
     0
100
AcDbLine
 10
235.728314
 20
126.480317
 30
0.0
 11
236.341283
 21
127.093286
 31
0.0
  0
LINE
  5
36E
100
AcDbEntity
  8
0
 62
     0
100
AcDbLine
 10
235.551538
 20
126.480317
 30
0.0
 11
236.341283
 21
127.270062
 31
0.0
  0
LINE
  5
36F
100
AcDbEntity
  8
0
 62
     0
100
AcDbLine
 10
235.374761
 20
126.480317
 30
0.0
 11
236.341283
 21
127.446839
 31
0.0
  0
LINE
  5
370
100
AcDbEntity
  8
0
 62
     0
100
AcDbLine
 10
235.197984
 20
126.480317
 30
0.0
 11
236.197984
 21
127.480317
 31
0.0
  0
LINE
  5
371
100
AcDbEntity
  8
0
 62
     0
100
AcDbLine
 10
235.021208
 20
126.480317
 30
0.0
 11
236.021208
 21
127.480317
 31
0.0
  0
LINE
  5
372
100
AcDbEntity
  8
0
 62
     0
100
AcDbLine
 10
234.844431
 20
126.480317
 30
0.0
 11
235.844431
 21
127.480317
 31
0.0
  0
LINE
  5
373
100
AcDbEntity
  8
0
 62
     0
100
AcDbLine
 10
234.667654
 20
126.480317
 30
0.0
 11
235.667654
 21
127.480317
 31
0.0
  0
LINE
  5
374
100
AcDbEntity
  8
0
 62
     0
100
AcDbLine
 10
234.490878
 20
126.480317
 30
0.0
 11
235.490878
 21
127.480317
 31
0.0
  0
LINE
  5
375
100
AcDbEntity
  8
0
 62
     0
100
AcDbLine
 10
234.314101
 20
126.480317
 30
0.0
 11
235.314101
 21
127.480317
 31
0.0
  0
LINE
  5
376
100
AcDbEntity
  8
0
 62
     0
100
AcDbLine
 10
234.137324
 20
126.480317
 30
0.0
 11
235.137324
 21
127.480317
 31
0.0
  0
LINE
  5
377
100
AcDbEntity
  8
0
 62
     0
100
AcDbLine
 10
233.960548
 20
126.480317
 30
0.0
 11
234.960548
 21
127.480317
 31
0.0
  0
LINE
  5
378
100
AcDbEntity
  8
0
 62
     0
100
AcDbLine
 10
233.783771
 20
126.480317
 30
0.0
 11
234.783771
 21
127.480317
 31
0.0
  0
LINE
  5
379
100
AcDbEntity
  8
0
 62
     0
100
AcDbLine
 10
233.606994
 20
126.480317
 30
0.0
 11
234.606994
 21
127.480317
 31
0.0
  0
LINE
  5
37A
100
AcDbEntity
  8
0
 62
     0
100
AcDbLine
 10
233.430217
 20
126.480317
 30
0.0
 11
234.430217
 21
127.480317
 31
0.0
  0
LINE
  5
37B
100
AcDbEntity
  8
0
 62
     0
100
AcDbLine
 10
233.253441
 20
126.480317
 30
0.0
 11
234.253441
 21
127.480317
 31
0.0
  0
LINE
  5
37C
100
AcDbEntity
  8
0
 62
     0
100
AcDbLine
 10
233.076664
 20
126.480317
 30
0.0
 11
234.076664
 21
127.480317
 31
0.0
  0
LINE
  5
37D
100
AcDbEntity
  8
0
 62
     0
100
AcDbLine
 10
232.899887
 20
126.480317
 30
0.0
 11
233.899887
 21
127.480317
 31
0.0
  0
LINE
  5
37E
100
AcDbEntity
  8
0
 62
     0
100
AcDbLine
 10
232.723111
 20
126.480317
 30
0.0
 11
233.723111
 21
127.480317
 31
0.0
  0
LINE
  5
37F
100
AcDbEntity
  8
0
 62
     0
100
AcDbLine
 10
232.546334
 20
126.480317
 30
0.0
 11
233.546334
 21
127.480317
 31
0.0
  0
LINE
  5
380
100
AcDbEntity
  8
0
 62
     0
100
AcDbLine
 10
232.369557
 20
126.480317
 30
0.0
 11
233.369557
 21
127.480317
 31
0.0
  0
LINE
  5
381
100
AcDbEntity
  8
0
 62
     0
100
AcDbLine
 10
232.192781
 20
126.480317
 30
0.0
 11
233.192781
 21
127.480317
 31
0.0
  0
LINE
  5
382
100
AcDbEntity
  8
0
 62
     0
100
AcDbLine
 10
232.016004
 20
126.480317
 30
0.0
 11
233.016004
 21
127.480317
 31
0.0
  0
LINE
  5
383
100
AcDbEntity
  8
0
 62
     0
100
AcDbLine
 10
231.839227
 20
126.480317
 30
0.0
 11
232.839227
 21
127.480317
 31
0.0
  0
LINE
  5
384
100
AcDbEntity
  8
0
 62
     0
100
AcDbLine
 10
231.662451
 20
126.480317
 30
0.0
 11
232.662451
 21
127.480317
 31
0.0
  0
LINE
  5
385
100
AcDbEntity
  8
0
 62
     0
100
AcDbLine
 10
231.485674
 20
126.480317
 30
0.0
 11
232.485674
 21
127.480317
 31
0.0
  0
LINE
  5
386
100
AcDbEntity
  8
0
 62
     0
100
AcDbLine
 10
231.308897
 20
126.480317
 30
0.0
 11
232.308897
 21
127.480317
 31
0.0
  0
LINE
  5
387
100
AcDbEntity
  8
0
 62
     0
100
AcDbLine
 10
231.13212
 20
126.480317
 30
0.0
 11
232.13212
 21
127.480317
 31
0.0
  0
LINE
  5
388
100
AcDbEntity
  8
0
 62
     0
100
AcDbLine
 10
230.955344
 20
126.480317
 30
0.0
 11
231.955344
 21
127.480317
 31
0.0
  0
LINE
  5
389
100
AcDbEntity
  8
0
 62
     0
100
AcDbLine
 10
230.778567
 20
126.480317
 30
0.0
 11
231.778567
 21
127.480317
 31
0.0
  0
LINE
  5
38A
100
AcDbEntity
  8
0
 62
     0
100
AcDbLine
 10
230.60179
 20
126.480317
 30
0.0
 11
231.60179
 21
127.480317
 31
0.0
  0
LINE
  5
38B
100
AcDbEntity
  8
0
 62
     0
100
AcDbLine
 10
230.425014
 20
126.480317
 30
0.0
 11
231.425014
 21
127.480317
 31
0.0
  0
LINE
  5
38C
100
AcDbEntity
  8
0
 62
     0
100
AcDbLine
 10
230.248237
 20
126.480317
 30
0.0
 11
231.248237
 21
127.480317
 31
0.0
  0
LINE
  5
38D
100
AcDbEntity
  8
0
 62
     0
100
AcDbLine
 10
230.07146
 20
126.480317
 30
0.0
 11
231.07146
 21
127.480317
 31
0.0
  0
LINE
  5
38E
100
AcDbEntity
  8
0
 62
     0
100
AcDbLine
 10
229.894684
 20
126.480317
 30
0.0
 11
230.894684
 21
127.480317
 31
0.0
  0
LINE
  5
38F
100
AcDbEntity
  8
0
 62
     0
100
AcDbLine
 10
229.717907
 20
126.480317
 30
0.0
 11
230.717907
 21
127.480317
 31
0.0
  0
LINE
  5
390
100
AcDbEntity
  8
0
 62
     0
100
AcDbLine
 10
229.54113
 20
126.480317
 30
0.0
 11
230.54113
 21
127.480317
 31
0.0
  0
LINE
  5
391
100
AcDbEntity
  8
0
 62
     0
100
AcDbLine
 10
229.364353
 20
126.480317
 30
0.0
 11
230.364353
 21
127.480317
 31
0.0
  0
LINE
  5
392
100
AcDbEntity
  8
0
 62
     0
100
AcDbLine
 10
229.187577
 20
126.480317
 30
0.0
 11
230.187577
 21
127.480317
 31
0.0
  0
LINE
  5
393
100
AcDbEntity
  8
0
 62
     0
100
AcDbLine
 10
229.0108
 20
126.480317
 30
0.0
 11
230.0108
 21
127.480317
 31
0.0
  0
LINE
  5
394
100
AcDbEntity
  8
0
 62
     0
100
AcDbLine
 10
228.834023
 20
126.480317
 30
0.0
 11
229.834023
 21
127.480317
 31
0.0
  0
LINE
  5
395
100
AcDbEntity
  8
0
 62
     0
100
AcDbLine
 10
228.657247
 20
126.480317
 30
0.0
 11
229.657247
 21
127.480317
 31
0.0
  0
LINE
  5
396
100
AcDbEntity
  8
0
 62
     0
100
AcDbLine
 10
228.48047
 20
126.480317
 30
0.0
 11
229.48047
 21
127.480317
 31
0.0
  0
LINE
  5
397
100
AcDbEntity
  8
0
 62
     0
100
AcDbLine
 10
228.303693
 20
126.480317
 30
0.0
 11
229.303693
 21
127.480317
 31
0.0
  0
LINE
  5
398
100
AcDbEntity
  8
0
 62
     0
100
AcDbLine
 10
228.126917
 20
126.480317
 30
0.0
 11
229.126917
 21
127.480317
 31
0.0
  0
LINE
  5
399
100
AcDbEntity
  8
0
 62
     0
100
AcDbLine
 10
227.95014
 20
126.480317
 30
0.0
 11
228.95014
 21
127.480317
 31
0.0
  0
LINE
  5
39A
100
AcDbEntity
  8
0
 62
     0
100
AcDbLine
 10
227.773363
 20
126.480317
 30
0.0
 11
228.773363
 21
127.480317
 31
0.0
  0
LINE
  5
39B
100
AcDbEntity
  8
0
 62
     0
100
AcDbLine
 10
227.596587
 20
126.480317
 30
0.0
 11
228.596587
 21
127.480317
 31
0.0
  0
LINE
  5
39C
100
AcDbEntity
  8
0
 62
     0
100
AcDbLine
 10
227.41981
 20
126.480317
 30
0.0
 11
228.41981
 21
127.480317
 31
0.0
  0
LINE
  5
39D
100
AcDbEntity
  8
0
 62
     0
100
AcDbLine
 10
227.243033
 20
126.480317
 30
0.0
 11
228.243033
 21
127.480317
 31
0.0
  0
LINE
  5
39E
100
AcDbEntity
  8
0
 62
     0
100
AcDbLine
 10
227.066256
 20
126.480317
 30
0.0
 11
228.066256
 21
127.480317
 31
0.0
  0
LINE
  5
39F
100
AcDbEntity
  8
0
 62
     0
100
AcDbLine
 10
226.88948
 20
126.480317
 30
0.0
 11
227.88948
 21
127.480317
 31
0.0
  0
LINE
  5
3A0
100
AcDbEntity
  8
0
 62
     0
100
AcDbLine
 10
226.712703
 20
126.480317
 30
0.0
 11
227.712703
 21
127.480317
 31
0.0
  0
LINE
  5
3A1
100
AcDbEntity
  8
0
 62
     0
100
AcDbLine
 10
226.535926
 20
126.480317
 30
0.0
 11
227.535926
 21
127.480317
 31
0.0
  0
LINE
  5
3A2
100
AcDbEntity
  8
0
 62
     0
100
AcDbLine
 10
226.35915
 20
126.480317
 30
0.0
 11
227.35915
 21
127.480317
 31
0.0
  0
LINE
  5
3A3
100
AcDbEntity
  8
0
 62
     0
100
AcDbLine
 10
226.182373
 20
126.480317
 30
0.0
 11
227.182373
 21
127.480317
 31
0.0
  0
LINE
  5
3A4
100
AcDbEntity
  8
0
 62
     0
100
AcDbLine
 10
226.005596
 20
126.480317
 30
0.0
 11
227.005596
 21
127.480317
 31
0.0
  0
LINE
  5
3A5
100
AcDbEntity
  8
0
 62
     0
100
AcDbLine
 10
225.82882
 20
126.480317
 30
0.0
 11
226.82882
 21
127.480317
 31
0.0
  0
LINE
  5
3A6
100
AcDbEntity
  8
0
 62
     0
100
AcDbLine
 10
225.652043
 20
126.480317
 30
0.0
 11
226.652043
 21
127.480317
 31
0.0
  0
LINE
  5
3A7
100
AcDbEntity
  8
0
 62
     0
100
AcDbLine
 10
225.475266
 20
126.480317
 30
0.0
 11
226.475266
 21
127.480317
 31
0.0
  0
LINE
  5
3A8
100
AcDbEntity
  8
0
 62
     0
100
AcDbLine
 10
225.298489
 20
126.480317
 30
0.0
 11
226.298489
 21
127.480317
 31
0.0
  0
LINE
  5
3A9
100
AcDbEntity
  8
0
 62
     0
100
AcDbLine
 10
225.121713
 20
126.480317
 30
0.0
 11
226.121713
 21
127.480317
 31
0.0
  0
LINE
  5
3AA
100
AcDbEntity
  8
0
 62
     0
100
AcDbLine
 10
224.944936
 20
126.480317
 30
0.0
 11
225.944936
 21
127.480317
 31
0.0
  0
LINE
  5
3AB
100
AcDbEntity
  8
0
 62
     0
100
AcDbLine
 10
224.768159
 20
126.480317
 30
0.0
 11
225.768159
 21
127.480317
 31
0.0
  0
LINE
  5
3AC
100
AcDbEntity
  8
0
 62
     0
100
AcDbLine
 10
224.591383
 20
126.480317
 30
0.0
 11
225.591383
 21
127.480317
 31
0.0
  0
LINE
  5
3AD
100
AcDbEntity
  8
0
 62
     0
100
AcDbLine
 10
224.414606
 20
126.480317
 30
0.0
 11
225.414606
 21
127.480317
 31
0.0
  0
LINE
  5
3AE
100
AcDbEntity
  8
0
 62
     0
100
AcDbLine
 10
224.237829
 20
126.480317
 30
0.0
 11
225.237829
 21
127.480317
 31
0.0
  0
LINE
  5
3AF
100
AcDbEntity
  8
0
 62
     0
100
AcDbLine
 10
224.061053
 20
126.480317
 30
0.0
 11
225.061053
 21
127.480317
 31
0.0
  0
LINE
  5
3B0
100
AcDbEntity
  8
0
 62
     0
100
AcDbLine
 10
223.884276
 20
126.480317
 30
0.0
 11
224.884276
 21
127.480317
 31
0.0
  0
LINE
  5
3B1
100
AcDbEntity
  8
0
 62
     0
100
AcDbLine
 10
223.707499
 20
126.480317
 30
0.0
 11
224.707499
 21
127.480317
 31
0.0
  0
LINE
  5
3B2
100
AcDbEntity
  8
0
 62
     0
100
AcDbLine
 10
223.530723
 20
126.480317
 30
0.0
 11
224.530723
 21
127.480317
 31
0.0
  0
LINE
  5
3B3
100
AcDbEntity
  8
0
 62
     0
100
AcDbLine
 10
223.353946
 20
126.480317
 30
0.0
 11
224.353946
 21
127.480317
 31
0.0
  0
LINE
  5
3B4
100
AcDbEntity
  8
0
 62
     0
100
AcDbLine
 10
223.177169
 20
126.480317
 30
0.0
 11
224.177169
 21
127.480317
 31
0.0
  0
LINE
  5
3B5
100
AcDbEntity
  8
0
 62
     0
100
AcDbLine
 10
223.000392
 20
126.480317
 30
0.0
 11
224.000392
 21
127.480317
 31
0.0
  0
LINE
  5
3B6
100
AcDbEntity
  8
0
 62
     0
100
AcDbLine
 10
222.823616
 20
126.480317
 30
0.0
 11
223.823616
 21
127.480317
 31
0.0
  0
LINE
  5
3B7
100
AcDbEntity
  8
0
 62
     0
100
AcDbLine
 10
222.646839
 20
126.480317
 30
0.0
 11
223.646839
 21
127.480317
 31
0.0
  0
LINE
  5
3B8
100
AcDbEntity
  8
0
 62
     0
100
AcDbLine
 10
222.470062
 20
126.480317
 30
0.0
 11
223.470062
 21
127.480317
 31
0.0
  0
LINE
  5
3B9
100
AcDbEntity
  8
0
 62
     0
100
AcDbLine
 10
222.293286
 20
126.480317
 30
0.0
 11
223.293286
 21
127.480317
 31
0.0
  0
LINE
  5
3BA
100
AcDbEntity
  8
0
 62
     0
100
AcDbLine
 10
222.116509
 20
126.480317
 30
0.0
 11
223.116509
 21
127.480317
 31
0.0
  0
LINE
  5
3BB
100
AcDbEntity
  8
0
 62
     0
100
AcDbLine
 10
221.939732
 20
126.480317
 30
0.0
 11
222.939732
 21
127.480317
 31
0.0
  0
LINE
  5
3BC
100
AcDbEntity
  8
0
 62
     0
100
AcDbLine
 10
221.762956
 20
126.480317
 30
0.0
 11
222.762956
 21
127.480317
 31
0.0
  0
LINE
  5
3BD
100
AcDbEntity
  8
0
 62
     0
100
AcDbLine
 10
221.586179
 20
126.480317
 30
0.0
 11
222.586179
 21
127.480317
 31
0.0
  0
LINE
  5
3BE
100
AcDbEntity
  8
0
 62
     0
100
AcDbLine
 10
221.409402
 20
126.480317
 30
0.0
 11
222.409402
 21
127.480317
 31
0.0
  0
LINE
  5
3BF
100
AcDbEntity
  8
0
 62
     0
100
AcDbLine
 10
221.232625
 20
126.480317
 30
0.0
 11
222.232625
 21
127.480317
 31
0.0
  0
LINE
  5
3C0
100
AcDbEntity
  8
0
 62
     0
100
AcDbLine
 10
221.055849
 20
126.480317
 30
0.0
 11
222.055849
 21
127.480317
 31
0.0
  0
LINE
  5
3C1
100
AcDbEntity
  8
0
 62
     0
100
AcDbLine
 10
220.879072
 20
126.480317
 30
0.0
 11
221.879072
 21
127.480317
 31
0.0
  0
LINE
  5
3C2
100
AcDbEntity
  8
0
 62
     0
100
AcDbLine
 10
220.702295
 20
126.480317
 30
0.0
 11
221.702295
 21
127.480317
 31
0.0
  0
LINE
  5
3C3
100
AcDbEntity
  8
0
 62
     0
100
AcDbLine
 10
220.525519
 20
126.480317
 30
0.0
 11
221.525519
 21
127.480317
 31
0.0
  0
LINE
  5
3C4
100
AcDbEntity
  8
0
 62
     0
100
AcDbLine
 10
220.348742
 20
126.480317
 30
0.0
 11
221.348742
 21
127.480317
 31
0.0
  0
LINE
  5
3C5
100
AcDbEntity
  8
0
 62
     0
100
AcDbLine
 10
220.171965
 20
126.480317
 30
0.0
 11
221.171965
 21
127.480317
 31
0.0
  0
LINE
  5
3C6
100
AcDbEntity
  8
0
 62
     0
100
AcDbLine
 10
219.995189
 20
126.480317
 30
0.0
 11
220.995189
 21
127.480317
 31
0.0
  0
LINE
  5
3C7
100
AcDbEntity
  8
0
 62
     0
100
AcDbLine
 10
219.818412
 20
126.480317
 30
0.0
 11
220.818412
 21
127.480317
 31
0.0
  0
LINE
  5
3C8
100
AcDbEntity
  8
0
 62
     0
100
AcDbLine
 10
219.641635
 20
126.480317
 30
0.0
 11
220.641635
 21
127.480317
 31
0.0
  0
LINE
  5
3C9
100
AcDbEntity
  8
0
 62
     0
100
AcDbLine
 10
219.464859
 20
126.480317
 30
0.0
 11
220.464859
 21
127.480317
 31
0.0
  0
LINE
  5
3CA
100
AcDbEntity
  8
0
 62
     0
100
AcDbLine
 10
219.288082
 20
126.480317
 30
0.0
 11
220.288082
 21
127.480317
 31
0.0
  0
LINE
  5
3CB
100
AcDbEntity
  8
0
 62
     0
100
AcDbLine
 10
219.111305
 20
126.480317
 30
0.0
 11
220.111305
 21
127.480317
 31
0.0
  0
LINE
  5
3CC
100
AcDbEntity
  8
0
 62
     0
100
AcDbLine
 10
218.934528
 20
126.480317
 30
0.0
 11
219.934528
 21
127.480317
 31
0.0
  0
LINE
  5
3CD
100
AcDbEntity
  8
0
 62
     0
100
AcDbLine
 10
218.841283
 20
126.563849
 30
0.0
 11
219.757752
 21
127.480317
 31
0.0
  0
LINE
  5
3CE
100
AcDbEntity
  8
0
 62
     0
100
AcDbLine
 10
218.841283
 20
126.740625
 30
0.0
 11
219.580975
 21
127.480317
 31
0.0
  0
LINE
  5
3CF
100
AcDbEntity
  8
0
 62
     0
100
AcDbLine
 10
218.841283
 20
126.917402
 30
0.0
 11
219.404198
 21
127.480317
 31
0.0
  0
LINE
  5
3D0
100
AcDbEntity
  8
0
 62
     0
100
AcDbLine
 10
218.841283
 20
127.094179
 30
0.0
 11
219.227422
 21
127.480317
 31
0.0
  0
LINE
  5
3D1
100
AcDbEntity
  8
0
 62
     0
100
AcDbLine
 10
218.841283
 20
127.270955
 30
0.0
 11
219.050645
 21
127.480317
 31
0.0
  0
LINE
  5
3D2
100
AcDbEntity
  8
0
 62
     0
100
AcDbLine
 10
218.841283
 20
127.447732
 30
0.0
 11
218.873868
 21
127.480317
 31
0.0
  0
LINE
  5
3D3
100
AcDbEntity
  8
0
 62
     0
100
AcDbLine
 10
204.792393
 20
126.480317
 30
0.0
 11
204.841283
 21
126.529207
 31
0.0
  0
LINE
  5
3D4
100
AcDbEntity
  8
0
 62
     0
100
AcDbLine
 10
204.615616
 20
126.480317
 30
0.0
 11
204.841283
 21
126.705984
 31
0.0
  0
LINE
  5
3D5
100
AcDbEntity
  8
0
 62
     0
100
AcDbLine
 10
204.438839
 20
126.480317
 30
0.0
 11
204.841283
 21
126.882761
 31
0.0
  0
LINE
  5
3D6
100
AcDbEntity
  8
0
 62
     0
100
AcDbLine
 10
204.262063
 20
126.480317
 30
0.0
 11
204.841283
 21
127.059538
 31
0.0
  0
LINE
  5
3D7
100
AcDbEntity
  8
0
 62
     0
100
AcDbLine
 10
204.085286
 20
126.480317
 30
0.0
 11
204.841283
 21
127.236314
 31
0.0
  0
LINE
  5
3D8
100
AcDbEntity
  8
0
 62
     0
100
AcDbLine
 10
203.908509
 20
126.480317
 30
0.0
 11
204.841283
 21
127.413091
 31
0.0
  0
LINE
  5
3D9
100
AcDbEntity
  8
0
 62
     0
100
AcDbLine
 10
203.731733
 20
126.480317
 30
0.0
 11
204.731733
 21
127.480317
 31
0.0
  0
LINE
  5
3DA
100
AcDbEntity
  8
0
 62
     0
100
AcDbLine
 10
203.554956
 20
126.480317
 30
0.0
 11
204.554956
 21
127.480317
 31
0.0
  0
LINE
  5
3DB
100
AcDbEntity
  8
0
 62
     0
100
AcDbLine
 10
203.378179
 20
126.480317
 30
0.0
 11
204.378179
 21
127.480317
 31
0.0
  0
LINE
  5
3DC
100
AcDbEntity
  8
0
 62
     0
100
AcDbLine
 10
203.201403
 20
126.480317
 30
0.0
 11
204.201403
 21
127.480317
 31
0.0
  0
LINE
  5
3DD
100
AcDbEntity
  8
0
 62
     0
100
AcDbLine
 10
203.024626
 20
126.480317
 30
0.0
 11
204.024626
 21
127.480317
 31
0.0
  0
LINE
  5
3DE
100
AcDbEntity
  8
0
 62
     0
100
AcDbLine
 10
202.847849
 20
126.480317
 30
0.0
 11
203.847849
 21
127.480317
 31
0.0
  0
LINE
  5
3DF
100
AcDbEntity
  8
0
 62
     0
100
AcDbLine
 10
202.671072
 20
126.480317
 30
0.0
 11
203.671072
 21
127.480317
 31
0.0
  0
LINE
  5
3E0
100
AcDbEntity
  8
0
 62
     0
100
AcDbLine
 10
202.494296
 20
126.480317
 30
0.0
 11
203.494296
 21
127.480317
 31
0.0
  0
LINE
  5
3E1
100
AcDbEntity
  8
0
 62
     0
100
AcDbLine
 10
202.317519
 20
126.480317
 30
0.0
 11
203.317519
 21
127.480317
 31
0.0
  0
LINE
  5
3E2
100
AcDbEntity
  8
0
 62
     0
100
AcDbLine
 10
202.140742
 20
126.480317
 30
0.0
 11
203.140742
 21
127.480317
 31
0.0
  0
LINE
  5
3E3
100
AcDbEntity
  8
0
 62
     0
100
AcDbLine
 10
201.963966
 20
126.480317
 30
0.0
 11
202.963966
 21
127.480317
 31
0.0
  0
LINE
  5
3E4
100
AcDbEntity
  8
0
 62
     0
100
AcDbLine
 10
201.787189
 20
126.480317
 30
0.0
 11
202.787189
 21
127.480317
 31
0.0
  0
LINE
  5
3E5
100
AcDbEntity
  8
0
 62
     0
100
AcDbLine
 10
201.610412
 20
126.480317
 30
0.0
 11
202.610412
 21
127.480317
 31
0.0
  0
LINE
  5
3E6
100
AcDbEntity
  8
0
 62
     0
100
AcDbLine
 10
201.433636
 20
126.480317
 30
0.0
 11
202.433636
 21
127.480317
 31
0.0
  0
LINE
  5
3E7
100
AcDbEntity
  8
0
 62
     0
100
AcDbLine
 10
201.256859
 20
126.480317
 30
0.0
 11
202.256859
 21
127.480317
 31
0.0
  0
LINE
  5
3E8
100
AcDbEntity
  8
0
 62
     0
100
AcDbLine
 10
201.080082
 20
126.480317
 30
0.0
 11
202.080082
 21
127.480317
 31
0.0
  0
LINE
  5
3E9
100
AcDbEntity
  8
0
 62
     0
100
AcDbLine
 10
200.903306
 20
126.480317
 30
0.0
 11
201.903306
 21
127.480317
 31
0.0
  0
LINE
  5
3EA
100
AcDbEntity
  8
0
 62
     0
100
AcDbLine
 10
200.726529
 20
126.480317
 30
0.0
 11
201.726529
 21
127.480317
 31
0.0
  0
LINE
  5
3EB
100
AcDbEntity
  8
0
 62
     0
100
AcDbLine
 10
200.549752
 20
126.480317
 30
0.0
 11
201.549752
 21
127.480317
 31
0.0
  0
LINE
  5
3EC
100
AcDbEntity
  8
0
 62
     0
100
AcDbLine
 10
200.372975
 20
126.480317
 30
0.0
 11
201.372975
 21
127.480317
 31
0.0
  0
LINE
  5
3ED
100
AcDbEntity
  8
0
 62
     0
100
AcDbLine
 10
200.196199
 20
126.480317
 30
0.0
 11
201.196199
 21
127.480317
 31
0.0
  0
LINE
  5
3EE
100
AcDbEntity
  8
0
 62
     0
100
AcDbLine
 10
200.019422
 20
126.480317
 30
0.0
 11
201.019422
 21
127.480317
 31
0.0
  0
LINE
  5
3EF
100
AcDbEntity
  8
0
 62
     0
100
AcDbLine
 10
199.842645
 20
126.480317
 30
0.0
 11
200.842645
 21
127.480317
 31
0.0
  0
LINE
  5
3F0
100
AcDbEntity
  8
0
 62
     0
100
AcDbLine
 10
199.665869
 20
126.480317
 30
0.0
 11
200.665869
 21
127.480317
 31
0.0
  0
LINE
  5
3F1
100
AcDbEntity
  8
0
 62
     0
100
AcDbLine
 10
199.489092
 20
126.480317
 30
0.0
 11
200.489092
 21
127.480317
 31
0.0
  0
LINE
  5
3F2
100
AcDbEntity
  8
0
 62
     0
100
AcDbLine
 10
199.312315
 20
126.480317
 30
0.0
 11
200.312315
 21
127.480317
 31
0.0
  0
LINE
  5
3F3
100
AcDbEntity
  8
0
 62
     0
100
AcDbLine
 10
199.135539
 20
126.480317
 30
0.0
 11
200.135539
 21
127.480317
 31
0.0
  0
LINE
  5
3F4
100
AcDbEntity
  8
0
 62
     0
100
AcDbLine
 10
198.958762
 20
126.480317
 30
0.0
 11
199.958762
 21
127.480317
 31
0.0
  0
LINE
  5
3F5
100
AcDbEntity
  8
0
 62
     0
100
AcDbLine
 10
198.781985
 20
126.480317
 30
0.0
 11
199.781985
 21
127.480317
 31
0.0
  0
LINE
  5
3F6
100
AcDbEntity
  8
0
 62
     0
100
AcDbLine
 10
198.605208
 20
126.480317
 30
0.0
 11
199.605208
 21
127.480317
 31
0.0
  0
LINE
  5
3F7
100
AcDbEntity
  8
0
 62
     0
100
AcDbLine
 10
198.428432
 20
126.480317
 30
0.0
 11
199.428432
 21
127.480317
 31
0.0
  0
LINE
  5
3F8
100
AcDbEntity
  8
0
 62
     0
100
AcDbLine
 10
198.251655
 20
126.480317
 30
0.0
 11
199.251655
 21
127.480317
 31
0.0
  0
LINE
  5
3F9
100
AcDbEntity
  8
0
 62
     0
100
AcDbLine
 10
198.074878
 20
126.480317
 30
0.0
 11
199.074878
 21
127.480317
 31
0.0
  0
LINE
  5
3FA
100
AcDbEntity
  8
0
 62
     0
100
AcDbLine
 10
197.898102
 20
126.480317
 30
0.0
 11
198.898102
 21
127.480317
 31
0.0
  0
LINE
  5
3FB
100
AcDbEntity
  8
0
 62
     0
100
AcDbLine
 10
197.721325
 20
126.480317
 30
0.0
 11
198.721325
 21
127.480317
 31
0.0
  0
LINE
  5
3FC
100
AcDbEntity
  8
0
 62
     0
100
AcDbLine
 10
197.544548
 20
126.480317
 30
0.0
 11
198.544548
 21
127.480317
 31
0.0
  0
LINE
  5
3FD
100
AcDbEntity
  8
0
 62
     0
100
AcDbLine
 10
197.367772
 20
126.480317
 30
0.0
 11
198.367772
 21
127.480317
 31
0.0
  0
LINE
  5
3FE
100
AcDbEntity
  8
0
 62
     0
100
AcDbLine
 10
197.190995
 20
126.480317
 30
0.0
 11
198.190995
 21
127.480317
 31
0.0
  0
LINE
  5
3FF
100
AcDbEntity
  8
0
 62
     0
100
AcDbLine
 10
197.014218
 20
126.480317
 30
0.0
 11
198.014218
 21
127.480317
 31
0.0
  0
LINE
  5
400
100
AcDbEntity
  8
0
 62
     0
100
AcDbLine
 10
196.837442
 20
126.480317
 30
0.0
 11
197.837442
 21
127.480317
 31
0.0
  0
LINE
  5
401
100
AcDbEntity
  8
0
 62
     0
100
AcDbLine
 10
196.660665
 20
126.480317
 30
0.0
 11
197.660665
 21
127.480317
 31
0.0
  0
LINE
  5
402
100
AcDbEntity
  8
0
 62
     0
100
AcDbLine
 10
196.483888
 20
126.480317
 30
0.0
 11
197.483888
 21
127.480317
 31
0.0
  0
LINE
  5
403
100
AcDbEntity
  8
0
 62
     0
100
AcDbLine
 10
196.307111
 20
126.480317
 30
0.0
 11
197.307111
 21
127.480317
 31
0.0
  0
LINE
  5
404
100
AcDbEntity
  8
0
 62
     0
100
AcDbLine
 10
196.130335
 20
126.480317
 30
0.0
 11
197.130335
 21
127.480317
 31
0.0
  0
LINE
  5
405
100
AcDbEntity
  8
0
 62
     0
100
AcDbLine
 10
195.953558
 20
126.480317
 30
0.0
 11
196.953558
 21
127.480317
 31
0.0
  0
LINE
  5
406
100
AcDbEntity
  8
0
 62
     0
100
AcDbLine
 10
195.776781
 20
126.480317
 30
0.0
 11
196.776781
 21
127.480317
 31
0.0
  0
LINE
  5
407
100
AcDbEntity
  8
0
 62
     0
100
AcDbLine
 10
195.600005
 20
126.480317
 30
0.0
 11
196.600005
 21
127.480317
 31
0.0
  0
LINE
  5
408
100
AcDbEntity
  8
0
 62
     0
100
AcDbLine
 10
195.423228
 20
126.480317
 30
0.0
 11
196.423228
 21
127.480317
 31
0.0
  0
LINE
  5
409
100
AcDbEntity
  8
0
 62
     0
100
AcDbLine
 10
195.254109
 20
126.487975
 30
0.0
 11
196.246451
 21
127.480317
 31
0.0
  0
LINE
  5
40A
100
AcDbEntity
  8
0
 62
     0
100
AcDbLine
 10
195.120876
 20
126.531518
 30
0.0
 11
196.069675
 21
127.480317
 31
0.0
  0
LINE
  5
40B
100
AcDbEntity
  8
0
 62
     0
100
AcDbLine
 10
195.01448
 20
126.601899
 30
0.0
 11
195.892898
 21
127.480317
 31
0.0
  0
LINE
  5
40C
100
AcDbEntity
  8
0
 62
     0
100
AcDbLine
 10
194.930732
 20
126.694927
 30
0.0
 11
195.716121
 21
127.480317
 31
0.0
  0
LINE
  5
40D
100
AcDbEntity
  8
0
 62
     0
100
AcDbLine
 10
194.870614
 20
126.811586
 30
0.0
 11
195.539344
 21
127.480317
 31
0.0
  0
LINE
  5
40E
100
AcDbEntity
  8
0
 62
     0
100
AcDbLine
 10
194.841718
 20
126.959467
 30
0.0
 11
195.362568
 21
127.480317
 31
0.0
  0
LINE
  5
40F
100
AcDbEntity
  8
0
 62
     0
100
AcDbLine
 10
194.880939
 20
127.175464
 30
0.0
 11
195.146136
 21
127.440662
 31
0.0
  0
LINE
  5
410
100
AcDbEntity
  8
0
 62
     0
100
AcDbLine
 10
235.905091
 20
126.480317
 30
0.0
 11
236.341283
 21
126.916509
 31
0.0
  0
LINE
  5
411
100
AcDbEntity
  8
0
 62
     0
100
AcDbLine
 10
236.081868
 20
126.480317
 30
0.0
 11
236.341283
 21
126.739732
 31
0.0
  0
LINE
  5
412
100
AcDbEntity
  8
0
 62
     0
100
AcDbLine
 10
236.258645
 20
126.480317
 30
0.0
 11
236.341283
 21
126.562956
 31
0.0
  0
LINE
  5
413
100
AcDbEntity
  8
0
 62
     0
100
AcDbLine
 10
261.341283
 20
127.344548
 30
0.0
 11
261.477052
 21
127.480317
 31
0.0
  0
LINE
  5
414
100
AcDbEntity
  8
0
 62
     0
100
AcDbLine
 10
261.341283
 20
127.167772
 30
0.0
 11
261.653829
 21
127.480317
 31
0.0
  0
LINE
  5
415
100
AcDbEntity
  8
0
 62
     0
100
AcDbLine
 10
261.341283
 20
126.990995
 30
0.0
 11
261.830605
 21
127.480317
 31
0.0
  0
LINE
  5
416
100
AcDbEntity
  8
0
 62
     0
100
AcDbLine
 10
261.341283
 20
126.814218
 30
0.0
 11
262.007382
 21
127.480317
 31
0.0
  0
LINE
  5
417
100
AcDbEntity
  8
0
 62
     0
100
AcDbLine
 10
261.341283
 20
126.637442
 30
0.0
 11
262.184159
 21
127.480317
 31
0.0
  0
LINE
  5
418
100
AcDbEntity
  8
0
 62
     0
100
AcDbLine
 10
261.360935
 20
126.480317
 30
0.0
 11
262.360935
 21
127.480317
 31
0.0
  0
LINE
  5
419
100
AcDbEntity
  8
0
 62
     0
100
AcDbLine
 10
261.537712
 20
126.480317
 30
0.0
 11
262.537712
 21
127.480317
 31
0.0
  0
LINE
  5
41A
100
AcDbEntity
  8
0
 62
     0
100
AcDbLine
 10
261.714489
 20
126.480317
 30
0.0
 11
262.714489
 21
127.480317
 31
0.0
  0
LINE
  5
41B
100
AcDbEntity
  8
0
 62
     0
100
AcDbLine
 10
261.891265
 20
126.480317
 30
0.0
 11
262.891265
 21
127.480317
 31
0.0
  0
LINE
  5
41C
100
AcDbEntity
  8
0
 62
     0
100
AcDbLine
 10
262.068042
 20
126.480317
 30
0.0
 11
263.068042
 21
127.480317
 31
0.0
  0
LINE
  5
41D
100
AcDbEntity
  8
0
 62
     0
100
AcDbLine
 10
262.244819
 20
126.480317
 30
0.0
 11
263.244819
 21
127.480317
 31
0.0
  0
LINE
  5
41E
100
AcDbEntity
  8
0
 62
     0
100
AcDbLine
 10
262.421595
 20
126.480317
 30
0.0
 11
263.421595
 21
127.480317
 31
0.0
  0
LINE
  5
41F
100
AcDbEntity
  8
0
 62
     0
100
AcDbLine
 10
262.598372
 20
126.480317
 30
0.0
 11
263.598372
 21
127.480317
 31
0.0
  0
LINE
  5
420
100
AcDbEntity
  8
0
 62
     0
100
AcDbLine
 10
262.775149
 20
126.480317
 30
0.0
 11
263.775149
 21
127.480317
 31
0.0
  0
LINE
  5
421
100
AcDbEntity
  8
0
 62
     0
100
AcDbLine
 10
262.951926
 20
126.480317
 30
0.0
 11
263.951926
 21
127.480317
 31
0.0
  0
LINE
  5
422
100
AcDbEntity
  8
0
 62
     0
100
AcDbLine
 10
263.128702
 20
126.480317
 30
0.0
 11
264.128702
 21
127.480317
 31
0.0
  0
LINE
  5
423
100
AcDbEntity
  8
0
 62
     0
100
AcDbLine
 10
263.305479
 20
126.480317
 30
0.0
 11
264.305479
 21
127.480317
 31
0.0
  0
LINE
  5
424
100
AcDbEntity
  8
0
 62
     0
100
AcDbLine
 10
263.482256
 20
126.480317
 30
0.0
 11
264.482256
 21
127.480317
 31
0.0
  0
LINE
  5
425
100
AcDbEntity
  8
0
 62
     0
100
AcDbLine
 10
263.659032
 20
126.480317
 30
0.0
 11
264.659032
 21
127.480317
 31
0.0
  0
LINE
  5
426
100
AcDbEntity
  8
0
 62
     0
100
AcDbLine
 10
263.835809
 20
126.480317
 30
0.0
 11
264.835809
 21
127.480317
 31
0.0
  0
LINE
  5
427
100
AcDbEntity
  8
0
 62
     0
100
AcDbLine
 10
264.012586
 20
126.480317
 30
0.0
 11
265.012586
 21
127.480317
 31
0.0
  0
LINE
  5
428
100
AcDbEntity
  8
0
 62
     0
100
AcDbLine
 10
264.189362
 20
126.480317
 30
0.0
 11
265.189362
 21
127.480317
 31
0.0
  0
LINE
  5
429
100
AcDbEntity
  8
0
 62
     0
100
AcDbLine
 10
264.366139
 20
126.480317
 30
0.0
 11
265.366139
 21
127.480317
 31
0.0
  0
LINE
  5
42A
100
AcDbEntity
  8
0
 62
     0
100
AcDbLine
 10
264.542916
 20
126.480317
 30
0.0
 11
265.542916
 21
127.480317
 31
0.0
  0
LINE
  5
42B
100
AcDbEntity
  8
0
 62
     0
100
AcDbLine
 10
264.719693
 20
126.480317
 30
0.0
 11
265.719693
 21
127.480317
 31
0.0
  0
LINE
  5
42C
100
AcDbEntity
  8
0
 62
     0
100
AcDbLine
 10
264.896469
 20
126.480317
 30
0.0
 11
265.896469
 21
127.480317
 31
0.0
  0
LINE
  5
42D
100
AcDbEntity
  8
0
 62
     0
100
AcDbLine
 10
265.073246
 20
126.480317
 30
0.0
 11
266.073246
 21
127.480317
 31
0.0
  0
LINE
  5
42E
100
AcDbEntity
  8
0
 62
     0
100
AcDbLine
 10
265.250023
 20
126.480317
 30
0.0
 11
266.250023
 21
127.480317
 31
0.0
  0
LINE
  5
42F
100
AcDbEntity
  8
0
 62
     0
100
AcDbLine
 10
265.426799
 20
126.480317
 30
0.0
 11
266.426799
 21
127.480317
 31
0.0
  0
LINE
  5
430
100
AcDbEntity
  8
0
 62
     0
100
AcDbLine
 10
265.603576
 20
126.480317
 30
0.0
 11
266.603576
 21
127.480317
 31
0.0
  0
LINE
  5
431
100
AcDbEntity
  8
0
 62
     0
100
AcDbLine
 10
265.780353
 20
126.480317
 30
0.0
 11
266.780353
 21
127.480317
 31
0.0
  0
LINE
  5
432
100
AcDbEntity
  8
0
 62
     0
100
AcDbLine
 10
265.957129
 20
126.480317
 30
0.0
 11
266.957129
 21
127.480317
 31
0.0
  0
LINE
  5
433
100
AcDbEntity
  8
0
 62
     0
100
AcDbLine
 10
266.133906
 20
126.480317
 30
0.0
 11
267.133906
 21
127.480317
 31
0.0
  0
LINE
  5
434
100
AcDbEntity
  8
0
 62
     0
100
AcDbLine
 10
266.310683
 20
126.480317
 30
0.0
 11
267.310683
 21
127.480317
 31
0.0
  0
LINE
  5
435
100
AcDbEntity
  8
0
 62
     0
100
AcDbLine
 10
266.487459
 20
126.480317
 30
0.0
 11
267.487459
 21
127.480317
 31
0.0
  0
LINE
  5
436
100
AcDbEntity
  8
0
 62
     0
100
AcDbLine
 10
266.664236
 20
126.480317
 30
0.0
 11
267.664236
 21
127.480317
 31
0.0
  0
LINE
  5
437
100
AcDbEntity
  8
0
 62
     0
100
AcDbLine
 10
266.841013
 20
126.480317
 30
0.0
 11
267.841013
 21
127.480317
 31
0.0
  0
LINE
  5
438
100
AcDbEntity
  8
0
 62
     0
100
AcDbLine
 10
267.01779
 20
126.480317
 30
0.0
 11
268.01779
 21
127.480317
 31
0.0
  0
LINE
  5
439
100
AcDbEntity
  8
0
 62
     0
100
AcDbLine
 10
267.194566
 20
126.480317
 30
0.0
 11
268.194566
 21
127.480317
 31
0.0
  0
LINE
  5
43A
100
AcDbEntity
  8
0
 62
     0
100
AcDbLine
 10
267.371343
 20
126.480317
 30
0.0
 11
268.371343
 21
127.480317
 31
0.0
  0
LINE
  5
43B
100
AcDbEntity
  8
0
 62
     0
100
AcDbLine
 10
267.54812
 20
126.480317
 30
0.0
 11
268.54812
 21
127.480317
 31
0.0
  0
LINE
  5
43C
100
AcDbEntity
  8
0
 62
     0
100
AcDbLine
 10
267.724896
 20
126.480317
 30
0.0
 11
268.724896
 21
127.480317
 31
0.0
  0
LINE
  5
43D
100
AcDbEntity
  8
0
 62
     0
100
AcDbLine
 10
267.901673
 20
126.480317
 30
0.0
 11
268.901673
 21
127.480317
 31
0.0
  0
LINE
  5
43E
100
AcDbEntity
  8
0
 62
     0
100
AcDbLine
 10
268.07845
 20
126.480317
 30
0.0
 11
269.07845
 21
127.480317
 31
0.0
  0
LINE
  5
43F
100
AcDbEntity
  8
0
 62
     0
100
AcDbLine
 10
268.255226
 20
126.480317
 30
0.0
 11
269.255226
 21
127.480317
 31
0.0
  0
LINE
  5
440
100
AcDbEntity
  8
0
 62
     0
100
AcDbLine
 10
268.432003
 20
126.480317
 30
0.0
 11
269.432003
 21
127.480317
 31
0.0
  0
LINE
  5
441
100
AcDbEntity
  8
0
 62
     0
100
AcDbLine
 10
268.60878
 20
126.480317
 30
0.0
 11
269.60878
 21
127.480317
 31
0.0
  0
LINE
  5
442
100
AcDbEntity
  8
0
 62
     0
100
AcDbLine
 10
268.785557
 20
126.480317
 30
0.0
 11
269.785557
 21
127.480317
 31
0.0
  0
LINE
  5
443
100
AcDbEntity
  8
0
 62
     0
100
AcDbLine
 10
268.962333
 20
126.480317
 30
0.0
 11
269.962333
 21
127.480317
 31
0.0
  0
LINE
  5
444
100
AcDbEntity
  8
0
 62
     0
100
AcDbLine
 10
269.13911
 20
126.480317
 30
0.0
 11
270.13911
 21
127.480317
 31
0.0
  0
LINE
  5
445
100
AcDbEntity
  8
0
 62
     0
100
AcDbLine
 10
269.315887
 20
126.480317
 30
0.0
 11
270.315887
 21
127.480317
 31
0.0
  0
LINE
  5
446
100
AcDbEntity
  8
0
 62
     0
100
AcDbLine
 10
269.492663
 20
126.480317
 30
0.0
 11
270.492663
 21
127.480317
 31
0.0
  0
LINE
  5
447
100
AcDbEntity
  8
0
 62
     0
100
AcDbLine
 10
269.66944
 20
126.480317
 30
0.0
 11
270.66944
 21
127.480317
 31
0.0
  0
LINE
  5
448
100
AcDbEntity
  8
0
 62
     0
100
AcDbLine
 10
269.846217
 20
126.480317
 30
0.0
 11
270.846217
 21
127.480317
 31
0.0
  0
LINE
  5
449
100
AcDbEntity
  8
0
 62
     0
100
AcDbLine
 10
270.022993
 20
126.480317
 30
0.0
 11
271.022993
 21
127.480317
 31
0.0
  0
LINE
  5
44A
100
AcDbEntity
  8
0
 62
     0
100
AcDbLine
 10
270.19977
 20
126.480317
 30
0.0
 11
271.19977
 21
127.480317
 31
0.0
  0
LINE
  5
44B
100
AcDbEntity
  8
0
 62
     0
100
AcDbLine
 10
270.376547
 20
126.480317
 30
0.0
 11
271.376547
 21
127.480317
 31
0.0
  0
LINE
  5
44C
100
AcDbEntity
  8
0
 62
     0
100
AcDbLine
 10
270.553323
 20
126.480317
 30
0.0
 11
271.553323
 21
127.480317
 31
0.0
  0
LINE
  5
44D
100
AcDbEntity
  8
0
 62
     0
100
AcDbLine
 10
270.7301
 20
126.480317
 30
0.0
 11
271.7301
 21
127.480317
 31
0.0
  0
LINE
  5
44E
100
AcDbEntity
  8
0
 62
     0
100
AcDbLine
 10
270.906877
 20
126.480317
 30
0.0
 11
271.906877
 21
127.480317
 31
0.0
  0
LINE
  5
44F
100
AcDbEntity
  8
0
 62
     0
100
AcDbLine
 10
271.083654
 20
126.480317
 30
0.0
 11
272.083654
 21
127.480317
 31
0.0
  0
LINE
  5
450
100
AcDbEntity
  8
0
 62
     0
100
AcDbLine
 10
271.26043
 20
126.480317
 30
0.0
 11
272.26043
 21
127.480317
 31
0.0
  0
LINE
  5
451
100
AcDbEntity
  8
0
 62
     0
100
AcDbLine
 10
271.437207
 20
126.480317
 30
0.0
 11
272.437207
 21
127.480317
 31
0.0
  0
LINE
  5
452
100
AcDbEntity
  8
0
 62
     0
100
AcDbLine
 10
271.613984
 20
126.480317
 30
0.0
 11
272.613984
 21
127.480317
 31
0.0
  0
LINE
  5
453
100
AcDbEntity
  8
0
 62
     0
100
AcDbLine
 10
271.79076
 20
126.480317
 30
0.0
 11
272.79076
 21
127.480317
 31
0.0
  0
LINE
  5
454
100
AcDbEntity
  8
0
 62
     0
100
AcDbLine
 10
271.967537
 20
126.480317
 30
0.0
 11
272.967537
 21
127.480317
 31
0.0
  0
LINE
  5
455
100
AcDbEntity
  8
0
 62
     0
100
AcDbLine
 10
272.144314
 20
126.480317
 30
0.0
 11
273.144314
 21
127.480317
 31
0.0
  0
LINE
  5
456
100
AcDbEntity
  8
0
 62
     0
100
AcDbLine
 10
272.32109
 20
126.480317
 30
0.0
 11
273.32109
 21
127.480317
 31
0.0
  0
LINE
  5
457
100
AcDbEntity
  8
0
 62
     0
100
AcDbLine
 10
272.497867
 20
126.480317
 30
0.0
 11
273.497867
 21
127.480317
 31
0.0
  0
LINE
  5
458
100
AcDbEntity
  8
0
 62
     0
100
AcDbLine
 10
272.674644
 20
126.480317
 30
0.0
 11
273.674644
 21
127.480317
 31
0.0
  0
LINE
  5
459
100
AcDbEntity
  8
0
 62
     0
100
AcDbLine
 10
272.851421
 20
126.480317
 30
0.0
 11
273.851421
 21
127.480317
 31
0.0
  0
LINE
  5
45A
100
AcDbEntity
  8
0
 62
     0
100
AcDbLine
 10
273.028197
 20
126.480317
 30
0.0
 11
274.028197
 21
127.480317
 31
0.0
  0
LINE
  5
45B
100
AcDbEntity
  8
0
 62
     0
100
AcDbLine
 10
273.204974
 20
126.480317
 30
0.0
 11
274.204974
 21
127.480317
 31
0.0
  0
LINE
  5
45C
100
AcDbEntity
  8
0
 62
     0
100
AcDbLine
 10
273.381751
 20
126.480317
 30
0.0
 11
274.381751
 21
127.480317
 31
0.0
  0
LINE
  5
45D
100
AcDbEntity
  8
0
 62
     0
100
AcDbLine
 10
273.558527
 20
126.480317
 30
0.0
 11
274.558527
 21
127.480317
 31
0.0
  0
LINE
  5
45E
100
AcDbEntity
  8
0
 62
     0
100
AcDbLine
 10
273.735304
 20
126.480317
 30
0.0
 11
274.735304
 21
127.480317
 31
0.0
  0
LINE
  5
45F
100
AcDbEntity
  8
0
 62
     0
100
AcDbLine
 10
273.912081
 20
126.480317
 30
0.0
 11
274.912081
 21
127.480317
 31
0.0
  0
LINE
  5
460
100
AcDbEntity
  8
0
 62
     0
100
AcDbLine
 10
274.088857
 20
126.480317
 30
0.0
 11
275.088857
 21
127.480317
 31
0.0
  0
LINE
  5
461
100
AcDbEntity
  8
0
 62
     0
100
AcDbLine
 10
274.265634
 20
126.480317
 30
0.0
 11
275.265634
 21
127.480317
 31
0.0
  0
LINE
  5
462
100
AcDbEntity
  8
0
 62
     0
100
AcDbLine
 10
274.442411
 20
126.480317
 30
0.0
 11
275.442411
 21
127.480317
 31
0.0
  0
LINE
  5
463
100
AcDbEntity
  8
0
 62
     0
100
AcDbLine
 10
274.619187
 20
126.480317
 30
0.0
 11
275.619187
 21
127.480317
 31
0.0
  0
LINE
  5
464
100
AcDbEntity
  8
0
 62
     0
100
AcDbLine
 10
274.795964
 20
126.480317
 30
0.0
 11
275.795964
 21
127.480317
 31
0.0
  0
LINE
  5
465
100
AcDbEntity
  8
0
 62
     0
100
AcDbLine
 10
274.972741
 20
126.480317
 30
0.0
 11
275.972741
 21
127.480317
 31
0.0
  0
LINE
  5
466
100
AcDbEntity
  8
0
 62
     0
100
AcDbLine
 10
275.149518
 20
126.480317
 30
0.0
 11
276.149518
 21
127.480317
 31
0.0
  0
LINE
  5
467
100
AcDbEntity
  8
0
 62
     0
100
AcDbLine
 10
275.326294
 20
126.480317
 30
0.0
 11
276.326294
 21
127.480317
 31
0.0
  0
LINE
  5
468
100
AcDbEntity
  8
0
 62
     0
100
AcDbLine
 10
275.503071
 20
126.480317
 30
0.0
 11
276.503071
 21
127.480317
 31
0.0
  0
LINE
  5
469
100
AcDbEntity
  8
0
 62
     0
100
AcDbLine
 10
275.679848
 20
126.480317
 30
0.0
 11
276.679848
 21
127.480317
 31
0.0
  0
LINE
  5
46A
100
AcDbEntity
  8
0
 62
     0
100
AcDbLine
 10
275.856624
 20
126.480317
 30
0.0
 11
276.856624
 21
127.480317
 31
0.0
  0
LINE
  5
46B
100
AcDbEntity
  8
0
 62
     0
100
AcDbLine
 10
276.033401
 20
126.480317
 30
0.0
 11
277.033401
 21
127.480317
 31
0.0
  0
LINE
  5
46C
100
AcDbEntity
  8
0
 62
     0
100
AcDbLine
 10
276.210178
 20
126.480317
 30
0.0
 11
277.210178
 21
127.480317
 31
0.0
  0
LINE
  5
46D
100
AcDbEntity
  8
0
 62
     0
100
AcDbLine
 10
276.386954
 20
126.480317
 30
0.0
 11
277.385036
 21
127.478399
 31
0.0
  0
LINE
  5
46E
100
AcDbEntity
  8
0
 62
     0
100
AcDbLine
 10
276.563731
 20
126.480317
 30
0.0
 11
277.527686
 21
127.444272
 31
0.0
  0
LINE
  5
46F
100
AcDbEntity
  8
0
 62
     0
100
AcDbLine
 10
276.740508
 20
126.480317
 30
0.0
 11
277.64084
 21
127.380649
 31
0.0
  0
LINE
  5
470
100
AcDbEntity
  8
0
 62
     0
100
AcDbLine
 10
276.917284
 20
126.480317
 30
0.0
 11
277.730789
 21
127.293822
 31
0.0
  0
LINE
  5
471
100
AcDbEntity
  8
0
 62
     0
100
AcDbLine
 10
277.094061
 20
126.480317
 30
0.0
 11
277.797863
 21
127.184119
 31
0.0
  0
LINE
  5
472
100
AcDbEntity
  8
0
 62
     0
100
AcDbLine
 10
277.270838
 20
126.480317
 30
0.0
 11
277.8369
 21
127.046379
 31
0.0
  0
LINE
  5
473
100
AcDbEntity
  8
0
 62
     0
100
AcDbLine
 10
277.462541
 20
126.495243
 30
0.0
 11
277.826357
 21
126.85906
 31
0.0
  0
ENDBLK
  5
475
100
AcDbEntity
  8
0
100
AcDbBlockEnd
  0
BLOCK
  5
288
100
AcDbEntity
  8
0
100
AcDbBlockBegin
  2
*X8
 70
    65
 10
0.0
 20
0.0
 30
0.0
  3
*X8
  1

  0
LINE
  5
27C
100
AcDbEntity
  8
0
 62
     0
100
AcDbLine
 10
112.841121
 20
163.752809
 30
0.0
 11
113.900155
 21
164.811843
 31
0.0
  0
LINE
  5
27D
100
AcDbEntity
  8
0
 62
     0
100
AcDbLine
 10
112.755215
 20
163.84368
 30
0.0
 11
113.809284
 21
164.897749
 31
0.0
  0
LINE
  5
27E
100
AcDbEntity
  8
0
 62
     0
100
AcDbLine
 10
112.684433
 20
163.949675
 30
0.0
 11
113.703289
 21
164.968531
 31
0.0
  0
LINE
  5
27F
100
AcDbEntity
  8
0
 62
     0
100
AcDbLine
 10
112.630454
 20
164.072472
 30
0.0
 11
113.580492
 21
165.022511
 31
0.0
  0
LINE
  5
280
100
AcDbEntity
  8
0
 62
     0
100
AcDbLine
 10
112.597388
 20
164.216183
 30
0.0
 11
113.436781
 21
165.055576
 31
0.0
  0
LINE
  5
281
100
AcDbEntity
  8
0
 62
     0
100
AcDbLine
 10
112.595497
 20
164.391069
 30
0.0
 11
113.261896
 21
165.057467
 31
0.0
  0
LINE
  5
282
100
AcDbEntity
  8
0
 62
     0
100
AcDbLine
 10
112.666315
 20
164.638664
 30
0.0
 11
113.014301
 21
164.986649
 31
0.0
  0
LINE
  5
283
100
AcDbEntity
  8
0
 62
     0
100
AcDbLine
 10
112.941932
 20
163.676844
 30
0.0
 11
113.976121
 21
164.711032
 31
0.0
  0
LINE
  5
284
100
AcDbEntity
  8
0
 62
     0
100
AcDbLine
 10
113.058784
 20
163.616919
 30
0.0
 11
114.036045
 21
164.59418
 31
0.0
  0
LINE
  5
285
100
AcDbEntity
  8
0
 62
     0
100
AcDbLine
 10
113.194772
 20
163.57613
 30
0.0
 11
114.076834
 21
164.458192
 31
0.0
  0
LINE
  5
286
100
AcDbEntity
  8
0
 62
     0
100
AcDbLine
 10
113.35727
 20
163.561851
 30
0.0
 11
114.091113
 21
164.295695
 31
0.0
  0
LINE
  5
287
100
AcDbEntity
  8
0
 62
     0
100
AcDbLine
 10
113.569413
 20
163.597218
 30
0.0
 11
114.055746
 21
164.083551
 31
0.0
  0
ENDBLK
  5
289
100
AcDbEntity
  8
0
100
AcDbBlockEnd
  0
BLOCK
  5
9A
100
AcDbEntity
  8
0
100
AcDbBlockBegin
  2
*D9
 70
    65
 10
0.0
 20
0.0
 30
0.0
  3
*D9
  1

  0
LINE
  5
7B
100
AcDbEntity
  8
0
  6
BYBLOCK
 62
     0
100
AcDbLine
 10
96.841283
 20
133.126035
 30
0.0
 11
96.841283
 21
143.448074
 31
0.0
  0
LINE
  5
7C
100
AcDbEntity
  8
0
  6
BYBLOCK
 62
     0
100
AcDbLine
 10
306.841283
 20
133.126035
 30
0.0
 11
306.841283
 21
143.448074
 31
0.0
  0
LINE
  5
7D
100
AcDbEntity
  8
0
  6
BYBLOCK
 62
     0
100
AcDbLine
 10
99.841283
 20
140.448074
 30
0.0
 11
303.841283
 21
140.448074
 31
0.0
  0
INSERT
  5
7E
100
AcDbEntity
  8
0
  6
BYBLOCK
 62
     0
100
AcDbBlockReference
  2
YAZ3
 10
96.841283
 20
140.448074
 30
0.0
 41
3.0
 42
3.0
 43
3.0
 50
180.0
  0
INSERT
  5
94
100
AcDbEntity
  8
0
  6
BYBLOCK
 62
     0
100
AcDbBlockReference
  2
YAZ3
 10
306.841283
 20
140.448074
 30
0.0
 41
3.0
 42
3.0
 43
3.0
  0
TEXT
  5
95
100
AcDbEntity
  8
0
  6
CONTINUOUS
 62
     0
100
AcDbText
 10
196.603188
 20
142.648074
 30
0.0
 40
4.4
  1
210
100
AcDbText
  0
POINT
  5
96
100
AcDbEntity
  8
DEFPOINTS
  6
BYBLOCK
 62
     0
100
AcDbPoint
 10
96.841283
 20
129.126035
 30
0.0
  0
POINT
  5
98
100
AcDbEntity
  8
DEFPOINTS
  6
BYBLOCK
 62
     0
100
AcDbPoint
 10
306.841283
 20
129.126035
 30
0.0
  0
POINT
  5
99
100
AcDbEntity
  8
DEFPOINTS
  6
BYBLOCK
 62
     0
100
AcDbPoint
 10
306.841283
 20
140.448074
 30
0.0
  0
ENDBLK
  5
9B
100
AcDbEntity
  8
0
100
AcDbBlockEnd
  0
BLOCK
  5
89B
100
AcDbEntity
  8
0
100
AcDbBlockBegin
  2
*D10
 70
    65
 10
0.0
 20
0.0
 30
0.0
  3
*D10
  1

  0
LINE
  5
89C
100
AcDbEntity
  8
0
  6
BYBLOCK
 62
     0
100
AcDbLine
 10
301.841283
 20
130.751864
 30
0.0
 11
317.464767
 21
130.751864
 31
0.0
  0
LINE
  5
89D
100
AcDbEntity
  8
0
  6
BYBLOCK
 62
     0
100
AcDbLine
 10
301.841283
 20
86.151864
 30
0.0
 11
317.464767
 21
86.151864
 31
0.0
  0
LINE
  5
89E
100
AcDbEntity
  8
0
  6
BYBLOCK
 62
     0
100
AcDbLine
 10
314.464767
 20
127.751864
 30
0.0
 11
314.464767
 21
89.151864
 31
0.0
  0
INSERT
  5
89F
100
AcDbEntity
  8
0
  6
BYBLOCK
 62
     0
100
AcDbBlockReference
  2
YAZ3
 10
314.464767
 20
130.751864
 30
0.0
 41
3.0
 42
3.0
 43
3.0
 50
90.0
  0
INSERT
  5
8A0
100
AcDbEntity
  8
0
  6
BYBLOCK
 62
     0
100
AcDbBlockReference
  2
YAZ3
 10
314.464767
 20
86.151864
 30
0.0
 41
3.0
 42
3.0
 43
3.0
 50
270.0
  0
TEXT
  5
8A1
100
AcDbEntity
  8
0
  6
CONTINUOUS
 62
     0
100
AcDbText
 10
312.264767
 20
101.747103
 30
0.0
 40
4.4
  1
44.2
 50
90.0
100
AcDbText
  0
POINT
  5
8A2
100
AcDbEntity
  8
DEFPOINTS
  6
BYBLOCK
 62
     0
100
AcDbPoint
 10
297.841283
 20
130.751864
 30
0.0
  0
POINT
  5
8A3
100
AcDbEntity
  8
DEFPOINTS
  6
BYBLOCK
 62
     0
100
AcDbPoint
 10
297.841283
 20
86.151864
 30
0.0
  0
POINT
  5
8A4
100
AcDbEntity
  8
DEFPOINTS
  6
BYBLOCK
 62
     0
100
AcDbPoint
 10
314.464767
 20
86.151864
 30
0.0
  0
ENDBLK
  5
8A5
100
AcDbEntity
  8
0
100
AcDbBlockEnd
  0
BLOCK
  5
9FB
100
AcDbEntity
  8
0
100
AcDbBlockBegin
  2
*D11
 70
    65
 10
0.0
 20
0.0
 30
0.0
  3
*D11
  1

  0
LINE
  5
9FC
100
AcDbEntity
  8
0
  6
BYBLOCK
 62
     0
100
AcDbLine
 10
108.741283
 20
66.982154
 30
0.0
 11
108.741283
 21
72.104735
 31
0.0
  0
LINE
  5
9FD
100
AcDbEntity
  8
0
  6
BYBLOCK
 62
     0
100
AcDbLine
 10
289.741283
 20
66.982154
 30
0.0
 11
289.741283
 21
72.104735
 31
0.0
  0
LINE
  5
9FE
100
AcDbEntity
  8
0
  6
BYBLOCK
 62
     0
100
AcDbLine
 10
111.741283
 20
69.104735
 30
0.0
 11
286.741283
 21
69.104735
 31
0.0
  0
INSERT
  5
9FF
100
AcDbEntity
  8
0
  6
BYBLOCK
 62
     0
100
AcDbBlockReference
  2
YAZ3
 10
108.741283
 20
69.104735
 30
0.0
 41
3.0
 42
3.0
 43
3.0
 50
180.0
  0
INSERT
  5
A00
100
AcDbEntity
  8
0
  6
BYBLOCK
 62
     0
100
AcDbBlockReference
  2
YAZ3
 10
289.741283
 20
69.104735
 30
0.0
 41
3.0
 42
3.0
 43
3.0
  0
TEXT
  5
A01
100
AcDbEntity
  8
0
  6
CONTINUOUS
 62
     0
100
AcDbText
 10
194.946045
 20
71.304735
 30
0.0
 40
4.4
  1
181
100
AcDbText
  0
POINT
  5
A02
100
AcDbEntity
  8
DEFPOINTS
  6
BYBLOCK
 62
     0
100
AcDbPoint
 10
108.741283
 20
62.982154
 30
0.0
  0
POINT
  5
A03
100
AcDbEntity
  8
DEFPOINTS
  6
BYBLOCK
 62
     0
100
AcDbPoint
 10
289.741283
 20
62.982154
 30
0.0
  0
POINT
  5
A04
100
AcDbEntity
  8
DEFPOINTS
  6
BYBLOCK
 62
     0
100
AcDbPoint
 10
289.741283
 20
69.104735
 30
0.0
  0
ENDBLK
  5
A05
100
AcDbEntity
  8
0
100
AcDbBlockEnd
  0
BLOCK
  5
9D7
100
AcDbEntity
  8
0
100
AcDbBlockBegin
  2
*D12
 70
    65
 10
0.0
 20
0.0
 30
0.0
  3
*D12
  1

  0
LINE
  5
9D8
100
AcDbEntity
  8
0
  6
BYBLOCK
 62
     0
100
AcDbLine
 10
305.341283
 20
47.182154
 30
0.0
 11
305.341283
 21
81.222035
 31
0.0
  0
LINE
  5
9D9
100
AcDbEntity
  8
0
  6
BYBLOCK
 62
     0
100
AcDbLine
 10
98.141283
 20
40.982154
 30
0.0
 11
98.141283
 21
81.222035
 31
0.0
  0
LINE
  5
9DA
100
AcDbEntity
  8
0
  6
BYBLOCK
 62
     0
100
AcDbLine
 10
302.341283
 20
78.222035
 30
0.0
 11
101.141283
 21
78.222035
 31
0.0
  0
INSERT
  5
9DB
100
AcDbEntity
  8
0
  6
BYBLOCK
 62
     0
100
AcDbBlockReference
  2
YAZ3
 10
305.341283
 20
78.222035
 30
0.0
 41
3.0
 42
3.0
 43
3.0
  0
INSERT
  5
9DC
100
AcDbEntity
  8
0
  6
BYBLOCK
 62
     0
100
AcDbBlockReference
  2
YAZ3
 10
98.141283
 20
78.222035
 30
0.0
 41
3.0
 42
3.0
 43
3.0
 50
180.0
  0
TEXT
  5
9DD
100
AcDbEntity
  8
0
  6
CONTINUOUS
 62
     0
100
AcDbText
 10
192.941283
 20
80.422035
 30
0.0
 40
4.4
  1
206.2
100
AcDbText
  0
POINT
  5
9DE
100
AcDbEntity
  8
DEFPOINTS
  6
BYBLOCK
 62
     0
100
AcDbPoint
 10
305.341283
 20
43.182154
 30
0.0
  0
POINT
  5
9DF
100
AcDbEntity
  8
DEFPOINTS
  6
BYBLOCK
 62
     0
100
AcDbPoint
 10
98.141283
 20
36.982154
 30
0.0
  0
POINT
  5
9E0
100
AcDbEntity
  8
DEFPOINTS
  6
BYBLOCK
 62
     0
100
AcDbPoint
 10
98.141283
 20
78.222035
 30
0.0
  0
ENDBLK
  5
9E1
100
AcDbEntity
  8
0
100
AcDbBlockEnd
  0
BLOCK
  5
A06
100
AcDbEntity
  8
0
100
AcDbBlockBegin
  2
*D13
 70
    65
 10
0.0
 20
0.0
 30
0.0
  3
*D13
  1

  0
LINE
  5
A07
100
AcDbEntity
  8
0
  6
BYBLOCK
 62
     0
100
AcDbLine
 10
289.741283
 20
66.982154
 30
0.0
 11
289.741283
 21
72.104735
 31
0.0
  0
LINE
  5
A08
100
AcDbEntity
  8
0
  6
BYBLOCK
 62
     0
100
AcDbLine
 10
305.341283
 20
47.182154
 30
0.0
 11
305.341283
 21
72.104735
 31
0.0
  0
LINE
  5
A09
100
AcDbEntity
  8
0
  6
BYBLOCK
 62
     0
100
AcDbLine
 10
286.741283
 20
69.104735
 30
0.0
 11
283.741283
 21
69.104735
 31
0.0
  0
LINE
  5
A0A
100
AcDbEntity
  8
0
  6
BYBLOCK
 62
     0
100
AcDbLine
 10
308.341283
 20
69.104735
 30
0.0
 11
311.341283
 21
69.104735
 31
0.0
  0
LINE
  5
A0B
100
AcDbEntity
  8
0
  6
BYBLOCK
 62
     0
100
AcDbLine
 10
289.741283
 20
69.104735
 30
0.0
 11
305.341283
 21
69.104735
 31
0.0
  0
INSERT
  5
A0C
100
AcDbEntity
  8
0
  6
BYBLOCK
 62
     0
100
AcDbBlockReference
  2
YAZ3
 10
289.741283
 20
69.104735
 30
0.0
 41
3.0
 42
3.0
 43
3.0
  0
INSERT
  5
A0D
100
AcDbEntity
  8
0
  6
BYBLOCK
 62
     0
100
AcDbBlockReference
  2
YAZ3
 10
305.341283
 20
69.104735
 30
0.0
 41
3.0
 42
3.0
 43
3.0
 50
180.0
  0
TEXT
  5
A0E
100
AcDbEntity
  8
0
  6
CONTINUOUS
 62
     0
100
AcDbText
 10
291.360331
 20
71.304735
 30
0.0
 40
4.4
  1
15.6
100
AcDbText
  0
POINT
  5
A0F
100
AcDbEntity
  8
DEFPOINTS
  6
BYBLOCK
 62
     0
100
AcDbPoint
 10
289.741283
 20
62.982154
 30
0.0
  0
POINT
  5
A10
100
AcDbEntity
  8
DEFPOINTS
  6
BYBLOCK
 62
     0
100
AcDbPoint
 10
305.341283
 20
43.182154
 30
0.0
  0
POINT
  5
A11
100
AcDbEntity
  8
DEFPOINTS
  6
BYBLOCK
 62
     0
100
AcDbPoint
 10
305.341283
 20
69.104735
 30
0.0
  0
ENDBLK
  5
A12
100
AcDbEntity
  8
0
100
AcDbBlockEnd
  0
ENDSEC
  0
SECTION
  2
ENTITIES
  0
TEXT
  5
48
100
AcDbEntity
  8
SILK
100
AcDbText
 10
178.569855
 20
170.852274
 30
0.0
 40
2.0
  1
-
 41
0.9
 72
     1
 11
179.341283
 21
171.852274
 31
0.0
100
AcDbText
 73
     2
  0
TEXT
  5
4A
100
AcDbEntity
  8
SILK
100
AcDbText
 10
179.198426
 20
178.852274
 30
0.0
 40
2.0
  1
PLAY 1-4 / STOP
 41
0.9
 72
     1
 11
191.841283
 21
179.852274
 31
0.0
100
AcDbText
 73
     2
  0
ARC
  5
4B
100
AcDbEntity
  8
1
100
AcDbCircle
 10
179.341283
 20
159.358524
 30
0.0
 40
4.30625
100
AcDbArc
 50
234.510657
 51
305.489343
  0
TEXT
  5
4C
100
AcDbEntity
  8
SILK
100
AcDbText
 10
177.012712
 20
112.35187
 30
0.0
 40
2.0
  1
SPEAKER
 50
359.999949
 41
0.9
 72
     1
 11
182.841283
 21
112.351864
 31
0.0
100
AcDbText
  0
TEXT
  5
4D
100
AcDbEntity
  8
SILK
100
AcDbText
 10
176.669855
 20
115.25187
 30
0.0
 40
2.0
  1
PHONES/
 50
359.999949
 41
0.9
 72
     1
 11
182.841283
 21
115.251864
 31
0.0
100
AcDbText
  0
LINE
  5
4E
100
AcDbEntity
  8
1
100
AcDbLine
 10
251.341283
 20
162.752274
 30
0.0
 11
152.341283
 21
162.752274
 31
0.0
  0
LINE
  5
4F
100
AcDbEntity
  8
SILK
100
AcDbLine
 10
246.841283
 20
177.852274
 30
0.0
 11
166.841283
 21
177.852274
 31
0.0
  0
LINE
  5
50
100
AcDbEntity
  8
1
100
AcDbLine
 10
146.841283
 20
160.802274
 30
0.0
 11
256.741283
 21
160.802274
 31
0.0
  0
LINE
  5
51
100
AcDbEntity
  8
SILK
100
AcDbLine
 10
146.841283
 20
169.852274
 30
0.0
 11
256.841283
 21
169.852274
 31
0.0
  0
LINE
  5
52
100
AcDbEntity
  8
SILK
100
AcDbLine
 10
256.841283
 20
181.852274
 30
0.0
 11
146.841283
 21
181.852274
 31
0.0
  0
LINE
  5
53
100
AcDbEntity
  8
SILK
100
AcDbLine
 10
146.841283
 20
173.852274
 30
0.0
 11
256.841283
 21
173.852274
 31
0.0
  0
LINE
  5
55
100
AcDbEntity
  8
SILK
100
AcDbLine
 10
182.841283
 20
96.251864
 30
0.0
 11
167.841283
 21
96.251864
 31
0.0
  0
CIRCLE
  5
56
100
AcDbEntity
  8
1
100
AcDbCircle
 10
182.841283
 20
104.251864
 30
0.0
 40
3.5
  0
LINE
  5
60
100
AcDbEntity
  8
1
100
AcDbLine
 10
261.841283
 20
154.252274
 30
0.0
 11
141.841283
 21
154.252274
 31
0.0
  0
LINE
  5
61
100
AcDbEntity
  8
1
100
AcDbLine
 10
141.841283
 20
162.502274
 30
0.0
 11
261.841283
 21
162.502274
 31
0.0
  0
LINE
  5
62
100
AcDbEntity
  8
1
100
AcDbLine
 10
141.341283
 20
154.252274
 30
0.0
 11
262.341283
 21
154.252274
 31
0.0
  0
LINE
  5
69
100
AcDbEntity
  8
0
100
AcDbLine
 10
297.841283
 20
142.652274
 30
0.0
 11
105.841283
 21
142.652274
 31
0.0
  0
LINE
  5
6A
100
AcDbEntity
  8
0
100
AcDbLine
 10
297.841588
 20
145.652274
 30
0.0
 11
105.840978
 21
145.652274
 31
0.0
  0
LINE
  5
6B
100
AcDbEntity
  8
0
100
AcDbLine
 10
105.841283
 20
187.252274
 30
0.0
 11
297.841283
 21
187.252274
 31
0.0
  0
LINE
  5
6C
100
AcDbEntity
  8
0
100
AcDbLine
 10
105.840978
 20
184.252274
 30
0.0
 11
297.841588
 21
184.252274
 31
0.0
  0
LINE
  5
6D
100
AcDbEntity
  8
0
100
AcDbLine
 10
289.741283
 20
28.382154
 30
0.0
 11
108.741283
 21
28.382154
 31
0.0
  0
LINE
  5
6E
100
AcDbEntity
  8
0
100
AcDbLine
 10
289.741283
 20
23.382154
 30
0.0
 11
108.741283
 21
23.382154
 31
0.0
  0
LINE
  5
6F
100
AcDbEntity
  8
0
100
AcDbLine
 10
108.741283
 20
40.682154
 30
0.0
 11
289.741283
 21
40.682154
 31
0.0
  0
LINE
  5
70
100
AcDbEntity
  8
0
100
AcDbLine
 10
108.741283
 20
18.382154
 30
0.0
 11
289.741283
 21
18.382154
 31
0.0
  0
LINE
  5
71
100
AcDbEntity
  8
0
100
AcDbLine
 10
108.741283
 20
52.982154
 30
0.0
 11
289.741283
 21
52.982154
 31
0.0
  0
LINE
  5
72
100
AcDbEntity
  8
0
100
AcDbLine
 10
108.741283
 20
57.982154
 30
0.0
 11
289.741283
 21
57.982154
 31
0.0
  0
LINE
  5
73
100
AcDbEntity
  8
0
100
AcDbLine
 10
289.741283
 20
62.982154
 30
0.0
 11
108.741283
 21
62.982154
 31
0.0
  0
LINE
  5
74
100
AcDbEntity
  8
0
100
AcDbLine
 10
297.841283
 20
86.151864
 30
0.0
 11
105.841283
 21
86.151864
 31
0.0
  0
LINE
  5
75
100
AcDbEntity
  8
0
100
AcDbLine
 10
297.841588
 20
89.151864
 30
0.0
 11
105.840978
 21
89.151864
 31
0.0
  0
LINE
  5
76
100
AcDbEntity
  8
0
100
AcDbLine
 10
105.841283
 20
130.751864
 30
0.0
 11
297.841283
 21
130.751864
 31
0.0
  0
LINE
  5
77
100
AcDbEntity
  8
0
100
AcDbLine
 10
105.840978
 20
127.751864
 30
0.0
 11
297.841588
 21
127.751864
 31
0.0
  0
DIMENSION
  5
78
100
AcDbEntity
  8
SCALE
100
AcDbDimension
  2
*D9
 10
306.841283
 20
135.073903
 30
0.0
 11
201.841283
 21
139.473903
 31
0.0
 12
0.0
 22
-5.374171
 32
0.0
  1
210
  3
STANDARD
100
AcDbAlignedDimension
 13
96.841283
 23
123.751864
 33
0.0
 14
306.841283
 24
123.751864
 34
0.0
100
AcDbRotatedDimension
1001
ACAD
1000
DSTYLE
1002
{
1070
   140
1040
2.2
1070
   145
1040
1.0
1070
    74
1070
     0
1070
   172
1070
     1
1070
    73
1070
     0
1070
    40
1040
2.0
1070
    42
1040
2.0
1070
    44
1040
1.5
1070
    43
1040
10.0
1070
     5
1000
YAZ3
1070
    41
1040
1.5
1002
}
  0
DIMENSION
  5
9C
100
AcDbEntity
  8
SCALE
100
AcDbDimension
  2
*D12
 10
98.141283
 20
78.222035
 30
0.0
 11
201.741283
 21
82.622035
 31
0.0
  1
206.2
  3
STANDARD
100
AcDbAlignedDimension
 13
305.341283
 23
43.182154
 33
0.0
 14
98.141283
 24
36.982154
 34
0.0
100
AcDbRotatedDimension
1001
ACAD
1000
DSTYLE
1002
{
1070
   140
1040
2.2
1070
   145
1040
1.0
1070
    74
1070
     0
1070
   172
1070
     1
1070
    73
1070
     0
1070
   272
1070
     4
1070
    40
1040
2.0
1070
   287
1070
     3
1070
    42
1040
2.0
1070
    44
1040
1.5
1070
    43
1040
10.0
1070
   271
1070
     4
1070
     5
1000
YAZ3
1070
    41
1040
1.5
1002
}
  0
DIMENSION
  5
A9
100
AcDbEntity
  8
SCALE
100
AcDbDimension
  2
*D11
 10
289.741283
 20
69.104735
 30
0.0
 11
199.241283
 21
73.504735
 31
0.0
  1
181
  3
STANDARD
100
AcDbAlignedDimension
 13
108.741283
 23
62.982154
 33
0.0
 14
289.741283
 24
62.982154
 34
0.0
100
AcDbRotatedDimension
1001
ACAD
1000
DSTYLE
1002
{
1070
   140
1040
2.2
1070
   145
1040
1.0
1070
    74
1070
     0
1070
   172
1070
     1
1070
    73
1070
     0
1070
   272
1070
     4
1070
    40
1040
2.0
1070
   287
1070
     3
1070
    42
1040
2.0
1070
    44
1040
1.5
1070
    43
1040
10.0
1070
   271
1070
     4
1070
     5
1000
YAZ3
1070
    41
1040
1.5
1002
}
  0
LINE
  5
C5
100
AcDbEntity
  8
1
100
AcDbLine
 10
78.874317
 20
162.952274
 30
0.0
 11
48.874317
 21
162.952274
 31
0.0
  0
TEXT
  5
C6
100
AcDbEntity
  8
1
100
AcDbText
 10
49.398126
 20
164.952274
 30
0.0
 40
5.0
  1
Rear View
 41
0.8
  7
UT7
 72
     1
 11
63.874317
 21
164.952274
 31
0.0
100
AcDbText
  0
TEXT
  5
C7
100
AcDbEntity
  8
1
100
AcDbText
 10
48.255269
 20
108.451864
 30
0.0
 40
5.0
  1
Front View
 41
0.8
  7
TOALOGO
 72
     1
 11
63.874317
 21
108.451864
 31
0.0
100
AcDbText
  0
LINE
  5
C8
100
AcDbEntity
  8
1
100
AcDbLine
 10
79.874317
 20
106.451864
 30
0.0
 11
47.874317
 21
106.451864
 31
0.0
  0
TEXT
  5
CE
100
AcDbEntity
  8
1
100
AcDbText
 10
53.655684
 20
21.171548
 30
0.0
 40
5.0
  1
SCALE:1/2
 41
0.8
  7
UT7
100
AcDbText
  0
TEXT
  5
CF
100
AcDbEntity
  8
1
100
AcDbText
 10
49.969555
 20
40.682154
 30
0.0
 40
5.0
  1
Side View
 41
0.8
  7
UT7
 72
     1
 11
63.874317
 21
40.682154
 31
0.0
100
AcDbText
  0
LINE
  5
D0
100
AcDbEntity
  8
1
100
AcDbLine
 10
77.874317
 20
38.682154
 30
0.0
 11
49.874317
 21
38.682154
 31
0.0
  0
TEXT
  5
D4
100
AcDbEntity
  8
1
100
AcDbText
 10
13.673802
 20
20.867548
 30
0.0
 40
5.0
  1
UNIT:mm
 41
0.8
  7
UT7
100
AcDbText
  0
LINE
  5
D7
100
AcDbEntity
  8
0
100
AcDbLine
 10
103.841283
 20
91.116964
 30
0.0
 11
103.841283
 21
125.786769
 31
0.0
  0
ARC
  5
D8
100
AcDbEntity
  8
0
100
AcDbCircle
 10
-191.571217
 20
108.451864
 30
0.0
 40
292.8125
100
AcDbArc
 50
357.004825
 51
2.995175
  0
LINE
  5
D9
100
AcDbEntity
  8
0
100
AcDbLine
 10
108.741283
 20
18.382154
 30
0.0
 11
108.741283
 21
62.982154
 31
0.0
  0
LINE
  5
DA
100
AcDbEntity
  8
0
100
AcDbLine
 10
98.141283
 20
36.982154
 30
0.0
 11
98.141283
 21
35.982154
 31
0.0
  0
LINE
  5
DB
100
AcDbEntity
  8
0
100
AcDbLine
 10
98.641283
 20
33.464852
 30
0.0
 11
98.641283
 21
39.710056
 31
0.0
  0
LINE
  5
DC
100
AcDbEntity
  8
0
100
AcDbLine
 10
104.741283
 20
36.006557
 30
0.0
 11
98.641283
 21
36.006557
 31
0.0
  0
LINE
  5
DD
100
AcDbEntity
  8
0
100
AcDbLine
 10
98.64404
 20
33.19511
 30
0.0
 11
104.741283
 21
33.19511
 31
0.0
  0
LINE
  5
DE
100
AcDbEntity
  8
0
100
AcDbLine
 10
99.623831
 20
32.269462
 30
0.0
 11
108.741283
 21
31.997091
 31
0.0
  0
LINE
  5
DF
100
AcDbEntity
  8
0
100
AcDbLine
 10
104.741283
 20
33.867706
 30
0.0
 11
98.641283
 21
33.867706
 31
0.0
  0
LINE
  5
E0
100
AcDbEntity
  8
0
100
AcDbLine
 10
104.741283
 20
32.309169
 30
0.0
 11
99.361767
 21
32.309169
 31
0.0
  0
LINE
  5
E1
100
AcDbEntity
  8
0
100
AcDbLine
 10
98.141283
 20
35.982154
 30
0.0
 11
98.641283
 21
35.982154
 31
0.0
  0
ARC
  5
E2
100
AcDbEntity
  8
0
100
AcDbCircle
 10
99.641283
 20
33.26931
 30
0.0
 40
1.0
100
AcDbArc
 50
180.0
 51
269.0
  0
LINE
  5
E3
100
AcDbEntity
  8
0
100
AcDbLine
 10
98.241283
 20
33.982154
 30
0.0
 11
98.641283
 21
33.582154
 31
0.0
  0
LINE
  5
E4
100
AcDbEntity
  8
0
100
AcDbLine
 10
98.241283
 20
35.982154
 30
0.0
 11
98.241283
 21
33.982154
 31
0.0
  0
ARC
  5
E5
100
AcDbEntity
  8
0
100
AcDbCircle
 10
104.670607
 20
32.752139
 30
0.0
 40
0.448573
100
AcDbArc
 50
279.06525
 51
80.93475
  0
ARC
  5
E6
100
AcDbEntity
  8
0
100
AcDbCircle
 10
103.438485
 20
34.937131
 30
0.0
 40
1.685513
100
AcDbArc
 50
320.618531
 51
39.381469
  0
LINE
  5
E7
100
AcDbEntity
  8
0
100
AcDbLine
 10
99.361767
 20
40.65514
 30
0.0
 11
104.741283
 21
40.65514
 31
0.0
  0
LINE
  5
E8
100
AcDbEntity
  8
0
100
AcDbLine
 10
104.741283
 20
39.769199
 30
0.0
 11
98.64404
 21
39.769199
 31
0.0
  0
LINE
  5
E9
100
AcDbEntity
  8
0
100
AcDbLine
 10
99.612993
 20
40.709655
 30
0.0
 11
108.741283
 21
40.968003
 31
0.0
  0
LINE
  5
EA
100
AcDbEntity
  8
0
100
AcDbLine
 10
98.641283
 20
39.096602
 30
0.0
 11
104.741283
 21
39.096602
 31
0.0
  0
LINE
  5
EB
100
AcDbEntity
  8
0
100
AcDbLine
 10
98.641283
 20
36.957752
 30
0.0
 11
104.741283
 21
36.957752
 31
0.0
  0
LINE
  5
EC
100
AcDbEntity
  8
0
100
AcDbLine
 10
98.241283
 20
38.982154
 30
0.0
 11
98.641283
 21
39.382154
 31
0.0
  0
ARC
  5
ED
100
AcDbEntity
  8
0
100
AcDbCircle
 10
99.641283
 20
39.710056
 30
0.0
 40
1.0
100
AcDbArc
 50
144.751248
 51
180.0
  0
LINE
  5
EE
100
AcDbEntity
  8
0
100
AcDbLine
 10
98.641283
 20
36.982154
 30
0.0
 11
98.141283
 21
36.982154
 31
0.0
  0
LINE
  5
EF
100
AcDbEntity
  8
0
100
AcDbLine
 10
98.241283
 20
38.982154
 30
0.0
 11
98.241283
 21
36.982154
 31
0.0
  0
ARC
  5
F0
100
AcDbEntity
  8
0
100
AcDbCircle
 10
99.641283
 20
39.710056
 30
0.0
 40
1.0
100
AcDbArc
 50
91.621146
 51
144.751248
  0
ARC
  5
F1
100
AcDbEntity
  8
0
100
AcDbCircle
 10
104.670607
 20
40.212169
 30
0.0
 40
0.448573
100
AcDbArc
 50
279.06525
 51
80.93475
  0
ARC
  5
F2
100
AcDbEntity
  8
0
100
AcDbCircle
 10
103.438485
 20
38.027177
 30
0.0
 40
1.685513
100
AcDbArc
 50
320.618531
 51
39.381469
  0
ARC
  5
F3
100
AcDbEntity
  8
0
100
AcDbCircle
 10
-234.699327
 20
40.682154
 30
0.0
 40
352.440615
100
AcDbArc
 50
358.0
 51
2.0
  0
ARC
  5
F4
100
AcDbEntity
  8
0
100
AcDbCircle
 10
472.181898
 20
40.682154
 30
0.0
 40
352.440615
100
AcDbArc
 50
178.0
 51
182.0
  0
ARC
  5
F5
100
AcDbEntity
  8
0
100
AcDbCircle
 10
105.841283
 20
91.151864
 30
0.0
 40
5.0
100
AcDbArc
 50
180.0
 51
270.0
  0
LINE
  5
F6
100
AcDbEntity
  8
0
100
AcDbLine
 10
98.841283
 20
93.151864
 30
0.0
 11
100.841283
 21
93.151864
 31
0.0
  0
LINE
  5
F7
100
AcDbEntity
  8
0
100
AcDbLine
 10
100.841283
 20
91.151864
 30
0.0
 11
98.841283
 21
91.151864
 31
0.0
  0
LINE
  5
F8
100
AcDbEntity
  8
0
100
AcDbLine
 10
96.841283
 20
96.151864
 30
0.0
 11
101.041283
 21
96.151864
 31
0.0
  0
LINE
  5
F9
100
AcDbEntity
  8
0
100
AcDbLine
 10
98.641283
 20
96.151864
 30
0.0
 11
98.841283
 21
93.151864
 31
0.0
  0
LINE
  5
FA
100
AcDbEntity
  8
0
100
AcDbLine
 10
96.841283
 20
93.151864
 30
0.0
 11
96.841283
 21
96.151864
 31
0.0
  0
ARC
  5
FB
100
AcDbEntity
  8
0
100
AcDbCircle
 10
98.841283
 20
93.151864
 30
0.0
 40
2.0
100
AcDbArc
 50
180.0
 51
270.0
  0
ARC
  5
FC
100
AcDbEntity
  8
0
100
AcDbCircle
 10
105.840978
 20
91.151864
 30
0.0
 40
2.0
100
AcDbArc
 50
181.0
 51
270.0
  0
LINE
  5
FD
100
AcDbEntity
  8
0
100
AcDbLine
 10
163.841283
 20
88.151864
 30
0.0
 11
179.841283
 21
88.151864
 31
0.0
  0
LINE
  5
FE
100
AcDbEntity
  8
0
100
AcDbLine
 10
163.841283
 20
89.151864
 30
0.0
 11
163.841283
 21
88.151864
 31
0.0
  0
LINE
  5
FF
100
AcDbEntity
  8
SILK
100
AcDbLine
 10
167.841283
 20
96.251864
 30
0.0
 11
167.841283
 21
97.251864
 31
0.0
  0
LINE
  5
100
100
AcDbEntity
  8
0
100
AcDbLine
 10
179.841283
 20
88.151864
 30
0.0
 11
179.841283
 21
89.151864
 31
0.0
  0
LINE
  5
102
100
AcDbEntity
  8
1
100
AcDbLine
 10
125.841283
 20
169.452274
 30
0.0
 11
120.841283
 21
169.452274
 31
0.0
  0
LINE
  5
103
100
AcDbEntity
  8
1
100
AcDbLine
 10
125.841283
 20
154.452274
 30
0.0
 11
120.841283
 21
154.452274
 31
0.0
  0
ARC
  5
104
100
AcDbEntity
  8
SILK
100
AcDbCircle
 10
161.499958
 20
106.308813
 30
0.0
 40
40.55
100
AcDbArc
 50
157.702583
 51
159.737945
1001
ACAD
1000
ASC_BOUNDS
1002
{
1070
    19
1005
108
1002
}
  0
LINE
  5
105
100
AcDbEntity
  8
1
100
AcDbLine
 10
124.841283
 20
105.751864
 30
0.0
 11
122.841283
 21
107.751864
 31
0.0
  0
LINE
  5
106
100
AcDbEntity
  8
SILK
100
AcDbLine
 10
123.013203
 20
120.351864
 30
0.0
 11
124.740633
 21
124.406864
 31
0.0
1001
ACAD
1000
ASC_BOUNDS
1002
{
1070
    19
1005
108
1002
}
  0
LINE
  5
107
100
AcDbEntity
  8
1
100
AcDbLine
 10
126.841283
 20
108.751864
 30
0.0
 11
114.841283
 21
108.751864
 31
0.0
  0
INSERT
  5
108
100
AcDbEntity
  8
SILK
100
AcDbBlockReference
  2
*X5
 10
0.0
 20
-10.728452
 30
0.0
1001
ACAD
1000
HATCH
1002
{
1070
    19
1000
ANSI31
1040
1.0
1040
0.0
1000
ASC_BOUNDS
1070
     1
1070
     2
1070
    57
1005
245
1005
21F
1005
21E
1005
21D
1005
222
1005
221
1005
220
1005
225
1005
22F
1005
230
1005
231
1005
223
1005
2A9
1005
260
1005
25F
1005
2AE
1005
2AD
1005
25D
1005
104
1005
25C
1005
25B
1005
2AC
1005
2AB
1005
2AA
1005
2B1
1005
106
1005
2B0
1005
25A
1005
259
1005
2AF
1005
257
1005
247
1005
246
1005
241
1005
244
1005
254
1005
253
1005
252
1005
243
1005
240
1005
256
1005
251
1005
248
1005
242
1005
23F
1005
23E
1005
255
1005
24D
1005
250
1005
24F
1005
24E
1005
24C
1005
24A
1005
258
1005
25E
1005
249
1005
24B
1000
ASC_SEEDPOINT
1011
-73.558717
1021
-62.849313
1031
0.0
1002
}
  0
INSERT
  5
206
100
AcDbEntity
  8
SILK
100
AcDbBlockReference
  2
*X6
 10
0.0
 20
-10.728452
 30
0.0
1001
ACAD
1000
HATCH
1002
{
1070
    19
1000
ANSI31
1040
0.666667
1040
0.0
1000
ASC_BOUNDS
1070
     1
1070
     2
1070
     2
1005
235
1005
2B7
1000
ASC_SEEDPOINT
1011
-73.558717
1021
-62.849313
1031
0.0
1002
}
  0
LINE
  5
217
100
AcDbEntity
  8
1
100
AcDbLine
 10
116.841283
 20
98.751864
 30
0.0
 11
124.841283
 21
98.751864
 31
0.0
  0
LINE
  5
218
100
AcDbEntity
  8
1
100
AcDbLine
 10
126.841283
 20
97.751864
 30
0.0
 11
114.841283
 21
97.751864
 31
0.0
  0
ARC
  5
21B
100
AcDbEntity
  8
0
100
AcDbCircle
 10
98.841283
 20
180.252274
 30
0.0
 40
2.0
100
AcDbArc
 50
90.0
 51
180.0
  0
LINE
  5
21C
100
AcDbEntity
  8
0
100
AcDbLine
 10
103.841283
 20
147.617374
 30
0.0
 11
103.841283
 21
182.287179
 31
0.0
  0
LINE
  5
21D
100
AcDbEntity
  8
SILK
100
AcDbLine
 10
108.941283
 20
124.406864
 30
0.0
 11
110.871283
 21
124.406864
 31
0.0
1001
ACAD
1000
ASC_BOUNDS
1002
{
1070
    19
1005
108
1002
}
  0
LINE
  5
21E
100
AcDbEntity
  8
SILK
100
AcDbLine
 10
108.941283
 20
125.526864
 30
0.0
 11
113.941283
 21
125.526864
 31
0.0
1001
ACAD
1000
ASC_BOUNDS
1002
{
1070
    19
1005
108
1002
}
  0
LINE
  5
21F
100
AcDbEntity
  8
SILK
100
AcDbLine
 10
113.941283
 20
125.246864
 30
0.0
 11
108.941283
 21
125.246864
 31
0.0
1001
ACAD
1000
ASC_BOUNDS
1002
{
1070
    19
1005
108
1002
}
  0
LINE
  5
220
100
AcDbEntity
  8
SILK
100
AcDbLine
 10
111.469583
 20
123.351864
 30
0.0
 11
108.941283
 21
120.731864
 31
0.0
1001
ACAD
1000
ASC_BOUNDS
1002
{
1070
    19
1005
108
1002
}
  0
LINE
  5
221
100
AcDbEntity
  8
SILK
100
AcDbLine
 10
110.871283
 20
120.351864
 30
0.0
 11
108.941283
 21
120.351864
 31
0.0
1001
ACAD
1000
ASC_BOUNDS
1002
{
1070
    19
1005
108
1002
}
  0
LINE
  5
222
100
AcDbEntity
  8
SILK
100
AcDbLine
 10
108.941283
 20
120.351864
 30
0.0
 11
110.871283
 21
122.351864
 31
0.0
1001
ACAD
1000
ASC_BOUNDS
1002
{
1070
    19
1005
108
1002
}
  0
LINE
  5
223
100
AcDbEntity
  8
SILK
100
AcDbLine
 10
108.941283
 20
122.026864
 30
0.0
 11
110.219908
 21
123.351864
 31
0.0
1001
ACAD
1000
ASC_BOUNDS
1002
{
1070
    19
1005
108
1002
}
  0
CIRCLE
  5
224
100
AcDbEntity
  8
1
100
AcDbCircle
 10
109.841283
 20
104.051864
 30
0.0
 40
1.25
  0
LINE
  5
225
100
AcDbEntity
  8
SILK
100
AcDbLine
 10
108.941283
 20
122.406864
 30
0.0
 11
110.871283
 21
124.406864
 31
0.0
1001
ACAD
1000
ASC_BOUNDS
1002
{
1070
    19
1005
108
1002
}
  0
LINE
  5
226
100
AcDbEntity
  8
0
100
AcDbLine
 10
103.841283
 20
108.451864
 30
0.0
 11
101.241283
 21
108.451864
 31
0.0
  0
ARC
  5
227
100
AcDbEntity
  8
0
100
AcDbCircle
 10
105.841283
 20
125.751864
 30
0.0
 40
5.0
100
AcDbArc
 50
90.0
 51
180.0
  0
LINE
  5
228
100
AcDbEntity
  8
0
100
AcDbLine
 10
98.841283
 20
125.751864
 30
0.0
 11
100.841283
 21
125.751864
 31
0.0
  0
LINE
  5
229
100
AcDbEntity
  8
0
100
AcDbLine
 10
100.841283
 20
123.751864
 30
0.0
 11
98.841283
 21
123.751864
 31
0.0
  0
LINE
  5
22A
100
AcDbEntity
  8
0
100
AcDbLine
 10
96.841283
 20
120.751864
 30
0.0
 11
101.041283
 21
120.751864
 31
0.0
  0
LINE
  5
22B
100
AcDbEntity
  8
0
100
AcDbLine
 10
98.841283
 20
123.751864
 30
0.0
 11
98.641283
 21
120.751864
 31
0.0
  0
LINE
  5
22C
100
AcDbEntity
  8
0
100
AcDbLine
 10
96.841283
 20
120.751864
 30
0.0
 11
96.841283
 21
123.751864
 31
0.0
  0
ARC
  5
22D
100
AcDbEntity
  8
0
100
AcDbCircle
 10
98.841283
 20
123.751864
 30
0.0
 40
2.0
100
AcDbArc
 50
90.0
 51
180.0
  0
ARC
  5
22E
100
AcDbEntity
  8
0
100
AcDbCircle
 10
105.840978
 20
125.751864
 30
0.0
 40
2.0
100
AcDbArc
 50
90.0
 51
178.999994
  0
LINE
  5
22F
100
AcDbEntity
  8
SILK
100
AcDbLine
 10
108.941283
 20
125.526864
 30
0.0
 11
108.941283
 21
125.246864
 31
0.0
1001
ACAD
1000
ASC_BOUNDS
1002
{
1070
    19
1005
108
1002
}
  0
LINE
  5
230
100
AcDbEntity
  8
SILK
100
AcDbLine
 10
108.941283
 20
120.731864
 30
0.0
 11
108.941283
 21
122.026864
 31
0.0
1001
ACAD
1000
ASC_BOUNDS
1002
{
1070
    19
1005
108
1002
}
  0
LINE
  5
231
100
AcDbEntity
  8
SILK
100
AcDbLine
 10
108.941283
 20
122.406864
 30
0.0
 11
108.941283
 21
124.406864
 31
0.0
1001
ACAD
1000
ASC_BOUNDS
1002
{
1070
    19
1005
108
1002
}
  0
LINE
  5
232
100
AcDbEntity
  8
SILK
100
AcDbLine
 10
109.839499
 20
113.251864
 30
0.0
 11
109.839499
 21
106.176864
 31
0.0
  0
LINE
  5
233
100
AcDbEntity
  8
1
100
AcDbLine
 10
114.841283
 20
108.751864
 30
0.0
 11
114.841283
 21
97.751864
 31
0.0
  0
LINE
  5
234
100
AcDbEntity
  8
SILK
100
AcDbLine
 10
109.839499
 20
113.251864
 30
0.0
 11
115.841283
 21
113.251864
 31
0.0
  0
CIRCLE
  5
235
100
AcDbEntity
  8
SILK
100
AcDbCircle
 10
115.841283
 20
113.251864
 30
0.0
 40
0.4
1001
ACAD
1000
ASC_BOUNDS
1002
{
1070
    19
1005
206
1002
}
  0
LINE
  5
236
100
AcDbEntity
  8
1
100
AcDbLine
 10
122.841283
 20
101.751864
 30
0.0
 11
118.841283
 21
101.751864
 31
0.0
  0
LINE
  5
237
100
AcDbEntity
  8
1
100
AcDbLine
 10
122.841283
 20
107.751864
 30
0.0
 11
118.841283
 21
107.751864
 31
0.0
  0
LINE
  5
238
100
AcDbEntity
  8
1
100
AcDbLine
 10
122.841283
 20
104.751864
 30
0.0
 11
118.841283
 21
104.751864
 31
0.0
  0
LINE
  5
239
100
AcDbEntity
  8
1
100
AcDbLine
 10
118.841283
 20
104.751864
 30
0.0
 11
118.841283
 21
101.751864
 31
0.0
  0
LINE
  5
23A
100
AcDbEntity
  8
1
100
AcDbLine
 10
118.841283
 20
107.751864
 30
0.0
 11
116.841283
 21
105.751864
 31
0.0
  0
LINE
  5
23B
100
AcDbEntity
  8
1
100
AcDbLine
 10
116.841283
 20
105.751864
 30
0.0
 11
116.841283
 21
98.751864
 31
0.0
  0
LINE
  5
23C
100
AcDbEntity
  8
1
100
AcDbLine
 10
122.841283
 20
104.751864
 30
0.0
 11
122.841283
 21
101.751864
 31
0.0
  0
TEXT
  5
23D
100
AcDbEntity
  8
SILK
100
AcDbText
 10
118.441283
 20
112.251864
 30
0.0
 40
2.0
  1
USB
 41
0.9
 72
     1
 11
120.841283
 21
112.251864
 31
0.0
100
AcDbText
  0
LINE
  5
23E
100
AcDbEntity
  8
SILK
100
AcDbLine
 10
115.941283
 20
124.406864
 30
0.0
 11
119.440748
 21
124.406864
 31
0.0
1001
ACAD
1000
ASC_BOUNDS
1002
{
1070
    19
1005
108
1002
}
  0
LINE
  5
23F
100
AcDbEntity
  8
SILK
100
AcDbLine
 10
119.440748
 20
124.009474
 30
0.0
 11
115.941283
 21
124.009474
 31
0.0
1001
ACAD
1000
ASC_BOUNDS
1002
{
1070
    19
1005
108
1002
}
  0
LINE
  5
240
100
AcDbEntity
  8
SILK
100
AcDbLine
 10
113.941283
 20
120.351864
 30
0.0
 11
112.096283
 21
120.351864
 31
0.0
1001
ACAD
1000
ASC_BOUNDS
1002
{
1070
    19
1005
108
1002
}
  0
LINE
  5
241
100
AcDbEntity
  8
SILK
100
AcDbLine
 10
112.773633
 20
123.351864
 30
0.0
 11
113.941283
 21
124.561864
 31
0.0
1001
ACAD
1000
ASC_BOUNDS
1002
{
1070
    19
1005
108
1002
}
  0
LINE
  5
242
100
AcDbEntity
  8
SILK
100
AcDbLine
 10
112.096283
 20
120.351864
 30
0.0
 11
112.096283
 21
123.351864
 31
0.0
1001
ACAD
1000
ASC_BOUNDS
1002
{
1070
    19
1005
108
1002
}
  0
LINE
  5
243
100
AcDbEntity
  8
SILK
100
AcDbLine
 10
110.871283
 20
122.351864
 30
0.0
 11
110.871283
 21
120.351864
 31
0.0
1001
ACAD
1000
ASC_BOUNDS
1002
{
1070
    19
1005
108
1002
}
  0
LINE
  5
244
100
AcDbEntity
  8
SILK
100
AcDbLine
 10
112.096283
 20
123.351864
 30
0.0
 11
112.773633
 21
123.351864
 31
0.0
1001
ACAD
1000
ASC_BOUNDS
1002
{
1070
    19
1005
108
1002
}
  0
LINE
  5
245
100
AcDbEntity
  8
SILK
100
AcDbLine
 10
110.219908
 20
123.351864
 30
0.0
 11
111.469583
 21
123.351864
 31
0.0
1001
ACAD
1000
ASC_BOUNDS
1002
{
1070
    19
1005
108
1002
}
  0
LINE
  5
246
100
AcDbEntity
  8
SILK
100
AcDbLine
 10
113.941283
 20
125.246864
 30
0.0
 11
113.941283
 21
125.526864
 31
0.0
1001
ACAD
1000
ASC_BOUNDS
1002
{
1070
    19
1005
108
1002
}
  0
LINE
  5
247
100
AcDbEntity
  8
SILK
100
AcDbLine
 10
115.941283
 20
124.009474
 30
0.0
 11
115.941283
 21
124.406864
 31
0.0
1001
ACAD
1000
ASC_BOUNDS
1002
{
1070
    19
1005
108
1002
}
  0
LINE
  5
248
100
AcDbEntity
  8
SILK
100
AcDbLine
 10
113.941283
 20
124.561864
 30
0.0
 11
113.941283
 21
120.351864
 31
0.0
1001
ACAD
1000
ASC_BOUNDS
1002
{
1070
    19
1005
108
1002
}
  0
ARC
  5
249
100
AcDbEntity
  8
SILK
100
AcDbCircle
 10
121.261443
 20
120.793303
 30
0.0
 40
3.686469
100
AcDbArc
 50
70.531381
 51
109.468619
1001
ACAD
1000
ASC_BOUNDS
1002
{
1070
    19
1005
108
1002
}
  0
ARC
  5
24A
100
AcDbEntity
  8
SILK
100
AcDbCircle
 10
120.817593
 20
121.589606
 30
0.0
 40
0.995625
100
AcDbArc
 50
191.568479
 51
243.242234
1001
ACAD
1000
ASC_BOUNDS
1002
{
1070
    19
1005
108
1002
}
  0
ARC
  5
24B
100
AcDbEntity
  8
SILK
100
AcDbCircle
 10
121.261443
 20
123.932986
 30
0.0
 40
3.686469
100
AcDbArc
 50
250.531381
 51
289.468619
1001
ACAD
1000
ASC_BOUNDS
1002
{
1070
    19
1005
108
1002
}
  0
ARC
  5
24C
100
AcDbEntity
  8
SILK
100
AcDbCircle
 10
120.776371
 20
123.168206
 30
0.0
 40
0.949188
100
AcDbArc
 50
115.392481
 51
169.796806
1001
ACAD
1000
ASC_BOUNDS
1002
{
1070
    19
1005
108
1002
}
  0
LINE
  5
24D
100
AcDbEntity
  8
SILK
100
AcDbLine
 10
119.440748
 20
124.406864
 30
0.0
 11
119.440748
 21
124.009474
 31
0.0
1001
ACAD
1000
ASC_BOUNDS
1002
{
1070
    19
1005
108
1002
}
  0
ARC
  5
24E
100
AcDbEntity
  8
SILK
100
AcDbCircle
 10
131.968203
 20
122.363144
 30
0.0
 40
12.165
100
AcDbArc
 50
175.411434
 51
184.588566
1001
ACAD
1000
ASC_BOUNDS
1002
{
1070
    19
1005
108
1002
}
  0
ARC
  5
24F
100
AcDbEntity
  8
SILK
100
AcDbCircle
 10
131.506124
 20
122.363144
 30
0.0
 40
12.165
100
AcDbArc
 50
174.54868
 51
185.45132
1001
ACAD
1000
ASC_BOUNDS
1002
{
1070
    19
1005
108
1002
}
  0
ARC
  5
250
100
AcDbEntity
  8
SILK
100
AcDbCircle
 10
120.451817
 20
121.458138
 30
0.0
 40
1.085026
100
AcDbArc
 50
193.357457
 51
247.281655
1001
ACAD
1000
ASC_BOUNDS
1002
{
1070
    19
1005
108
1002
}
  0
LINE
  5
251
100
AcDbEntity
  8
SILK
100
AcDbLine
 10
117.461908
 20
121.758949
 30
0.0
 11
117.461908
 21
123.502599
 31
0.0
1001
ACAD
1000
ASC_BOUNDS
1002
{
1070
    19
1005
108
1002
}
  0
LINE
  5
252
100
AcDbEntity
  8
SILK
100
AcDbLine
 10
117.439606
 20
120.351864
 30
0.0
 11
117.938371
 21
120.351864
 31
0.0
1001
ACAD
1000
ASC_BOUNDS
1002
{
1070
    19
1005
108
1002
}
  0
ARC
  5
253
100
AcDbEntity
  8
SILK
100
AcDbCircle
 10
76.911954
 20
121.697953
 30
0.0
 40
40.55
100
AcDbArc
 50
358.097673
 51
0.086186
1001
ACAD
1000
ASC_BOUNDS
1002
{
1070
    19
1005
108
1002
}
  0
ARC
  5
254
100
AcDbEntity
  8
SILK
100
AcDbCircle
 10
158.466023
 20
121.697953
 30
0.0
 40
40.55
100
AcDbArc
 50
179.913814
 51
181.902327
1001
ACAD
1000
ASC_BOUNDS
1002
{
1070
    19
1005
108
1002
}
  0
ARC
  5
255
100
AcDbEntity
  8
SILK
100
AcDbCircle
 10
120.414964
 20
123.299426
 30
0.0
 40
1.042175
100
AcDbArc
 50
111.513405
 51
167.847482
1001
ACAD
1000
ASC_BOUNDS
1002
{
1070
    19
1005
108
1002
}
  0
LINE
  5
256
100
AcDbEntity
  8
SILK
100
AcDbLine
 10
117.916068
 20
123.968924
 30
0.0
 11
117.916068
 21
121.758949
 31
0.0
1001
ACAD
1000
ASC_BOUNDS
1002
{
1070
    19
1005
108
1002
}
  0
LINE
  5
257
100
AcDbEntity
  8
SILK
100
AcDbLine
 10
117.461908
 20
123.502599
 30
0.0
 11
117.916068
 21
123.968924
 31
0.0
1001
ACAD
1000
ASC_BOUNDS
1002
{
1070
    19
1005
108
1002
}
  0
ARC
  5
258
100
AcDbEntity
  8
SILK
100
AcDbCircle
 10
121.261443
 20
121.713554
 30
0.0
 40
2.478273
100
AcDbArc
 50
68.90174
 51
111.09826
1001
ACAD
1000
ASC_BOUNDS
1002
{
1070
    19
1005
108
1002
}
  0
ARC
  5
259
100
AcDbEntity
  8
SILK
100
AcDbCircle
 10
110.554684
 20
122.363144
 30
0.0
 40
12.165
100
AcDbArc
 50
355.411434
 51
4.588566
1001
ACAD
1000
ASC_BOUNDS
1002
{
1070
    19
1005
108
1002
}
  0
ARC
  5
25A
100
AcDbEntity
  8
SILK
100
AcDbCircle
 10
111.016762
 20
122.363144
 30
0.0
 40
12.165
100
AcDbArc
 50
354.54868
 51
5.45132
1001
ACAD
1000
ASC_BOUNDS
1002
{
1070
    19
1005
108
1002
}
  0
LINE
  5
25B
100
AcDbEntity
  8
SILK
100
AcDbLine
 10
123.013203
 20
120.351864
 30
0.0
 11
123.459253
 21
120.351864
 31
0.0
1001
ACAD
1000
ASC_BOUNDS
1002
{
1070
    19
1005
108
1002
}
  0
ARC
  5
25C
100
AcDbEntity
  8
SILK
100
AcDbCircle
 10
122.281559
 20
121.279507
 30
0.0
 40
0.848249
100
AcDbArc
 50
284.232597
 51
355.12829
1001
ACAD
1000
ASC_BOUNDS
1002
{
1070
    19
1005
108
1002
}
  0
ARC
  5
25D
100
AcDbEntity
  8
SILK
100
AcDbCircle
 10
121.934482
 20
121.414344
 30
0.0
 40
0.74661
100
AcDbArc
 50
287.062087
 51
358.1272
1001
ACAD
1000
ASC_BOUNDS
1002
{
1070
    19
1005
108
1002
}
  0
ARC
  5
25E
100
AcDbEntity
  8
SILK
100
AcDbCircle
 10
121.261443
 20
123.012735
 30
0.0
 40
2.478273
100
AcDbArc
 50
248.90174
 51
291.09826
1001
ACAD
1000
ASC_BOUNDS
1002
{
1070
    19
1005
108
1002
}
  0
ARC
  5
25F
100
AcDbEntity
  8
SILK
100
AcDbCircle
 10
121.953056
 20
123.326148
 30
0.0
 40
0.727708
100
AcDbArc
 50
0.802802
 51
74.007911
1001
ACAD
1000
ASC_BOUNDS
1002
{
1070
    19
1005
108
1002
}
  0
ARC
  5
260
100
AcDbEntity
  8
SILK
100
AcDbCircle
 10
122.294629
 20
123.457874
 30
0.0
 40
0.834344
100
AcDbArc
 50
4.188979
 51
76.450134
1001
ACAD
1000
ASC_BOUNDS
1002
{
1070
    19
1005
108
1002
}
  0
LINE
  5
261
100
AcDbEntity
  8
SILK
100
AcDbLine
 10
111.841283
 20
149.452274
 30
0.0
 11
106.091283
 21
149.452274
 31
0.0
  0
LINE
  5
262
100
AcDbEntity
  8
1
100
AcDbLine
 10
108.841287
 20
165.252277
 30
0.0
 11
117.841287
 21
165.252269
 31
0.0
  0
TEXT
  5
263
100
AcDbEntity
  8
SILK
100
AcDbText
 10
106.998426
 20
167.952274
 30
0.0
 40
2.0
  1
24V 400mA
 41
0.72
 72
     1
 11
113.341283
 21
167.952274
 31
0.0
100
AcDbText
  0
LINE
  5
264
100
AcDbEntity
  8
1
100
AcDbLine
 10
117.841278
 20
154.252269
 30
0.0
 11
108.841278
 21
154.252277
 31
0.0
  0
LINE
  5
265
100
AcDbEntity
  8
1
100
AcDbLine
 10
108.841278
 20
154.252277
 30
0.0
 11
108.841287
 21
165.252277
 31
0.0
  0
ARC
  5
266
100
AcDbEntity
  8
0
100
AcDbCircle
 10
-191.571217
 20
164.952274
 30
0.0
 40
292.8125
100
AcDbArc
 50
357.004825
 51
2.995175
  0
ARC
  5
267
100
AcDbEntity
  8
0
100
AcDbCircle
 10
105.841283
 20
147.652274
 30
0.0
 40
5.0
100
AcDbArc
 50
180.0
 51
270.0
  0
ARC
  5
268
100
AcDbEntity
  8
0
100
AcDbCircle
 10
98.841283
 20
149.652274
 30
0.0
 40
2.0
100
AcDbArc
 50
180.0
 51
270.0
  0
LINE
  5
269
100
AcDbEntity
  8
0
100
AcDbLine
 10
100.841283
 20
147.652274
 30
0.0
 11
98.841283
 21
147.652274
 31
0.0
  0
LINE
  5
26A
100
AcDbEntity
  8
0
100
AcDbLine
 10
98.841283
 20
149.652274
 30
0.0
 11
100.841283
 21
149.652274
 31
0.0
  0
LINE
  5
26B
100
AcDbEntity
  8
0
100
AcDbLine
 10
96.841283
 20
152.652274
 30
0.0
 11
101.041283
 21
152.652274
 31
0.0
  0
LINE
  5
26C
100
AcDbEntity
  8
0
100
AcDbLine
 10
98.641283
 20
152.652274
 30
0.0
 11
98.841283
 21
149.652274
 31
0.0
  0
LINE
  5
26D
100
AcDbEntity
  8
0
100
AcDbLine
 10
96.841283
 20
149.652274
 30
0.0
 11
96.841283
 21
152.652274
 31
0.0
  0
CIRCLE
  5
26E
100
AcDbEntity
  8
SILK
100
AcDbCircle
 10
107.341283
 20
149.452274
 30
0.0
 40
1.25
  0
ARC
  5
26F
100
AcDbEntity
  8
0
100
AcDbCircle
 10
105.840978
 20
147.652274
 30
0.0
 40
2.0
100
AcDbArc
 50
181.0
 51
270.0
  0
LINE
  5
270
100
AcDbEntity
  8
0
100
AcDbLine
 10
103.841283
 20
164.952274
 30
0.0
 11
101.241283
 21
164.952274
 31
0.0
  0
LINE
  5
271
100
AcDbEntity
  8
0
100
AcDbLine
 10
100.841283
 20
180.252274
 30
0.0
 11
98.841283
 21
180.252274
 31
0.0
  0
LINE
  5
272
100
AcDbEntity
  8
0
100
AcDbLine
 10
96.841283
 20
177.252274
 30
0.0
 11
101.041283
 21
177.252274
 31
0.0
  0
LINE
  5
273
100
AcDbEntity
  8
0
100
AcDbLine
 10
98.841283
 20
180.252274
 30
0.0
 11
98.641283
 21
177.252274
 31
0.0
  0
LINE
  5
274
100
AcDbEntity
  8
0
100
AcDbLine
 10
96.841283
 20
177.252274
 30
0.0
 11
96.841283
 21
180.252274
 31
0.0
  0
LINE
  5
275
100
AcDbEntity
  8
1
100
AcDbLine
 10
117.841287
 20
165.252269
 30
0.0
 11
117.841278
 21
154.252269
 31
0.0
  0
LINE
  5
276
100
AcDbEntity
  8
1
100
AcDbLine
 10
120.841283
 20
154.452274
 30
0.0
 11
120.841283
 21
169.452274
 31
0.0
  0
CIRCLE
  5
277
100
AcDbEntity
  8
1
100
AcDbCircle
 10
113.341283
 20
160.752273
 30
0.0
 40
1.0
  0
CIRCLE
  5
278
100
AcDbEntity
  8
1
100
AcDbCircle
 10
113.341283
 20
160.752273
 30
0.0
 40
3.25
  0
LINE
  5
279
100
AcDbEntity
  8
SILK
100
AcDbLine
 10
114.091283
 20
149.452274
 30
0.0
 11
120.591283
 21
149.452274
 31
0.0
  0
INSERT
  5
27A
100
AcDbEntity
  8
SILK
100
AcDbBlockReference
  2
*X8
 10
0.0
 20
-14.859406
 30
0.0
1001
ACAD
1000
HATCH
1002
{
1070
    19
1000
ANSI31
1040
1.0
1040
0.0
1000
ASC_BOUNDS
1070
     1
1070
     2
1070
     1
1005
28A
1000
ASC_SEEDPOINT
1011
-73.558717
1021
-81.295373
1031
0.0
1002
}
  0
CIRCLE
  5
28A
100
AcDbEntity
  8
SILK
100
AcDbCircle
 10
113.341283
 20
149.452274
 30
0.0
 40
0.75
1001
ACAD
1000
ASC_BOUNDS
1002
{
1070
    19
1005
27A
1002
}
  0
ARC
  5
28B
100
AcDbEntity
  8
SILK
100
AcDbCircle
 10
113.341283
 20
149.452274
 30
0.0
 40
1.5
100
AcDbArc
 50
45.0
 51
315.0
  0
LINE
  5
28C
100
AcDbEntity
  8
SILK
100
AcDbLine
 10
119.341283
 20
148.202274
 30
0.0
 11
119.341283
 21
150.702274
 31
0.0
  0
CIRCLE
  5
28D
100
AcDbEntity
  8
SILK
100
AcDbCircle
 10
119.341283
 20
149.452274
 30
0.0
 40
1.25
  0
TEXT
  5
28E
100
AcDbEntity
  8
SILK
100
AcDbText
 10
109.784141
 20
170.952278
 30
0.0
 40
2.0
  1
DC IN
 50
359.999949
 41
0.9
 72
     1
 11
113.341283
 21
170.952274
 31
0.0
100
AcDbText
  0
ARC
  5
290
100
AcDbEntity
  8
0
100
AcDbCircle
 10
105.841283
 20
182.252274
 30
0.0
 40
5.0
100
AcDbArc
 50
90.0
 51
180.0
  0
LINE
  5
291
100
AcDbEntity
  8
0
100
AcDbLine
 10
98.841283
 20
182.252274
 30
0.0
 11
100.841283
 21
182.252274
 31
0.0
  0
ARC
  5
292
100
AcDbEntity
  8
0
100
AcDbCircle
 10
105.840978
 20
182.252274
 30
0.0
 40
2.0
100
AcDbArc
 50
90.0
 51
178.999994
  0
LINE
  5
293
100
AcDbEntity
  8
SILK
100
AcDbLine
 10
166.841283
 20
169.852274
 30
0.0
 11
166.841283
 21
181.852274
 31
0.0
  0
LINE
  5
294
100
AcDbEntity
  8
SILK
100
AcDbLine
 10
156.841283
 20
169.852274
 30
0.0
 11
156.841283
 21
181.852274
 31
0.0
  0
LINE
  5
295
100
AcDbEntity
  8
SILK
100
AcDbLine
 10
146.841283
 20
169.852274
 30
0.0
 11
146.841283
 21
181.852274
 31
0.0
  0
TEXT
  5
296
100
AcDbEntity
  8
SILK
100
AcDbText
 10
148.284141
 20
178.852274
 30
0.0
 40
2.0
  1
DC IN
 41
0.9
 72
     1
 11
151.841283
 21
179.852274
 31
0.0
100
AcDbText
 73
     2
  0
TEXT
  5
297
100
AcDbEntity
  8
SILK
100
AcDbText
 10
149.441283
 20
174.852274
 30
0.0
 40
2.0
  1
24V
 41
0.9
 72
     1
 11
151.841283
 21
175.852274
 31
0.0
100
AcDbText
 73
     2
  0
LINE
  5
298
100
AcDbEntity
  8
1
100
AcDbLine
 10
152.341283
 20
165.252274
 30
0.0
 11
149.841283
 21
165.252274
 31
0.0
  0
ARC
  5
299
100
AcDbEntity
  8
1
100
AcDbCircle
 10
154.341283
 20
159.358524
 30
0.0
 40
4.30625
100
AcDbArc
 50
234.510657
 51
305.489343
  0
LINE
  5
29A
100
AcDbEntity
  8
1
100
AcDbLine
 10
155.341283
 20
101.951864
 30
0.0
 11
150.341283
 21
101.951864
 31
0.0
  0
TEXT
  5
29B
100
AcDbEntity
  8
SILK
100
AcDbText
 10
149.112712
 20
106.251864
 30
0.0
 40
2.0
  1
LEVEL
 41
0.9
 72
     1
 11
152.841283
 21
106.251864
 31
0.0
100
AcDbText
  0
LINE
  5
29C
100
AcDbEntity
  8
1
100
AcDbLine
 10
150.841283
 20
101.451864
 30
0.0
 11
154.841283
 21
101.451864
 31
0.0
  0
LINE
  5
29D
100
AcDbEntity
  8
1
100
AcDbLine
 10
154.841283
 20
99.451864
 30
0.0
 11
150.841283
 21
99.451864
 31
0.0
  0
LINE
  5
29E
100
AcDbEntity
  8
1
100
AcDbLine
 10
155.341283
 20
98.951864
 30
0.0
 11
150.341283
 21
98.951864
 31
0.0
  0
LINE
  5
29F
100
AcDbEntity
  8
SILK
100
AcDbLine
 10
145.841283
 20
113.251864
 30
0.0
 11
152.841283
 21
113.251864
 31
0.0
  0
TEXT
  5
2A0
100
AcDbEntity
  8
SILK
100
AcDbText
 10
140.841283
 20
147.852274
 30
0.0
 40
2.0
  1
SOUND REPEATER EV-20R
 41
0.9
100
AcDbText
  0
TEXT
  5
2A1
100
AcDbEntity
  8
SILK
100
AcDbText
 10
133.169855
 20
115.251864
 30
0.0
 40
2.0
  1
INPUT/
 41
0.9
 72
     1
 11
137.841283
 21
115.251864
 31
0.0
100
AcDbText
  0
TEXT
  5
2A2
100
AcDbEntity
  8
SILK
100
AcDbText
 10
133.469855
 20
112.251864
 30
0.0
 40
2.0
  1
REC IN
 41
0.9
 72
     1
 11
137.841283
 21
112.251864
 31
0.0
100
AcDbText
  0
CIRCLE
  5
2A3
100
AcDbEntity
  8
1
100
AcDbCircle
 10
137.841283
 20
104.251864
 30
0.0
 40
3.22
  0
CIRCLE
  5
2A4
100
AcDbEntity
  8
1
100
AcDbCircle
 10
137.841283
 20
104.251864
 30
0.0
 40
6.25
  0
CIRCLE
  5
2A5
100
AcDbEntity
  8
1
100
AcDbCircle
 10
137.841283
 20
104.251864
 30
0.0
 40
4.5
  0
CIRCLE
  5
2A6
100
AcDbEntity
  8
1
100
AcDbCircle
 10
137.841283
 20
104.251864
 30
0.0
 40
5.3
  0
LINE
  5
2A7
100
AcDbEntity
  8
1
100
AcDbLine
 10
126.841283
 20
108.751864
 30
0.0
 11
126.841283
 21
97.751864
 31
0.0
  0
LINE
  5
2A8
100
AcDbEntity
  8
1
100
AcDbLine
 10
124.841283
 20
98.751864
 30
0.0
 11
124.841283
 21
105.751864
 31
0.0
  0
LINE
  5
2A9
100
AcDbEntity
  8
SILK
100
AcDbLine
 10
124.740633
 20
124.406864
 30
0.0
 11
125.300223
 21
124.406864
 31
0.0
1001
ACAD
1000
ASC_BOUNDS
1002
{
1070
    19
1005
108
1002
}
  0
LINE
  5
2AA
100
AcDbEntity
  8
SILK
100
AcDbLine
 10
126.411293
 20
120.351864
 30
0.0
 11
126.938443
 21
120.351864
 31
0.0
1001
ACAD
1000
ASC_BOUNDS
1002
{
1070
    19
1005
108
1002
}
  0
LINE
  5
2AB
100
AcDbEntity
  8
SILK
100
AcDbLine
 10
125.767044
 20
121.953589
 30
0.0
 11
126.411293
 21
120.351864
 31
0.0
1001
ACAD
1000
ASC_BOUNDS
1002
{
1070
    19
1005
108
1002
}
  0
LINE
  5
2AC
100
AcDbEntity
  8
SILK
100
AcDbLine
 10
124.299134
 20
121.953589
 30
0.0
 11
124.617127
 21
122.282044
 31
0.0
1001
ACAD
1000
ASC_BOUNDS
1002
{
1070
    19
1005
108
1002
}
  0
LINE
  5
2AD
100
AcDbEntity
  8
SILK
100
AcDbLine
 10
124.617127
 20
122.282044
 30
0.0
 11
125.634932
 21
122.282044
 31
0.0
1001
ACAD
1000
ASC_BOUNDS
1002
{
1070
    19
1005
108
1002
}
  0
LINE
  5
2AE
100
AcDbEntity
  8
SILK
100
AcDbLine
 10
124.299134
 20
121.953589
 30
0.0
 11
125.767044
 21
121.953589
 31
0.0
1001
ACAD
1000
ASC_BOUNDS
1002
{
1070
    19
1005
108
1002
}
  0
LINE
  5
2AF
100
AcDbEntity
  8
SILK
100
AcDbLine
 10
125.300223
 20
124.406864
 30
0.0
 11
126.938443
 21
120.351864
 31
0.0
1001
ACAD
1000
ASC_BOUNDS
1002
{
1070
    19
1005
108
1002
}
  0
LINE
  5
2B0
100
AcDbEntity
  8
SILK
100
AcDbLine
 10
124.943383
 20
124.001364
 30
0.0
 11
123.982011
 21
121.694069
 31
0.0
1001
ACAD
1000
ASC_BOUNDS
1002
{
1070
    19
1005
108
1002
}
  0
LINE
  5
2B1
100
AcDbEntity
  8
SILK
100
AcDbLine
 10
124.943383
 20
124.001364
 30
0.0
 11
125.634932
 21
122.282044
 31
0.0
1001
ACAD
1000
ASC_BOUNDS
1002
{
1070
    19
1005
108
1002
}
  0
TEXT
  5
2B2
100
AcDbEntity
  8
SILK
100
AcDbText
 10
146.269855
 20
103.251864
 30
0.0
 40
2.0
  1
LINE
 41
0.9
 72
     1
 11
148.841283
 21
103.251864
 31
0.0
100
AcDbText
  0
LINE
  5
2B3
100
AcDbEntity
  8
1
100
AcDbLine
 10
151.591283
 20
101.451864
 30
0.0
 11
151.591283
 21
99.451864
 31
0.0
  0
LINE
  5
2B4
100
AcDbEntity
  8
1
100
AcDbLine
 10
150.841283
 20
99.451864
 30
0.0
 11
150.841283
 21
101.451864
 31
0.0
  0
LINE
  5
2B5
100
AcDbEntity
  8
1
100
AcDbLine
 10
151.841283
 20
101.451864
 30
0.0
 11
151.841283
 21
99.451864
 31
0.0
  0
LINE
  5
2B6
100
AcDbEntity
  8
1
100
AcDbLine
 10
150.341283
 20
101.951864
 30
0.0
 11
150.341283
 21
98.951864
 31
0.0
  0
CIRCLE
  5
2B7
100
AcDbEntity
  8
SILK
100
AcDbCircle
 10
145.841283
 20
113.251864
 30
0.0
 40
0.4
1001
ACAD
1000
ASC_BOUNDS
1002
{
1070
    19
1005
206
1002
}
  0
TEXT
  5
2B8
100
AcDbEntity
  8
SILK
100
AcDbText
 10
129.341283
 20
170.952274
 30
0.0
 40
2.0
  1
SIGNAL
 41
0.9
 72
     1
 11
133.841283
 21
170.952274
 31
0.0
100
AcDbText
  0
CIRCLE
  5
2B9
100
AcDbEntity
  8
1
100
AcDbCircle
 10
133.841268
 20
160.952274
 30
0.0
 40
4.15
  0
CIRCLE
  5
2BA
100
AcDbEntity
  8
1
100
AcDbCircle
 10
133.841268
 20
160.952274
 30
0.0
 40
4.347431
  0
LINE
  5
2BB
100
AcDbEntity
  8
1
100
AcDbLine
 10
133.841268
 20
163.052274
 30
0.0
 11
133.841268
 21
158.852274
 31
0.0
  0
LINE
  5
2BC
100
AcDbEntity
  8
1
100
AcDbLine
 10
125.841283
 20
154.452274
 30
0.0
 11
125.841283
 21
169.452274
 31
0.0
  0
LINE
  5
2BD
100
AcDbEntity
  8
SILK
100
AcDbLine
 10
133.840517
 20
149.396719
 30
0.0
 11
133.840517
 21
154.452274
 31
0.0
  0
LINE
  5
2BE
100
AcDbEntity
  8
SILK
100
AcDbLine
 10
131.673851
 20
149.396719
 30
0.0
 11
136.007184
 21
149.396719
 31
0.0
  0
LINE
  5
2BF
100
AcDbEntity
  8
SILK
100
AcDbLine
 10
133.840517
 20
149.396719
 30
0.0
 11
133.118295
 21
147.952274
 31
0.0
  0
LINE
  5
2C0
100
AcDbEntity
  8
SILK
100
AcDbLine
 10
131.673851
 20
149.396719
 30
0.0
 11
130.951628
 21
147.952274
 31
0.0
  0
LINE
  5
2C1
100
AcDbEntity
  8
SILK
100
AcDbLine
 10
136.007184
 20
149.396719
 30
0.0
 11
135.284962
 21
147.952274
 31
0.0
  0
TEXT
  5
2C2
100
AcDbEntity
  8
SILK
100
AcDbText
 10
131.398426
 20
167.952274
 30
0.0
 40
2.0
  1
GND
 41
0.9
 72
     1
 11
133.841283
 21
167.952274
 31
0.0
100
AcDbText
  0
LINE
  5
2C3
100
AcDbEntity
  8
1
100
AcDbLine
 10
135.941268
 20
160.952274
 30
0.0
 11
131.741268
 21
160.952274
 31
0.0
  0
LINE
  5
2C4
100
AcDbEntity
  8
1
100
AcDbLine
 10
146.841283
 20
155.852274
 30
0.0
 11
146.841283
 21
160.802274
 31
0.0
  0
LINE
  5
2C5
100
AcDbEntity
  8
1
100
AcDbLine
 10
141.841283
 20
154.252274
 30
0.0
 11
141.841283
 21
162.502274
 31
0.0
  0
LINE
  5
2C6
100
AcDbEntity
  8
1
100
AcDbLine
 10
141.341283
 20
162.752274
 30
0.0
 11
141.341283
 21
154.252274
 31
0.0
  0
CIRCLE
  5
2C7
100
AcDbEntity
  8
1
100
AcDbCircle
 10
144.341283
 20
157.952274
 30
0.0
 40
1.25
  0
ARC
  5
2C8
100
AcDbEntity
  8
1
100
AcDbCircle
 10
149.341283
 20
159.358524
 30
0.0
 40
4.30625
100
AcDbArc
 50
234.510657
 51
305.489343
  0
LINE
  5
2C9
100
AcDbEntity
  8
1
100
AcDbLine
 10
148.841283
 20
157.452274
 30
0.0
 11
149.841283
 21
157.452274
 31
0.0
  0
LINE
  5
2CA
100
AcDbEntity
  8
1
100
AcDbLine
 10
148.841283
 20
158.452274
 30
0.0
 11
149.841283
 21
158.452274
 31
0.0
  0
LINE
  5
2CB
100
AcDbEntity
  8
1
100
AcDbLine
 10
149.841283
 20
158.452274
 30
0.0
 11
149.841283
 21
157.452274
 31
0.0
  0
LINE
  5
2CC
100
AcDbEntity
  8
1
100
AcDbLine
 10
148.841283
 20
158.452274
 30
0.0
 11
148.841283
 21
157.452274
 31
0.0
  0
LINE
  5
2CD
100
AcDbEntity
  8
1
100
AcDbLine
 10
149.841283
 20
162.752274
 30
0.0
 11
141.341283
 21
162.752274
 31
0.0
  0
LINE
  5
2CE
100
AcDbEntity
  8
SILK
100
AcDbLine
 10
151.841283
 20
169.852274
 30
0.0
 11
151.841283
 21
173.852274
 31
0.0
  0
LINE
  5
2CF
100
AcDbEntity
  8
1
100
AcDbLine
 10
149.841283
 20
165.252274
 30
0.0
 11
149.841283
 21
162.752274
 31
0.0
  0
TEXT
  5
2D0
100
AcDbEntity
  8
SILK
100
AcDbText
 10
148.569855
 20
170.852274
 30
0.0
 40
2.0
  1
-
 41
0.9
 72
     1
 11
149.341283
 21
171.852274
 31
0.0
100
AcDbText
 73
     2
  0
TEXT
  5
2D1
100
AcDbEntity
  8
SILK
100
AcDbText
 10
163.638827
 20
115.251864
 30
0.0
 40
2.0
  1
HEAD-
 41
0.9
 72
     1
 11
168.010256
 21
115.251864
 31
0.0
100
AcDbText
  0
TEXT
  5
2D2
100
AcDbEntity
  8
SILK
100
AcDbText
 10
162.698426
 20
112.251864
 30
0.0
 40
2.0
  1
PHONES
 41
0.9
 72
     1
 11
167.841283
 21
112.251864
 31
0.0
100
AcDbText
  0
LINE
  5
2D3
100
AcDbEntity
  8
0
100
AcDbLine
 10
179.841283
 20
128.751864
 30
0.0
 11
163.841283
 21
128.751864
 31
0.0
  0
CIRCLE
  5
2D4
100
AcDbEntity
  8
1
100
AcDbCircle
 10
167.841283
 20
104.251864
 30
0.0
 40
5.3
  0
CIRCLE
  5
2D5
100
AcDbEntity
  8
1
100
AcDbCircle
 10
167.841283
 20
104.251864
 30
0.0
 40
4.5
  0
CIRCLE
  5
2D6
100
AcDbEntity
  8
1
100
AcDbCircle
 10
167.841283
 20
104.251864
 30
0.0
 40
3.22
  0
CIRCLE
  5
2D7
100
AcDbEntity
  8
1
100
AcDbCircle
 10
167.841283
 20
104.251864
 30
0.0
 40
6.25
  0
TEXT
  5
2D8
100
AcDbEntity
  8
SILK
100
AcDbText
 10
154.826998
 20
103.251864
 30
0.0
 40
2.0
  1
MIC
 41
0.9
 72
     1
 11
156.841283
 21
103.251864
 31
0.0
100
AcDbText
  0
LINE
  5
2D9
100
AcDbEntity
  8
1
100
AcDbLine
 10
154.841283
 20
101.451864
 30
0.0
 11
154.841283
 21
99.451864
 31
0.0
  0
LINE
  5
2DA
100
AcDbEntity
  8
1
100
AcDbLine
 10
152.841283
 20
101.451864
 30
0.0
 11
152.841283
 21
99.451864
 31
0.0
  0
LINE
  5
2DB
100
AcDbEntity
  8
1
100
AcDbLine
 10
152.091283
 20
101.451864
 30
0.0
 11
152.091283
 21
99.451864
 31
0.0
  0
LINE
  5
2DC
100
AcDbEntity
  8
1
100
AcDbLine
 10
155.341283
 20
101.951864
 30
0.0
 11
155.341283
 21
98.951864
 31
0.0
  0
LINE
  5
2DD
100
AcDbEntity
  8
SILK
100
AcDbLine
 10
152.841283
 20
109.351864
 30
0.0
 11
152.841283
 21
113.251864
 31
0.0
  0
LINE
  5
2DE
100
AcDbEntity
  8
0
100
AcDbLine
 10
163.841283
 20
128.751864
 30
0.0
 11
163.841283
 21
127.751864
 31
0.0
  0
CIRCLE
  5
2DF
100
AcDbEntity
  8
SILK
100
AcDbCircle
 10
178.205364
 20
102.378831
 30
0.0
 40
0.25
  0
CIRCLE
  5
2E0
100
AcDbEntity
  8
SILK
100
AcDbCircle
 10
178.696096
 20
107.047829
 30
0.0
 40
0.25
  0
CIRCLE
  5
2E1
100
AcDbEntity
  8
SILK
100
AcDbCircle
 10
177.868674
 20
104.774507
 30
0.0
 40
0.25
  0
TEXT
  5
2E2
100
AcDbEntity
  8
SILK
100
AcDbText
 10
177.98177
 20
98.139553
 30
0.0
 40
1.5
  1
0
 41
0.72
 72
     1
 11
178.34177
 21
98.889553
 31
0.0
100
AcDbText
 73
     2
  0
CIRCLE
  5
2E3
100
AcDbEntity
  8
SILK
100
AcDbCircle
 10
179.627345
 20
100.421642
 30
0.0
 40
0.25
  0
LINE
  5
2E4
100
AcDbEntity
  8
0
100
AcDbLine
 10
179.841283
 20
127.751864
 30
0.0
 11
179.841283
 21
128.751864
 31
0.0
  0
ARC
  5
2E5
100
AcDbEntity
  8
1
100
AcDbCircle
 10
164.341283
 20
159.358524
 30
0.0
 40
4.30625
100
AcDbArc
 50
234.510657
 51
305.489343
  0
LINE
  5
2E6
100
AcDbEntity
  8
0
100
AcDbLine
 10
179.841283
 20
144.652274
 30
0.0
 11
163.841283
 21
144.652274
 31
0.0
  0
LINE
  5
2E7
100
AcDbEntity
  8
1
100
AcDbLine
 10
158.841283
 20
157.452274
 30
0.0
 11
159.841283
 21
157.452274
 31
0.0
  0
LINE
  5
2E8
100
AcDbEntity
  8
1
100
AcDbLine
 10
158.841283
 20
158.452274
 30
0.0
 11
159.841283
 21
158.452274
 31
0.0
  0
ARC
  5
2E9
100
AcDbEntity
  8
1
100
AcDbCircle
 10
159.341283
 20
159.358524
 30
0.0
 40
4.30625
100
AcDbArc
 50
234.510657
 51
305.489343
  0
LINE
  5
2EA
100
AcDbEntity
  8
1
100
AcDbLine
 10
154.841283
 20
158.452274
 30
0.0
 11
154.841283
 21
157.452274
 31
0.0
  0
LINE
  5
2EB
100
AcDbEntity
  8
1
100
AcDbLine
 10
153.841283
 20
158.452274
 30
0.0
 11
153.841283
 21
157.452274
 31
0.0
  0
LINE
  5
2EC
100
AcDbEntity
  8
1
100
AcDbLine
 10
153.841283
 20
157.452274
 30
0.0
 11
154.841283
 21
157.452274
 31
0.0
  0
LINE
  5
2ED
100
AcDbEntity
  8
1
100
AcDbLine
 10
153.841283
 20
158.452274
 30
0.0
 11
154.841283
 21
158.452274
 31
0.0
  0
LINE
  5
2EE
100
AcDbEntity
  8
1
100
AcDbLine
 10
158.841283
 20
158.452274
 30
0.0
 11
158.841283
 21
157.452274
 31
0.0
  0
LINE
  5
2EF
100
AcDbEntity
  8
0
100
AcDbLine
 10
163.841283
 20
144.652274
 30
0.0
 11
163.841283
 21
145.652274
 31
0.0
  0
LINE
  5
2F0
100
AcDbEntity
  8
1
100
AcDbLine
 10
159.841283
 20
158.452274
 30
0.0
 11
159.841283
 21
157.452274
 31
0.0
  0
LINE
  5
2F1
100
AcDbEntity
  8
1
100
AcDbLine
 10
163.841283
 20
157.452274
 30
0.0
 11
164.841283
 21
157.452274
 31
0.0
  0
LINE
  5
2F2
100
AcDbEntity
  8
1
100
AcDbLine
 10
163.841283
 20
158.452274
 30
0.0
 11
164.841283
 21
158.452274
 31
0.0
  0
LINE
  5
2F3
100
AcDbEntity
  8
1
100
AcDbLine
 10
164.841283
 20
158.452274
 30
0.0
 11
164.841283
 21
157.452274
 31
0.0
  0
LINE
  5
2F4
100
AcDbEntity
  8
1
100
AcDbLine
 10
163.841283
 20
158.452274
 30
0.0
 11
163.841283
 21
157.452274
 31
0.0
  0
TEXT
  5
2F5
100
AcDbEntity
  8
SILK
100
AcDbText
 10
158.455569
 20
178.852274
 30
0.0
 40
2.0
  1
BUSY
 41
0.9
 72
     1
 11
161.841283
 21
179.852274
 31
0.0
100
AcDbText
 73
     2
  0
TEXT
  5
2F6
100
AcDbEntity
  8
SILK
100
AcDbText
 10
153.569855
 20
170.852274
 30
0.0
 40
2.0
  1
+
 41
0.9
 72
     1
 11
154.341283
 21
171.852274
 31
0.0
100
AcDbText
 73
     2
  0
LINE
  5
2F7
100
AcDbEntity
  8
1
100
AcDbLine
 10
152.341283
 20
162.752274
 30
0.0
 11
152.341283
 21
165.252274
 31
0.0
  0
LINE
  5
2F8
100
AcDbEntity
  8
SILK
100
AcDbLine
 10
164.341283
 20
171.852274
 30
0.0
 11
164.341283
 21
169.852274
 31
0.0
  0
LINE
  5
2F9
100
AcDbEntity
  8
SILK
100
AcDbLine
 10
159.341283
 20
169.852274
 30
0.0
 11
159.341283
 21
171.852274
 31
0.0
  0
LINE
  5
2FA
100
AcDbEntity
  8
SILK
100
AcDbLine
 10
160.341283
 20
171.852274
 30
0.0
 11
163.341283
 21
172.852274
 31
0.0
  0
TEXT
  5
2FB
100
AcDbEntity
  8
SILK
100
AcDbText
 10
159.355569
 20
174.852274
 30
0.0
 40
2.0
  1
OUT
 41
0.9
 72
     1
 11
161.841283
 21
175.852274
 31
0.0
100
AcDbText
 73
     2
  0
LINE
  5
2FC
100
AcDbEntity
  8
SILK
100
AcDbLine
 10
159.341283
 20
171.852274
 30
0.0
 11
160.341283
 21
171.852274
 31
0.0
  0
LINE
  5
2FD
100
AcDbEntity
  8
SILK
100
AcDbLine
 10
163.341283
 20
171.852274
 30
0.0
 11
164.341283
 21
171.852274
 31
0.0
  0
ARC
  5
2FE
100
AcDbEntity
  8
1
100
AcDbCircle
 10
174.341283
 20
159.358524
 30
0.0
 40
4.30625
100
AcDbArc
 50
234.510657
 51
305.489343
  0
LINE
  5
2FF
100
AcDbEntity
  8
1
100
AcDbLine
 10
168.841283
 20
157.452274
 30
0.0
 11
169.841283
 21
157.452274
 31
0.0
  0
LINE
  5
300
100
AcDbEntity
  8
1
100
AcDbLine
 10
168.841283
 20
158.452274
 30
0.0
 11
169.841283
 21
158.452274
 31
0.0
  0
ARC
  5
301
100
AcDbEntity
  8
1
100
AcDbCircle
 10
169.341283
 20
159.358524
 30
0.0
 40
4.30625
100
AcDbArc
 50
234.510657
 51
305.489343
  0
LINE
  5
302
100
AcDbEntity
  8
1
100
AcDbLine
 10
168.841283
 20
158.452274
 30
0.0
 11
168.841283
 21
157.452274
 31
0.0
  0
LINE
  5
303
100
AcDbEntity
  8
1
100
AcDbLine
 10
169.841283
 20
158.452274
 30
0.0
 11
169.841283
 21
157.452274
 31
0.0
  0
LINE
  5
304
100
AcDbEntity
  8
0
100
AcDbLine
 10
179.841283
 20
145.652274
 30
0.0
 11
179.841283
 21
144.652274
 31
0.0
  0
LINE
  5
305
100
AcDbEntity
  8
1
100
AcDbLine
 10
173.841283
 20
157.452274
 30
0.0
 11
174.841283
 21
157.452274
 31
0.0
  0
LINE
  5
306
100
AcDbEntity
  8
1
100
AcDbLine
 10
173.841283
 20
158.452274
 30
0.0
 11
174.841283
 21
158.452274
 31
0.0
  0
LINE
  5
307
100
AcDbEntity
  8
1
100
AcDbLine
 10
174.841283
 20
158.452274
 30
0.0
 11
174.841283
 21
157.452274
 31
0.0
  0
LINE
  5
308
100
AcDbEntity
  8
1
100
AcDbLine
 10
173.841283
 20
158.452274
 30
0.0
 11
173.841283
 21
157.452274
 31
0.0
  0
LINE
  5
309
100
AcDbEntity
  8
1
100
AcDbLine
 10
179.841283
 20
158.452274
 30
0.0
 11
179.841283
 21
157.452274
 31
0.0
  0
LINE
  5
30A
100
AcDbEntity
  8
1
100
AcDbLine
 10
178.841283
 20
158.452274
 30
0.0
 11
178.841283
 21
157.452274
 31
0.0
  0
LINE
  5
30B
100
AcDbEntity
  8
1
100
AcDbLine
 10
178.841283
 20
157.452274
 30
0.0
 11
179.841283
 21
157.452274
 31
0.0
  0
LINE
  5
30C
100
AcDbEntity
  8
1
100
AcDbLine
 10
178.841283
 20
158.452274
 30
0.0
 11
179.841283
 21
158.452274
 31
0.0
  0
LINE
  5
30D
100
AcDbEntity
  8
SILK
100
AcDbLine
 10
171.841283
 20
169.852274
 30
0.0
 11
171.841283
 21
173.852274
 31
0.0
  0
TEXT
  5
30E
100
AcDbEntity
  8
SILK
100
AcDbText
 10
168.569855
 20
170.852274
 30
0.0
 40
2.0
  1
-
 41
0.9
 72
     1
 11
169.341283
 21
171.852274
 31
0.0
100
AcDbText
 73
     2
  0
TEXT
  5
30F
100
AcDbEntity
  8
SILK
100
AcDbText
 10
171.626998
 20
174.852274
 30
0.0
 40
2.0
  1
1
 41
0.9
 72
     1
 11
171.841283
 21
175.852274
 31
0.0
100
AcDbText
 73
     2
  0
TEXT
  5
310
100
AcDbEntity
  8
SILK
100
AcDbText
 10
173.569855
 20
170.852274
 30
0.0
 40
2.0
  1
+
 41
0.9
 72
     1
 11
174.341283
 21
171.852274
 31
0.0
100
AcDbText
 73
     2
  0
LINE
  5
311
100
AcDbEntity
  8
SILK
100
AcDbLine
 10
176.841283
 20
169.852274
 30
0.0
 11
176.841283
 21
177.852274
 31
0.0
  0
LINE
  5
312
100
AcDbEntity
  8
0
100
AcDbLine
 10
179.841283
 20
185.252274
 30
0.0
 11
163.841283
 21
185.252274
 31
0.0
  0
LINE
  5
313
100
AcDbEntity
  8
0
100
AcDbLine
 10
163.841283
 20
185.252274
 30
0.0
 11
163.841283
 21
184.252274
 31
0.0
  0
LINE
  5
314
100
AcDbEntity
  8
0
100
AcDbLine
 10
179.841283
 20
184.252274
 30
0.0
 11
179.841283
 21
185.252274
 31
0.0
  0
TEXT
  5
33C
100
AcDbEntity
  8
SILK
100
AcDbText
 10
287.973437
 20
169.452274
 30
0.0
 40
2.0
  1
INTERVAL
 41
0.72
 72
     1
 11
292.842009
 21
169.452274
 31
0.0
100
AcDbText
  0
TEXT
  5
33D
100
AcDbEntity
  8
SILK
100
AcDbText
 10
289.284866
 20
166.452274
 30
0.0
 40
2.0
  1
TIMER
 41
0.9
 72
     1
 11
292.842009
 21
166.452274
 31
0.0
100
AcDbText
  0
LINE
  5
33E
100
AcDbEntity
  8
1
100
AcDbLine
 10
294.597879
 20
159.909955
 30
0.0
 11
291.673924
 21
157.785577
 31
0.0
  0
LINE
  5
33F
100
AcDbEntity
  8
1
100
AcDbLine
 10
294.010094
 20
160.718972
 30
0.0
 11
291.086138
 21
158.594594
 31
0.0
  0
CIRCLE
  5
340
100
AcDbEntity
  8
1
100
AcDbCircle
 10
292.842009
 20
159.252274
 30
0.0
 40
1.875
  0
CIRCLE
  5
341
100
AcDbEntity
  8
1
100
AcDbCircle
 10
292.842009
 20
159.252274
 30
0.0
 40
2.5
  0
TEXT
  5
342
100
AcDbEntity
  8
SILK
100
AcDbText
 10
284.555569
 20
108.251864
 30
0.0
 40
2.0
  1
POWER
 41
0.9
 72
     1
 11
288.841283
 21
108.251864
 31
0.0
100
AcDbText
  0
LINE
  5
343
100
AcDbEntity
  8
0
100
AcDbLine
 10
292.341283
 20
43.182154
 30
0.0
 11
305.341283
 21
43.182154
 31
0.0
  0
LINE
  5
344
100
AcDbEntity
  8
0
100
AcDbLine
 10
305.341283
 20
30.182154
 30
0.0
 11
292.341283
 21
30.182154
 31
0.0
  0
DIMENSION
  5
345
100
AcDbEntity
  8
SCALE
100
AcDbDimension
  2
*D13
 10
305.341283
 20
69.104735
 30
0.0
 11
297.541283
 21
73.504735
 31
0.0
  1
15.6
  3
STANDARD
100
AcDbAlignedDimension
 13
289.741283
 23
62.982154
 33
0.0
 14
305.341283
 24
43.182154
 34
0.0
100
AcDbRotatedDimension
1001
ACAD
1000
DSTYLE
1002
{
1070
   140
1040
2.2
1070
   145
1040
1.0
1070
    74
1070
     0
1070
   172
1070
     1
1070
    73
1070
     0
1070
   272
1070
     4
1070
    40
1040
2.0
1070
   287
1070
     3
1070
    42
1040
2.0
1070
    44
1040
1.5
1070
    43
1040
10.0
1070
   271
1070
     4
1070
     5
1000
YAZ3
1070
    41
1040
1.5
1002
}
  0
TEXT
  5
355
100
AcDbEntity
  8
SILK
100
AcDbText
 10
258.498426
 20
91.351864
 30
0.0
 40
2.0
  1
SOUND REPEATER EV-20R
 41
0.9
 72
     2
 11
294.841283
 21
91.351864
 31
0.0
100
AcDbText
  0
TEXT
  5
356
100
AcDbEntity
  8
SILK
100
AcDbText
 10
201.498426
 20
96.251864
 30
0.0
 40
2.0
  1
LOCK
 41
0.9
 72
     2
 11
207.841283
 21
97.251864
 31
0.0
100
AcDbText
 73
     2
  0
LINE
  5
357
100
AcDbEntity
  8
0
100
AcDbLine
 10
223.841283
 20
88.151864
 30
0.0
 11
239.841283
 21
88.151864
 31
0.0
  0
LINE
  5
358
100
AcDbEntity
  8
SILK
100
AcDbLine
 10
182.841283
 20
96.251864
 30
0.0
 11
182.841283
 21
97.251864
 31
0.0
  0
LINE
  5
359
100
AcDbEntity
  8
0
100
AcDbLine
 10
223.841283
 20
89.151864
 30
0.0
 11
223.841283
 21
88.151864
 31
0.0
  0
LINE
  5
35A
100
AcDbEntity
  8
0
100
AcDbLine
 10
239.841283
 20
88.151864
 30
0.0
 11
239.841283
 21
89.151864
 31
0.0
  0
LINE
  5
35B
100
AcDbEntity
  8
0
100
AcDbLine
 10
289.741283
 20
62.982154
 30
0.0
 11
289.741283
 21
18.382154
 31
0.0
  0
LINE
  5
35C
100
AcDbEntity
  8
0
100
AcDbLine
 10
292.341283
 20
33.682154
 30
0.0
 11
292.341283
 21
30.182154
 31
0.0
  0
LINE
  5
35D
100
AcDbEntity
  8
0
100
AcDbLine
 10
292.341283
 20
33.682154
 30
0.0
 11
289.741283
 21
33.682154
 31
0.0
  0
LINE
  5
35E
100
AcDbEntity
  8
0
100
AcDbLine
 10
292.341283
 20
43.182154
 30
0.0
 11
292.341283
 21
39.682154
 31
0.0
  0
LINE
  5
35F
100
AcDbEntity
  8
0
100
AcDbLine
 10
289.741283
 20
39.682154
 30
0.0
 11
292.341283
 21
39.682154
 31
0.0
  0
ARC
  5
360
100
AcDbEntity
  8
1
100
AcDbCircle
 10
234.341283
 20
159.358524
 30
0.0
 40
4.30625
100
AcDbArc
 50
234.510657
 51
305.489343
  0
LINE
  5
361
100
AcDbEntity
  8
0
100
AcDbLine
 10
223.841283
 20
185.252274
 30
0.0
 11
239.841283
 21
185.252274
 31
0.0
  0
TEXT
  5
362
100
AcDbEntity
  8
SILK
100
AcDbText
 10
233.212712
 20
174.852274
 30
0.0
 40
2.0
  1
LINE OUT
 41
0.9
 72
     1
 11
239.341283
 21
175.852274
 31
0.0
100
AcDbText
 73
     2
  0
LINE
  5
363
100
AcDbEntity
  8
0
100
AcDbLine
 10
223.841283
 20
144.652274
 30
0.0
 11
239.841283
 21
144.652274
 31
0.0
  0
TEXT
  5
364
100
AcDbEntity
  8
SILK
100
AcDbText
 10
223.841283
 20
150.852274
 30
0.0
 40
2.0
  1
UNBALANCE
 41
0.9
 11
223.841283
 21
151.852274
 31
0.0
100
AcDbText
 73
     2
  0
TEXT
  5
365
100
AcDbEntity
  8
SILK
100
AcDbText
 10
216.841283
 20
147.852274
 30
0.0
 40
1.75
  1
ENGINEERED IN JAPAN  ASSEMBLED IN TAIWAN
 41
0.72
100
AcDbText
  0
TEXT
  5
366
100
AcDbEntity
  8
SILK
100
AcDbText
 10
219.908426
 20
179.285608
 30
0.0
 40
2.0
  1
Class 2 Wiring / 8-16%%155
 41
0.9
  7
UT7
 72
     4
 11
236.841283
 21
179.952274
 31
0.0
100
AcDbText
  0
LINE
  5
367
100
AcDbEntity
  8
SILK
100
AcDbLine
 10
236.341283
 20
115.751864
 30
0.0
 11
218.841283
 21
115.751864
 31
0.0
1001
ACAD
1000
ASC_BOUNDS
1002
{
1070
    19
1005
36B
1002
}
  0
LINE
  5
368
100
AcDbEntity
  8
SILK
100
AcDbLine
 10
218.841283
 20
116.751864
 30
0.0
 11
236.341283
 21
116.751864
 31
0.0
1001
ACAD
1000
ASC_BOUNDS
1002
{
1070
    19
1005
36B
1002
}
  0
CIRCLE
  5
369
100
AcDbEntity
  8
SILK
100
AcDbCircle
 10
237.339499
 20
104.051864
 30
0.0
 40
1.25
  0
LINE
  5
36A
100
AcDbEntity
  8
0
100
AcDbLine
 10
223.841283
 20
128.751864
 30
0.0
 11
239.841283
 21
128.751864
 31
0.0
  0
INSERT
  5
36B
100
AcDbEntity
  8
SILK
100
AcDbBlockReference
  2
*X7
 10
0.0
 20
-10.728452
 30
0.0
1001
ACAD
1000
HATCH
1002
{
1070
    19
1000
ANSI31
1040
1.0
1040
0.0
1000
ASC_BOUNDS
1070
     1
1070
     2
1070
    12
1005
48D
1005
48C
1005
497
1005
490
1005
506
1005
4D1
1005
368
1005
367
1005
538
1005
50C
1005
503
1005
502
1000
ASC_SEEDPOINT
1011
-73.558717
1021
-62.849313
1031
0.0
1002
}
  0
LINE
  5
476
100
AcDbEntity
  8
SILK
100
AcDbLine
 10
216.841283
 20
169.852274
 30
0.0
 11
216.841283
 21
181.852274
 31
0.0
  0
ARC
  5
477
100
AcDbEntity
  8
1
100
AcDbCircle
 10
209.341283
 20
159.358524
 30
0.0
 40
4.30625
100
AcDbArc
 50
234.510657
 51
305.489343
  0
ARC
  5
478
100
AcDbEntity
  8
SILK
100
AcDbCircle
 10
205.554257
 20
101.647693
 30
0.0
 40
3.0
100
AcDbArc
 50
359.803738
 51
44.538679
  0
ARC
  5
479
100
AcDbEntity
  8
SILK
100
AcDbCircle
 10
205.554257
 20
106.856036
 30
0.0
 40
3.0
100
AcDbArc
 50
315.461321
 51
0.196262
  0
LINE
  5
47A
100
AcDbEntity
  8
SILK
100
AcDbLine
 10
210.341283
 20
103.751864
 30
0.0
 11
206.894274
 21
103.751864
 31
0.0
  0
LINE
  5
47B
100
AcDbEntity
  8
SILK
100
AcDbLine
 10
210.341283
 20
104.751864
 30
0.0
 11
206.894274
 21
104.751864
 31
0.0
  0
TEXT
  5
47C
100
AcDbEntity
  8
SILK
100
AcDbText
 10
183.841283
 20
147.852274
 30
0.0
 40
2.5
  1
TOA Corporation
 41
0.9
100
AcDbText
  0
ARC
  5
47D
100
AcDbEntity
  8
SILK
100
AcDbCircle
 10
211.841283
 20
104.251864
 30
0.0
 40
4.5
100
AcDbArc
 50
186.37937
 51
173.62063
  0
TEXT
  5
47E
100
AcDbEntity
  8
SILK
100
AcDbText
 10
192.698426
 20
103.151864
 30
0.0
 40
2.0
  1
MONITOR
 41
0.9
 72
     2
 11
203.841283
 21
104.151864
 31
0.0
100
AcDbText
 73
     2
  0
CIRCLE
  5
47F
100
AcDbEntity
  8
SILK
100
AcDbCircle
 10
186.986471
 20
107.047829
 30
0.0
 40
0.25
  0
TEXT
  5
480
100
AcDbEntity
  8
SILK
100
AcDbText
 10
186.569368
 20
98.139553
 30
0.0
 40
1.5
  1
10
 41
0.72
 72
     1
 11
187.340797
 21
98.889553
 31
0.0
100
AcDbText
 73
     2
  0
CIRCLE
  5
481
100
AcDbEntity
  8
SILK
100
AcDbCircle
 10
180.493926
 20
108.666602
 30
0.0
 40
0.25
  0
CIRCLE
  5
482
100
AcDbEntity
  8
SILK
100
AcDbCircle
 10
185.188641
 20
108.666602
 30
0.0
 40
0.25
  0
CIRCLE
  5
483
100
AcDbEntity
  8
1
100
AcDbCircle
 10
182.841283
 20
104.251864
 30
0.0
 40
2.25
  0
CIRCLE
  5
484
100
AcDbEntity
  8
1
100
AcDbCircle
 10
182.841283
 20
104.251864
 30
0.0
 40
2.75
  0
LINE
  5
485
100
AcDbEntity
  8
1
100
AcDbLine
 10
181.557471
 20
103.033021
 30
0.0
 11
181.247527
 21
102.663645
 31
0.0
  0
LINE
  5
486
100
AcDbEntity
  8
1
100
AcDbLine
 10
181.557471
 20
103.033021
 30
0.0
 11
181.863889
 21
102.775906
 31
0.0
  0
LINE
  5
487
100
AcDbEntity
  8
1
100
AcDbLine
 10
181.863889
 20
102.775906
 30
0.0
 11
181.553945
 21
102.40653
 31
0.0
  0
CIRCLE
  5
488
100
AcDbEntity
  8
SILK
100
AcDbCircle
 10
186.055222
 20
100.421642
 30
0.0
 40
0.25
  0
CIRCLE
  5
489
100
AcDbEntity
  8
SILK
100
AcDbCircle
 10
182.841283
 20
109.251864
 30
0.0
 40
0.25
  0
CIRCLE
  5
48A
100
AcDbEntity
  8
SILK
100
AcDbCircle
 10
187.477203
 20
102.378831
 30
0.0
 40
0.25
  0
CIRCLE
  5
48B
100
AcDbEntity
  8
SILK
100
AcDbCircle
 10
187.813893
 20
104.774507
 30
0.0
 40
0.25
  0
LINE
  5
48C
100
AcDbEntity
  8
SILK
100
AcDbLine
 10
195.341283
 20
116.751864
 30
0.0
 11
204.841283
 21
116.751864
 31
0.0
1001
ACAD
1000
ASC_BOUNDS
1002
{
1070
    19
1005
36B
1002
}
  0
LINE
  5
48D
100
AcDbEntity
  8
SILK
100
AcDbLine
 10
204.841283
 20
115.751864
 30
0.0
 11
195.341283
 21
115.751864
 31
0.0
1001
ACAD
1000
ASC_BOUNDS
1002
{
1070
    19
1005
36B
1002
}
  0
TEXT
  5
48E
100
AcDbEntity
  8
SILK
100
AcDbText
 10
200.126998
 20
106.651864
 30
0.0
 40
2.0
  1
REC
 41
0.9
 72
     2
 11
204.841283
 21
107.651864
 31
0.0
100
AcDbText
 73
     2
  0
TEXT
  5
48F
100
AcDbEntity
  8
SILK
100
AcDbText
 10
198.326998
 20
99.751864
 30
0.0
 40
2.0
  1
PLAY
 41
0.9
 72
     2
 11
204.841283
 21
100.751864
 31
0.0
100
AcDbText
 73
     2
  0
ARC
  5
490
100
AcDbEntity
  8
SILK
100
AcDbCircle
 10
195.341283
 20
116.251864
 30
0.0
 40
0.5
100
AcDbArc
 50
90.0
 51
270.0
1001
ACAD
1000
ASC_BOUNDS
1002
{
1070
    19
1005
36B
1002
}
  0
ARC
  5
491
100
AcDbEntity
  8
SILK
100
AcDbCircle
 10
212.029886
 20
104.251864
 30
0.0
 40
4.858614
100
AcDbArc
 50
174.093234
 51
185.906766
  0
ARC
  5
492
100
AcDbEntity
  8
SILK
100
AcDbCircle
 10
211.869212
 20
104.251864
 30
0.0
 40
5.0
100
AcDbArc
 50
174.26083
 51
185.73917
  0
CIRCLE
  5
493
100
AcDbEntity
  8
SILK
100
AcDbCircle
 10
206.645131
 20
107.251864
 30
0.0
 40
0.25
  0
CIRCLE
  5
494
100
AcDbEntity
  8
SILK
100
AcDbCircle
 10
205.841283
 20
104.251864
 30
0.0
 40
0.25
  0
CIRCLE
  5
495
100
AcDbEntity
  8
SILK
100
AcDbCircle
 10
206.645131
 20
101.251864
 30
0.0
 40
0.25
  0
TEXT
  5
496
100
AcDbEntity
  8
SILK
100
AcDbText
 10
203.384141
 20
110.151864
 30
0.0
 40
2.0
  1
DEL
 41
0.9
 72
     2
 11
207.841283
 21
111.151864
 31
0.0
100
AcDbText
 73
     2
  0
LINE
  5
497
100
AcDbEntity
  8
SILK
100
AcDbLine
 10
204.841283
 20
116.751864
 30
0.0
 11
204.841283
 21
115.751864
 31
0.0
1001
ACAD
1000
ASC_BOUNDS
1002
{
1070
    19
1005
36B
1002
}
  0
TEXT
  5
498
100
AcDbEntity
  8
SILK
100
AcDbText
 10
193.569855
 20
170.852274
 30
0.0
 40
2.0
  1
+
 41
0.9
 72
     1
 11
194.341283
 21
171.852274
 31
0.0
100
AcDbText
 73
     2
  0
LINE
  5
499
100
AcDbEntity
  8
1
100
AcDbLine
 10
193.841283
 20
157.452274
 30
0.0
 11
194.841283
 21
157.452274
 31
0.0
  0
LINE
  5
49A
100
AcDbEntity
  8
1
100
AcDbLine
 10
193.841283
 20
158.452274
 30
0.0
 11
194.841283
 21
158.452274
 31
0.0
  0
ARC
  5
49B
100
AcDbEntity
  8
1
100
AcDbCircle
 10
194.341283
 20
159.358524
 30
0.0
 40
4.30625
100
AcDbArc
 50
234.510657
 51
305.489343
  0
ARC
  5
49C
100
AcDbEntity
  8
1
100
AcDbCircle
 10
189.341283
 20
159.358524
 30
0.0
 40
4.30625
100
AcDbArc
 50
234.510657
 51
305.489343
  0
ARC
  5
49D
100
AcDbEntity
  8
1
100
AcDbCircle
 10
184.341283
 20
159.358524
 30
0.0
 40
4.30625
100
AcDbArc
 50
234.510657
 51
305.489343
  0
LINE
  5
49E
100
AcDbEntity
  8
1
100
AcDbLine
 10
183.841283
 20
157.452274
 30
0.0
 11
184.841283
 21
157.452274
 31
0.0
  0
LINE
  5
49F
100
AcDbEntity
  8
1
100
AcDbLine
 10
183.841283
 20
158.452274
 30
0.0
 11
184.841283
 21
158.452274
 31
0.0
  0
LINE
  5
4A0
100
AcDbEntity
  8
1
100
AcDbLine
 10
184.841283
 20
158.452274
 30
0.0
 11
184.841283
 21
157.452274
 31
0.0
  0
LINE
  5
4A1
100
AcDbEntity
  8
1
100
AcDbLine
 10
183.841283
 20
158.452274
 30
0.0
 11
183.841283
 21
157.452274
 31
0.0
  0
LINE
  5
4A2
100
AcDbEntity
  8
1
100
AcDbLine
 10
188.841283
 20
157.452274
 30
0.0
 11
189.841283
 21
157.452274
 31
0.0
  0
LINE
  5
4A3
100
AcDbEntity
  8
1
100
AcDbLine
 10
188.841283
 20
158.452274
 30
0.0
 11
189.841283
 21
158.452274
 31
0.0
  0
LINE
  5
4A4
100
AcDbEntity
  8
1
100
AcDbLine
 10
189.841283
 20
158.452274
 30
0.0
 11
189.841283
 21
157.452274
 31
0.0
  0
LINE
  5
4A5
100
AcDbEntity
  8
1
100
AcDbLine
 10
188.841283
 20
158.452274
 30
0.0
 11
188.841283
 21
157.452274
 31
0.0
  0
LINE
  5
4A6
100
AcDbEntity
  8
1
100
AcDbLine
 10
193.841283
 20
158.452274
 30
0.0
 11
193.841283
 21
157.452274
 31
0.0
  0
LINE
  5
4A7
100
AcDbEntity
  8
SILK
100
AcDbLine
 10
181.841283
 20
169.852274
 30
0.0
 11
181.841283
 21
173.852274
 31
0.0
  0
TEXT
  5
4A8
100
AcDbEntity
  8
SILK
100
AcDbText
 10
183.569855
 20
170.852274
 30
0.0
 40
2.0
  1
+
 41
0.9
 72
     1
 11
184.341283
 21
171.852274
 31
0.0
100
AcDbText
 73
     2
  0
LINE
  5
4A9
100
AcDbEntity
  8
SILK
100
AcDbLine
 10
186.841283
 20
169.852274
 30
0.0
 11
186.841283
 21
177.852274
 31
0.0
  0
TEXT
  5
4AA
100
AcDbEntity
  8
SILK
100
AcDbText
 10
181.241283
 20
174.852274
 30
0.0
 40
2.0
  1
2
 41
0.9
 72
     1
 11
181.841283
 21
175.852274
 31
0.0
100
AcDbText
 73
     2
  0
LINE
  5
4AB
100
AcDbEntity
  8
SILK
100
AcDbLine
 10
191.841283
 20
169.852274
 30
0.0
 11
191.841283
 21
173.852274
 31
0.0
  0
TEXT
  5
4AC
100
AcDbEntity
  8
SILK
100
AcDbText
 10
188.569855
 20
170.852274
 30
0.0
 40
2.0
  1
-
 41
0.9
 72
     1
 11
189.341283
 21
171.852274
 31
0.0
100
AcDbText
 73
     2
  0
TEXT
  5
4AD
100
AcDbEntity
  8
SILK
100
AcDbText
 10
191.241283
 20
174.852274
 30
0.0
 40
2.0
  1
3
 41
0.9
 72
     1
 11
191.841283
 21
175.852274
 31
0.0
100
AcDbText
 73
     2
  0
ARC
  5
4AE
100
AcDbEntity
  8
1
100
AcDbCircle
 10
199.341283
 20
159.358524
 30
0.0
 40
4.30625
100
AcDbArc
 50
234.510657
 51
305.489343
  0
LINE
  5
4AF
100
AcDbEntity
  8
1
100
AcDbLine
 10
194.841283
 20
158.452274
 30
0.0
 11
194.841283
 21
157.452274
 31
0.0
  0
LINE
  5
4B0
100
AcDbEntity
  8
1
100
AcDbLine
 10
199.841283
 20
158.452274
 30
0.0
 11
199.841283
 21
157.452274
 31
0.0
  0
LINE
  5
4B1
100
AcDbEntity
  8
1
100
AcDbLine
 10
198.841283
 20
158.452274
 30
0.0
 11
198.841283
 21
157.452274
 31
0.0
  0
LINE
  5
4B2
100
AcDbEntity
  8
1
100
AcDbLine
 10
198.841283
 20
157.452274
 30
0.0
 11
199.841283
 21
157.452274
 31
0.0
  0
LINE
  5
4B3
100
AcDbEntity
  8
1
100
AcDbLine
 10
198.841283
 20
158.452274
 30
0.0
 11
199.841283
 21
158.452274
 31
0.0
  0
LINE
  5
4B4
100
AcDbEntity
  8
1
100
AcDbLine
 10
203.841283
 20
157.452274
 30
0.0
 11
204.841283
 21
157.452274
 31
0.0
  0
LINE
  5
4B5
100
AcDbEntity
  8
1
100
AcDbLine
 10
203.841283
 20
158.452274
 30
0.0
 11
204.841283
 21
158.452274
 31
0.0
  0
ARC
  5
4B6
100
AcDbEntity
  8
1
100
AcDbCircle
 10
204.341283
 20
159.358524
 30
0.0
 40
4.30625
100
AcDbArc
 50
234.510657
 51
305.489343
  0
LINE
  5
4B7
100
AcDbEntity
  8
1
100
AcDbLine
 10
203.841283
 20
158.452274
 30
0.0
 11
203.841283
 21
157.452274
 31
0.0
  0
LINE
  5
4B8
100
AcDbEntity
  8
1
100
AcDbLine
 10
204.841283
 20
158.452274
 30
0.0
 11
204.841283
 21
157.452274
 31
0.0
  0
LINE
  5
4B9
100
AcDbEntity
  8
SILK
100
AcDbLine
 10
196.841283
 20
169.852274
 30
0.0
 11
196.841283
 21
177.852274
 31
0.0
  0
TEXT
  5
4BA
100
AcDbEntity
  8
SILK
100
AcDbText
 10
198.569855
 20
170.852274
 30
0.0
 40
2.0
  1
-
 41
0.9
 72
     1
 11
199.341283
 21
171.852274
 31
0.0
100
AcDbText
 73
     2
  0
LINE
  5
4BB
100
AcDbEntity
  8
SILK
100
AcDbLine
 10
201.841283
 20
169.852274
 30
0.0
 11
201.841283
 21
173.852274
 31
0.0
  0
TEXT
  5
4BC
100
AcDbEntity
  8
SILK
100
AcDbText
 10
203.569855
 20
170.852274
 30
0.0
 40
2.0
  1
+
 41
0.9
 72
     1
 11
204.341283
 21
171.852274
 31
0.0
100
AcDbText
 73
     2
  0
LINE
  5
4BD
100
AcDbEntity
  8
SILK
100
AcDbLine
 10
206.841283
 20
169.852274
 30
0.0
 11
206.841283
 21
177.852274
 31
0.0
  0
TEXT
  5
4BE
100
AcDbEntity
  8
SILK
100
AcDbText
 10
201.198426
 20
174.852274
 30
0.0
 40
2.0
  1
4
 41
0.9
 72
     1
 11
201.841283
 21
175.852274
 31
0.0
100
AcDbText
 73
     2
  0
CIRCLE
  5
4BF
100
AcDbEntity
  8
SILK
100
AcDbCircle
 10
221.839499
 20
104.051864
 30
0.0
 40
1.25
  0
TEXT
  5
4C0
100
AcDbEntity
  8
SILK
100
AcDbText
 10
208.412712
 20
115.251864
 30
0.0
 40
2.0
  1
MODE
 41
0.9
 72
     1
 11
211.841283
 21
115.251864
 31
0.0
100
AcDbText
  0
ARC
  5
4C1
100
AcDbEntity
  8
SILK
100
AcDbCircle
 10
218.12831
 20
101.647693
 30
0.0
 40
3.0
100
AcDbArc
 50
134.803738
 51
180.196262
  0
ARC
  5
4C2
100
AcDbEntity
  8
SILK
100
AcDbCircle
 10
218.12831
 20
106.856036
 30
0.0
 40
3.0
100
AcDbArc
 50
179.803738
 51
225.196262
  0
ARC
  5
4C3
100
AcDbEntity
  8
SILK
100
AcDbCircle
 10
211.841283
 20
104.251864
 30
0.0
 40
4.2
100
AcDbArc
 50
83.498023
 51
96.501977
  0
ARC
  5
4C4
100
AcDbEntity
  8
SILK
100
AcDbCircle
 10
211.841283
 20
104.251864
 30
0.0
 40
4.2
100
AcDbArc
 50
263.498023
 51
276.501977
  0
LINE
  5
4C5
100
AcDbEntity
  8
SILK
100
AcDbLine
 10
210.341283
 20
104.751864
 30
0.0
 11
210.341283
 21
103.751864
 31
0.0
  0
ARC
  5
4C6
100
AcDbEntity
  8
SILK
100
AcDbCircle
 10
211.841283
 20
104.251864
 30
0.0
 40
4.2
100
AcDbArc
 50
128.498023
 51
141.501977
  0
ARC
  5
4C7
100
AcDbEntity
  8
SILK
100
AcDbCircle
 10
209.237112
 20
110.538891
 30
0.0
 40
3.0
100
AcDbArc
 50
269.803738
 51
315.196262
  0
CIRCLE
  5
4C8
100
AcDbEntity
  8
SILK
100
AcDbCircle
 10
208.841283
 20
99.055712
 30
0.0
 40
0.25
  0
ARC
  5
4C9
100
AcDbEntity
  8
SILK
100
AcDbCircle
 10
209.237112
 20
97.964838
 30
0.0
 40
3.0
100
AcDbArc
 50
44.803738
 51
90.196262
  0
ARC
  5
4CA
100
AcDbEntity
  8
SILK
100
AcDbCircle
 10
211.841283
 20
104.251864
 30
0.0
 40
4.2
100
AcDbArc
 50
218.498023
 51
231.501977
  0
ARC
  5
4CB
100
AcDbEntity
  8
SILK
100
AcDbCircle
 10
214.445455
 20
110.538891
 30
0.0
 40
3.0
100
AcDbArc
 50
224.803738
 51
270.196262
  0
ARC
  5
4CC
100
AcDbEntity
  8
SILK
100
AcDbCircle
 10
211.841283
 20
104.251864
 30
0.0
 40
4.2
100
AcDbArc
 50
38.498023
 51
51.501977
  0
ARC
  5
4CD
100
AcDbEntity
  8
SILK
100
AcDbCircle
 10
214.445455
 20
97.964838
 30
0.0
 40
3.0
100
AcDbArc
 50
89.803738
 51
135.196262
  0
ARC
  5
4CE
100
AcDbEntity
  8
SILK
100
AcDbCircle
 10
211.841283
 20
104.251864
 30
0.0
 40
4.2
100
AcDbArc
 50
308.498023
 51
321.501977
  0
CIRCLE
  5
4CF
100
AcDbEntity
  8
SILK
100
AcDbCircle
 10
208.841283
 20
109.448017
 30
0.0
 40
0.25
  0
ARC
  5
4D0
100
AcDbEntity
  8
SILK
100
AcDbCircle
 10
211.841283
 20
104.251864
 30
0.0
 40
4.2
100
AcDbArc
 50
353.498023
 51
6.501977
  0
LINE
  5
4D1
100
AcDbEntity
  8
SILK
100
AcDbLine
 10
218.841283
 20
115.751864
 30
0.0
 11
218.841283
 21
116.751864
 31
0.0
1001
ACAD
1000
ASC_BOUNDS
1002
{
1070
    19
1005
36B
1002
}
  0
TEXT
  5
4D2
100
AcDbEntity
  8
SILK
100
AcDbText
 10
229.126998
 20
108.251864
 30
0.0
 40
2.0
  1
1
 41
0.9
 72
     1
 11
229.341283
 21
108.251864
 31
0.0
100
AcDbText
  0
CIRCLE
  5
4D3
100
AcDbEntity
  8
SILK
100
AcDbCircle
 10
229.339499
 20
101.751864
 30
0.0
 40
2.5
  0
LINE
  5
4D4
100
AcDbEntity
  8
0
100
AcDbLine
 10
223.841283
 20
127.751864
 30
0.0
 11
223.841283
 21
128.751864
 31
0.0
  0
TEXT
  5
4D5
100
AcDbEntity
  8
SILK
100
AcDbText
 10
219.755569
 20
174.852274
 30
0.0
 40
2.0
  1
LINE IN
 41
0.9
 72
     1
 11
224.341283
 21
175.852274
 31
0.0
100
AcDbText
 73
     2
  0
ARC
  5
4D6
100
AcDbEntity
  8
1
100
AcDbCircle
 10
224.341283
 20
159.358524
 30
0.0
 40
4.30625
100
AcDbArc
 50
234.510657
 51
305.489343
  0
ARC
  5
4D7
100
AcDbEntity
  8
1
100
AcDbCircle
 10
214.341283
 20
159.358524
 30
0.0
 40
4.30625
100
AcDbArc
 50
234.510657
 51
305.489343
  0
LINE
  5
4D8
100
AcDbEntity
  8
1
100
AcDbLine
 10
209.841283
 20
158.452274
 30
0.0
 11
209.841283
 21
157.452274
 31
0.0
  0
LINE
  5
4D9
100
AcDbEntity
  8
1
100
AcDbLine
 10
208.841283
 20
158.452274
 30
0.0
 11
208.841283
 21
157.452274
 31
0.0
  0
LINE
  5
4DA
100
AcDbEntity
  8
1
100
AcDbLine
 10
208.841283
 20
157.452274
 30
0.0
 11
209.841283
 21
157.452274
 31
0.0
  0
LINE
  5
4DB
100
AcDbEntity
  8
1
100
AcDbLine
 10
208.841283
 20
158.452274
 30
0.0
 11
209.841283
 21
158.452274
 31
0.0
  0
LINE
  5
4DC
100
AcDbEntity
  8
1
100
AcDbLine
 10
214.841283
 20
158.452274
 30
0.0
 11
214.841283
 21
157.452274
 31
0.0
  0
LINE
  5
4DD
100
AcDbEntity
  8
1
100
AcDbLine
 10
213.841283
 20
158.452274
 30
0.0
 11
213.841283
 21
157.452274
 31
0.0
  0
LINE
  5
4DE
100
AcDbEntity
  8
1
100
AcDbLine
 10
213.841283
 20
157.452274
 30
0.0
 11
214.841283
 21
157.452274
 31
0.0
  0
LINE
  5
4DF
100
AcDbEntity
  8
1
100
AcDbLine
 10
213.841283
 20
158.452274
 30
0.0
 11
214.841283
 21
158.452274
 31
0.0
  0
LINE
  5
4E0
100
AcDbEntity
  8
SILK
100
AcDbLine
 10
216.841283
 20
151.852274
 30
0.0
 11
221.841283
 21
151.852274
 31
0.0
  0
ARC
  5
4E1
100
AcDbEntity
  8
1
100
AcDbCircle
 10
219.341283
 20
159.358524
 30
0.0
 40
4.30625
100
AcDbArc
 50
234.510657
 51
305.489343
  0
LINE
  5
4E2
100
AcDbEntity
  8
SILK
100
AcDbLine
 10
216.841283
 20
152.852274
 30
0.0
 11
216.841283
 21
151.852274
 31
0.0
  0
LINE
  5
4E3
100
AcDbEntity
  8
1
100
AcDbLine
 10
218.841283
 20
157.452274
 30
0.0
 11
219.841283
 21
157.452274
 31
0.0
  0
LINE
  5
4E4
100
AcDbEntity
  8
1
100
AcDbLine
 10
218.841283
 20
158.452274
 30
0.0
 11
219.841283
 21
158.452274
 31
0.0
  0
LINE
  5
4E5
100
AcDbEntity
  8
1
100
AcDbLine
 10
218.841283
 20
158.452274
 30
0.0
 11
218.841283
 21
157.452274
 31
0.0
  0
LINE
  5
4E6
100
AcDbEntity
  8
1
100
AcDbLine
 10
219.841283
 20
158.452274
 30
0.0
 11
219.841283
 21
157.452274
 31
0.0
  0
TEXT
  5
4E7
100
AcDbEntity
  8
SILK
100
AcDbText
 10
213.569855
 20
170.852274
 30
0.0
 40
2.0
  1
+
 41
0.9
 72
     1
 11
214.341283
 21
171.852274
 31
0.0
100
AcDbText
 73
     2
  0
LINE
  5
4E8
100
AcDbEntity
  8
SILK
100
AcDbLine
 10
211.841283
 20
169.852274
 30
0.0
 11
211.841283
 21
173.852274
 31
0.0
  0
TEXT
  5
4E9
100
AcDbEntity
  8
SILK
100
AcDbText
 10
208.669855
 20
174.852274
 30
0.0
 40
2.0
  1
STOP
 41
0.9
 72
     1
 11
211.841283
 21
175.852274
 31
0.0
100
AcDbText
 73
     2
  0
TEXT
  5
4EA
100
AcDbEntity
  8
SILK
100
AcDbText
 10
208.569855
 20
170.852274
 30
0.0
 40
2.0
  1
-
 41
0.9
 72
     1
 11
209.341283
 21
171.852274
 31
0.0
100
AcDbText
 73
     2
  0
LINE
  5
4EB
100
AcDbEntity
  8
SILK
100
AcDbLine
 10
221.841283
 20
169.852274
 30
0.0
 11
221.841283
 21
173.852274
 31
0.0
  0
TEXT
  5
4EC
100
AcDbEntity
  8
SILK
100
AcDbText
 10
218.784141
 20
170.852274
 30
0.0
 40
2.0
  1
E
 41
0.9
 72
     1
 11
219.341283
 21
171.852274
 31
0.0
100
AcDbText
 73
     2
  0
LINE
  5
4ED
100
AcDbEntity
  8
1
100
AcDbLine
 10
228.841283
 20
157.452274
 30
0.0
 11
229.841283
 21
157.452274
 31
0.0
  0
LINE
  5
4EE
100
AcDbEntity
  8
1
100
AcDbLine
 10
228.841283
 20
158.452274
 30
0.0
 11
229.841283
 21
158.452274
 31
0.0
  0
ARC
  5
4EF
100
AcDbEntity
  8
1
100
AcDbCircle
 10
229.341283
 20
159.358524
 30
0.0
 40
4.30625
100
AcDbArc
 50
234.510657
 51
305.489343
  0
LINE
  5
4F0
100
AcDbEntity
  8
0
100
AcDbLine
 10
223.841283
 20
145.652274
 30
0.0
 11
223.841283
 21
144.652274
 31
0.0
  0
LINE
  5
4F1
100
AcDbEntity
  8
1
100
AcDbLine
 10
223.841283
 20
157.452274
 30
0.0
 11
224.841283
 21
157.452274
 31
0.0
  0
LINE
  5
4F2
100
AcDbEntity
  8
1
100
AcDbLine
 10
223.841283
 20
158.452274
 30
0.0
 11
224.841283
 21
158.452274
 31
0.0
  0
LINE
  5
4F3
100
AcDbEntity
  8
1
100
AcDbLine
 10
224.841283
 20
158.452274
 30
0.0
 11
224.841283
 21
157.452274
 31
0.0
  0
LINE
  5
4F4
100
AcDbEntity
  8
1
100
AcDbLine
 10
223.841283
 20
158.452274
 30
0.0
 11
223.841283
 21
157.452274
 31
0.0
  0
LINE
  5
4F5
100
AcDbEntity
  8
1
100
AcDbLine
 10
228.841283
 20
158.452274
 30
0.0
 11
228.841283
 21
157.452274
 31
0.0
  0
LINE
  5
4F6
100
AcDbEntity
  8
1
100
AcDbLine
 10
229.841283
 20
158.452274
 30
0.0
 11
229.841283
 21
157.452274
 31
0.0
  0
LINE
  5
4F7
100
AcDbEntity
  8
1
100
AcDbLine
 10
233.841283
 20
157.452274
 30
0.0
 11
234.841283
 21
157.452274
 31
0.0
  0
LINE
  5
4F8
100
AcDbEntity
  8
1
100
AcDbLine
 10
233.841283
 20
158.452274
 30
0.0
 11
234.841283
 21
158.452274
 31
0.0
  0
LINE
  5
4F9
100
AcDbEntity
  8
1
100
AcDbLine
 10
233.841283
 20
158.452274
 30
0.0
 11
233.841283
 21
157.452274
 31
0.0
  0
LINE
  5
4FA
100
AcDbEntity
  8
1
100
AcDbLine
 10
234.841283
 20
158.452274
 30
0.0
 11
234.841283
 21
157.452274
 31
0.0
  0
TEXT
  5
4FB
100
AcDbEntity
  8
SILK
100
AcDbText
 10
228.741283
 20
170.852274
 30
0.0
 40
2.0
  1
H
 41
0.9
 72
     1
 11
229.341283
 21
171.852274
 31
0.0
100
AcDbText
 73
     2
  0
LINE
  5
4FC
100
AcDbEntity
  8
SILK
100
AcDbLine
 10
226.841283
 20
169.852274
 30
0.0
 11
226.841283
 21
173.852274
 31
0.0
  0
TEXT
  5
4FD
100
AcDbEntity
  8
SILK
100
AcDbText
 10
223.698426
 20
170.852274
 30
0.0
 40
2.0
  1
C
 41
0.9
 72
     1
 11
224.341283
 21
171.852274
 31
0.0
100
AcDbText
 73
     2
  0
TEXT
  5
4FE
100
AcDbEntity
  8
SILK
100
AcDbText
 10
233.784141
 20
170.852274
 30
0.0
 40
2.0
  1
E
 41
0.9
 72
     1
 11
234.341283
 21
171.852274
 31
0.0
100
AcDbText
 73
     2
  0
LINE
  5
4FF
100
AcDbEntity
  8
SILK
100
AcDbLine
 10
231.841283
 20
169.852274
 30
0.0
 11
231.841283
 21
177.852274
 31
0.0
  0
LINE
  5
500
100
AcDbEntity
  8
0
100
AcDbLine
 10
223.841283
 20
184.252274
 30
0.0
 11
223.841283
 21
185.252274
 31
0.0
  0
LINE
  5
501
100
AcDbEntity
  8
SILK
100
AcDbLine
 10
256.841283
 20
181.852274
 30
0.0
 11
256.841283
 21
169.852274
 31
0.0
  0
LINE
  5
502
100
AcDbEntity
  8
SILK
100
AcDbLine
 10
277.341283
 20
115.751864
 30
0.0
 11
261.341283
 21
115.751864
 31
0.0
1001
ACAD
1000
ASC_BOUNDS
1002
{
1070
    19
1005
36B
1002
}
  0
LINE
  5
503
100
AcDbEntity
  8
SILK
100
AcDbLine
 10
261.341283
 20
116.751864
 30
0.0
 11
277.341283
 21
116.751864
 31
0.0
1001
ACAD
1000
ASC_BOUNDS
1002
{
1070
    19
1005
36B
1002
}
  0
TEXT
  5
504
100
AcDbEntity
  8
SILK
100
AcDbText
 10
240.484141
 20
115.251864
 30
0.0
 40
2.0
  1
START/STOP
 41
0.9
 72
     1
 11
248.841283
 21
115.251864
 31
0.0
100
AcDbText
  0
CIRCLE
  5
505
100
AcDbEntity
  8
SILK
100
AcDbCircle
 10
244.839499
 20
101.751864
 30
0.0
 40
2.5
  0
LINE
  5
506
100
AcDbEntity
  8
SILK
100
AcDbLine
 10
236.341283
 20
116.751864
 30
0.0
 11
236.341283
 21
115.751864
 31
0.0
1001
ACAD
1000
ASC_BOUNDS
1002
{
1070
    19
1005
36B
1002
}
  0
TEXT
  5
507
100
AcDbEntity
  8
SILK
100
AcDbText
 10
244.241283
 20
108.251864
 30
0.0
 40
2.0
  1
2
 41
0.9
 72
     1
 11
244.841283
 21
108.251864
 31
0.0
100
AcDbText
  0
LINE
  5
508
100
AcDbEntity
  8
0
100
AcDbLine
 10
239.841283
 20
128.751864
 30
0.0
 11
239.841283
 21
127.751864
 31
0.0
  0
CIRCLE
  5
509
100
AcDbEntity
  8
SILK
100
AcDbCircle
 10
252.839499
 20
104.051864
 30
0.0
 40
1.25
  0
TEXT
  5
50A
100
AcDbEntity
  8
SILK
100
AcDbText
 10
259.741283
 20
108.251864
 30
0.0
 40
2.0
  1
3
 41
0.9
 72
     1
 11
260.341283
 21
108.251864
 31
0.0
100
AcDbText
  0
CIRCLE
  5
50B
100
AcDbEntity
  8
SILK
100
AcDbCircle
 10
260.339499
 20
101.751864
 30
0.0
 40
2.5
  0
LINE
  5
50C
100
AcDbEntity
  8
SILK
100
AcDbLine
 10
261.341283
 20
115.751864
 30
0.0
 11
261.341283
 21
116.751864
 31
0.0
1001
ACAD
1000
ASC_BOUNDS
1002
{
1070
    19
1005
36B
1002
}
  0
TEXT
  5
50D
100
AcDbEntity
  8
SILK
100
AcDbText
 10
248.584141
 20
174.952274
 30
0.0
 40
2.0
  1
SPKR
 41
0.9
 72
     1
 11
251.841283
 21
175.952274
 31
0.0
100
AcDbText
 73
     2
  0
ARC
  5
50E
100
AcDbEntity
  8
1
100
AcDbCircle
 10
249.341283
 20
159.358524
 30
0.0
 40
4.30625
100
AcDbArc
 50
234.510657
 51
305.489343
  0
LINE
  5
50F
100
AcDbEntity
  8
SILK
100
AcDbLine
 10
241.841283
 20
151.852274
 30
0.0
 11
246.841283
 21
151.852274
 31
0.0
  0
ARC
  5
510
100
AcDbEntity
  8
1
100
AcDbCircle
 10
244.341283
 20
159.358524
 30
0.0
 40
4.30625
100
AcDbArc
 50
234.510657
 51
305.489343
  0
LINE
  5
511
100
AcDbEntity
  8
0
100
AcDbLine
 10
239.841283
 20
144.652274
 30
0.0
 11
239.841283
 21
145.652274
 31
0.0
  0
LINE
  5
512
100
AcDbEntity
  8
1
100
AcDbLine
 10
238.841283
 20
157.452274
 30
0.0
 11
239.841283
 21
157.452274
 31
0.0
  0
LINE
  5
513
100
AcDbEntity
  8
1
100
AcDbLine
 10
238.841283
 20
158.452274
 30
0.0
 11
239.841283
 21
158.452274
 31
0.0
  0
ARC
  5
514
100
AcDbEntity
  8
1
100
AcDbCircle
 10
239.341283
 20
159.358524
 30
0.0
 40
4.30625
100
AcDbArc
 50
234.510657
 51
305.489343
  0
LINE
  5
515
100
AcDbEntity
  8
1
100
AcDbLine
 10
238.841283
 20
158.452274
 30
0.0
 11
238.841283
 21
157.452274
 31
0.0
  0
LINE
  5
516
100
AcDbEntity
  8
1
100
AcDbLine
 10
239.841283
 20
158.452274
 30
0.0
 11
239.841283
 21
157.452274
 31
0.0
  0
LINE
  5
517
100
AcDbEntity
  8
1
100
AcDbLine
 10
243.841283
 20
157.452274
 30
0.0
 11
244.841283
 21
157.452274
 31
0.0
  0
LINE
  5
518
100
AcDbEntity
  8
1
100
AcDbLine
 10
243.841283
 20
158.452274
 30
0.0
 11
244.841283
 21
158.452274
 31
0.0
  0
LINE
  5
519
100
AcDbEntity
  8
1
100
AcDbLine
 10
244.841283
 20
158.452274
 30
0.0
 11
244.841283
 21
157.452274
 31
0.0
  0
LINE
  5
51A
100
AcDbEntity
  8
1
100
AcDbLine
 10
243.841283
 20
158.452274
 30
0.0
 11
243.841283
 21
157.452274
 31
0.0
  0
LINE
  5
51B
100
AcDbEntity
  8
1
100
AcDbLine
 10
248.841283
 20
157.452274
 30
0.0
 11
249.841283
 21
157.452274
 31
0.0
  0
LINE
  5
51C
100
AcDbEntity
  8
1
100
AcDbLine
 10
248.841283
 20
158.452274
 30
0.0
 11
249.841283
 21
158.452274
 31
0.0
  0
LINE
  5
51D
100
AcDbEntity
  8
1
100
AcDbLine
 10
249.841283
 20
158.452274
 30
0.0
 11
249.841283
 21
157.452274
 31
0.0
  0
LINE
  5
51E
100
AcDbEntity
  8
1
100
AcDbLine
 10
248.841283
 20
158.452274
 30
0.0
 11
248.841283
 21
157.452274
 31
0.0
  0
LINE
  5
51F
100
AcDbEntity
  8
SILK
100
AcDbLine
 10
246.841283
 20
152.852274
 30
0.0
 11
246.841283
 21
151.852274
 31
0.0
  0
LINE
  5
520
100
AcDbEntity
  8
SILK
100
AcDbLine
 10
241.841283
 20
169.852274
 30
0.0
 11
241.841283
 21
173.852274
 31
0.0
  0
TEXT
  5
521
100
AcDbEntity
  8
SILK
100
AcDbText
 10
238.698426
 20
170.852274
 30
0.0
 40
2.0
  1
C
 41
0.9
 72
     1
 11
239.341283
 21
171.852274
 31
0.0
100
AcDbText
 73
     2
  0
LINE
  5
522
100
AcDbEntity
  8
SILK
100
AcDbLine
 10
236.841283
 20
169.852274
 30
0.0
 11
236.841283
 21
173.852274
 31
0.0
  0
TEXT
  5
523
100
AcDbEntity
  8
SILK
100
AcDbText
 10
243.741283
 20
170.852274
 30
0.0
 40
2.0
  1
H
 41
0.9
 72
     1
 11
244.341283
 21
171.852274
 31
0.0
100
AcDbText
 73
     2
  0
LINE
  5
524
100
AcDbEntity
  8
SILK
100
AcDbLine
 10
246.841283
 20
169.852274
 30
0.0
 11
246.841283
 21
177.852274
 31
0.0
  0
TEXT
  5
525
100
AcDbEntity
  8
SILK
100
AcDbText
 10
248.569855
 20
170.852274
 30
0.0
 40
2.0
  1
-
 41
0.9
 72
     1
 11
249.341283
 21
171.852274
 31
0.0
100
AcDbText
 73
     2
  0
LINE
  5
526
100
AcDbEntity
  8
1
100
AcDbLine
 10
256.841283
 20
155.852274
 30
0.0
 11
256.841283
 21
160.802274
 31
0.0
  0
LINE
  5
527
100
AcDbEntity
  8
1
100
AcDbLine
 10
261.841283
 20
162.502274
 30
0.0
 11
261.841283
 21
154.252274
 31
0.0
  0
LINE
  5
528
100
AcDbEntity
  8
1
100
AcDbLine
 10
262.341283
 20
154.252274
 30
0.0
 11
262.341283
 21
162.752274
 31
0.0
  0
ARC
  5
529
100
AcDbEntity
  8
1
100
AcDbCircle
 10
254.341283
 20
159.358524
 30
0.0
 40
4.30625
100
AcDbArc
 50
234.510657
 51
305.489343
  0
LINE
  5
52A
100
AcDbEntity
  8
1
100
AcDbLine
 10
254.841283
 20
158.452274
 30
0.0
 11
254.841283
 21
157.452274
 31
0.0
  0
LINE
  5
52B
100
AcDbEntity
  8
1
100
AcDbLine
 10
253.841283
 20
158.452274
 30
0.0
 11
253.841283
 21
157.452274
 31
0.0
  0
LINE
  5
52C
100
AcDbEntity
  8
1
100
AcDbLine
 10
253.841283
 20
157.452274
 30
0.0
 11
254.841283
 21
157.452274
 31
0.0
  0
LINE
  5
52D
100
AcDbEntity
  8
1
100
AcDbLine
 10
253.841283
 20
158.452274
 30
0.0
 11
254.841283
 21
158.452274
 31
0.0
  0
CIRCLE
  5
52E
100
AcDbEntity
  8
1
100
AcDbCircle
 10
259.341283
 20
157.952274
 30
0.0
 40
1.25
  0
LINE
  5
52F
100
AcDbEntity
  8
1
100
AcDbLine
 10
262.341283
 20
162.752274
 30
0.0
 11
253.841283
 21
162.752274
 31
0.0
  0
LINE
  5
530
100
AcDbEntity
  8
SILK
100
AcDbLine
 10
251.841283
 20
169.852274
 30
0.0
 11
251.841283
 21
173.852274
 31
0.0
  0
TEXT
  5
531
100
AcDbEntity
  8
SILK
100
AcDbText
 10
253.569855
 20
170.852274
 30
0.0
 40
2.0
  1
+
 41
0.9
 72
     1
 11
254.341283
 21
171.852274
 31
0.0
100
AcDbText
 73
     2
  0
LINE
  5
532
100
AcDbEntity
  8
1
100
AcDbLine
 10
253.841283
 20
165.252274
 30
0.0
 11
251.341283
 21
165.252274
 31
0.0
  0
LINE
  5
533
100
AcDbEntity
  8
1
100
AcDbLine
 10
251.341283
 20
165.252274
 30
0.0
 11
251.341283
 21
162.752274
 31
0.0
  0
LINE
  5
534
100
AcDbEntity
  8
1
100
AcDbLine
 10
253.841283
 20
162.752274
 30
0.0
 11
253.841283
 21
165.252274
 31
0.0
  0
CIRCLE
  5
535
100
AcDbEntity
  8
SILK
100
AcDbCircle
 10
268.339499
 20
104.051864
 30
0.0
 40
1.25
  0
TEXT
  5
536
100
AcDbEntity
  8
SILK
100
AcDbText
 10
275.198426
 20
108.251864
 30
0.0
 40
2.0
  1
4
 41
0.9
 72
     1
 11
275.841283
 21
108.251864
 31
0.0
100
AcDbText
  0
CIRCLE
  5
537
100
AcDbEntity
  8
SILK
100
AcDbCircle
 10
275.839499
 20
101.751864
 30
0.0
 40
2.5
  0
ARC
  5
538
100
AcDbEntity
  8
SILK
100
AcDbCircle
 10
277.341283
 20
116.251864
 30
0.0
 40
0.5
100
AcDbArc
 50
270.0
 51
90.0
1001
ACAD
1000
ASC_BOUNDS
1002
{
1070
    19
1005
36B
1002
}
  0
CIRCLE
  5
539
100
AcDbEntity
  8
SILK
100
AcDbCircle
 10
288.839499
 20
104.051864
 30
0.0
 40
1.25
  0
TEXT
  5
53A
100
AcDbEntity
  8
SILK
100
AcDbText
 10
277.912009
 20
166.452274
 30
0.0
 40
1.75
  1
2s
 41
0.72
 72
     1
 11
278.842009
 21
166.452274
 31
0.0
100
AcDbText
  0
TEXT
  5
53B
100
AcDbEntity
  8
SILK
100
AcDbText
 10
276.77058
 20
169.452274
 30
0.0
 40
2.0
  1
DELAY
 41
0.9
 72
     1
 11
280.842009
 21
169.452274
 31
0.0
100
AcDbText
  0
LINE
  5
53C
100
AcDbEntity
  8
1
100
AcDbLine
 10
277.842009
 20
163.952274
 30
0.0
 11
283.842009
 21
163.952274
 31
0.0
  0
LINE
  5
53D
100
AcDbEntity
  8
1
100
AcDbLine
 10
277.842009
 20
164.952274
 30
0.0
 11
283.842009
 21
164.952274
 31
0.0
  0
LINE
  5
53E
100
AcDbEntity
  8
1
100
AcDbLine
 10
277.842009
 20
158.952274
 30
0.0
 11
283.842009
 21
158.952274
 31
0.0
  0
LINE
  5
53F
100
AcDbEntity
  8
SILK
100
AcDbLine
 10
288.341283
 20
147.952274
 30
0.0
 11
270.341283
 21
147.952274
 31
0.0
  0
LINE
  5
540
100
AcDbEntity
  8
1
100
AcDbLine
 10
277.842009
 20
158.952274
 30
0.0
 11
277.842009
 21
164.952274
 31
0.0
  0
TEXT
  5
541
100
AcDbEntity
  8
SILK
100
AcDbText
 10
273.762009
 20
166.352274
 30
0.0
 40
1.75
  1
ON
 41
0.72
 72
     1
 11
274.842009
 21
166.352274
 31
0.0
100
AcDbText
  0
TEXT
  5
542
100
AcDbEntity
  8
SILK
100
AcDbText
 10
287.411283
 20
158.477274
 30
0.0
 40
1.75
  1
0s
 41
0.72
 72
     1
 11
288.341283
 21
159.352274
 31
0.0
100
AcDbText
 73
     2
  0
LINE
  5
543
100
AcDbEntity
  8
1
100
AcDbLine
 10
282.612009
 20
163.952274
 30
0.0
 11
282.612009
 21
159.952274
 31
0.0
  0
LINE
  5
544
100
AcDbEntity
  8
1
100
AcDbLine
 10
280.072009
 20
163.952274
 30
0.0
 11
280.072009
 21
159.952274
 31
0.0
  0
LINE
  5
545
100
AcDbEntity
  8
1
100
AcDbLine
 10
281.612009
 20
159.952274
 30
0.0
 11
281.612009
 21
163.952274
 31
0.0
  0
LINE
  5
546
100
AcDbEntity
  8
1
100
AcDbLine
 10
279.072009
 20
159.952274
 30
0.0
 11
279.072009
 21
163.952274
 31
0.0
  0
LINE
  5
547
100
AcDbEntity
  8
1
100
AcDbLine
 10
283.842009
 20
158.952274
 30
0.0
 11
283.842009
 21
164.952274
 31
0.0
  0
LINE
  5
548
100
AcDbEntity
  8
1
100
AcDbLine
 10
282.612009
 20
159.952274
 30
0.0
 11
281.612009
 21
159.952274
 31
0.0
  0
LINE
  5
549
100
AcDbEntity
  8
1
100
AcDbLine
 10
280.072009
 20
159.952274
 30
0.0
 11
279.072009
 21
159.952274
 31
0.0
  0
TEXT
  5
54A
100
AcDbEntity
  8
SILK
100
AcDbText
 10
288.018426
 20
154.852274
 30
0.0
 40
3.0
  1

 41
0.72
 72
     1
 11
288.841283
 21
156.352274
 31
0.0
100
AcDbText
 73
     2
  0
INSERT
  5
54B
100
AcDbEntity
  8
1
100
AcDbBlockReference
  2
*X4
 10
18.241283
 20
-93.146192
 30
0.0
1001
ACAD
1000
HATCH
1002
{
1070
    19
1000
ANSI31
1040
2.0
1040
2.984513
1002
}
  0
LINE
  5
553
100
AcDbEntity
  8
1
100
AcDbLine
 10
291.511871
 20
158.903907
 30
0.0
 11
292.099657
 21
158.09489
 31
0.0
1001
ACAD
1000
ASC_BOUNDS
1002
{
1070
    19
1002
}
  0
TEXT
  5
554
100
AcDbEntity
  8
SILK
100
AcDbText
 10
290.032009
 20
153.477274
 30
0.0
 40
1.75
  1
1h
 41
0.72
 72
     1
 11
290.842009
 21
154.352274
 31
0.0
100
AcDbText
 73
     2
  0
TEXT
  5
555
100
AcDbEntity
  8
SILK
100
AcDbText
 10
281.912009
 20
166.452274
 30
0.0
 40
1.75
  1
4s
 41
0.72
 72
     1
 11
282.842009
 21
166.452274
 31
0.0
100
AcDbText
  0
LINE
  5
556
100
AcDbEntity
  8
1
100
AcDbLine
 10
281.612009
 20
162.052274
 30
0.0
 11
280.072009
 21
162.052274
 31
0.0
  0
TEXT
  5
557
100
AcDbEntity
  8
SILK
100
AcDbText
 10
287.911283
 20
160.977274
 30
0.0
 40
1.75
  1
5s
 41
0.72
 72
     1
 11
288.841283
 21
161.852274
 31
0.0
100
AcDbText
 73
     2
  0
TEXT
  5
558
100
AcDbEntity
  8
SILK
100
AcDbText
 10
289.432009
 20
163.477274
 30
0.0
 40
1.75
  1
10s
 41
0.72
 72
     1
 11
290.842009
 21
164.352274
 31
0.0
100
AcDbText
 73
     2
  0
LINE
  5
559
100
AcDbEntity
  8
0
100
AcDbLine
 10
239.841283
 20
185.252274
 30
0.0
 11
239.841283
 21
184.252274
 31
0.0
  0
ARC
  5
55A
100
AcDbEntity
  8
0
100
AcDbCircle
 10
595.253783
 20
108.451864
 30
0.0
 40
292.8125
100
AcDbArc
 50
177.004825
 51
182.995175
  0
LINE
  5
55B
100
AcDbEntity
  8
0
100
AcDbLine
 10
299.841283
 20
91.116964
 30
0.0
 11
299.841283
 21
125.786769
 31
0.0
  0
DIMENSION
  5
55C
100
AcDbEntity
  8
SCALE
100
AcDbDimension
  2
*D10
 10
314.464767
 20
86.151864
 30
0.0
 11
310.064767
 21
108.451864
 31
0.0
  1
44.2
  3
STANDARD
100
AcDbAlignedDimension
 13
297.841283
 23
130.751864
 33
0.0
 14
297.841283
 24
86.151864
 34
0.0
 50
90.0
100
AcDbRotatedDimension
1001
ACAD
1000
DSTYLE
1002
{
1070
   140
1040
2.2
1070
   340
1005
84B
1070
   145
1040
1.0
1070
    74
1070
     0
1070
   172
1070
     1
1070
    73
1070
     0
1070
   272
1070
     4
1070
    40
1040
2.0
1070
   287
1070
     3
1070
    42
1040
2.0
1070
    44
1040
1.5
1070
    43
1040
10.0
1070
   271
1070
     4
1070
     5
1000
YAZ3
1070
    41
1040
1.5
1002
}
  0
LINE
  5
56A
100
AcDbEntity
  8
0
100
AcDbLine
 10
304.341283
 20
31.182154
 30
0.0
 11
304.341283
 21
42.182154
 31
0.0
  0
LINE
  5
56B
100
AcDbEntity
  8
0
100
AcDbLine
 10
305.341283
 20
30.182154
 30
0.0
 11
305.341283
 21
43.182154
 31
0.0
  0
LINE
  5
56C
100
AcDbEntity
  8
0
100
AcDbLine
 10
293.341283
 20
42.182154
 30
0.0
 11
293.341283
 21
31.182154
 31
0.0
  0
LINE
  5
56D
100
AcDbEntity
  8
0
100
AcDbLine
 10
293.341283
 20
31.182154
 30
0.0
 11
304.341283
 21
31.182154
 31
0.0
  0
LINE
  5
56E
100
AcDbEntity
  8
0
100
AcDbLine
 10
304.341283
 20
42.182154
 30
0.0
 11
293.341283
 21
42.182154
 31
0.0
  0
ARC
  5
56F
100
AcDbEntity
  8
0
100
AcDbCircle
 10
304.841283
 20
93.151864
 30
0.0
 40
2.0
100
AcDbArc
 50
270.0
 51
0.0
  0
LINE
  5
570
100
AcDbEntity
  8
0
100
AcDbLine
 10
306.841283
 20
96.151864
 30
0.0
 11
302.641283
 21
96.151864
 31
0.0
  0
ARC
  5
571
100
AcDbEntity
  8
0
100
AcDbCircle
 10
297.841588
 20
91.151864
 30
0.0
 40
2.0
100
AcDbArc
 50
270.0
 51
359.0
  0
ARC
  5
572
100
AcDbEntity
  8
0
100
AcDbCircle
 10
297.841283
 20
91.151864
 30
0.0
 40
5.0
100
AcDbArc
 50
270.0
 51
0.0
  0
LINE
  5
573
100
AcDbEntity
  8
0
100
AcDbLine
 10
304.841283
 20
93.151864
 30
0.0
 11
302.841283
 21
93.151864
 31
0.0
  0
LINE
  5
574
100
AcDbEntity
  8
0
100
AcDbLine
 10
302.841283
 20
91.151864
 30
0.0
 11
304.841283
 21
91.151864
 31
0.0
  0
LINE
  5
575
100
AcDbEntity
  8
0
100
AcDbLine
 10
305.041283
 20
96.151864
 30
0.0
 11
304.841283
 21
93.151864
 31
0.0
  0
LINE
  5
576
100
AcDbEntity
  8
0
100
AcDbLine
 10
306.841283
 20
93.151864
 30
0.0
 11
306.841283
 21
96.151864
 31
0.0
  0
ARC
  5
577
100
AcDbEntity
  8
0
100
AcDbCircle
 10
304.841283
 20
180.252274
 30
0.0
 40
2.0
100
AcDbArc
 50
0.0
 51
90.0
  0
LINE
  5
578
100
AcDbEntity
  8
0
100
AcDbLine
 10
299.841283
 20
147.617374
 30
0.0
 11
299.841283
 21
182.287179
 31
0.0
  0
LINE
  5
579
100
AcDbEntity
  8
0
100
AcDbLine
 10
306.841283
 20
120.751864
 30
0.0
 11
302.641283
 21
120.751864
 31
0.0
  0
ARC
  5
57A
100
AcDbEntity
  8
0
100
AcDbCircle
 10
304.841283
 20
123.751864
 30
0.0
 40
2.0
100
AcDbArc
 50
0.0
 51
90.0
  0
LINE
  5
57B
100
AcDbEntity
  8
0
100
AcDbLine
 10
299.841283
 20
108.451864
 30
0.0
 11
302.441283
 21
108.451864
 31
0.0
  0
ARC
  5
57C
100
AcDbEntity
  8
0
100
AcDbCircle
 10
297.841588
 20
125.751864
 30
0.0
 40
2.0
100
AcDbArc
 50
1.000006
 51
90.0
  0
ARC
  5
57D
100
AcDbEntity
  8
0
100
AcDbCircle
 10
297.841283
 20
125.751864
 30
0.0
 40
5.0
100
AcDbArc
 50
0.0
 51
90.0
  0
LINE
  5
57E
100
AcDbEntity
  8
0
100
AcDbLine
 10
304.841283
 20
125.751864
 30
0.0
 11
302.841283
 21
125.751864
 31
0.0
  0
LINE
  5
57F
100
AcDbEntity
  8
0
100
AcDbLine
 10
302.841283
 20
123.751864
 30
0.0
 11
304.841283
 21
123.751864
 31
0.0
  0
LINE
  5
580
100
AcDbEntity
  8
0
100
AcDbLine
 10
304.841283
 20
123.751864
 30
0.0
 11
305.041283
 21
120.751864
 31
0.0
  0
LINE
  5
581
100
AcDbEntity
  8
0
100
AcDbLine
 10
306.841283
 20
120.751864
 30
0.0
 11
306.841283
 21
123.751864
 31
0.0
  0
LINE
  5
582
100
AcDbEntity
  8
0
100
AcDbLine
 10
306.841283
 20
177.252274
 30
0.0
 11
302.641283
 21
177.252274
 31
0.0
  0
LINE
  5
583
100
AcDbEntity
  8
0
100
AcDbLine
 10
306.841283
 20
152.652274
 30
0.0
 11
302.641283
 21
152.652274
 31
0.0
  0
ARC
  5
584
100
AcDbEntity
  8
0
100
AcDbCircle
 10
304.841283
 20
149.652274
 30
0.0
 40
2.0
100
AcDbArc
 50
270.0
 51
0.0
  0
ARC
  5
585
100
AcDbEntity
  8
0
100
AcDbCircle
 10
595.253783
 20
164.952274
 30
0.0
 40
292.8125
100
AcDbArc
 50
177.004825
 51
182.995175
  0
TEXT
  5
586
100
AcDbEntity
  8
SILK
100
AcDbText
 10
296.082734
 20
158.477274
 30
0.0
 40
1.75
  1
5m
 41
0.72
 72
     1
 11
297.342734
 21
159.352274
 31
0.0
100
AcDbText
 73
     2
  0
ARC
  5
587
100
AcDbEntity
  8
0
100
AcDbCircle
 10
297.841588
 20
147.652274
 30
0.0
 40
2.0
100
AcDbArc
 50
270.0
 51
359.0
  0
ARC
  5
588
100
AcDbEntity
  8
0
100
AcDbCircle
 10
297.841283
 20
147.652274
 30
0.0
 40
5.0
100
AcDbArc
 50
270.0
 51
0.0
  0
TEXT
  5
589
100
AcDbEntity
  8
SILK
100
AcDbText
 10
295.102009
 20
155.977274
 30
0.0
 40
1.75
  1
10m
 41
0.72
 72
     1
 11
296.842009
 21
156.852274
 31
0.0
100
AcDbText
 73
     2
  0
TEXT
  5
58A
100
AcDbEntity
  8
SILK
100
AcDbText
 10
292.982009
 20
153.477274
 30
0.0
 40
1.75
  1
30m
 41
0.72
 72
     1
 11
294.842009
 21
154.352274
 31
0.0
100
AcDbText
 73
     2
  0
LINE
  5
58B
100
AcDbEntity
  8
0
100
AcDbLine
 10
302.841283
 20
147.652274
 30
0.0
 11
304.841283
 21
147.652274
 31
0.0
  0
LINE
  5
58C
100
AcDbEntity
  8
0
100
AcDbLine
 10
304.841283
 20
149.652274
 30
0.0
 11
302.841283
 21
149.652274
 31
0.0
  0
LINE
  5
58D
100
AcDbEntity
  8
0
100
AcDbLine
 10
305.041283
 20
152.652274
 30
0.0
 11
304.841283
 21
149.652274
 31
0.0
  0
TEXT
  5
58E
100
AcDbEntity
  8
SILK
100
AcDbText
 10
295.702009
 20
160.977274
 30
0.0
 40
1.75
  1
1m
 41
0.72
 72
     1
 11
296.842009
 21
161.852274
 31
0.0
100
AcDbText
 73
     2
  0
TEXT
  5
58F
100
AcDbEntity
  8
SILK
100
AcDbText
 10
293.312009
 20
163.477274
 30
0.0
 40
1.75
  1
30s
 41
0.72
 72
     1
 11
294.842009
 21
164.352274
 31
0.0
100
AcDbText
 73
     2
  0
LINE
  5
590
100
AcDbEntity
  8
0
100
AcDbLine
 10
299.841283
 20
164.952274
 30
0.0
 11
302.441283
 21
164.952274
 31
0.0
  0
LINE
  5
591
100
AcDbEntity
  8
0
100
AcDbLine
 10
302.841283
 20
180.252274
 30
0.0
 11
304.841283
 21
180.252274
 31
0.0
  0
LINE
  5
592
100
AcDbEntity
  8
0
100
AcDbLine
 10
304.841283
 20
180.252274
 30
0.0
 11
305.041283
 21
177.252274
 31
0.0
  0
LINE
  5
593
100
AcDbEntity
  8
0
100
AcDbLine
 10
306.841283
 20
149.652274
 30
0.0
 11
306.841283
 21
152.652274
 31
0.0
  0
LINE
  5
594
100
AcDbEntity
  8
0
100
AcDbLine
 10
306.841283
 20
177.252274
 30
0.0
 11
306.841283
 21
180.252274
 31
0.0
  0
ARC
  5
595
100
AcDbEntity
  8
0
100
AcDbCircle
 10
297.841588
 20
182.252274
 30
0.0
 40
2.0
100
AcDbArc
 50
1.000006
 51
90.0
  0
ARC
  5
596
100
AcDbEntity
  8
0
100
AcDbCircle
 10
297.841283
 20
182.252274
 30
0.0
 40
5.0
100
AcDbArc
 50
0.0
 51
90.0
  0
LINE
  5
597
100
AcDbEntity
  8
0
100
AcDbLine
 10
304.841283
 20
182.252274
 30
0.0
 11
302.841283
 21
182.252274
 31
0.0
  0
ENDSEC
  0
SECTION
  2
OBJECTS
  0
DICTIONARY
  5
AD2
100
AcDbDictionary
  3
ACAD_GROUP
350
AD3
  3
ACAD_MLINESTYLE
350
AD4
  0
DICTIONARY
  5
AD3
102
{ACAD_REACTORS
330
AD2
102
}
100
AcDbDictionary
  0
DICTIONARY
  5
AD4
102
{ACAD_REACTORS
330
AD2
102
}
100
AcDbDictionary
  3
STANDARD
350
AD5
  0
MLINESTYLE
  5
AD5
102
{ACAD_REACTORS
330
AD4
102
}
100
AcDbMlineStyle
  2
STANDARD
 70
     0
  3

 62
     0
 51
90.0
 52
90.0
 71
     2
 49
0.5
 62
   256
  6
BYLAYER
 49
-0.5
 62
   256
  6
BYLAYER
  0
ENDSEC
  0
EOF
