  0
SECTION
  2
HEADER
  9
$ACADVER
  1
AC1009
  9
$INSBASE
 10
0.0
 20
0.0
 30
0.0
  9
$EXTMIN
 10
17.315173
 20
62.602644
 30
0.0
  9
$EXTMAX
 10
1066.376393
 20
837.216281
 30
0.0
  9
$LIMMIN
 10
0.0
 20
0.0
  9
$LIMMAX
 10
198.0
 20
285.0
  9
$ORTHOMODE
 70
     1
  9
$REGENMODE
 70
     0
  9
$FILLMODE
 70
     1
  9
$QTEXTMODE
 70
     0
  9
$MIRRTEXT
 70
     0
  9
$DRAGMODE
 70
     2
  9
$LTSCALE
 40
48.0
  9
$OSMODE
 70
     0
  9
$ATTMODE
 70
     1
  9
$TEXTSIZE
 40
15.0
  9
$TRACEWID
 40
0.05
  9
$TEXTSTYLE
  7
STANDARD
  9
$CLAYER
  8
SCALE
  9
$CELTYPE
  6
BYLAYER
  9
$CECOLOR
 62
   256
  9
$DIMSCALE
 40
6.0
  9
$DIMASZ
 40
1.5
  9
$DIMEXO
 40
2.0
  9
$DIMDLI
 40
10.0
  9
$DIMRND
 40
0.0
  9
$DIMDLE
 40
0.0
  9
$DIMEXE
 40
1.5
  9
$DIMTP
 40
0.0
  9
$DIMTM
 40
0.0
  9
$DIMTXT
 40
2.2
  9
$DIMCEN
 40
0.09
  9
$DIMTSZ
 40
0.0
  9
$DIMTOL
 70
     0
  9
$DIMLIM
 70
     0
  9
$DIMTIH
 70
     0
  9
$DIMTOH
 70
     0
  9
$DIMSE1
 70
     0
  9
$DIMSE2
 70
     0
  9
$DIMTAD
 70
     0
  9
$DIMZIN
 70
     0
  9
$DIMBLK
  1

  9
$DIMASO
 70
     1
  9
$DIMSHO
 70
     0
  9
$DIMPOST
  1

  9
$DIMAPOST
  1

  9
$DIMALT
 70
     0
  9
$DIMALTD
 70
     2
  9
$DIMALTF
 40
25.4
  9
$DIMLFAC
 40
1.0
  9
$DIMTOFL
 70
     1
  9
$DIMTVP
 40
1.0
  9
$DIMTIX
 70
     0
  9
$DIMSOXD
 70
     0
  9
$DIMSAH
 70
     0
  9
$DIMBLK1
  1

  9
$DIMBLK2
  1

  9
$DIMSTYLE
  2
STANDARD
  9
$DIMCLRD
 70
     0
  9
$DIMCLRE
 70
     0
  9
$DIMCLRT
 70
     0
  9
$DIMTFAC
 40
1.0
  9
$DIMGAP
 40
0.09
  9
$LUNITS
 70
     2
  9
$LUPREC
 70
     3
  9
$AXISMODE
 70
     0
  9
$AXISUNIT
 10
0.0
 20
0.0
  9
$SKETCHINC
 40
0.1
  9
$FILLETRAD
 40
0.0
  9
$AUNITS
 70
     0
  9
$AUPREC
 70
     0
  9
$MENU
  1
AMECEX
  9
$ELEVATION
 40
0.0
  9
$PELEVATION
 40
0.0
  9
$THICKNESS
 40
0.0
  9
$LIMCHECK
 70
     0
  9
$BLIPMODE
 70
     0
  9
$CHAMFERA
 40
0.0
  9
$CHAMFERB
 40
0.0
  9
$SKPOLY
 70
     0
  9
$TDCREATE
 40
2451915.572687824
  9
$TDUPDATE
 40
2452374.636261562
  9
$TDINDWG
 40
0.0026041435
  9
$TDUSRTIMER
 40
0.0024884144
  9
$USRTIMER
 70
     1
  9
$ANGBASE
 50
0.0
  9
$ANGDIR
 70
     0
  9
$PDMODE
 70
     0
  9
$PDSIZE
 40
0.0
  9
$PLINEWID
 40
0.0
  9
$COORDS
 70
     2
  9
$SPLFRAME
 70
     0
  9
$SPLINETYPE
 70
     6
  9
$SPLINESEGS
 70
     8
  9
$ATTDIA
 70
     0
  9
$ATTREQ
 70
     1
  9
$HANDLING
 70
     1
  9
$HANDSEED
  5
112E
  9
$SURFTAB1
 70
     6
  9
$SURFTAB2
 70
     6
  9
$SURFTYPE
 70
     6
  9
$SURFU
 70
     6
  9
$SURFV
 70
     6
  9
$UCSNAME
  2

  9
$UCSORG
 10
0.0
 20
0.0
 30
0.0
  9
$UCSXDIR
 10
1.0
 20
0.0
 30
0.0
  9
$UCSYDIR
 10
0.0
 20
1.0
 30
0.0
  9
$PUCSNAME
  2

  9
$PUCSORG
 10
0.0
 20
0.0
 30
0.0
  9
$PUCSXDIR
 10
1.0
 20
0.0
 30
0.0
  9
$PUCSYDIR
 10
0.0
 20
1.0
 30
0.0
  9
$USERI1
 70
     0
  9
$USERI2
 70
     0
  9
$USERI3
 70
     0
  9
$USERI4
 70
     0
  9
$USERI5
 70
     0
  9
$USERR1
 40
30.0
  9
$USERR2
 40
0.0
  9
$USERR3
 40
0.0
  9
$USERR4
 40
0.0
  9
$USERR5
 40
0.0
  9
$WORLDVIEW
 70
     1
  9
$SHADEDGE
 70
     3
  9
$SHADEDIF
 70
    70
  9
$TILEMODE
 70
     1
  9
$MAXACTVP
 70
    16
  9
$PINSBASE
 10
0.0
 20
0.0
 30
0.0
  9
$PLIMCHECK
 70
     0
  9
$PEXTMIN
 10
1.000000E+20
 20
1.000000E+20
 30
1.000000E+20
  9
$PEXTMAX
 10
-1.000000E+20
 20
-1.000000E+20
 30
-1.000000E+20
  9
$PLIMMIN
 10
0.0
 20
0.0
  9
$PLIMMAX
 10
12.0
 20
9.0
  9
$UNITMODE
 70
     0
  9
$VISRETAIN
 70
     0
  9
$PLINEGEN
 70
     0
  9
$PSLTSCALE
 70
     0
  9
$TREEDEPTH
 70
  3020
  9
$DWGCODEPAGE
  3
ansi_1252
  0
ENDSEC
  0
SECTION
  2
TABLES
  0
TABLE
  2
VPORT
 70
     1
  0
VPORT
  2
*ACTIVE
 70
     0
 10
0.0
 20
0.0
 11
1.0
 21
1.0
 12
533.188196
 22
454.559377
 13
0.0
 23
0.0
 14
1.0
 24
1.0
 15
0.0
 25
0.0
 16
0.0
 26
0.0
 36
1.0
 17
0.0
 27
0.0
 37
0.0
 40
927.30113
 41
1.704251
 42
50.0
 43
0.0
 44
0.0
 50
0.0
 51
0.0
 71
     0
 72
   100
 73
     1
 74
     0
 75
     0
 76
     0
 77
     0
 78
     0
  0
ENDTAB
  0
TABLE
  2
LTYPE
 70
     3
  0
LTYPE
  2
CONTINUOUS
 70
    64
  3
Solid line
 72
    65
 73
     0
 40
0.0
  0
LTYPE
  2
HIDDEN
 70
    64
  3
_ _ _ _ _ _ _ _ _ _ _ _ _ _ _ _ _ _ _ _ _ _ _
 72
    65
 73
     2
 40
0.375
 49
0.25
 49
-0.125
  0
LTYPE
  2
CENTER
 70
    64
  3
____ _ ____ _ ____ _ ____ _ ____ _ ____ _ ____
 72
    65
 73
     4
 40
2.0
 49
1.25
 49
-0.25
 49
0.25
 49
-0.25
  0
ENDTAB
  0
TABLE
  2
LAYER
 70
     8
  0
LAYER
  2
0
 70
    64
 62
     7
  6
CONTINUOUS
  0
LAYER
  2
GAWA
 70
    64
 62
     2
  6
CONTINUOUS
  0
LAYER
  2
1
 70
    64
 62
     3
  6
CONTINUOUS
  0
LAYER
  2
SCALE
 70
    64
 62
     4
  6
CONTINUOUS
  0
LAYER
  2
CENTER
 70
    64
 62
     1
  6
CENTER
  0
LAYER
  2
PEN1
 70
    64
 62
     5
  6
CONTINUOUS
  0
LAYER
  2
SILK
 70
    64
 62
     5
  6
CONTINUOUS
  0
LAYER
  2
DEFPOINTS
 70
    64
 62
    -7
  6
CONTINUOUS
  0
ENDTAB
  0
TABLE
  2
STYLE
 70
     4
  0
STYLE
  2
STANDARD
 70
    64
 40
0.0
 41
1.0
 50
0.0
 71
     0
 42
13.2
  3
SIMPLEX
  4

  0
STYLE
  2
CMP-SET
 70
    64
 40
0.0
 41
0.9
 50
0.0
 71
     0
 42
20.0
  3
COMPLEX
  4

  0
STYLE
  2
TOALOGO
 70
    64
 40
3.0
 41
1.0
 50
0.0
 71
     0
 42
3.0
  3
SIMPLEX
  4
SLFONT
  0
STYLE
  2
UT7
 70
    64
 40
0.0
 41
0.8
 50
0.0
 71
     0
 42
15.0
  3
TOAFONT
  4

  0
ENDTAB
  0
TABLE
  2
VIEW
 70
     0
  0
ENDTAB
  0
TABLE
  2
UCS
 70
     0
  0
ENDTAB
  0
TABLE
  2
APPID
 70
     1
  0
APPID
  2
ACAD
 70
    64
  0
ENDTAB
  0
TABLE
  2
DIMSTYLE
 70
     1
  0
DIMSTYLE
  2
STANDARD
 70
    64
  3

  4

  5

  6

  7

 40
1.0
 41
0.18
 42
0.0625
 43
0.38
 44
0.18
 45
0.0
 46
0.0
 47
0.0
 48
0.0
 71
     0
 72
     0
 73
     1
 74
     1
 75
     0
 76
     0
 77
     0
 78
     0
140
0.18
141
0.09
142
0.0
143
25.4
144
1.0
145
0.0
146
1.0
147
0.09
170
     0
171
     2
172
     0
173
     0
174
     0
175
     0
176
     0
177
     0
178
     0
  0
ENDTAB
  0
ENDSEC
  0
SECTION
  2
BLOCKS
  0
BLOCK
  8
0
  5
5A
  2
LOGO8911
 70
    64
 10
0.0
 20
0.0
 30
0.0
  3
LOGO8911
  0
TEXT
  8
0
  5
5B
 10
0.008136
 20
0.013361
 30
0.0
 40
11.4
  1
‡z
  7
TOALOGO
  0
TEXT
  8
1
  5
5C
 10
0.008136
 20
0.013361
 30
0.0
 40
11.4
  1
‡y
  7
TOALOGO
  0
ENDBLK
  8
0
  5
5D
  0
BLOCK
  8
0
  5
5E
  2
TOA8911
 70
    64
 10
0.0
 20
0.0
 30
0.0
  3
TOA8911
  0
TEXT
  8
1
  5
5F
 10
0.051707
 20
0.1026
 30
0.0
 40
3.8475
  1
‡{
  7
TOALOGO
  0
ENDBLK
  8
0
  5
60
  0
BLOCK
  8
0
  5
61
  2
YAZ3
 70
    64
 10
0.0
 20
0.0
 30
0.0
  3
YAZ3
  0
INSERT
  8
0
  5
62
  2
YAZ1
 10
0.0
 20
0.0
 30
0.0
  0
LINE
  8
0
  5
63
 10
-0.999365
 20
0.04706
 30
0.0
 11
-0.175629
 21
0.04706
 31
0.0
  0
LINE
  8
0
  5
64
 10
-0.999365
 20
0.09706
 30
0.0
 11
-0.362232
 21
0.09706
 31
0.0
  0
LINE
  8
0
  5
65
 10
-0.999365
 20
0.14706
 30
0.0
 11
-0.548834
 21
0.14706
 31
0.0
  0
LINE
  8
0
  5
66
 10
-0.999365
 20
0.19706
 30
0.0
 11
-0.735437
 21
0.19706
 31
0.0
  0
LINE
  8
0
  5
67
 10
-0.999365
 20
0.24706
 30
0.0
 11
-0.922039
 21
0.24706
 31
0.0
  0
LINE
  8
0
  5
68
 10
-0.999365
 20
-0.05294
 30
0.0
 11
-0.197576
 21
-0.05294
 31
0.0
  0
LINE
  8
0
  5
69
 10
-0.999365
 20
-0.10294
 30
0.0
 11
-0.384179
 21
-0.10294
 31
0.0
  0
LINE
  8
0
  5
6A
 10
-0.999365
 20
-0.15294
 30
0.0
 11
-0.570781
 21
-0.15294
 31
0.0
  0
LINE
  8
0
  5
6B
 10
-0.999365
 20
-0.20294
 30
0.0
 11
-0.757384
 21
-0.20294
 31
0.0
  0
LINE
  8
0
  5
6C
 10
-0.999365
 20
-0.25294
 30
0.0
 11
-0.943986
 21
-0.25294
 31
0.0
  0
SOLID
  8
0
  5
6D
 10
0.0
 20
0.0
 30
0.0
 11
-1.0
 21
0.267949
 31
0.0
 12
-1.0
 22
-0.267949
 32
0.0
 13
-1.0
 23
-0.267949
 33
0.0
  0
ENDBLK
  8
0
  5
6E
  0
BLOCK
  8
0
  5
6F
  2
YAZ1
 70
    64
 10
184.0
 20
133.0
 30
0.0
  3
YAZ1
  0
LINE
  8
0
  5
70
 10
184.0
 20
133.0
 30
0.0
 11
183.0
 21
132.732051
 31
0.0
  0
LINE
  8
0
  5
71
 10
184.0
 20
133.0
 30
0.0
 11
183.0
 21
133.267949
 31
0.0
  0
LINE
  8
0
  5
72
 10
183.0
 20
133.0
 30
0.0
 11
184.0
 21
133.0
 31
0.0
  0
ENDBLK
  8
0
  5
73
  0
BLOCK
  8
0
  5
74
  2
*X4
 70
    65
 10
0.0
 20
0.0
 30
0.0
  3
*X4
  0
LINE
  8
0
 62
     0
  5
75
 10
1057.738344
 20
609.609421
 30
0.0
 11
1058.298344
 21
610.169421
 31
0.0
  0
LINE
  8
0
 62
     0
  5
76
 10
1040.955599
 20
593.71056
 30
0.0
 11
1049.80196
 21
602.556921
 31
0.0
  0
LINE
  8
0
 62
     0
  5
77
 10
1056.85446
 20
609.609421
 30
0.0
 11
1057.41446
 21
610.169421
 31
0.0
  0
LINE
  8
0
 62
     0
  5
78
 10
1040.955599
 20
594.594444
 30
0.0
 11
1048.918077
 21
602.556921
 31
0.0
  0
LINE
  8
0
 62
     0
  5
79
 10
1055.970577
 20
609.609421
 30
0.0
 11
1056.530577
 21
610.169421
 31
0.0
  0
LINE
  8
0
 62
     0
  5
7A
 10
1040.955599
 20
595.478327
 30
0.0
 11
1048.034193
 21
602.556921
 31
0.0
  0
LINE
  8
0
 62
     0
  5
7B
 10
1055.086693
 20
609.609421
 30
0.0
 11
1055.646693
 21
610.169421
 31
0.0
  0
LINE
  8
0
 62
     0
  5
7C
 10
1040.955599
 20
596.362211
 30
0.0
 11
1047.15031
 21
602.556921
 31
0.0
  0
LINE
  8
0
 62
     0
  5
7D
 10
1054.20281
 20
609.609421
 30
0.0
 11
1054.76281
 21
610.169421
 31
0.0
  0
LINE
  8
0
 62
     0
  5
7E
 10
1040.955599
 20
597.246094
 30
0.0
 11
1046.266426
 21
602.556921
 31
0.0
  0
LINE
  8
0
 62
     0
  5
7F
 10
1053.318926
 20
609.609421
 30
0.0
 11
1053.878926
 21
610.169421
 31
0.0
  0
LINE
  8
0
 62
     0
  5
80
 10
1052.435043
 20
609.609421
 30
0.0
 11
1052.995043
 21
610.169421
 31
0.0
  0
LINE
  8
0
 62
     0
  5
81
 10
1051.551159
 20
609.609421
 30
0.0
 11
1052.111159
 21
610.169421
 31
0.0
  0
LINE
  8
0
 62
     0
  5
82
 10
1040.955599
 20
599.897744
 30
0.0
 11
1047.307276
 21
606.249421
 31
0.0
  0
LINE
  8
0
 62
     0
  5
83
 10
1050.667276
 20
609.609421
 30
0.0
 11
1051.227276
 21
610.169421
 31
0.0
  0
LINE
  8
0
 62
     0
  5
84
 10
1040.955599
 20
600.781628
 30
0.0
 11
1046.423392
 21
606.249421
 31
0.0
  0
LINE
  8
0
 62
     0
  5
85
 10
1049.783392
 20
609.609421
 30
0.0
 11
1050.343392
 21
610.169421
 31
0.0
  0
LINE
  8
0
 62
     0
  5
86
 10
1040.955599
 20
601.665511
 30
0.0
 11
1045.539509
 21
606.249421
 31
0.0
  0
LINE
  8
0
 62
     0
  5
87
 10
1048.899509
 20
609.609421
 30
0.0
 11
1049.459509
 21
610.169421
 31
0.0
  0
LINE
  8
0
 62
     0
  5
88
 10
1040.955599
 20
602.549395
 30
0.0
 11
1044.655625
 21
606.249421
 31
0.0
  0
LINE
  8
0
 62
     0
  5
89
 10
1048.015625
 20
609.609421
 30
0.0
 11
1048.575625
 21
610.169421
 31
0.0
  0
LINE
  8
0
 62
     0
  5
8A
 10
1040.955599
 20
603.433278
 30
0.0
 11
1043.771742
 21
606.249421
 31
0.0
  0
LINE
  8
0
 62
     0
  5
8B
 10
1047.131742
 20
609.609421
 30
0.0
 11
1047.691742
 21
610.169421
 31
0.0
  0
LINE
  8
0
 62
     0
  5
8C
 10
1040.955599
 20
604.317162
 30
0.0
 11
1042.887858
 21
606.249421
 31
0.0
  0
LINE
  8
0
 62
     0
  5
8D
 10
1046.247858
 20
609.609421
 30
0.0
 11
1046.807858
 21
610.169421
 31
0.0
  0
LINE
  8
0
 62
     0
  5
8E
 10
1040.955599
 20
605.201045
 30
0.0
 11
1042.003975
 21
606.249421
 31
0.0
  0
LINE
  8
0
 62
     0
  5
8F
 10
1045.363975
 20
609.609421
 30
0.0
 11
1045.923975
 21
610.169421
 31
0.0
  0
LINE
  8
0
 62
     0
  5
90
 10
1040.955599
 20
606.084929
 30
0.0
 11
1041.120092
 21
606.249421
 31
0.0
  0
LINE
  8
0
 62
     0
  5
91
 10
1044.480092
 20
609.609421
 30
0.0
 11
1045.040092
 21
610.169421
 31
0.0
  0
LINE
  8
0
 62
     0
  5
92
 10
1043.596208
 20
609.609421
 30
0.0
 11
1044.156208
 21
610.169421
 31
0.0
  0
LINE
  8
0
 62
     0
  5
93
 10
1042.712325
 20
609.609421
 30
0.0
 11
1043.272325
 21
610.169421
 31
0.0
  0
LINE
  8
0
 62
     0
  5
94
 10
1041.828441
 20
609.609421
 30
0.0
 11
1042.388441
 21
610.169421
 31
0.0
  0
LINE
  8
0
 62
     0
  5
95
 10
1040.955599
 20
609.620463
 30
0.0
 11
1041.504558
 21
610.169421
 31
0.0
  0
LINE
  8
0
 62
     0
  5
96
 10
1041.069727
 20
592.056921
 30
0.0
 11
1047.710599
 21
598.697793
 31
0.0
  0
LINE
  8
0
 62
     0
  5
97
 10
1041.953611
 20
592.056921
 30
0.0
 11
1047.710599
 21
597.81391
 31
0.0
  0
LINE
  8
0
 62
     0
  5
98
 10
1051.998099
 20
602.10141
 30
0.0
 11
1052.453611
 21
602.556921
 31
0.0
  0
LINE
  8
0
 62
     0
  5
99
 10
1042.837494
 20
592.056921
 30
0.0
 11
1047.710599
 21
596.930026
 31
0.0
  0
LINE
  8
0
 62
     0
  5
9A
 10
1051.998099
 20
601.217526
 30
0.0
 11
1053.337494
 21
602.556921
 31
0.0
  0
LINE
  8
0
 62
     0
  5
9B
 10
1043.721378
 20
592.056921
 30
0.0
 11
1047.710599
 21
596.046143
 31
0.0
  0
LINE
  8
0
 62
     0
  5
9C
 10
1058.434139
 20
606.769683
 30
0.0
 11
1058.455599
 21
606.791143
 31
0.0
  0
LINE
  8
0
 62
     0
  5
9D
 10
1051.998099
 20
600.333643
 30
0.0
 11
1054.221378
 21
602.556921
 31
0.0
  0
LINE
  8
0
 62
     0
  5
9E
 10
1044.605261
 20
592.056921
 30
0.0
 11
1047.710599
 21
595.162259
 31
0.0
  0
LINE
  8
0
 62
     0
  5
9F
 10
1051.998099
 20
599.449759
 30
0.0
 11
1058.455599
 21
605.907259
 31
0.0
  0
LINE
  8
0
 62
     0
  5
A0
 10
1045.489145
 20
592.056921
 30
0.0
 11
1047.710599
 21
594.278376
 31
0.0
  0
LINE
  8
0
 62
     0
  5
A1
 10
1051.998099
 20
598.565876
 30
0.0
 11
1058.455599
 21
605.023376
 31
0.0
  0
LINE
  8
0
 62
     0
  5
A2
 10
1046.373028
 20
592.056921
 30
0.0
 11
1047.710599
 21
593.394492
 31
0.0
  0
LINE
  8
0
 62
     0
  5
A3
 10
1051.998099
 20
597.681992
 30
0.0
 11
1058.455599
 21
604.139492
 31
0.0
  0
LINE
  8
0
 62
     0
  5
A4
 10
1047.256911
 20
592.056921
 30
0.0
 11
1047.710599
 21
592.510609
 31
0.0
  0
LINE
  8
0
 62
     0
  5
A5
 10
1051.998099
 20
596.798109
 30
0.0
 11
1058.455599
 21
603.255609
 31
0.0
  0
LINE
  8
0
 62
     0
  5
A6
 10
1051.998099
 20
595.914225
 30
0.0
 11
1058.455599
 21
602.371725
 31
0.0
  0
LINE
  8
0
 62
     0
  5
A7
 10
1051.998099
 20
595.030342
 30
0.0
 11
1058.455599
 21
601.487842
 31
0.0
  0
LINE
  8
0
 62
     0
  5
A8
 10
1051.998099
 20
594.146458
 30
0.0
 11
1058.455599
 21
600.603958
 31
0.0
  0
LINE
  8
0
 62
     0
  5
A9
 10
1051.998099
 20
593.262575
 30
0.0
 11
1058.455599
 21
599.720075
 31
0.0
  0
LINE
  8
0
 62
     0
  5
AA
 10
1051.998099
 20
592.378691
 30
0.0
 11
1058.455599
 21
598.836191
 31
0.0
  0
LINE
  8
0
 62
     0
  5
AB
 10
1052.560212
 20
592.056921
 30
0.0
 11
1058.455599
 21
597.952308
 31
0.0
  0
LINE
  8
0
 62
     0
  5
AC
 10
1053.444096
 20
592.056921
 30
0.0
 11
1058.455599
 21
597.068425
 31
0.0
  0
LINE
  8
0
 62
     0
  5
AD
 10
1054.327979
 20
592.056921
 30
0.0
 11
1058.455599
 21
596.184541
 31
0.0
  0
LINE
  8
0
 62
     0
  5
AE
 10
1055.211863
 20
592.056921
 30
0.0
 11
1058.455599
 21
595.300658
 31
0.0
  0
LINE
  8
0
 62
     0
  5
AF
 10
1056.095746
 20
592.056921
 30
0.0
 11
1058.455599
 21
594.416774
 31
0.0
  0
LINE
  8
0
 62
     0
  5
B0
 10
1056.97963
 20
592.056921
 30
0.0
 11
1058.455599
 21
593.532891
 31
0.0
  0
LINE
  8
0
 62
     0
  5
B1
 10
1057.863513
 20
592.056921
 30
0.0
 11
1058.455599
 21
592.649007
 31
0.0
  0
ENDBLK
  8
0
  5
B2
  0
BLOCK
  8
0
  5
27E
  2
*D5
 70
    65
 10
0.0
 20
0.0
 30
0.0
  3
*D5
  0
LINE
  8
0
  6
BYBLOCK
 62
     0
  5
27F
 10
17.315173
 20
180.48489
 30
0.0
 11
17.315173
 21
147.230624
 31
0.0
  0
LINE
  8
0
  6
BYBLOCK
 62
     0
  5
280
 10
213.315173
 20
180.48489
 30
0.0
 11
213.315173
 21
147.230624
 31
0.0
  0
LINE
  8
0
  6
BYBLOCK
 62
     0
  5
281
 10
26.315173
 20
156.230624
 30
0.0
 11
204.315173
 21
156.230624
 31
0.0
  0
INSERT
  8
0
  6
BYBLOCK
 62
     0
  5
282
  2
YAZ3
 10
17.315173
 20
156.230624
 30
0.0
 41
9.0
 42
9.0
 50
180.0
 43
9.0
  0
INSERT
  8
0
  6
BYBLOCK
 62
     0
  5
283
  2
YAZ3
 10
213.315173
 20
156.230624
 30
0.0
 41
9.0
 42
9.0
 43
9.0
  0
TEXT
  8
0
  6
CONTINUOUS
 62
     0
  5
284
 10
99.915173
 20
162.830624
 30
0.0
 40
13.2
  1
196
  0
POINT
  8
DEFPOINTS
  6
BYBLOCK
 62
     0
  5
285
 10
17.315173
 20
192.48489
 30
0.0
  0
POINT
  8
DEFPOINTS
  6
BYBLOCK
 62
     0
  5
286
 10
213.315173
 20
192.48489
 30
0.0
  0
POINT
  8
DEFPOINTS
  6
BYBLOCK
 62
     0
  5
287
 10
213.315173
 20
156.230624
 30
0.0
  0
ENDBLK
  8
0
  5
288
  0
BLOCK
  8
0
  5
289
  2
*D6
 70
    65
 10
0.0
 20
0.0
 30
0.0
  3
*D6
  0
LINE
  8
0
  6
BYBLOCK
 62
     0
  5
28A
 10
261.290564
 20
178.48489
 30
0.0
 11
261.290564
 21
147.230624
 31
0.0
  0
LINE
  8
0
  6
BYBLOCK
 62
     0
  5
28B
 10
411.290564
 20
223.313317
 30
0.0
 11
411.290564
 21
147.230624
 31
0.0
  0
LINE
  8
0
  6
BYBLOCK
 62
     0
  5
28C
 10
270.290564
 20
156.230624
 30
0.0
 11
402.290564
 21
156.230624
 31
0.0
  0
INSERT
  8
0
  6
BYBLOCK
 62
     0
  5
28D
  2
YAZ3
 10
261.290564
 20
156.230624
 30
0.0
 41
9.0
 42
9.0
 50
180.0
 43
9.0
  0
INSERT
  8
0
  6
BYBLOCK
 62
     0
  5
28E
  2
YAZ3
 10
411.290564
 20
156.230624
 30
0.0
 41
9.0
 42
9.0
 43
9.0
  0
TEXT
  8
0
  6
CONTINUOUS
 62
     0
  5
28F
 10
320.576279
 20
162.830624
 30
0.0
 40
13.2
  1
150
  0
POINT
  8
DEFPOINTS
  6
BYBLOCK
 62
     0
  5
290
 10
261.290564
 20
190.48489
 30
0.0
  0
POINT
  8
DEFPOINTS
  6
BYBLOCK
 62
     0
  5
291
 10
411.290564
 20
235.313317
 30
0.0
  0
POINT
  8
DEFPOINTS
  6
BYBLOCK
 62
     0
  5
292
 10
411.290564
 20
156.230624
 30
0.0
  0
ENDBLK
  8
0
  5
293
  0
BLOCK
  8
0
  5
294
  2
*D7
 70
    65
 10
0.0
 20
0.0
 30
0.0
  3
*D7
  0
LINE
  8
0
  6
BYBLOCK
 62
     0
  5
295
 10
217.315173
 20
184.48489
 30
0.0
 11
248.355736
 21
184.48489
 31
0.0
  0
LINE
  8
0
  6
BYBLOCK
 62
     0
  5
296
 10
217.315173
 20
474.48489
 30
0.0
 11
248.355736
 21
474.48489
 31
0.0
  0
LINE
  8
0
  6
BYBLOCK
 62
     0
  5
297
 10
239.355736
 20
193.48489
 30
0.0
 11
239.355736
 21
465.48489
 31
0.0
  0
INSERT
  8
0
  6
BYBLOCK
 62
     0
  5
298
  2
YAZ3
 10
239.355736
 20
184.48489
 30
0.0
 41
9.0
 42
9.0
 50
270.0
 43
9.0
  0
INSERT
  8
0
  6
BYBLOCK
 62
     0
  5
299
  2
YAZ3
 10
239.355736
 20
474.48489
 30
0.0
 41
9.0
 42
9.0
 50
90.0
 43
9.0
  0
TEXT
  8
0
  6
CONTINUOUS
 62
     0
  5
29A
 10
232.755736
 20
312.513462
 30
0.0
 40
13.2
  1
290
 50
90.0
  0
POINT
  8
DEFPOINTS
  6
BYBLOCK
 62
     0
  5
29B
 10
205.315173
 20
184.48489
 30
0.0
  0
POINT
  8
DEFPOINTS
  6
BYBLOCK
 62
     0
  5
29C
 10
205.315173
 20
474.48489
 30
0.0
  0
POINT
  8
DEFPOINTS
  6
BYBLOCK
 62
     0
  5
29D
 10
239.355736
 20
474.48489
 30
0.0
  0
ENDBLK
  8
0
  5
29E
  0
BLOCK
  8
0
  5
29F
  2
*D8
 70
    65
 10
0.0
 20
0.0
 30
0.0
  3
*D8
  0
LINE
  8
0
  6
BYBLOCK
 62
     0
  5
2A0
 10
440.310097
 20
124.058171
 30
0.0
 11
427.627612
 21
124.058171
 31
0.0
  0
LINE
  8
0
  6
BYBLOCK
 62
     0
  5
2A1
 10
439.110097
 20
204.058171
 30
0.0
 11
427.627612
 21
204.058171
 31
0.0
  0
LINE
  8
0
  6
BYBLOCK
 62
     0
  5
2A2
 10
436.627612
 20
133.058171
 30
0.0
 11
436.627612
 21
195.058171
 31
0.0
  0
INSERT
  8
0
  6
BYBLOCK
 62
     0
  5
2A3
  2
YAZ3
 10
436.627612
 20
124.058171
 30
0.0
 41
9.0
 42
9.0
 50
270.0
 43
9.0
  0
INSERT
  8
0
  6
BYBLOCK
 62
     0
  5
2A4
  2
YAZ3
 10
436.627612
 20
204.058171
 30
0.0
 41
9.0
 42
9.0
 50
90.0
 43
9.0
  0
TEXT
  8
0
  6
CONTINUOUS
 62
     0
  5
2A5
 10
430.027612
 20
148.343886
 30
0.0
 40
13.2
  1
100
 50
90.0
  0
POINT
  8
DEFPOINTS
  6
BYBLOCK
 62
     0
  5
2A6
 10
452.310097
 20
124.058171
 30
0.0
  0
POINT
  8
DEFPOINTS
  6
BYBLOCK
 62
     0
  5
2A7
 10
451.110097
 20
204.058171
 30
0.0
  0
POINT
  8
DEFPOINTS
  6
BYBLOCK
 62
     0
  5
2A8
 10
436.627612
 20
204.058171
 30
0.0
  0
ENDBLK
  8
0
  5
2A9
  0
BLOCK
  8
0
  5
2AA
  2
*D9
 70
    65
 10
0.0
 20
0.0
 30
0.0
  3
*D9
  0
LINE
  8
0
  6
BYBLOCK
 62
     0
  5
2AB
 10
607.902588
 20
279.609202
 30
0.0
 11
607.902588
 21
144.86776
 31
0.0
  0
LINE
  8
0
  6
BYBLOCK
 62
     0
  5
2AC
 10
711.034236
 20
180.48489
 30
0.0
 11
711.034236
 21
144.86776
 31
0.0
  0
LINE
  8
0
  6
BYBLOCK
 62
     0
  5
2AD
 10
616.902588
 20
153.86776
 30
0.0
 11
702.034236
 21
153.86776
 31
0.0
  0
INSERT
  8
0
  6
BYBLOCK
 62
     0
  5
2AE
  2
YAZ3
 10
607.902588
 20
153.86776
 30
0.0
 41
9.0
 42
9.0
 50
180.0
 43
9.0
  0
INSERT
  8
0
  6
BYBLOCK
 62
     0
  5
2AF
  2
YAZ3
 10
711.034236
 20
153.86776
 30
0.0
 41
9.0
 42
9.0
 43
9.0
  0
TEXT
  8
0
  6
CONTINUOUS
 62
     0
  5
2B0
 10
643.754126
 20
160.46776
 30
0.0
 40
13.2
  1
103
  0
POINT
  8
DEFPOINTS
  6
BYBLOCK
 62
     0
  5
2B1
 10
607.902588
 20
291.609202
 30
0.0
  0
POINT
  8
DEFPOINTS
  6
BYBLOCK
 62
     0
  5
2B2
 10
711.034236
 20
192.48489
 30
0.0
  0
POINT
  8
DEFPOINTS
  6
BYBLOCK
 62
     0
  5
2B3
 10
711.034236
 20
153.86776
 30
0.0
  0
ENDBLK
  8
0
  5
2B4
  0
BLOCK
  8
0
  5
2B5
  2
*D10
 70
    65
 10
0.0
 20
0.0
 30
0.0
  3
*D10
  0
LINE
  8
0
  6
BYBLOCK
 62
     0
  5
2B6
 10
744.154546
 20
143.031473
 30
0.0
 11
729.911866
 21
143.031473
 31
0.0
  0
LINE
  8
0
  6
BYBLOCK
 62
     0
  5
2B7
 10
744.154546
 20
140.531473
 30
0.0
 11
729.911866
 21
140.531473
 31
0.0
  0
LINE
  8
0
  6
BYBLOCK
 62
     0
  5
2B8
 10
738.911866
 20
152.031473
 30
0.0
 11
738.911866
 21
161.031473
 31
0.0
  0
LINE
  8
0
  6
BYBLOCK
 62
     0
  5
2B9
 10
738.911866
 20
131.531473
 30
0.0
 11
738.911866
 21
93.79433
 31
0.0
  0
LINE
  8
0
  6
BYBLOCK
 62
     0
  5
2BA
 10
738.911866
 20
143.031473
 30
0.0
 11
738.911866
 21
140.531473
 31
0.0
  0
INSERT
  8
0
  6
BYBLOCK
 62
     0
  5
2BB
  2
YAZ3
 10
738.911866
 20
143.031473
 30
0.0
 41
9.0
 42
9.0
 50
270.0
 43
9.0
  0
INSERT
  8
0
  6
BYBLOCK
 62
     0
  5
2BC
  2
YAZ3
 10
738.911866
 20
140.531473
 30
0.0
 41
9.0
 42
9.0
 50
90.0
 43
9.0
  0
TEXT
  8
0
  6
CONTINUOUS
 62
     0
  5
2BD
 10
732.311866
 20
94.33433
 30
0.0
 40
13.2
  1
2.3
 50
90.0
  0
POINT
  8
DEFPOINTS
  6
BYBLOCK
 62
     0
  5
2BE
 10
756.154546
 20
143.031473
 30
0.0
  0
POINT
  8
DEFPOINTS
  6
BYBLOCK
 62
     0
  5
2BF
 10
756.154546
 20
140.531473
 30
0.0
  0
POINT
  8
DEFPOINTS
  6
BYBLOCK
 62
     0
  5
2C0
 10
738.911866
 20
140.531473
 30
0.0
  0
ENDBLK
  8
0
  5
2C1
  0
BLOCK
  8
0
  5
2C2
  2
*D11
 70
    65
 10
0.0
 20
0.0
 30
0.0
  3
*D11
  0
LINE
  8
0
  6
BYBLOCK
 62
     0
  5
2C3
 10
715.034236
 20
184.48489
 30
0.0
 11
744.89625
 21
184.48489
 31
0.0
  0
LINE
  8
0
  6
BYBLOCK
 62
     0
  5
2C4
 10
662.902588
 20
376.609202
 30
0.0
 11
744.89625
 21
376.609202
 31
0.0
  0
LINE
  8
0
  6
BYBLOCK
 62
     0
  5
2C5
 10
735.89625
 20
193.48489
 30
0.0
 11
735.89625
 21
367.609202
 31
0.0
  0
INSERT
  8
0
  6
BYBLOCK
 62
     0
  5
2C6
  2
YAZ3
 10
735.89625
 20
184.48489
 30
0.0
 41
9.0
 42
9.0
 50
270.0
 43
9.0
  0
INSERT
  8
0
  6
BYBLOCK
 62
     0
  5
2C7
  2
YAZ3
 10
735.89625
 20
376.609202
 30
0.0
 41
9.0
 42
9.0
 50
90.0
 43
9.0
  0
TEXT
  8
0
  6
CONTINUOUS
 62
     0
  5
2C8
 10
729.29625
 20
264.83276
 30
0.0
 40
13.2
  1
192
 50
90.0
  0
POINT
  8
DEFPOINTS
  6
BYBLOCK
 62
     0
  5
2C9
 10
703.034236
 20
184.48489
 30
0.0
  0
POINT
  8
DEFPOINTS
  6
BYBLOCK
 62
     0
  5
2CA
 10
650.902588
 20
376.609202
 30
0.0
  0
POINT
  8
DEFPOINTS
  6
BYBLOCK
 62
     0
  5
2CB
 10
735.89625
 20
376.609202
 30
0.0
  0
ENDBLK
  8
0
  5
2CC
  0
BLOCK
  8
0
  5
2CD
  2
*D12
 70
    65
 10
0.0
 20
0.0
 30
0.0
  3
*D12
  0
LINE
  8
0
  6
BYBLOCK
 62
     0
  5
2CE
 10
587.902588
 20
409.609202
 30
0.0
 11
587.902588
 21
491.961433
 31
0.0
  0
LINE
  8
0
  6
BYBLOCK
 62
     0
  5
2CF
 10
637.902588
 20
409.609202
 30
0.0
 11
637.902588
 21
491.961433
 31
0.0
  0
LINE
  8
0
  6
BYBLOCK
 62
     0
  5
2D0
 10
596.902588
 20
482.961433
 30
0.0
 11
628.902588
 21
482.961433
 31
0.0
  0
INSERT
  8
0
  6
BYBLOCK
 62
     0
  5
2D1
  2
YAZ3
 10
587.902588
 20
482.961433
 30
0.0
 41
9.0
 42
9.0
 50
180.0
 43
9.0
  0
INSERT
  8
0
  6
BYBLOCK
 62
     0
  5
2D2
  2
YAZ3
 10
637.902588
 20
482.961433
 30
0.0
 41
9.0
 42
9.0
 43
9.0
  0
TEXT
  8
0
  6
CONTINUOUS
 62
     0
  5
2D3
 10
602.216874
 20
489.561433
 30
0.0
 40
13.2
  1
50
  0
POINT
  8
DEFPOINTS
  6
BYBLOCK
 62
     0
  5
2D4
 10
587.902588
 20
397.609202
 30
0.0
  0
POINT
  8
DEFPOINTS
  6
BYBLOCK
 62
     0
  5
2D5
 10
637.902588
 20
397.609202
 30
0.0
  0
POINT
  8
DEFPOINTS
  6
BYBLOCK
 62
     0
  5
2D6
 10
637.902588
 20
482.961433
 30
0.0
  0
ENDBLK
  8
0
  5
2D7
  0
BLOCK
  8
0
  5
2D8
  2
*D13
 70
    65
 10
0.0
 20
0.0
 30
0.0
  3
*D13
  0
LINE
  8
0
  6
BYBLOCK
 62
     0
  5
2D9
 10
582.902588
 20
418.659202
 30
0.0
 11
582.902588
 21
516.434392
 31
0.0
  0
LINE
  8
0
  6
BYBLOCK
 62
     0
  5
2DA
 10
642.902588
 20
418.659202
 30
0.0
 11
642.902588
 21
516.434392
 31
0.0
  0
LINE
  8
0
  6
BYBLOCK
 62
     0
  5
2DB
 10
591.902588
 20
507.434392
 30
0.0
 11
633.902588
 21
507.434392
 31
0.0
  0
INSERT
  8
0
  6
BYBLOCK
 62
     0
  5
2DC
  2
YAZ3
 10
582.902588
 20
507.434392
 30
0.0
 41
9.0
 42
9.0
 50
180.0
 43
9.0
  0
INSERT
  8
0
  6
BYBLOCK
 62
     0
  5
2DD
  2
YAZ3
 10
642.902588
 20
507.434392
 30
0.0
 41
9.0
 42
9.0
 43
9.0
  0
TEXT
  8
0
  6
CONTINUOUS
 62
     0
  5
2DE
 10
602.216874
 20
514.034392
 30
0.0
 40
13.2
  1
60
  0
POINT
  8
DEFPOINTS
  6
BYBLOCK
 62
     0
  5
2DF
 10
582.902588
 20
406.659202
 30
0.0
  0
POINT
  8
DEFPOINTS
  6
BYBLOCK
 62
     0
  5
2E0
 10
642.902588
 20
406.659202
 30
0.0
  0
POINT
  8
DEFPOINTS
  6
BYBLOCK
 62
     0
  5
2E1
 10
642.902588
 20
507.434392
 30
0.0
  0
ENDBLK
  8
0
  5
2E2
  0
BLOCK
  8
0
  5
2E3
  2
*D14
 70
    65
 10
0.0
 20
0.0
 30
0.0
  3
*D14
  0
LINE
  8
0
  6
BYBLOCK
 62
     0
  5
2E4
 10
573.902588
 20
304.609202
 30
0.0
 11
501.489209
 21
304.609202
 31
0.0
  0
LINE
  8
0
  6
BYBLOCK
 62
     0
  5
2E5
 10
573.902588
 20
354.609202
 30
0.0
 11
501.489209
 21
354.609202
 31
0.0
  0
LINE
  8
0
  6
BYBLOCK
 62
     0
  5
2E6
 10
510.489209
 20
313.609202
 30
0.0
 11
510.489209
 21
345.609202
 31
0.0
  0
INSERT
  8
0
  6
BYBLOCK
 62
     0
  5
2E7
  2
YAZ3
 10
510.489209
 20
304.609202
 30
0.0
 41
9.0
 42
9.0
 50
270.0
 43
9.0
  0
INSERT
  8
0
  6
BYBLOCK
 62
     0
  5
2E8
  2
YAZ3
 10
510.489209
 20
354.609202
 30
0.0
 41
9.0
 42
9.0
 50
90.0
 43
9.0
  0
TEXT
  8
0
  6
CONTINUOUS
 62
     0
  5
2E9
 10
503.889209
 20
318.923488
 30
0.0
 40
13.2
  1
50
 50
90.0
  0
POINT
  8
DEFPOINTS
  6
BYBLOCK
 62
     0
  5
2EA
 10
585.902588
 20
304.609202
 30
0.0
  0
POINT
  8
DEFPOINTS
  6
BYBLOCK
 62
     0
  5
2EB
 10
585.902588
 20
354.609202
 30
0.0
  0
POINT
  8
DEFPOINTS
  6
BYBLOCK
 62
     0
  5
2EC
 10
510.489209
 20
354.609202
 30
0.0
  0
ENDBLK
  8
0
  5
2ED
  0
BLOCK
  8
0
  5
2EE
  2
*D15
 70
    65
 10
0.0
 20
0.0
 30
0.0
  3
*D15
  0
LINE
  8
0
  6
BYBLOCK
 62
     0
  5
2EF
 10
563.852588
 20
299.609202
 30
0.0
 11
477.318039
 21
299.609202
 31
0.0
  0
LINE
  8
0
  6
BYBLOCK
 62
     0
  5
2F0
 10
563.852588
 20
359.609202
 30
0.0
 11
477.318039
 21
359.609202
 31
0.0
  0
LINE
  8
0
  6
BYBLOCK
 62
     0
  5
2F1
 10
486.318039
 20
308.609202
 30
0.0
 11
486.318039
 21
350.609202
 31
0.0
  0
INSERT
  8
0
  6
BYBLOCK
 62
     0
  5
2F2
  2
YAZ3
 10
486.318039
 20
299.609202
 30
0.0
 41
9.0
 42
9.0
 50
270.0
 43
9.0
  0
INSERT
  8
0
  6
BYBLOCK
 62
     0
  5
2F3
  2
YAZ3
 10
486.318039
 20
359.609202
 30
0.0
 41
9.0
 42
9.0
 50
90.0
 43
9.0
  0
TEXT
  8
0
  6
CONTINUOUS
 62
     0
  5
2F4
 10
479.718039
 20
318.923488
 30
0.0
 40
13.2
  1
60
 50
90.0
  0
POINT
  8
DEFPOINTS
  6
BYBLOCK
 62
     0
  5
2F5
 10
575.852588
 20
299.609202
 30
0.0
  0
POINT
  8
DEFPOINTS
  6
BYBLOCK
 62
     0
  5
2F6
 10
575.852588
 20
359.609202
 30
0.0
  0
POINT
  8
DEFPOINTS
  6
BYBLOCK
 62
     0
  5
2F7
 10
486.318039
 20
359.609202
 30
0.0
  0
ENDBLK
  8
0
  5
2F8
  0
BLOCK
  8
0
  5
2F9
  2
*D16
 70
    65
 10
0.0
 20
0.0
 30
0.0
  3
*D16
  0
LINE
  8
0
  6
BYBLOCK
 62
     0
  5
2FA
 10
984.419781
 20
234.031473
 30
0.0
 11
1014.316954
 21
234.031473
 31
0.0
  0
LINE
  8
0
  6
BYBLOCK
 62
     0
  5
2FB
 10
984.419781
 20
284.031473
 30
0.0
 11
1014.316954
 21
284.031473
 31
0.0
  0
LINE
  8
0
  6
BYBLOCK
 62
     0
  5
2FC
 10
1005.316954
 20
243.031473
 30
0.0
 11
1005.316954
 21
275.031473
 31
0.0
  0
INSERT
  8
0
  6
BYBLOCK
 62
     0
  5
2FD
  2
YAZ3
 10
1005.316954
 20
234.031473
 30
0.0
 41
9.0
 42
9.0
 50
270.0
 43
9.0
  0
INSERT
  8
0
  6
BYBLOCK
 62
     0
  5
2FE
  2
YAZ3
 10
1005.316954
 20
284.031473
 30
0.0
 41
9.0
 42
9.0
 50
90.0
 43
9.0
  0
TEXT
  8
0
  6
CONTINUOUS
 62
     0
  5
2FF
 10
998.716954
 20
248.345759
 30
0.0
 40
13.2
  1
50
 50
90.0
  0
POINT
  8
DEFPOINTS
  6
BYBLOCK
 62
     0
  5
300
 10
972.419781
 20
234.031473
 30
0.0
  0
POINT
  8
DEFPOINTS
  6
BYBLOCK
 62
     0
  5
301
 10
972.419781
 20
284.031473
 30
0.0
  0
POINT
  8
DEFPOINTS
  6
BYBLOCK
 62
     0
  5
302
 10
1005.316954
 20
284.031473
 30
0.0
  0
ENDBLK
  8
0
  5
303
  0
BLOCK
  8
0
  5
304
  2
*D17
 70
    65
 10
0.0
 20
0.0
 30
0.0
  3
*D17
  0
LINE
  8
0
  6
BYBLOCK
 62
     0
  5
305
 10
984.417695
 20
309.031473
 30
0.0
 11
1040.619274
 21
309.031473
 31
0.0
  0
LINE
  8
0
  6
BYBLOCK
 62
     0
  5
306
 10
984.419781
 20
209.031473
 30
0.0
 11
1040.619274
 21
209.031473
 31
0.0
  0
LINE
  8
0
  6
BYBLOCK
 62
     0
  5
307
 10
1031.619274
 20
300.031473
 30
0.0
 11
1031.619274
 21
218.031473
 31
0.0
  0
INSERT
  8
0
  6
BYBLOCK
 62
     0
  5
308
  2
YAZ3
 10
1031.619274
 20
309.031473
 30
0.0
 41
9.0
 42
9.0
 50
90.0
 43
9.0
  0
INSERT
  8
0
  6
BYBLOCK
 62
     0
  5
309
  2
YAZ3
 10
1031.619274
 20
209.031473
 30
0.0
 41
9.0
 42
9.0
 50
270.0
 43
9.0
  0
TEXT
  8
0
  6
CONTINUOUS
 62
     0
  5
30A
 10
1025.019274
 20
243.317187
 30
0.0
 40
13.2
  1
100
 50
90.0
  0
POINT
  8
DEFPOINTS
  6
BYBLOCK
 62
     0
  5
30B
 10
972.417695
 20
309.031473
 30
0.0
  0
POINT
  8
DEFPOINTS
  6
BYBLOCK
 62
     0
  5
30C
 10
972.419781
 20
209.031473
 30
0.0
  0
POINT
  8
DEFPOINTS
  6
BYBLOCK
 62
     0
  5
30D
 10
1031.619274
 20
209.031473
 30
0.0
  0
ENDBLK
  8
0
  5
30E
  0
BLOCK
  8
0
  5
30F
  2
*D18
 70
    65
 10
0.0
 20
0.0
 30
0.0
  3
*D18
  0
LINE
  8
0
  6
BYBLOCK
 62
     0
  5
310
 10
992.419781
 20
390.031473
 30
0.0
 11
1066.376393
 21
390.031473
 31
0.0
  0
LINE
  8
0
  6
BYBLOCK
 62
     0
  5
311
 10
992.419781
 20
128.031473
 30
0.0
 11
1066.376393
 21
128.031473
 31
0.0
  0
LINE
  8
0
  6
BYBLOCK
 62
     0
  5
312
 10
1057.376393
 20
381.031473
 30
0.0
 11
1057.376393
 21
137.031473
 31
0.0
  0
INSERT
  8
0
  6
BYBLOCK
 62
     0
  5
313
  2
YAZ3
 10
1057.376393
 20
390.031473
 30
0.0
 41
9.0
 42
9.0
 50
90.0
 43
9.0
  0
INSERT
  8
0
  6
BYBLOCK
 62
     0
  5
314
  2
YAZ3
 10
1057.376393
 20
128.031473
 30
0.0
 41
9.0
 42
9.0
 50
270.0
 43
9.0
  0
TEXT
  8
0
  6
CONTINUOUS
 62
     0
  5
315
 10
1050.776393
 20
242.060044
 30
0.0
 40
13.2
  1
262
 50
90.0
  0
POINT
  8
DEFPOINTS
  6
BYBLOCK
 62
     0
  5
316
 10
980.419781
 20
390.031473
 30
0.0
  0
POINT
  8
DEFPOINTS
  6
BYBLOCK
 62
     0
  5
317
 10
980.419781
 20
128.031473
 30
0.0
  0
POINT
  8
DEFPOINTS
  6
BYBLOCK
 62
     0
  5
318
 10
1057.376393
 20
128.031473
 30
0.0
  0
ENDBLK
  8
0
  5
319
  0
BLOCK
  8
0
  5
31A
  2
*D19
 70
    65
 10
0.0
 20
0.0
 30
0.0
  3
*D19
  0
LINE
  8
0
  6
BYBLOCK
 62
     0
  5
31B
 10
893.654546
 20
477.294245
 30
0.0
 11
893.654546
 21
456.633988
 31
0.0
  0
LINE
  8
0
  6
BYBLOCK
 62
     0
  5
31C
 10
825.654546
 20
485.294245
 30
0.0
 11
825.654546
 21
456.633988
 31
0.0
  0
LINE
  8
0
  6
BYBLOCK
 62
     0
  5
31D
 10
884.654546
 20
465.633988
 30
0.0
 11
834.654546
 21
465.633988
 31
0.0
  0
INSERT
  8
0
  6
BYBLOCK
 62
     0
  5
31E
  2
YAZ3
 10
893.654546
 20
465.633988
 30
0.0
 41
9.0
 42
9.0
 43
9.0
  0
INSERT
  8
0
  6
BYBLOCK
 62
     0
  5
31F
  2
YAZ3
 10
825.654546
 20
465.633988
 30
0.0
 41
9.0
 42
9.0
 50
180.0
 43
9.0
  0
TEXT
  8
0
  6
CONTINUOUS
 62
     0
  5
320
 10
848.968831
 20
472.233988
 30
0.0
 40
13.2
  1
68
  0
POINT
  8
DEFPOINTS
  6
BYBLOCK
 62
     0
  5
321
 10
893.654546
 20
489.294245
 30
0.0
  0
POINT
  8
DEFPOINTS
  6
BYBLOCK
 62
     0
  5
322
 10
825.654546
 20
497.294245
 30
0.0
  0
POINT
  8
DEFPOINTS
  6
BYBLOCK
 62
     0
  5
323
 10
825.654546
 20
465.633988
 30
0.0
  0
ENDBLK
  8
0
  5
324
  0
BLOCK
  8
0
  5
348
  2
*D20
 70
    65
 10
0.0
 20
0.0
 30
0.0
  3
*D20
  0
LINE
  8
0
  6
BYBLOCK
 62
     0
  5
349
 10
850.654546
 20
523.294245
 30
0.0
 11
850.654546
 21
540.576131
 31
0.0
  0
LINE
  8
0
  6
BYBLOCK
 62
     0
  5
34A
 10
825.654546
 20
523.548207
 30
0.0
 11
825.654546
 21
540.576131
 31
0.0
  0
LINE
  8
0
  6
BYBLOCK
 62
     0
  5
34B
 10
859.654546
 20
531.576131
 30
0.0
 11
868.654546
 21
531.576131
 31
0.0
  0
LINE
  8
0
  6
BYBLOCK
 62
     0
  5
34C
 10
816.654546
 20
531.576131
 30
0.0
 11
807.654546
 21
531.576131
 31
0.0
  0
LINE
  8
0
  6
BYBLOCK
 62
     0
  5
34D
 10
850.654546
 20
531.576131
 30
0.0
 11
825.654546
 21
531.576131
 31
0.0
  0
INSERT
  8
0
  6
BYBLOCK
 62
     0
  5
34E
  2
YAZ3
 10
850.654546
 20
531.576131
 30
0.0
 41
9.0
 42
9.0
 50
180.0
 43
9.0
  0
INSERT
  8
0
  6
BYBLOCK
 62
     0
  5
34F
  2
YAZ3
 10
825.654546
 20
531.576131
 30
0.0
 41
9.0
 42
9.0
 43
9.0
  0
TEXT
  8
0
  6
CONTINUOUS
 62
     0
  5
350
 10
827.468831
 20
538.176131
 30
0.0
 40
13.2
  1
25
  0
POINT
  8
DEFPOINTS
  6
BYBLOCK
 62
     0
  5
351
 10
850.654546
 20
511.294245
 30
0.0
  0
POINT
  8
DEFPOINTS
  6
BYBLOCK
 62
     0
  5
352
 10
825.654546
 20
511.548207
 30
0.0
  0
POINT
  8
DEFPOINTS
  6
BYBLOCK
 62
     0
  5
353
 10
825.654546
 20
531.576131
 30
0.0
  0
ENDBLK
  8
0
  5
354
  0
BLOCK
  8
0
  5
355
  2
*D21
 70
    65
 10
0.0
 20
0.0
 30
0.0
  3
*D21
  0
LINE
  8
0
  6
BYBLOCK
 62
     0
  5
356
 10
850.654546
 20
523.294245
 30
0.0
 11
850.654546
 21
567.206612
 31
0.0
  0
LINE
  8
0
  6
BYBLOCK
 62
     0
  5
357
 10
800.654546
 20
523.294245
 30
0.0
 11
800.654546
 21
567.206612
 31
0.0
  0
LINE
  8
0
  6
BYBLOCK
 62
     0
  5
358
 10
841.654546
 20
558.206612
 30
0.0
 11
809.654546
 21
558.206612
 31
0.0
  0
INSERT
  8
0
  6
BYBLOCK
 62
     0
  5
359
  2
YAZ3
 10
850.654546
 20
558.206612
 30
0.0
 41
9.0
 42
9.0
 43
9.0
  0
INSERT
  8
0
  6
BYBLOCK
 62
     0
  5
35A
  2
YAZ3
 10
800.654546
 20
558.206612
 30
0.0
 41
9.0
 42
9.0
 50
180.0
 43
9.0
  0
TEXT
  8
0
  6
CONTINUOUS
 62
     0
  5
35B
 10
814.968831
 20
564.806612
 30
0.0
 40
13.2
  1
50
  0
POINT
  8
DEFPOINTS
  6
BYBLOCK
 62
     0
  5
35C
 10
850.654546
 20
511.294245
 30
0.0
  0
POINT
  8
DEFPOINTS
  6
BYBLOCK
 62
     0
  5
35D
 10
800.654546
 20
511.294245
 30
0.0
  0
POINT
  8
DEFPOINTS
  6
BYBLOCK
 62
     0
  5
35E
 10
800.654546
 20
558.206612
 30
0.0
  0
ENDBLK
  8
0
  5
35F
  0
BLOCK
  8
0
  5
360
  2
*D22
 70
    65
 10
0.0
 20
0.0
 30
0.0
  3
*D22
  0
LINE
  8
0
  6
BYBLOCK
 62
     0
  5
361
 10
517.228688
 20
594.130365
 30
0.0
 11
559.742169
 21
594.130365
 31
0.0
  0
LINE
  8
0
  6
BYBLOCK
 62
     0
  5
362
 10
539.895354
 20
562.130365
 30
0.0
 11
559.742169
 21
562.130365
 31
0.0
  0
LINE
  8
0
  6
BYBLOCK
 62
     0
  5
363
 10
550.742169
 20
603.130365
 30
0.0
 11
550.742169
 21
612.130365
 31
0.0
  0
LINE
  8
0
  6
BYBLOCK
 62
     0
  5
364
 10
550.742169
 20
553.130365
 30
0.0
 11
550.742169
 21
544.130365
 31
0.0
  0
LINE
  8
0
  6
BYBLOCK
 62
     0
  5
365
 10
550.742169
 20
594.130365
 30
0.0
 11
550.742169
 21
562.130365
 31
0.0
  0
INSERT
  8
0
  6
BYBLOCK
 62
     0
  5
366
  2
YAZ3
 10
550.742169
 20
594.130365
 30
0.0
 41
9.0
 42
9.0
 50
270.0
 43
9.0
  0
INSERT
  8
0
  6
BYBLOCK
 62
     0
  5
367
  2
YAZ3
 10
550.742169
 20
562.130365
 30
0.0
 41
9.0
 42
9.0
 50
90.0
 43
9.0
  0
TEXT
  8
0
  6
CONTINUOUS
 62
     0
  5
368
 10
544.142169
 20
569.016079
 30
0.0
 40
13.2
  1
16
 50
90.0
  0
POINT
  8
DEFPOINTS
  6
BYBLOCK
 62
     0
  5
369
 10
505.228688
 20
594.130365
 30
0.0
  0
POINT
  8
DEFPOINTS
  6
BYBLOCK
 62
     0
  5
36A
 10
527.895354
 20
562.130365
 30
0.0
  0
POINT
  8
DEFPOINTS
  6
BYBLOCK
 62
     0
  5
36B
 10
550.742169
 20
562.130365
 30
0.0
  0
ENDBLK
  8
0
  5
36C
  0
BLOCK
  8
0
  5
36D
  2
*D23
 70
    65
 10
0.0
 20
0.0
 30
0.0
  3
*D23
  0
LINE
  8
0
  6
BYBLOCK
 62
     0
  5
36E
 10
511.228688
 20
600.130365
 30
0.0
 11
511.228688
 21
618.560547
 31
0.0
  0
LINE
  8
0
  6
BYBLOCK
 62
     0
  5
36F
 10
499.228688
 20
600.130365
 30
0.0
 11
499.228688
 21
618.560547
 31
0.0
  0
LINE
  8
0
  6
BYBLOCK
 62
     0
  5
370
 10
520.228688
 20
609.560547
 30
0.0
 11
529.228688
 21
609.560547
 31
0.0
  0
LINE
  8
0
  6
BYBLOCK
 62
     0
  5
371
 10
490.228688
 20
609.560547
 30
0.0
 11
481.228688
 21
609.560547
 31
0.0
  0
LINE
  8
0
  6
BYBLOCK
 62
     0
  5
372
 10
511.228688
 20
609.560547
 30
0.0
 11
499.228688
 21
609.560547
 31
0.0
  0
INSERT
  8
0
  6
BYBLOCK
 62
     0
  5
373
  2
YAZ3
 10
511.228688
 20
609.560547
 30
0.0
 41
9.0
 42
9.0
 50
180.0
 43
9.0
  0
INSERT
  8
0
  6
BYBLOCK
 62
     0
  5
374
  2
YAZ3
 10
499.228688
 20
609.560547
 30
0.0
 41
9.0
 42
9.0
 43
9.0
  0
TEXT
  8
0
  6
CONTINUOUS
 62
     0
  5
375
 10
501.142973
 20
616.160547
 30
0.0
 40
13.2
  1
6
  0
POINT
  8
DEFPOINTS
  6
BYBLOCK
 62
     0
  5
376
 10
511.228688
 20
588.130365
 30
0.0
  0
POINT
  8
DEFPOINTS
  6
BYBLOCK
 62
     0
  5
377
 10
499.228688
 20
588.130365
 30
0.0
  0
POINT
  8
DEFPOINTS
  6
BYBLOCK
 62
     0
  5
378
 10
499.228688
 20
609.560547
 30
0.0
  0
ENDBLK
  8
0
  5
379
  0
BLOCK
  8
0
  5
37A
  2
*D24
 70
    65
 10
0.0
 20
0.0
 30
0.0
  3
*D24
  0
LINE
  8
0
  6
BYBLOCK
 62
     0
  5
37B
 10
258.167596
 20
598.016281
 30
0.0
 11
258.167596
 21
544.235537
 31
0.0
  0
LINE
  8
0
  6
BYBLOCK
 62
     0
  5
37C
 10
410.167596
 20
661.216281
 30
0.0
 11
410.167596
 21
544.235537
 31
0.0
  0
LINE
  8
0
  6
BYBLOCK
 62
     0
  5
37D
 10
267.167596
 20
553.235537
 30
0.0
 11
401.167596
 21
553.235537
 31
0.0
  0
INSERT
  8
0
  6
BYBLOCK
 62
     0
  5
37E
  2
YAZ3
 10
258.167596
 20
553.235537
 30
0.0
 41
9.0
 42
9.0
 50
180.0
 43
9.0
  0
INSERT
  8
0
  6
BYBLOCK
 62
     0
  5
37F
  2
YAZ3
 10
410.167596
 20
553.235537
 30
0.0
 41
9.0
 42
9.0
 43
9.0
  0
TEXT
  8
0
  6
CONTINUOUS
 62
     0
  5
380
 10
318.45331
 20
559.835537
 30
0.0
 40
13.2
  1
190
  0
POINT
  8
DEFPOINTS
  6
BYBLOCK
 62
     0
  5
381
 10
258.167596
 20
610.016281
 30
0.0
  0
POINT
  8
DEFPOINTS
  6
BYBLOCK
 62
     0
  5
382
 10
410.167596
 20
673.216281
 30
0.0
  0
POINT
  8
DEFPOINTS
  6
BYBLOCK
 62
     0
  5
383
 10
410.167596
 20
553.235537
 30
0.0
  0
ENDBLK
  8
0
  5
384
  0
BLOCK
  8
0
  5
385
  2
*D25
 70
    65
 10
0.0
 20
0.0
 30
0.0
  3
*D25
  0
LINE
  8
0
  6
BYBLOCK
 62
     0
  5
386
 10
378.167596
 20
633.879022
 30
0.0
 11
378.167596
 21
570.282582
 31
0.0
  0
LINE
  8
0
  6
BYBLOCK
 62
     0
  5
387
 10
410.167596
 20
661.216281
 30
0.0
 11
410.167596
 21
570.282582
 31
0.0
  0
LINE
  8
0
  6
BYBLOCK
 62
     0
  5
388
 10
369.167596
 20
579.282582
 30
0.0
 11
360.167596
 21
579.282582
 31
0.0
  0
LINE
  8
0
  6
BYBLOCK
 62
     0
  5
389
 10
419.167596
 20
579.282582
 30
0.0
 11
428.167596
 21
579.282582
 31
0.0
  0
LINE
  8
0
  6
BYBLOCK
 62
     0
  5
38A
 10
378.167596
 20
579.282582
 30
0.0
 11
410.167596
 21
579.282582
 31
0.0
  0
INSERT
  8
0
  6
BYBLOCK
 62
     0
  5
38B
  2
YAZ3
 10
378.167596
 20
579.282582
 30
0.0
 41
9.0
 42
9.0
 43
9.0
  0
INSERT
  8
0
  6
BYBLOCK
 62
     0
  5
38C
  2
YAZ3
 10
410.167596
 20
579.282582
 30
0.0
 41
9.0
 42
9.0
 50
180.0
 43
9.0
  0
TEXT
  8
0
  6
CONTINUOUS
 62
     0
  5
38D
 10
383.481881
 20
585.882582
 30
0.0
 40
13.2
  1
40
  0
POINT
  8
DEFPOINTS
  6
BYBLOCK
 62
     0
  5
38E
 10
378.167596
 20
645.879022
 30
0.0
  0
POINT
  8
DEFPOINTS
  6
BYBLOCK
 62
     0
  5
38F
 10
410.167596
 20
673.216281
 30
0.0
  0
POINT
  8
DEFPOINTS
  6
BYBLOCK
 62
     0
  5
390
 10
410.167596
 20
579.282582
 30
0.0
  0
ENDBLK
  8
0
  5
391
  0
BLOCK
  8
0
  5
392
  2
*D26
 70
    65
 10
0.0
 20
0.0
 30
0.0
  3
*D26
  0
LINE
  8
0
  6
BYBLOCK
 62
     0
  5
393
 10
901.27537
 20
340.488593
 30
0.0
 11
915.151047
 21
345.538926
 31
0.0
  0
LINE
  8
0
  6
BYBLOCK
 62
     0
  5
394
 10
892.724867
 20
363.980909
 30
0.0
 11
906.600544
 21
369.031242
 31
0.0
  0
LINE
  8
0
  6
BYBLOCK
 62
     0
  5
395
 10
909.771995
 20
334.003512
 30
0.0
 11
912.850176
 21
325.546278
 31
0.0
  0
LINE
  8
0
  6
BYBLOCK
 62
     0
  5
396
 10
895.065129
 20
374.410294
 30
0.0
 11
891.986947
 21
382.867528
 31
0.0
  0
LINE
  8
0
  6
BYBLOCK
 62
     0
  5
397
 10
906.693814
 20
342.460745
 30
0.0
 11
898.14331
 21
365.953061
 31
0.0
  0
INSERT
  8
0
  6
BYBLOCK
 62
     0
  5
398
  2
YAZ3
 10
906.693814
 20
342.460745
 30
0.0
 41
9.0
 42
9.0
 50
110.0
 43
9.0
  0
INSERT
  8
0
  6
BYBLOCK
 62
     0
  5
399
  2
YAZ3
 10
898.14331
 20
365.953061
 30
0.0
 41
9.0
 42
9.0
 50
290.0
 43
9.0
  0
TEXT
  8
0
  6
CONTINUOUS
 62
     0
  5
39A
 10
904.965804
 20
366.505523
 30
0.0
 40
13.2
  1
25
 50
290.0
  0
POINT
  8
DEFPOINTS
  6
BYBLOCK
 62
     0
  5
39B
 10
889.999059
 20
336.384351
 30
0.0
  0
POINT
  8
DEFPOINTS
  6
BYBLOCK
 62
     0
  5
39C
 10
881.448555
 20
359.876667
 30
0.0
  0
POINT
  8
DEFPOINTS
  6
BYBLOCK
 62
     0
  5
39D
 10
898.14331
 20
365.953061
 30
0.0
  0
ENDBLK
  8
0
  5
39E
  0
BLOCK
  8
0
  5
39F
  2
*D27
 70
    65
 10
0.0
 20
0.0
 30
0.0
  3
*D27
  0
LINE
  8
0
  6
BYBLOCK
 62
     0
  5
3A0
 10
901.27537
 20
340.488593
 30
0.0
 11
939.291867
 21
354.325466
 31
0.0
  0
LINE
  8
0
  6
BYBLOCK
 62
     0
  5
3A1
 10
884.174363
 20
387.473224
 30
0.0
 11
922.190859
 21
401.310097
 31
0.0
  0
LINE
  8
0
  6
BYBLOCK
 62
     0
  5
3A2
 10
927.756452
 20
359.704518
 30
0.0
 11
916.811807
 21
389.774682
 31
0.0
  0
INSERT
  8
0
  6
BYBLOCK
 62
     0
  5
3A3
  2
YAZ3
 10
930.834633
 20
351.247285
 30
0.0
 41
9.0
 42
9.0
 50
290.0
 43
9.0
  0
INSERT
  8
0
  6
BYBLOCK
 62
     0
  5
3A4
  2
YAZ3
 10
913.733626
 20
398.231916
 30
0.0
 41
9.0
 42
9.0
 50
110.0
 43
9.0
  0
TEXT
  8
0
  6
CONTINUOUS
 62
     0
  5
3A5
 10
924.831371
 20
387.03822
 30
0.0
 40
13.2
  1
50
 50
290.0
  0
POINT
  8
DEFPOINTS
  6
BYBLOCK
 62
     0
  5
3A6
 10
889.999059
 20
336.384351
 30
0.0
  0
POINT
  8
DEFPOINTS
  6
BYBLOCK
 62
     0
  5
3A7
 10
872.898052
 20
383.368982
 30
0.0
  0
POINT
  8
DEFPOINTS
  6
BYBLOCK
 62
     0
  5
3A8
 10
913.733626
 20
398.231916
 30
0.0
  0
ENDBLK
  8
0
  5
3A9
  0
BLOCK
  8
0
  5
3AA
  2
*D28
 70
    65
 10
0.0
 20
0.0
 30
0.0
  3
*D28
  0
ARC
  8
0
  6
BYBLOCK
 62
     0
  5
3AB
 10
891.154546
 20
318.590656
 30
0.0
 40
50.52623
 50
120.219369
 51
259.780631
  0
INSERT
  8
0
  6
BYBLOCK
 62
     0
  5
3AC
  2
YAZ3
 10
873.873557
 20
366.069781
 30
0.0
 41
9.0
 42
9.0
 50
25.109684
 43
9.0
  0
INSERT
  8
0
  6
BYBLOCK
 62
     0
  5
3AD
  2
YAZ3
 10
891.154546
 20
268.064426
 30
0.0
 41
9.0
 42
9.0
 50
354.890316
 43
9.0
  0
TEXT
  8
0
  6
CONTINUOUS
 62
     0
  5
3AE
 10
844.730295
 20
328.914584
 30
0.0
 40
13.2
  1
160%%d
 50
280.0
  0
POINT
  8
DEFPOINTS
  6
BYBLOCK
 62
     0
  5
3AF
 10
842.750947
 20
333.081742
 30
0.0
  0
POINT
  8
DEFPOINTS
  6
BYBLOCK
 62
     0
  5
3B0
 10
891.154546
 20
318.590656
 30
0.0
  0
POINT
  8
DEFPOINTS
  6
BYBLOCK
 62
     0
  5
3B1
 10
891.154546
 20
199.47229
 30
0.0
  0
POINT
  8
DEFPOINTS
  6
BYBLOCK
 62
     0
  5
3B2
 10
891.154546
 20
318.590656
 30
0.0
  0
POINT
  8
DEFPOINTS
  6
BYBLOCK
 62
     0
  5
3B3
 10
866.06214
 20
387.531473
 30
0.0
  0
ENDBLK
  8
0
  5
3B4
  0
BLOCK
  8
0
  5
D52
  2
*D29
 70
    65
 10
0.0
 20
0.0
 30
0.0
  3
*D29
  0
LINE
  8
0
  6
BYBLOCK
 62
     0
  5
D53
 10
893.654546
 20
469.90721
 30
0.0
 11
893.654546
 21
394.717872
 31
0.0
  0
LINE
  8
0
  6
BYBLOCK
 62
     0
  5
D54
 10
752.654546
 20
484.90721
 30
0.0
 11
752.654546
 21
394.717872
 31
0.0
  0
LINE
  8
0
  6
BYBLOCK
 62
     0
  5
D55
 10
884.654546
 20
403.717872
 30
0.0
 11
761.654546
 21
403.717872
 31
0.0
  0
INSERT
  8
0
  6
BYBLOCK
 62
     0
  5
D56
  2
YAZ3
 10
893.654546
 20
403.717872
 30
0.0
 41
9.0
 42
9.0
 43
9.0
  0
INSERT
  8
0
  6
BYBLOCK
 62
     0
  5
D57
  2
YAZ3
 10
752.654546
 20
403.717872
 30
0.0
 41
9.0
 42
9.0
 50
180.0
 43
9.0
  0
TEXT
  8
0
  6
CONTINUOUS
 62
     0
  5
D58
 10
810.268831
 20
410.317872
 30
0.0
 40
13.2
  1
141
  0
POINT
  8
DEFPOINTS
  6
BYBLOCK
 62
     0
  5
D59
 10
893.654546
 20
481.90721
 30
0.0
  0
POINT
  8
DEFPOINTS
  6
BYBLOCK
 62
     0
  5
D5A
 10
752.654546
 20
496.90721
 30
0.0
  0
POINT
  8
DEFPOINTS
  6
BYBLOCK
 62
     0
  5
D5B
 10
752.654546
 20
403.717872
 30
0.0
  0
ENDBLK
  8
0
  5
D5C
  0
BLOCK
  8
0
  5
D47
  2
*D30
 70
    65
 10
0.0
 20
0.0
 30
0.0
  3
*D30
  0
LINE
  8
0
  6
BYBLOCK
 62
     0
  5
D48
 10
893.654546
 20
469.90721
 30
0.0
 11
893.654546
 21
421.348352
 31
0.0
  0
LINE
  8
0
  6
BYBLOCK
 62
     0
  5
D49
 10
770.654546
 20
479.65721
 30
0.0
 11
770.654546
 21
421.348352
 31
0.0
  0
LINE
  8
0
  6
BYBLOCK
 62
     0
  5
D4A
 10
884.654546
 20
430.348352
 30
0.0
 11
779.654546
 21
430.348352
 31
0.0
  0
INSERT
  8
0
  6
BYBLOCK
 62
     0
  5
D4B
  2
YAZ3
 10
893.654546
 20
430.348352
 30
0.0
 41
9.0
 42
9.0
 43
9.0
  0
INSERT
  8
0
  6
BYBLOCK
 62
     0
  5
D4C
  2
YAZ3
 10
770.654546
 20
430.348352
 30
0.0
 41
9.0
 42
9.0
 50
180.0
 43
9.0
  0
TEXT
  8
0
  6
CONTINUOUS
 62
     0
  5
D4D
 10
816.44026
 20
436.948352
 30
0.0
 40
13.2
  1
123
  0
POINT
  8
DEFPOINTS
  6
BYBLOCK
 62
     0
  5
D4E
 10
893.654546
 20
481.90721
 30
0.0
  0
POINT
  8
DEFPOINTS
  6
BYBLOCK
 62
     0
  5
D4F
 10
770.654546
 20
491.65721
 30
0.0
  0
POINT
  8
DEFPOINTS
  6
BYBLOCK
 62
     0
  5
D50
 10
770.654546
 20
430.348352
 30
0.0
  0
ENDBLK
  8
0
  5
D51
  0
BLOCK
  8
0
  5
D5D
  2
*D31
 70
    65
 10
0.0
 20
0.0
 30
0.0
  3
*D31
  0
LINE
  8
0
  6
BYBLOCK
 62
     0
  5
D5E
 10
905.654546
 20
511.90721
 30
0.0
 11
938.946226
 21
511.90721
 31
0.0
  0
LINE
  8
0
  6
BYBLOCK
 62
     0
  5
D5F
 10
905.654546
 20
481.90721
 30
0.0
 11
938.946226
 21
481.90721
 31
0.0
  0
LINE
  8
0
  6
BYBLOCK
 62
     0
  5
D60
 10
929.946226
 20
520.90721
 30
0.0
 11
929.946226
 21
529.90721
 31
0.0
  0
LINE
  8
0
  6
BYBLOCK
 62
     0
  5
D61
 10
929.946226
 20
472.90721
 30
0.0
 11
929.946226
 21
463.90721
 31
0.0
  0
LINE
  8
0
  6
BYBLOCK
 62
     0
  5
D62
 10
929.946226
 20
511.90721
 30
0.0
 11
929.946226
 21
481.90721
 31
0.0
  0
INSERT
  8
0
  6
BYBLOCK
 62
     0
  5
D63
  2
YAZ3
 10
929.946226
 20
511.90721
 30
0.0
 41
9.0
 42
9.0
 50
270.0
 43
9.0
  0
INSERT
  8
0
  6
BYBLOCK
 62
     0
  5
D64
  2
YAZ3
 10
929.946226
 20
481.90721
 30
0.0
 41
9.0
 42
9.0
 50
90.0
 43
9.0
  0
TEXT
  8
0
  6
CONTINUOUS
 62
     0
  5
D65
 10
923.346226
 20
486.221495
 30
0.0
 40
13.2
  1
30
 50
90.0
  0
POINT
  8
DEFPOINTS
  6
BYBLOCK
 62
     0
  5
D66
 10
893.654546
 20
511.90721
 30
0.0
  0
POINT
  8
DEFPOINTS
  6
BYBLOCK
 62
     0
  5
D67
 10
893.654546
 20
481.90721
 30
0.0
  0
POINT
  8
DEFPOINTS
  6
BYBLOCK
 62
     0
  5
D68
 10
929.946226
 20
481.90721
 30
0.0
  0
ENDBLK
  8
0
  5
D69
  0
ENDSEC
  0
SECTION
  2
ENTITIES
  0
LINE
  8
0
  5
3F0
 10
972.919781
 20
379.689628
 30
0.0
 11
975.419781
 21
371.828361
 31
0.0
  0
LINE
  8
0
  5
3F1
 10
975.419781
 20
371.828361
 30
0.0
 11
975.419781
 21
379.689628
 31
0.0
  0
LINE
  8
0
  5
3F2
 10
975.419781
 20
371.828361
 30
0.0
 11
977.919781
 21
379.689628
 31
0.0
  0
LINE
  8
0
  5
3F3
 10
977.419781
 20
308.689628
 30
0.0
 11
980.419781
 21
308.689628
 31
0.0
  0
LINE
  8
0
  5
3F4
 10
973.419781
 20
308.689628
 30
0.0
 11
975.419781
 21
319.512577
 31
0.0
  0
LINE
  8
0
  5
3F5
 10
975.419781
 20
319.512577
 30
0.0
 11
977.419781
 21
308.689628
 31
0.0
  0
POLYLINE
  8
0
  5
3F6
 66
     1
 10
0.0
 20
0.0
 30
0.0
 70
     1
  0
VERTEX
  8
0
  5
DD3
 10
878.962353
 20
501.388354
 30
0.0
 42
0.025739
  0
VERTEX
  8
0
  5
DD4
 10
878.832063
 20
501.338845
 30
0.0
 42
0.071686
  0
VERTEX
  8
0
  5
DD5
 10
878.694075
 20
501.248886
 30
0.0
 42
0.007214
  0
VERTEX
  8
0
  5
DD6
 10
878.558874
 20
501.120878
 30
0.0
 42
0.054666
  0
VERTEX
  8
0
  5
DD7
 10
878.329778
 20
500.804324
 30
0.0
 42
0.042757
  0
VERTEX
  8
0
  5
DD8
 10
878.21153
 20
500.583538
 30
0.0
 42
0.002372
  0
VERTEX
  8
0
  5
DD9
 10
878.101951
 20
500.334615
 30
0.0
 42
0.02689
  0
VERTEX
  8
0
  5
DDA
 10
877.920312
 20
499.799754
 30
0.0
 42
0.023066
  0
VERTEX
  8
0
  5
DDB
 10
877.836548
 20
499.480136
 30
0.0
 42
0.00081
  0
VERTEX
  8
0
  5
DDC
 10
877.763566
 20
499.142694
 30
0.0
 42
0.017813
  0
VERTEX
  8
0
  5
DDD
 10
877.653052
 20
498.4463
 30
0.0
 42
0.016475
  0
VERTEX
  8
0
  5
DDE
 10
877.612288
 20
498.068023
 30
0.0
 42
0.000206
  0
VERTEX
  8
0
  5
DDF
 10
877.583301
 20
497.683407
 30
0.0
 42
0.015101
  0
VERTEX
  8
0
  5
DE0
 10
877.560233
 20
496.90721
 30
0.0
 42
0.014899
  0
VERTEX
  8
0
  5
DE1
 10
877.583301
 20
496.131013
 30
0.0
 42
0.014998
  0
VERTEX
  8
0
  5
DE2
 10
877.612288
 20
495.746397
 30
0.0
 42
0.000456
  0
VERTEX
  8
0
  5
DE3
 10
877.653052
 20
495.368119
 30
0.0
 42
0.017081
  0
VERTEX
  8
0
  5
DE4
 10
877.763566
 20
494.671725
 30
0.0
 42
0.018085
  0
VERTEX
  8
0
  5
DE5
 10
877.836548
 20
494.334283
 30
0.0
 42
0.001378
  0
VERTEX
  8
0
  5
DE6
 10
877.920312
 20
494.014665
 30
0.0
 42
0.024925
  0
VERTEX
  8
0
  5
DE7
 10
878.101951
 20
493.479804
 30
0.0
 42
0.027806
  0
VERTEX
  8
0
  5
DE8
 10
878.21153
 20
493.230882
 30
0.0
 42
0.004204
  0
VERTEX
  8
0
  5
DE9
 10
878.329778
 20
493.010095
 30
0.0
 42
0.049183
  0
VERTEX
  8
0
  5
DEA
 10
878.558874
 20
492.693541
 30
0.0
 42
0.058212
  0
VERTEX
  8
0
  5
DEB
 10
878.694075
 20
492.565534
 30
0.0
 42
0.009469
  0
VERTEX
  8
0
  5
DEC
 10
878.832063
 20
492.475575
 30
0.0
 42
0.112004
  0
VERTEX
  8
0
  5
DED
 10
879.099324
 20
492.40721
 30
0.0
 42
0.1129
  0
VERTEX
  8
0
  5
DEE
 10
879.366584
 20
492.475575
 30
0.0
 42
0.107194
  0
VERTEX
  8
0
  5
DEF
 10
879.504572
 20
492.565534
 30
0.0
 42
0.007214
  0
VERTEX
  8
0
  5
DF0
 10
879.639773
 20
492.693541
 30
0.0
 42
0.054666
  0
VERTEX
  8
0
  5
DF1
 10
879.868869
 20
493.010095
 30
0.0
 42
0.042757
  0
VERTEX
  8
0
  5
DF2
 10
879.987118
 20
493.230882
 30
0.0
 42
0.002372
  0
VERTEX
  8
0
  5
DF3
 10
880.096696
 20
493.479804
 30
0.0
 42
0.02689
  0
VERTEX
  8
0
  5
DF4
 10
880.278336
 20
494.014665
 30
0.0
 42
0.023066
  0
VERTEX
  8
0
  5
DF5
 10
880.3621
 20
494.334283
 30
0.0
 42
0.00081
  0
VERTEX
  8
0
  5
DF6
 10
880.435081
 20
494.671725
 30
0.0
 42
0.017813
  0
VERTEX
  8
0
  5
DF7
 10
880.545596
 20
495.368119
 30
0.0
 42
0.016475
  0
VERTEX
  8
0
  5
DF8
 10
880.58636
 20
495.746397
 30
0.0
 42
0.000206
  0
VERTEX
  8
0
  5
DF9
 10
880.615347
 20
496.131013
 30
0.0
 42
0.015101
  0
VERTEX
  8
0
  5
DFA
 10
880.638414
 20
496.90721
 30
0.0
 42
0.014899
  0
VERTEX
  8
0
  5
DFB
 10
880.615347
 20
497.683407
 30
0.0
 42
0.014998
  0
VERTEX
  8
0
  5
DFC
 10
880.58636
 20
498.068023
 30
0.0
 42
0.000456
  0
VERTEX
  8
0
  5
DFD
 10
880.545596
 20
498.4463
 30
0.0
 42
0.017081
  0
VERTEX
  8
0
  5
DFE
 10
880.435081
 20
499.142694
 30
0.0
 42
0.018085
  0
VERTEX
  8
0
  5
DFF
 10
880.3621
 20
499.480136
 30
0.0
 42
0.001378
  0
VERTEX
  8
0
  5
E00
 10
880.278336
 20
499.799754
 30
0.0
 42
0.024925
  0
VERTEX
  8
0
  5
E01
 10
880.096696
 20
500.334615
 30
0.0
 42
0.027806
  0
VERTEX
  8
0
  5
E02
 10
879.987118
 20
500.583538
 30
0.0
 42
0.004204
  0
VERTEX
  8
0
  5
E03
 10
879.868869
 20
500.804324
 30
0.0
 42
0.049183
  0
VERTEX
  8
0
  5
E04
 10
879.639773
 20
501.120878
 30
0.0
 42
0.058212
  0
VERTEX
  8
0
  5
E05
 10
879.504572
 20
501.248886
 30
0.0
 42
0.009469
  0
VERTEX
  8
0
  5
E06
 10
879.366584
 20
501.338845
 30
0.0
 42
0.112004
  0
VERTEX
  8
0
  5
E07
 10
879.099324
 20
501.40721
 30
0.0
  0
VERTEX
  8
0
  5
E08
 10
878.962353
 20
501.388354
 30
0.0
  0
SEQEND
  8
0
  5
E09
  0
POLYLINE
  8
0
  5
42E
 66
     1
 10
0.0
 20
0.0
 30
0.0
  0
VERTEX
  8
0
  5
E0A
 10
877.924708
 20
493.999488
 30
0.0
 42
0.012809
  0
VERTEX
  8
0
  5
E0B
 10
878.012868
 20
494.334283
 30
0.0
 42
0.018894
  0
VERTEX
  8
0
  5
E0C
 10
878.14602
 20
495.011642
 30
0.0
 42
0.016474
  0
VERTEX
  8
0
  5
E0D
 10
878.237128
 20
495.746397
 30
0.0
 42
0.015204
  0
VERTEX
  8
0
  5
E0E
 10
878.283393
 20
496.516323
 30
0.0
 42
0.014808
  0
VERTEX
  8
0
  5
E0F
 10
878.283393
 20
497.298096
 30
0.0
 42
0.015204
  0
VERTEX
  8
0
  5
E10
 10
878.237128
 20
498.068023
 30
0.0
 42
0.016475
  0
VERTEX
  8
0
  5
E11
 10
878.14602
 20
498.802778
 30
0.0
 42
0.018897
  0
VERTEX
  8
0
  5
E12
 10
878.012868
 20
499.480136
 30
0.0
 42
0.012804
  0
VERTEX
  8
0
  5
E13
 10
877.924708
 20
499.814931
 30
0.0
  0
SEQEND
  8
0
  5
E14
  0
LINE
  8
CENTER
  6
CENTER
  5
43A
 10
887.649827
 20
489.907047
 30
0.0
 11
887.649827
 21
503.907396
 31
0.0
  0
LINE
  8
0
  5
43B
 10
893.654546
 20
511.90721
 30
0.0
 11
893.654546
 21
481.90721
 31
0.0
  0
POLYLINE
  8
0
  5
43C
 66
     1
 10
0.0
 20
0.0
 30
0.0
 70
     1
  0
VERTEX
  8
0
  5
E15
 10
887.512856
 20
501.388354
 30
0.0
 42
0.025739
  0
VERTEX
  8
0
  5
E16
 10
887.382567
 20
501.338845
 30
0.0
 42
0.071686
  0
VERTEX
  8
0
  5
E17
 10
887.244579
 20
501.248886
 30
0.0
 42
0.007214
  0
VERTEX
  8
0
  5
E18
 10
887.109378
 20
501.120878
 30
0.0
 42
0.054666
  0
VERTEX
  8
0
  5
E19
 10
886.880282
 20
500.804324
 30
0.0
 42
0.042757
  0
VERTEX
  8
0
  5
E1A
 10
886.762033
 20
500.583538
 30
0.0
 42
0.002372
  0
VERTEX
  8
0
  5
E1B
 10
886.652455
 20
500.334615
 30
0.0
 42
0.02689
  0
VERTEX
  8
0
  5
E1C
 10
886.470815
 20
499.799754
 30
0.0
 42
0.023066
  0
VERTEX
  8
0
  5
E1D
 10
886.387051
 20
499.480136
 30
0.0
 42
0.00081
  0
VERTEX
  8
0
  5
E1E
 10
886.31407
 20
499.142694
 30
0.0
 42
0.017813
  0
VERTEX
  8
0
  5
E1F
 10
886.203555
 20
498.4463
 30
0.0
 42
0.016475
  0
VERTEX
  8
0
  5
E20
 10
886.162791
 20
498.068023
 30
0.0
 42
0.000206
  0
VERTEX
  8
0
  5
E21
 10
886.133804
 20
497.683407
 30
0.0
 42
0.015101
  0
VERTEX
  8
0
  5
E22
 10
886.110737
 20
496.90721
 30
0.0
 42
0.014899
  0
VERTEX
  8
0
  5
E23
 10
886.133804
 20
496.131013
 30
0.0
 42
0.014998
  0
VERTEX
  8
0
  5
E24
 10
886.162791
 20
495.746397
 30
0.0
 42
0.000456
  0
VERTEX
  8
0
  5
E25
 10
886.203555
 20
495.368119
 30
0.0
 42
0.017081
  0
VERTEX
  8
0
  5
E26
 10
886.31407
 20
494.671725
 30
0.0
 42
0.018085
  0
VERTEX
  8
0
  5
E27
 10
886.387051
 20
494.334283
 30
0.0
 42
0.001378
  0
VERTEX
  8
0
  5
E28
 10
886.470815
 20
494.014665
 30
0.0
 42
0.024925
  0
VERTEX
  8
0
  5
E29
 10
886.652455
 20
493.479804
 30
0.0
 42
0.027806
  0
VERTEX
  8
0
  5
E2A
 10
886.762033
 20
493.230882
 30
0.0
 42
0.004204
  0
VERTEX
  8
0
  5
E2B
 10
886.880282
 20
493.010095
 30
0.0
 42
0.049183
  0
VERTEX
  8
0
  5
E2C
 10
887.109378
 20
492.693541
 30
0.0
 42
0.058212
  0
VERTEX
  8
0
  5
E2D
 10
887.244579
 20
492.565534
 30
0.0
 42
0.009469
  0
VERTEX
  8
0
  5
E2E
 10
887.382567
 20
492.475575
 30
0.0
 42
0.112004
  0
VERTEX
  8
0
  5
E2F
 10
887.649827
 20
492.40721
 30
0.0
 42
0.1129
  0
VERTEX
  8
0
  5
E30
 10
887.917088
 20
492.475575
 30
0.0
 42
0.107194
  0
VERTEX
  8
0
  5
E31
 10
888.055076
 20
492.565534
 30
0.0
 42
0.007214
  0
VERTEX
  8
0
  5
E32
 10
888.190277
 20
492.693541
 30
0.0
 42
0.054666
  0
VERTEX
  8
0
  5
E33
 10
888.419373
 20
493.010095
 30
0.0
 42
0.042757
  0
VERTEX
  8
0
  5
E34
 10
888.537621
 20
493.230882
 30
0.0
 42
0.002372
  0
VERTEX
  8
0
  5
E35
 10
888.6472
 20
493.479804
 30
0.0
 42
0.02689
  0
VERTEX
  8
0
  5
E36
 10
888.828839
 20
494.014665
 30
0.0
 42
0.023066
  0
VERTEX
  8
0
  5
E37
 10
888.912603
 20
494.334283
 30
0.0
 42
0.00081
  0
VERTEX
  8
0
  5
E38
 10
888.985584
 20
494.671725
 30
0.0
 42
0.017813
  0
VERTEX
  8
0
  5
E39
 10
889.096099
 20
495.368119
 30
0.0
 42
0.016475
  0
VERTEX
  8
0
  5
E3A
 10
889.136863
 20
495.746397
 30
0.0
 42
0.000206
  0
VERTEX
  8
0
  5
E3B
 10
889.16585
 20
496.131013
 30
0.0
 42
0.015101
  0
VERTEX
  8
0
  5
E3C
 10
889.188918
 20
496.90721
 30
0.0
 42
0.014899
  0
VERTEX
  8
0
  5
E3D
 10
889.16585
 20
497.683407
 30
0.0
 42
0.014998
  0
VERTEX
  8
0
  5
E3E
 10
889.136863
 20
498.068023
 30
0.0
 42
0.000456
  0
VERTEX
  8
0
  5
E3F
 10
889.096099
 20
498.4463
 30
0.0
 42
0.017081
  0
VERTEX
  8
0
  5
E40
 10
888.985584
 20
499.142694
 30
0.0
 42
0.018085
  0
VERTEX
  8
0
  5
E41
 10
888.912603
 20
499.480136
 30
0.0
 42
0.001378
  0
VERTEX
  8
0
  5
E42
 10
888.828839
 20
499.799754
 30
0.0
 42
0.024925
  0
VERTEX
  8
0
  5
E43
 10
888.6472
 20
500.334615
 30
0.0
 42
0.027806
  0
VERTEX
  8
0
  5
E44
 10
888.537621
 20
500.583538
 30
0.0
 42
0.004204
  0
VERTEX
  8
0
  5
E45
 10
888.419373
 20
500.804324
 30
0.0
 42
0.049183
  0
VERTEX
  8
0
  5
E46
 10
888.190277
 20
501.120878
 30
0.0
 42
0.058212
  0
VERTEX
  8
0
  5
E47
 10
888.055076
 20
501.248886
 30
0.0
 42
0.009469
  0
VERTEX
  8
0
  5
E48
 10
887.917088
 20
501.338845
 30
0.0
 42
0.112004
  0
VERTEX
  8
0
  5
E49
 10
887.649827
 20
501.40721
 30
0.0
  0
VERTEX
  8
0
  5
E4A
 10
887.512856
 20
501.388354
 30
0.0
  0
SEQEND
  8
0
  5
E4B
  0
POLYLINE
  8
0
  5
474
 66
     1
 10
0.0
 20
0.0
 30
0.0
  0
VERTEX
  8
0
  5
E4C
 10
886.475211
 20
493.999488
 30
0.0
 42
0.012809
  0
VERTEX
  8
0
  5
E4D
 10
886.563372
 20
494.334283
 30
0.0
 42
0.018894
  0
VERTEX
  8
0
  5
E4E
 10
886.696523
 20
495.011642
 30
0.0
 42
0.016474
  0
VERTEX
  8
0
  5
E4F
 10
886.787632
 20
495.746397
 30
0.0
 42
0.015204
  0
VERTEX
  8
0
  5
E50
 10
886.833897
 20
496.516323
 30
0.0
 42
0.014808
  0
VERTEX
  8
0
  5
E51
 10
886.833897
 20
497.298096
 30
0.0
 42
0.015204
  0
VERTEX
  8
0
  5
E52
 10
886.787632
 20
498.068023
 30
0.0
 42
0.016475
  0
VERTEX
  8
0
  5
E53
 10
886.696523
 20
498.802778
 30
0.0
 42
0.018897
  0
VERTEX
  8
0
  5
E54
 10
886.563372
 20
499.480136
 30
0.0
 42
0.012804
  0
VERTEX
  8
0
  5
E55
 10
886.475211
 20
499.814931
 30
0.0
  0
SEQEND
  8
0
  5
E56
  0
DIMENSION
  8
SCALE
  5
480
  2
*D31
 10
929.946226
 20
481.90721
 30
0.0
 11
916.746226
 21
496.90721
 31
0.0
  1
30
 13
893.654546
 23
511.90721
 33
0.0
 14
893.654546
 24
481.90721
 34
0.0
 50
90.0
  3
STANDARD
1001
ACAD
1000
DSTYLE
1002
{
1070
   140
1040
2.2
1070
   340
1005
CBE
1070
   145
1040
1.0
1070
    74
1070
     0
1070
   172
1070
     1
1070
    73
1070
     0
1070
   272
1070
     4
1070
    40
1040
6.0
1070
   287
1070
     3
1070
    42
1040
2.0
1070
    44
1040
1.5
1070
    43
1040
10.0
1070
   271
1070
     4
1070
     5
1000
YAZ3
1070
    41
1040
1.5
1002
}
  0
LINE
  8
0
  5
481
 10
955.419781
 20
371.828361
 30
0.0
 11
957.919781
 21
379.689628
 31
0.0
  0
LINE
  8
0
  5
482
 10
952.919781
 20
379.689628
 30
0.0
 11
955.419781
 21
371.828361
 31
0.0
  0
LINE
  8
0
  5
483
 10
955.419781
 20
379.689628
 30
0.0
 11
955.419781
 21
371.828361
 31
0.0
  0
LINE
  8
0
  5
484
 10
955.419781
 20
319.512577
 30
0.0
 11
957.419781
 21
308.689628
 31
0.0
  0
LINE
  8
0
  5
485
 10
953.419781
 20
308.689628
 30
0.0
 11
955.419781
 21
319.512577
 31
0.0
  0
LINE
  8
0
  5
486
 10
957.419781
 20
308.689628
 30
0.0
 11
957.919781
 21
308.689628
 31
0.0
  0
LINE
  8
0
  5
487
 10
950.419781
 20
308.689628
 30
0.0
 11
953.419781
 21
308.689628
 31
0.0
  0
LINE
  8
1
  5
488
 10
881.666685
 20
341.626006
 30
0.0
 11
879.321026
 21
343.971665
 31
0.0
  0
LINE
  8
1
  5
489
 10
882.475973
 20
339.402504
 30
0.0
 11
878.29308
 21
343.585396
 31
0.0
  0
LINE
  8
1
  5
48A
 10
883.285262
 20
337.179001
 30
0.0
 11
879.102369
 21
341.361894
 31
0.0
  0
LINE
  8
1
  5
48B
 10
884.09455
 20
334.955499
 30
0.0
 11
879.911657
 21
339.138392
 31
0.0
  0
LINE
  8
1
  5
48C
 10
884.903839
 20
332.731997
 30
0.0
 11
880.720946
 21
336.91489
 31
0.0
  0
LINE
  8
1
  5
48D
 10
880.857396
 20
343.849508
 30
0.0
 11
880.357862
 21
344.349042
 31
0.0
  0
LINE
  8
0
  5
48E
 10
878.289183
 20
343.596105
 30
0.0
 11
880.638414
 21
344.451155
 31
0.0
  0
LINE
  8
1
  5
48F
 10
889.759571
 20
319.390984
 30
0.0
 11
888.457815
 21
320.69274
 31
0.0
  0
LINE
  8
1
  5
490
 10
892.996725
 20
310.496975
 30
0.0
 11
888.813832
 21
314.679868
 31
0.0
  0
LINE
  8
1
  5
491
 10
893.654546
 20
308.424941
 30
0.0
 11
889.623121
 21
312.456366
 31
0.0
  0
LINE
  8
1
  5
492
 10
893.654546
 20
307.010728
 30
0.0
 11
890.432409
 21
310.232864
 31
0.0
  0
LINE
  8
1
  5
493
 10
893.654546
 20
305.596514
 30
0.0
 11
891.154546
 21
308.096514
 31
0.0
  0
LINE
  8
1
  5
494
 10
893.654546
 20
304.182301
 30
0.0
 11
891.154546
 21
306.682301
 31
0.0
  0
LINE
  8
1
  5
495
 10
893.233004
 20
303.189628
 30
0.0
 11
891.154546
 21
305.268087
 31
0.0
  0
LINE
  8
1
  5
496
 10
891.818791
 20
303.189628
 30
0.0
 11
891.154546
 21
303.853873
 31
0.0
  0
LINE
  8
0
 62
     7
  5
497
 10
891.154546
 20
303.189628
 30
0.0
 11
893.654546
 21
303.189628
 31
0.0
  0
LINE
  8
1
  5
498
 10
884.546469
 20
328.846726
 30
0.0
 11
883.148812
 21
330.244383
 31
0.0
  0
LINE
  8
0
 62
     7
  5
499
 10
883.761505
 20
328.561023
 30
0.0
 11
886.110737
 21
329.416073
 31
0.0
  0
LINE
  8
0
 62
     7
  5
49A
 10
886.839686
 20
320.103789
 30
0.0
 11
889.188918
 21
320.95884
 31
0.0
  0
LINE
  8
CENTER
  6
CENTER
  5
49B
 10
882.951364
 20
323.477356
 30
0.0
 11
889.999059
 21
326.042507
 31
0.0
  0
LINE
  8
1
  5
49C
 10
890.568859
 20
317.167482
 30
0.0
 11
887.420979
 21
320.315362
 31
0.0
  0
LINE
  8
1
  5
49D
 10
891.378148
 20
314.94398
 30
0.0
 11
887.195255
 21
319.126873
 31
0.0
  0
LINE
  8
1
  5
49E
 10
892.187436
 20
312.720478
 30
0.0
 11
888.004544
 21
316.90337
 31
0.0
  0
LINE
  8
1
  5
49F
 10
885.713128
 20
330.508495
 30
0.0
 11
881.530235
 21
334.691388
 31
0.0
  0
LINE
  8
1
  5
4A0
 10
885.583305
 20
329.224104
 30
0.0
 11
882.339523
 21
332.467886
 31
0.0
  0
DIMENSION
  8
SCALE
  5
4A1
  2
*D26
 10
898.14331
 20
355.611216
 30
0.0
 11
914.822504
 21
348.379724
 31
0.0
 12
0.0
 22
-10.341845
 32
0.0
 70
     1
  1
25
 13
889.999059
 23
326.042507
 33
0.0
 14
881.448555
 24
349.534822
 34
0.0
  3
STANDARD
1001
ACAD
1000
DSTYLE
1002
{
1070
   140
1040
2.2
1070
   145
1040
1.0
1070
    74
1070
     0
1070
   172
1070
     1
1070
    73
1070
     0
1070
    40
1040
6.0
1070
    42
1040
2.0
1070
    44
1040
1.5
1070
    43
1040
10.0
1070
     5
1000
YAZ3
1070
    41
1040
1.5
1002
}
  0
LINE
  8
0
  5
4A2
 10
950.419781
 20
379.689628
 30
0.0
 11
980.419781
 21
379.689628
 31
0.0
  0
POLYLINE
  8
0
  5
4A3
 66
     1
 10
0.0
 20
0.0
 30
0.0
  0
VERTEX
  8
0
  5
E57
 10
969.896671
 20
324.759931
 30
0.0
 42
0.042677
  0
VERTEX
  8
0
  5
E58
 10
969.766258
 20
325.427343
 30
0.0
 42
0.045809
  0
VERTEX
  8
0
  5
E59
 10
969.497774
 20
326.120191
 30
0.0
 42
0.045009
  0
VERTEX
  8
0
  5
E5A
 10
969.105358
 20
326.758596
 30
0.0
 42
0.044067
  0
VERTEX
  8
0
  5
E5B
 10
968.600998
 20
327.323166
 30
0.0
 42
0.043109
  0
VERTEX
  8
0
  5
E5C
 10
968.000069
 20
327.796787
 30
0.0
 42
0.042247
  0
VERTEX
  8
0
  5
E5D
 10
967.320852
 20
328.165124
 30
0.0
 42
0.04157
  0
VERTEX
  8
0
  5
E5E
 10
966.58398
 20
328.417041
 30
0.0
 42
0.04114
  0
VERTEX
  8
0
  5
E5F
 10
965.811809
 20
328.54493
 30
0.0
 42
0.040994
  0
VERTEX
  8
0
  5
E60
 10
965.027753
 20
328.54493
 30
0.0
 42
0.041141
  0
VERTEX
  8
0
  5
E61
 10
964.255582
 20
328.417041
 30
0.0
 42
0.041572
  0
VERTEX
  8
0
  5
E62
 10
963.518709
 20
328.165124
 30
0.0
 42
0.042249
  0
VERTEX
  8
0
  5
E63
 10
962.839493
 20
327.796787
 30
0.0
 42
0.043112
  0
VERTEX
  8
0
  5
E64
 10
962.238564
 20
327.323166
 30
0.0
 42
0.044071
  0
VERTEX
  8
0
  5
E65
 10
961.734204
 20
326.758596
 30
0.0
 42
0.045013
  0
VERTEX
  8
0
  5
E66
 10
961.341788
 20
326.120191
 30
0.0
 42
0.045812
  0
VERTEX
  8
0
  5
E67
 10
961.073304
 20
325.427343
 30
0.0
 42
0.042652
  0
VERTEX
  8
0
  5
E68
 10
960.94289
 20
324.759931
 30
0.0
  0
SEQEND
  8
0
  5
E69
  0
POLYLINE
  8
0
  5
4B7
 66
     1
 10
0.0
 20
0.0
 30
0.0
 70
     1
  0
VERTEX
  8
0
  5
E6A
 10
960.936972
 20
324.818731
 30
0.0
 42
0.015339
  0
VERTEX
  8
0
  5
E6B
 10
960.988146
 20
324.453165
 30
0.0
 42
0.030908
  0
VERTEX
  8
0
  5
E6C
 10
961.073304
 20
324.092519
 30
0.0
 42
0.000167
  0
VERTEX
  8
0
  5
E6D
 10
961.191652
 20
323.739924
 30
0.0
 42
0.045199
  0
VERTEX
  8
0
  5
E6E
 10
961.522667
 20
323.073148
 30
0.0
 42
0.045013
  0
VERTEX
  8
0
  5
E6F
 10
961.734204
 20
322.761267
 30
0.0
 42
0.000237
  0
VERTEX
  8
0
  5
E70
 10
961.973934
 20
322.467838
 30
0.0
 42
0.043429
  0
VERTEX
  8
0
  5
E71
 10
962.527237
 20
321.948148
 30
0.0
 42
0.043112
  0
VERTEX
  8
0
  5
E72
 10
962.839493
 20
321.723075
 30
0.0
 42
0.000191
  0
VERTEX
  8
0
  5
E73
 10
963.17132
 20
321.524532
 30
0.0
 42
0.04179
  0
VERTEX
  8
0
  5
E74
 10
963.88069
 20
321.213856
 30
0.0
 42
0.041572
  0
VERTEX
  8
0
  5
E75
 10
964.255582
 20
321.102822
 30
0.0
 42
0.000072
  0
VERTEX
  8
0
  5
E76
 10
964.639038
 20
321.02297
 30
0.0
 42
0.040966
  0
VERTEX
  8
0
  5
E77
 10
965.419781
 20
320.95884
 30
0.0
 42
0.040894
  0
VERTEX
  8
0
  5
E78
 10
966.200524
 20
321.02297
 30
0.0
 42
0.041069
  0
VERTEX
  8
0
  5
E79
 10
966.58398
 20
321.102822
 30
0.0
 42
0.000138
  0
VERTEX
  8
0
  5
E7A
 10
966.958872
 20
321.213856
 30
0.0
 42
0.0416
  0
VERTEX
  8
0
  5
E7B
 10
967.668242
 20
321.524532
 30
0.0
 42
0.042055
  0
VERTEX
  8
0
  5
E7C
 10
968.000069
 20
321.723075
 30
0.0
 42
0.000227
  0
VERTEX
  8
0
  5
E7D
 10
968.312325
 20
321.948148
 30
0.0
 42
0.043195
  0
VERTEX
  8
0
  5
E7E
 10
968.865627
 20
322.467838
 30
0.0
 42
0.043831
  0
VERTEX
  8
0
  5
E7F
 10
969.105358
 20
322.761267
 30
0.0
 42
0.000217
  0
VERTEX
  8
0
  5
E80
 10
969.316895
 20
323.073148
 30
0.0
 42
0.045033
  0
VERTEX
  8
0
  5
E81
 10
969.64791
 20
323.739924
 30
0.0
 42
0.045643
  0
VERTEX
  8
0
  5
E82
 10
969.766258
 20
324.092519
 30
0.0
 42
0.000091
  0
VERTEX
  8
0
  5
E83
 10
969.851416
 20
324.453165
 30
0.0
 42
0.046197
  0
VERTEX
  8
0
  5
E84
 10
969.919781
 20
325.187456
 30
0.0
 42
0.046198
  0
VERTEX
  8
0
  5
E85
 10
969.851416
 20
325.921748
 30
0.0
 42
0.046349
  0
VERTEX
  8
0
  5
E86
 10
969.766258
 20
326.282393
 30
0.0
 42
0.000167
  0
VERTEX
  8
0
  5
E87
 10
969.64791
 20
326.634989
 30
0.0
 42
0.045199
  0
VERTEX
  8
0
  5
E88
 10
969.316895
 20
327.301765
 30
0.0
 42
0.045013
  0
VERTEX
  8
0
  5
E89
 10
969.105358
 20
327.613646
 30
0.0
 42
0.000237
  0
VERTEX
  8
0
  5
E8A
 10
968.865627
 20
327.907075
 30
0.0
 42
0.043429
  0
VERTEX
  8
0
  5
E8B
 10
968.312325
 20
328.426765
 30
0.0
 42
0.043112
  0
VERTEX
  8
0
  5
E8C
 10
968.000069
 20
328.651838
 30
0.0
 42
0.000191
  0
VERTEX
  8
0
  5
E8D
 10
967.668242
 20
328.850381
 30
0.0
 42
0.04179
  0
VERTEX
  8
0
  5
E8E
 10
966.958872
 20
329.161056
 30
0.0
 42
0.041572
  0
VERTEX
  8
0
  5
E8F
 10
966.58398
 20
329.272091
 30
0.0
 42
0.000072
  0
VERTEX
  8
0
  5
E90
 10
966.200524
 20
329.351943
 30
0.0
 42
0.040966
  0
VERTEX
  8
0
  5
E91
 10
965.419781
 20
329.416073
 30
0.0
 42
0.040894
  0
VERTEX
  8
0
  5
E92
 10
964.639038
 20
329.351943
 30
0.0
 42
0.041069
  0
VERTEX
  8
0
  5
E93
 10
964.255582
 20
329.272091
 30
0.0
 42
0.000138
  0
VERTEX
  8
0
  5
E94
 10
963.88069
 20
329.161056
 30
0.0
 42
0.0416
  0
VERTEX
  8
0
  5
E95
 10
963.17132
 20
328.850381
 30
0.0
 42
0.042055
  0
VERTEX
  8
0
  5
E96
 10
962.839493
 20
328.651838
 30
0.0
 42
0.000227
  0
VERTEX
  8
0
  5
E97
 10
962.527237
 20
328.426765
 30
0.0
 42
0.043195
  0
VERTEX
  8
0
  5
E98
 10
961.973934
 20
327.907075
 30
0.0
 42
0.043831
  0
VERTEX
  8
0
  5
E99
 10
961.734204
 20
327.613646
 30
0.0
 42
0.000217
  0
VERTEX
  8
0
  5
E9A
 10
961.522667
 20
327.301765
 30
0.0
 42
0.045033
  0
VERTEX
  8
0
  5
E9B
 10
961.191652
 20
326.634989
 30
0.0
 42
0.045643
  0
VERTEX
  8
0
  5
E9C
 10
961.073304
 20
326.282393
 30
0.0
 42
0.000091
  0
VERTEX
  8
0
  5
E9D
 10
960.988146
 20
325.921748
 30
0.0
 42
0.046197
  0
VERTEX
  8
0
  5
E9E
 10
960.919781
 20
325.187456
 30
0.0
  0
VERTEX
  8
0
  5
E9F
 10
960.936972
 20
324.818731
 30
0.0
  0
SEQEND
  8
0
  5
EA0
  0
LINE
  8
0
  5
4EF
 10
957.919781
 20
308.689628
 30
0.0
 11
973.419781
 21
308.689628
 31
0.0
  0
POLYLINE
  8
0
  5
4F0
 66
     1
 10
0.0
 20
0.0
 30
0.0
  0
VERTEX
  8
0
  5
EA1
 10
969.896671
 20
348.252247
 30
0.0
 42
0.042677
  0
VERTEX
  8
0
  5
EA2
 10
969.766258
 20
348.919658
 30
0.0
 42
0.045809
  0
VERTEX
  8
0
  5
EA3
 10
969.497774
 20
349.612507
 30
0.0
 42
0.045009
  0
VERTEX
  8
0
  5
EA4
 10
969.105358
 20
350.250911
 30
0.0
 42
0.044067
  0
VERTEX
  8
0
  5
EA5
 10
968.600998
 20
350.815482
 30
0.0
 42
0.043109
  0
VERTEX
  8
0
  5
EA6
 10
968.000069
 20
351.289103
 30
0.0
 42
0.042247
  0
VERTEX
  8
0
  5
EA7
 10
967.320852
 20
351.657439
 30
0.0
 42
0.04157
  0
VERTEX
  8
0
  5
EA8
 10
966.58398
 20
351.909356
 30
0.0
 42
0.04114
  0
VERTEX
  8
0
  5
EA9
 10
965.811809
 20
352.037245
 30
0.0
 42
0.040994
  0
VERTEX
  8
0
  5
EAA
 10
965.027753
 20
352.037245
 30
0.0
 42
0.041141
  0
VERTEX
  8
0
  5
EAB
 10
964.255582
 20
351.909356
 30
0.0
 42
0.041572
  0
VERTEX
  8
0
  5
EAC
 10
963.518709
 20
351.657439
 30
0.0
 42
0.042249
  0
VERTEX
  8
0
  5
EAD
 10
962.839493
 20
351.289103
 30
0.0
 42
0.043112
  0
VERTEX
  8
0
  5
EAE
 10
962.238564
 20
350.815482
 30
0.0
 42
0.044071
  0
VERTEX
  8
0
  5
EAF
 10
961.734204
 20
350.250911
 30
0.0
 42
0.045013
  0
VERTEX
  8
0
  5
EB0
 10
961.341788
 20
349.612507
 30
0.0
 42
0.045812
  0
VERTEX
  8
0
  5
EB1
 10
961.073304
 20
348.919658
 30
0.0
 42
0.042652
  0
VERTEX
  8
0
  5
EB2
 10
960.94289
 20
348.252247
 30
0.0
  0
SEQEND
  8
0
  5
EB3
  0
POLYLINE
  8
0
  5
504
 66
     1
 10
0.0
 20
0.0
 30
0.0
 70
     1
  0
VERTEX
  8
0
  5
EB4
 10
960.936972
 20
348.311047
 30
0.0
 42
0.015339
  0
VERTEX
  8
0
  5
EB5
 10
960.988146
 20
347.94548
 30
0.0
 42
0.030908
  0
VERTEX
  8
0
  5
EB6
 10
961.073304
 20
347.584835
 30
0.0
 42
0.000167
  0
VERTEX
  8
0
  5
EB7
 10
961.191652
 20
347.23224
 30
0.0
 42
0.045199
  0
VERTEX
  8
0
  5
EB8
 10
961.522667
 20
346.565464
 30
0.0
 42
0.045013
  0
VERTEX
  8
0
  5
EB9
 10
961.734204
 20
346.253582
 30
0.0
 42
0.000237
  0
VERTEX
  8
0
  5
EBA
 10
961.973934
 20
345.960154
 30
0.0
 42
0.043429
  0
VERTEX
  8
0
  5
EBB
 10
962.527237
 20
345.440464
 30
0.0
 42
0.043112
  0
VERTEX
  8
0
  5
EBC
 10
962.839493
 20
345.215391
 30
0.0
 42
0.000191
  0
VERTEX
  8
0
  5
EBD
 10
963.17132
 20
345.016847
 30
0.0
 42
0.04179
  0
VERTEX
  8
0
  5
EBE
 10
963.88069
 20
344.706172
 30
0.0
 42
0.041572
  0
VERTEX
  8
0
  5
EBF
 10
964.255582
 20
344.595137
 30
0.0
 42
0.000072
  0
VERTEX
  8
0
  5
EC0
 10
964.639038
 20
344.515286
 30
0.0
 42
0.040966
  0
VERTEX
  8
0
  5
EC1
 10
965.419781
 20
344.451155
 30
0.0
 42
0.040894
  0
VERTEX
  8
0
  5
EC2
 10
966.200524
 20
344.515286
 30
0.0
 42
0.041069
  0
VERTEX
  8
0
  5
EC3
 10
966.58398
 20
344.595137
 30
0.0
 42
0.000138
  0
VERTEX
  8
0
  5
EC4
 10
966.958872
 20
344.706172
 30
0.0
 42
0.0416
  0
VERTEX
  8
0
  5
EC5
 10
967.668242
 20
345.016847
 30
0.0
 42
0.042055
  0
VERTEX
  8
0
  5
EC6
 10
968.000069
 20
345.215391
 30
0.0
 42
0.000227
  0
VERTEX
  8
0
  5
EC7
 10
968.312325
 20
345.440464
 30
0.0
 42
0.043195
  0
VERTEX
  8
0
  5
EC8
 10
968.865627
 20
345.960154
 30
0.0
 42
0.043831
  0
VERTEX
  8
0
  5
EC9
 10
969.105358
 20
346.253582
 30
0.0
 42
0.000217
  0
VERTEX
  8
0
  5
ECA
 10
969.316895
 20
346.565464
 30
0.0
 42
0.045033
  0
VERTEX
  8
0
  5
ECB
 10
969.64791
 20
347.23224
 30
0.0
 42
0.045643
  0
VERTEX
  8
0
  5
ECC
 10
969.766258
 20
347.584835
 30
0.0
 42
0.000091
  0
VERTEX
  8
0
  5
ECD
 10
969.851416
 20
347.94548
 30
0.0
 42
0.046197
  0
VERTEX
  8
0
  5
ECE
 10
969.919781
 20
348.679772
 30
0.0
 42
0.046198
  0
VERTEX
  8
0
  5
ECF
 10
969.851416
 20
349.414064
 30
0.0
 42
0.046349
  0
VERTEX
  8
0
  5
ED0
 10
969.766258
 20
349.774709
 30
0.0
 42
0.000167
  0
VERTEX
  8
0
  5
ED1
 10
969.64791
 20
350.127304
 30
0.0
 42
0.045199
  0
VERTEX
  8
0
  5
ED2
 10
969.316895
 20
350.79408
 30
0.0
 42
0.045013
  0
VERTEX
  8
0
  5
ED3
 10
969.105358
 20
351.105962
 30
0.0
 42
0.000237
  0
VERTEX
  8
0
  5
ED4
 10
968.865627
 20
351.39939
 30
0.0
 42
0.043429
  0
VERTEX
  8
0
  5
ED5
 10
968.312325
 20
351.91908
 30
0.0
 42
0.043112
  0
VERTEX
  8
0
  5
ED6
 10
968.000069
 20
352.144153
 30
0.0
 42
0.000191
  0
VERTEX
  8
0
  5
ED7
 10
967.668242
 20
352.342697
 30
0.0
 42
0.04179
  0
VERTEX
  8
0
  5
ED8
 10
966.958872
 20
352.653372
 30
0.0
 42
0.041572
  0
VERTEX
  8
0
  5
ED9
 10
966.58398
 20
352.764407
 30
0.0
 42
0.000072
  0
VERTEX
  8
0
  5
EDA
 10
966.200524
 20
352.844258
 30
0.0
 42
0.040966
  0
VERTEX
  8
0
  5
EDB
 10
965.419781
 20
352.908389
 30
0.0
 42
0.040894
  0
VERTEX
  8
0
  5
EDC
 10
964.639038
 20
352.844258
 30
0.0
 42
0.041069
  0
VERTEX
  8
0
  5
EDD
 10
964.255582
 20
352.764407
 30
0.0
 42
0.000138
  0
VERTEX
  8
0
  5
EDE
 10
963.88069
 20
352.653372
 30
0.0
 42
0.0416
  0
VERTEX
  8
0
  5
EDF
 10
963.17132
 20
352.342697
 30
0.0
 42
0.042055
  0
VERTEX
  8
0
  5
EE0
 10
962.839493
 20
352.144153
 30
0.0
 42
0.000227
  0
VERTEX
  8
0
  5
EE1
 10
962.527237
 20
351.91908
 30
0.0
 42
0.043195
  0
VERTEX
  8
0
  5
EE2
 10
961.973934
 20
351.39939
 30
0.0
 42
0.043831
  0
VERTEX
  8
0
  5
EE3
 10
961.734204
 20
351.105962
 30
0.0
 42
0.000217
  0
VERTEX
  8
0
  5
EE4
 10
961.522667
 20
350.79408
 30
0.0
 42
0.045033
  0
VERTEX
  8
0
  5
EE5
 10
961.191652
 20
350.127304
 30
0.0
 42
0.045643
  0
VERTEX
  8
0
  5
EE6
 10
961.073304
 20
349.774709
 30
0.0
 42
0.000091
  0
VERTEX
  8
0
  5
EE7
 10
960.988146
 20
349.414064
 30
0.0
 42
0.046197
  0
VERTEX
  8
0
  5
EE8
 10
960.919781
 20
348.679772
 30
0.0
  0
VERTEX
  8
0
  5
EE9
 10
960.936972
 20
348.311047
 30
0.0
  0
SEQEND
  8
0
  5
EEA
  0
POLYLINE
  8
0
  5
53C
 66
     1
 10
0.0
 20
0.0
 30
0.0
  0
VERTEX
  8
0
  5
EEB
 10
969.896671
 20
371.744562
 30
0.0
 42
0.042677
  0
VERTEX
  8
0
  5
EEC
 10
969.766258
 20
372.411974
 30
0.0
 42
0.045809
  0
VERTEX
  8
0
  5
EED
 10
969.497774
 20
373.104822
 30
0.0
 42
0.045009
  0
VERTEX
  8
0
  5
EEE
 10
969.105358
 20
373.743227
 30
0.0
 42
0.044067
  0
VERTEX
  8
0
  5
EEF
 10
968.600998
 20
374.307797
 30
0.0
 42
0.043109
  0
VERTEX
  8
0
  5
EF0
 10
968.000069
 20
374.781418
 30
0.0
 42
0.042247
  0
VERTEX
  8
0
  5
EF1
 10
967.320852
 20
375.149755
 30
0.0
 42
0.04157
  0
VERTEX
  8
0
  5
EF2
 10
966.58398
 20
375.401672
 30
0.0
 42
0.04114
  0
VERTEX
  8
0
  5
EF3
 10
965.811809
 20
375.529561
 30
0.0
 42
0.040994
  0
VERTEX
  8
0
  5
EF4
 10
965.027753
 20
375.529561
 30
0.0
 42
0.041141
  0
VERTEX
  8
0
  5
EF5
 10
964.255582
 20
375.401672
 30
0.0
 42
0.041572
  0
VERTEX
  8
0
  5
EF6
 10
963.518709
 20
375.149755
 30
0.0
 42
0.042249
  0
VERTEX
  8
0
  5
EF7
 10
962.839493
 20
374.781418
 30
0.0
 42
0.043112
  0
VERTEX
  8
0
  5
EF8
 10
962.238564
 20
374.307797
 30
0.0
 42
0.044071
  0
VERTEX
  8
0
  5
EF9
 10
961.734204
 20
373.743227
 30
0.0
 42
0.045013
  0
VERTEX
  8
0
  5
EFA
 10
961.341788
 20
373.104822
 30
0.0
 42
0.045812
  0
VERTEX
  8
0
  5
EFB
 10
961.073304
 20
372.411974
 30
0.0
 42
0.042652
  0
VERTEX
  8
0
  5
EFC
 10
960.94289
 20
371.744562
 30
0.0
  0
SEQEND
  8
0
  5
EFD
  0
POLYLINE
  8
0
  5
550
 66
     1
 10
0.0
 20
0.0
 30
0.0
 70
     1
  0
VERTEX
  8
0
  5
EFE
 10
960.936972
 20
371.803362
 30
0.0
 42
0.015339
  0
VERTEX
  8
0
  5
EFF
 10
960.988146
 20
371.437796
 30
0.0
 42
0.030908
  0
VERTEX
  8
0
  5
F00
 10
961.073304
 20
371.077151
 30
0.0
 42
0.000167
  0
VERTEX
  8
0
  5
F01
 10
961.191652
 20
370.724555
 30
0.0
 42
0.045199
  0
VERTEX
  8
0
  5
F02
 10
961.522667
 20
370.057779
 30
0.0
 42
0.045013
  0
VERTEX
  8
0
  5
F03
 10
961.734204
 20
369.745898
 30
0.0
 42
0.000237
  0
VERTEX
  8
0
  5
F04
 10
961.973934
 20
369.452469
 30
0.0
 42
0.043429
  0
VERTEX
  8
0
  5
F05
 10
962.527237
 20
368.932779
 30
0.0
 42
0.043112
  0
VERTEX
  8
0
  5
F06
 10
962.839493
 20
368.707706
 30
0.0
 42
0.000191
  0
VERTEX
  8
0
  5
F07
 10
963.17132
 20
368.509163
 30
0.0
 42
0.04179
  0
VERTEX
  8
0
  5
F08
 10
963.88069
 20
368.198487
 30
0.0
 42
0.041572
  0
VERTEX
  8
0
  5
F09
 10
964.255582
 20
368.087453
 30
0.0
 42
0.000072
  0
VERTEX
  8
0
  5
F0A
 10
964.639038
 20
368.007601
 30
0.0
 42
0.040966
  0
VERTEX
  8
0
  5
F0B
 10
965.419781
 20
367.943471
 30
0.0
 42
0.040894
  0
VERTEX
  8
0
  5
F0C
 10
966.200524
 20
368.007601
 30
0.0
 42
0.041069
  0
VERTEX
  8
0
  5
F0D
 10
966.58398
 20
368.087453
 30
0.0
 42
0.000138
  0
VERTEX
  8
0
  5
F0E
 10
966.958872
 20
368.198487
 30
0.0
 42
0.0416
  0
VERTEX
  8
0
  5
F0F
 10
967.668242
 20
368.509163
 30
0.0
 42
0.042055
  0
VERTEX
  8
0
  5
F10
 10
968.000069
 20
368.707706
 30
0.0
 42
0.000227
  0
VERTEX
  8
0
  5
F11
 10
968.312325
 20
368.932779
 30
0.0
 42
0.043195
  0
VERTEX
  8
0
  5
F12
 10
968.865627
 20
369.452469
 30
0.0
 42
0.043831
  0
VERTEX
  8
0
  5
F13
 10
969.105358
 20
369.745898
 30
0.0
 42
0.000217
  0
VERTEX
  8
0
  5
F14
 10
969.316895
 20
370.057779
 30
0.0
 42
0.045033
  0
VERTEX
  8
0
  5
F15
 10
969.64791
 20
370.724555
 30
0.0
 42
0.045643
  0
VERTEX
  8
0
  5
F16
 10
969.766258
 20
371.077151
 30
0.0
 42
0.000091
  0
VERTEX
  8
0
  5
F17
 10
969.851416
 20
371.437796
 30
0.0
 42
0.046197
  0
VERTEX
  8
0
  5
F18
 10
969.919781
 20
372.172087
 30
0.0
 42
0.046198
  0
VERTEX
  8
0
  5
F19
 10
969.851416
 20
372.906379
 30
0.0
 42
0.046349
  0
VERTEX
  8
0
  5
F1A
 10
969.766258
 20
373.267024
 30
0.0
 42
0.000167
  0
VERTEX
  8
0
  5
F1B
 10
969.64791
 20
373.61962
 30
0.0
 42
0.045199
  0
VERTEX
  8
0
  5
F1C
 10
969.316895
 20
374.286396
 30
0.0
 42
0.045013
  0
VERTEX
  8
0
  5
F1D
 10
969.105358
 20
374.598277
 30
0.0
 42
0.000237
  0
VERTEX
  8
0
  5
F1E
 10
968.865627
 20
374.891706
 30
0.0
 42
0.043429
  0
VERTEX
  8
0
  5
F1F
 10
968.312325
 20
375.411396
 30
0.0
 42
0.043112
  0
VERTEX
  8
0
  5
F20
 10
968.000069
 20
375.636469
 30
0.0
 42
0.000191
  0
VERTEX
  8
0
  5
F21
 10
967.668242
 20
375.835012
 30
0.0
 42
0.04179
  0
VERTEX
  8
0
  5
F22
 10
966.958872
 20
376.145687
 30
0.0
 42
0.041572
  0
VERTEX
  8
0
  5
F23
 10
966.58398
 20
376.256722
 30
0.0
 42
0.000072
  0
VERTEX
  8
0
  5
F24
 10
966.200524
 20
376.336574
 30
0.0
 42
0.040966
  0
VERTEX
  8
0
  5
F25
 10
965.419781
 20
376.400704
 30
0.0
 42
0.040894
  0
VERTEX
  8
0
  5
F26
 10
964.639038
 20
376.336574
 30
0.0
 42
0.041069
  0
VERTEX
  8
0
  5
F27
 10
964.255582
 20
376.256722
 30
0.0
 42
0.000138
  0
VERTEX
  8
0
  5
F28
 10
963.88069
 20
376.145687
 30
0.0
 42
0.0416
  0
VERTEX
  8
0
  5
F29
 10
963.17132
 20
375.835012
 30
0.0
 42
0.042055
  0
VERTEX
  8
0
  5
F2A
 10
962.839493
 20
375.636469
 30
0.0
 42
0.000227
  0
VERTEX
  8
0
  5
F2B
 10
962.527237
 20
375.411396
 30
0.0
 42
0.043195
  0
VERTEX
  8
0
  5
F2C
 10
961.973934
 20
374.891706
 30
0.0
 42
0.043831
  0
VERTEX
  8
0
  5
F2D
 10
961.734204
 20
374.598277
 30
0.0
 42
0.000217
  0
VERTEX
  8
0
  5
F2E
 10
961.522667
 20
374.286396
 30
0.0
 42
0.045033
  0
VERTEX
  8
0
  5
F2F
 10
961.191652
 20
373.61962
 30
0.0
 42
0.045643
  0
VERTEX
  8
0
  5
F30
 10
961.073304
 20
373.267024
 30
0.0
 42
0.000091
  0
VERTEX
  8
0
  5
F31
 10
960.988146
 20
372.906379
 30
0.0
 42
0.046197
  0
VERTEX
  8
0
  5
F32
 10
960.919781
 20
372.172087
 30
0.0
  0
VERTEX
  8
0
  5
F33
 10
960.936972
 20
371.803362
 30
0.0
  0
SEQEND
  8
0
  5
F34
  0
LINE
  8
0
  5
58A
 10
980.419781
 20
188.689628
 30
0.0
 11
977.419781
 21
188.689628
 31
0.0
  0
LINE
  8
0
  5
58B
 10
980.419781
 20
188.689628
 30
0.0
 11
977.419781
 21
188.689628
 31
0.0
  0
LINE
  8
0
  5
58C
 10
975.419781
 20
177.86668
 30
0.0
 11
973.419781
 21
188.689628
 31
0.0
  0
LINE
  8
0
  5
58D
 10
977.419781
 20
188.689628
 30
0.0
 11
975.419781
 21
177.86668
 31
0.0
  0
LINE
  8
0
  5
58E
 10
973.419781
 20
188.689628
 30
0.0
 11
975.419781
 21
200.207169
 31
0.0
  0
LINE
  8
0
  5
58F
 10
975.419781
 20
200.207169
 30
0.0
 11
977.419781
 21
188.689628
 31
0.0
  0
LINE
  8
0
  5
590
 10
975.419781
 20
177.86668
 30
0.0
 11
975.419781
 21
200.207169
 31
0.0
  0
DIMENSION
  8
SCALE
  5
591
  2
*D16
 10
1005.316954
 20
273.689628
 30
0.0
 11
992.116954
 21
248.689628
 31
0.0
 12
0.0
 22
-10.341845
 32
0.0
  1
50
 13
972.419781
 23
223.689628
 33
0.0
 14
972.419781
 24
273.689628
 34
0.0
 50
90.0
  3
STANDARD
1001
ACAD
1000
DSTYLE
1002
{
1070
   140
1040
2.2
1070
   145
1040
1.0
1070
    74
1070
     0
1070
   172
1070
     1
1070
    73
1070
     0
1070
    40
1040
6.0
1070
    42
1040
2.0
1070
    44
1040
1.5
1070
    43
1040
10.0
1070
     5
1000
YAZ3
1070
    41
1040
1.5
1002
}
  0
DIMENSION
  8
SCALE
  5
592
  2
*D17
 10
1031.619274
 20
198.689628
 30
0.0
 11
1018.419274
 21
248.689628
 31
0.0
 12
0.0
 22
-10.341845
 32
0.0
  1
100
 13
972.417695
 23
298.689628
 33
0.0
 14
972.419781
 24
198.689628
 34
0.0
 50
90.0
  3
STANDARD
1001
ACAD
1000
DSTYLE
1002
{
1070
   140
1040
2.2
1070
   145
1040
1.0
1070
    74
1070
     0
1070
   172
1070
     1
1070
    73
1070
     0
1070
    40
1040
6.0
1070
    42
1040
2.0
1070
    44
1040
1.5
1070
    43
1040
10.0
1070
     5
1000
YAZ3
1070
    41
1040
1.5
1002
}
  0
LINE
  8
0
  5
593
 10
975.419781
 20
125.550896
 30
0.0
 11
972.919781
 21
117.689628
 31
0.0
  0
LINE
  8
0
  5
594
 10
975.419781
 20
117.689628
 30
0.0
 11
975.419781
 21
125.550896
 31
0.0
  0
LINE
  8
0
  5
595
 10
977.919781
 20
117.689628
 30
0.0
 11
975.419781
 21
125.550896
 31
0.0
  0
LINE
  8
0
  5
596
 10
957.419781
 20
188.689628
 30
0.0
 11
955.419781
 21
177.86668
 31
0.0
  0
LINE
  8
0
  5
597
 10
955.419781
 20
200.207169
 30
0.0
 11
957.419781
 21
188.689628
 31
0.0
  0
LINE
  8
0
  5
598
 10
955.419781
 20
177.86668
 30
0.0
 11
953.419781
 21
188.689628
 31
0.0
  0
LINE
  8
0
  5
599
 10
953.419781
 20
188.689628
 30
0.0
 11
955.419781
 21
200.207169
 31
0.0
  0
LINE
  8
0
  5
59A
 10
955.419781
 20
200.207169
 30
0.0
 11
955.419781
 21
177.86668
 31
0.0
  0
LINE
  8
0
  5
59B
 10
957.919781
 20
188.689628
 30
0.0
 11
957.419781
 21
188.689628
 31
0.0
  0
LINE
  8
0
  5
59C
 10
953.419781
 20
188.689628
 30
0.0
 11
950.419781
 21
188.689628
 31
0.0
  0
LINE
  8
0
  5
59D
 10
953.419781
 20
188.689628
 30
0.0
 11
950.419781
 21
188.689628
 31
0.0
  0
LINE
  8
1
  5
59E
 10
893.654546
 20
292.868592
 30
0.0
 11
892.333509
 21
294.189628
 31
0.0
  0
LINE
  8
1
  5
59F
 10
893.654546
 20
291.454379
 30
0.0
 11
891.154546
 21
293.954379
 31
0.0
  0
LINE
  8
1
  5
5A0
 10
893.654546
 20
290.040165
 30
0.0
 11
891.154546
 21
292.540165
 31
0.0
  0
LINE
  8
1
  5
5A1
 10
893.654546
 20
288.625951
 30
0.0
 11
891.154546
 21
291.125951
 31
0.0
  0
LINE
  8
1
  5
5A2
 10
893.654546
 20
287.211738
 30
0.0
 11
891.154546
 21
289.711738
 31
0.0
  0
LINE
  8
1
  5
5A3
 10
893.654546
 20
285.797524
 30
0.0
 11
891.154546
 21
288.297524
 31
0.0
  0
LINE
  8
1
  5
5A4
 10
893.654546
 20
284.383311
 30
0.0
 11
891.154546
 21
286.883311
 31
0.0
  0
LINE
  8
1
  5
5A5
 10
893.654546
 20
282.969097
 30
0.0
 11
891.154546
 21
285.469097
 31
0.0
  0
LINE
  8
1
  5
5A6
 10
893.654546
 20
281.554884
 30
0.0
 11
891.154546
 21
284.054884
 31
0.0
  0
LINE
  8
1
  5
5A7
 10
893.654546
 20
280.14067
 30
0.0
 11
891.154546
 21
282.64067
 31
0.0
  0
LINE
  8
1
  5
5A8
 10
893.654546
 20
278.726456
 30
0.0
 11
891.154546
 21
281.226456
 31
0.0
  0
LINE
  8
1
  5
5A9
 10
892.77716
 20
278.189628
 30
0.0
 11
891.154546
 21
279.812243
 31
0.0
  0
LINE
  8
1
  5
5AA
 10
891.362947
 20
278.189628
 30
0.0
 11
891.154546
 21
278.398029
 31
0.0
  0
LINE
  8
1
  5
5AB
 10
893.654546
 20
268.826962
 30
0.0
 11
893.291879
 21
269.189628
 31
0.0
  0
LINE
  8
1
  5
5AC
 10
893.654546
 20
267.412748
 30
0.0
 11
891.877665
 21
269.189628
 31
0.0
  0
LINE
  8
0
 62
     7
  5
5AD
 10
891.154546
 20
278.189628
 30
0.0
 11
893.654546
 21
278.189628
 31
0.0
  0
LINE
  8
0
 62
     7
  5
5AE
 10
893.654546
 20
294.189628
 30
0.0
 11
891.154546
 21
294.189628
 31
0.0
  0
LINE
  8
0
 62
     7
  5
5AF
 10
893.654546
 20
269.189628
 30
0.0
 11
891.154546
 21
269.189628
 31
0.0
  0
LINE
  8
1
  5
5B0
 10
893.654546
 20
263.170107
 30
0.0
 11
891.154546
 21
265.670107
 31
0.0
  0
LINE
  8
1
  5
5B1
 10
893.654546
 20
258.927467
 30
0.0
 11
891.154546
 21
261.427467
 31
0.0
  0
LINE
  8
1
  5
5B2
 10
893.654546
 20
257.513253
 30
0.0
 11
891.154546
 21
260.013253
 31
0.0
  0
LINE
  8
1
  5
5B3
 10
893.654546
 20
256.099039
 30
0.0
 11
891.154546
 21
258.599039
 31
0.0
  0
LINE
  8
1
  5
5B4
 10
893.654546
 20
254.684826
 30
0.0
 11
891.154546
 21
257.184826
 31
0.0
  0
LINE
  8
1
  5
5B5
 10
892.73553
 20
254.189628
 30
0.0
 11
891.154546
 21
255.770612
 31
0.0
  0
LINE
  8
1
  5
5B6
 10
891.321316
 20
254.189628
 30
0.0
 11
891.154546
 21
254.356399
 31
0.0
  0
LINE
  8
0
 62
     7
  5
5B7
 10
891.154546
 20
254.189628
 30
0.0
 11
893.654546
 21
254.189628
 31
0.0
  0
LINE
  8
1
  5
5B8
 10
893.654546
 20
261.755894
 30
0.0
 11
891.154546
 21
264.255894
 31
0.0
  0
LINE
  8
1
  5
5B9
 10
893.654546
 20
260.34168
 30
0.0
 11
891.154546
 21
262.84168
 31
0.0
  0
LINE
  8
1
  5
5BA
 10
893.654546
 20
265.998534
 30
0.0
 11
891.154546
 21
268.498534
 31
0.0
  0
LINE
  8
1
  5
5BB
 10
893.654546
 20
264.584321
 30
0.0
 11
891.154546
 21
267.084321
 31
0.0
  0
LINE
  8
0
  5
5BC
 10
887.15977
 20
178.154889
 30
0.0
 11
891.154546
 21
200.81039
 31
0.0
  0
LINE
  8
0
  5
5BD
 10
957.919781
 20
117.689628
 30
0.0
 11
955.419781
 21
125.550896
 31
0.0
  0
LINE
  8
0
  5
5BE
 10
955.419781
 20
125.550896
 30
0.0
 11
952.919781
 21
117.689628
 31
0.0
  0
LINE
  8
0
  5
5BF
 10
955.419781
 20
125.550896
 30
0.0
 11
955.419781
 21
117.689628
 31
0.0
  0
LINE
  8
0
  5
5C0
 10
980.419781
 20
117.689628
 30
0.0
 11
950.419781
 21
117.689628
 31
0.0
  0
LINE
  8
CENTER
  6
CENTER
  5
5C1
 10
945.419781
 20
248.689628
 30
0.0
 11
985.453354
 21
248.689628
 31
0.0
  0
POLYLINE
  8
0
  5
5C2
 66
     1
 10
0.0
 20
0.0
 30
0.0
  0
VERTEX
  8
0
  5
F35
 10
969.896671
 20
172.619326
 30
0.0
 42
-0.042677
  0
VERTEX
  8
0
  5
F36
 10
969.766258
 20
171.951914
 30
0.0
 42
-0.045809
  0
VERTEX
  8
0
  5
F37
 10
969.497774
 20
171.259065
 30
0.0
 42
-0.045009
  0
VERTEX
  8
0
  5
F38
 10
969.105358
 20
170.620661
 30
0.0
 42
-0.044067
  0
VERTEX
  8
0
  5
F39
 10
968.600998
 20
170.05609
 30
0.0
 42
-0.043109
  0
VERTEX
  8
0
  5
F3A
 10
968.000069
 20
169.582469
 30
0.0
 42
-0.042247
  0
VERTEX
  8
0
  5
F3B
 10
967.320852
 20
169.214133
 30
0.0
 42
-0.04157
  0
VERTEX
  8
0
  5
F3C
 10
966.58398
 20
168.962216
 30
0.0
 42
-0.04114
  0
VERTEX
  8
0
  5
F3D
 10
965.811809
 20
168.834327
 30
0.0
 42
-0.040994
  0
VERTEX
  8
0
  5
F3E
 10
965.027753
 20
168.834327
 30
0.0
 42
-0.041141
  0
VERTEX
  8
0
  5
F3F
 10
964.255582
 20
168.962216
 30
0.0
 42
-0.041572
  0
VERTEX
  8
0
  5
F40
 10
963.518709
 20
169.214133
 30
0.0
 42
-0.042249
  0
VERTEX
  8
0
  5
F41
 10
962.839493
 20
169.582469
 30
0.0
 42
-0.043112
  0
VERTEX
  8
0
  5
F42
 10
962.238564
 20
170.05609
 30
0.0
 42
-0.044071
  0
VERTEX
  8
0
  5
F43
 10
961.734204
 20
170.620661
 30
0.0
 42
-0.045013
  0
VERTEX
  8
0
  5
F44
 10
961.341788
 20
171.259065
 30
0.0
 42
-0.045812
  0
VERTEX
  8
0
  5
F45
 10
961.073304
 20
171.951914
 30
0.0
 42
-0.042652
  0
VERTEX
  8
0
  5
F46
 10
960.94289
 20
172.619326
 30
0.0
  0
SEQEND
  8
0
  5
F47
  0
POLYLINE
  8
0
  5
5D6
 66
     1
 10
0.0
 20
0.0
 30
0.0
 70
     1
  0
VERTEX
  8
0
  5
F48
 10
960.936972
 20
172.560526
 30
0.0
 42
-0.015339
  0
VERTEX
  8
0
  5
F49
 10
960.988146
 20
172.926092
 30
0.0
 42
-0.030908
  0
VERTEX
  8
0
  5
F4A
 10
961.073304
 20
173.286737
 30
0.0
 42
-0.000167
  0
VERTEX
  8
0
  5
F4B
 10
961.191652
 20
173.639333
 30
0.0
 42
-0.045199
  0
VERTEX
  8
0
  5
F4C
 10
961.522667
 20
174.306109
 30
0.0
 42
-0.045013
  0
VERTEX
  8
0
  5
F4D
 10
961.734204
 20
174.61799
 30
0.0
 42
-0.000237
  0
VERTEX
  8
0
  5
F4E
 10
961.973934
 20
174.911419
 30
0.0
 42
-0.043429
  0
VERTEX
  8
0
  5
F4F
 10
962.527237
 20
175.431109
 30
0.0
 42
-0.043112
  0
VERTEX
  8
0
  5
F50
 10
962.839493
 20
175.656182
 30
0.0
 42
-0.000191
  0
VERTEX
  8
0
  5
F51
 10
963.17132
 20
175.854725
 30
0.0
 42
-0.04179
  0
VERTEX
  8
0
  5
F52
 10
963.88069
 20
176.1654
 30
0.0
 42
-0.041572
  0
VERTEX
  8
0
  5
F53
 10
964.255582
 20
176.276435
 30
0.0
 42
-0.000072
  0
VERTEX
  8
0
  5
F54
 10
964.639038
 20
176.356287
 30
0.0
 42
-0.040966
  0
VERTEX
  8
0
  5
F55
 10
965.419781
 20
176.420417
 30
0.0
 42
-0.040894
  0
VERTEX
  8
0
  5
F56
 10
966.200524
 20
176.356287
 30
0.0
 42
-0.041069
  0
VERTEX
  8
0
  5
F57
 10
966.58398
 20
176.276435
 30
0.0
 42
-0.000138
  0
VERTEX
  8
0
  5
F58
 10
966.958872
 20
176.1654
 30
0.0
 42
-0.0416
  0
VERTEX
  8
0
  5
F59
 10
967.668242
 20
175.854725
 30
0.0
 42
-0.042055
  0
VERTEX
  8
0
  5
F5A
 10
968.000069
 20
175.656182
 30
0.0
 42
-0.000227
  0
VERTEX
  8
0
  5
F5B
 10
968.312325
 20
175.431109
 30
0.0
 42
-0.043195
  0
VERTEX
  8
0
  5
F5C
 10
968.865627
 20
174.911419
 30
0.0
 42
-0.043831
  0
VERTEX
  8
0
  5
F5D
 10
969.105358
 20
174.61799
 30
0.0
 42
-0.000217
  0
VERTEX
  8
0
  5
F5E
 10
969.316895
 20
174.306109
 30
0.0
 42
-0.045033
  0
VERTEX
  8
0
  5
F5F
 10
969.64791
 20
173.639333
 30
0.0
 42
-0.045643
  0
VERTEX
  8
0
  5
F60
 10
969.766258
 20
173.286737
 30
0.0
 42
-0.000091
  0
VERTEX
  8
0
  5
F61
 10
969.851416
 20
172.926092
 30
0.0
 42
-0.046197
  0
VERTEX
  8
0
  5
F62
 10
969.919781
 20
172.1918
 30
0.0
 42
-0.046198
  0
VERTEX
  8
0
  5
F63
 10
969.851416
 20
171.457509
 30
0.0
 42
-0.046349
  0
VERTEX
  8
0
  5
F64
 10
969.766258
 20
171.096863
 30
0.0
 42
-0.000167
  0
VERTEX
  8
0
  5
F65
 10
969.64791
 20
170.744268
 30
0.0
 42
-0.045199
  0
VERTEX
  8
0
  5
F66
 10
969.316895
 20
170.077492
 30
0.0
 42
-0.045013
  0
VERTEX
  8
0
  5
F67
 10
969.105358
 20
169.765611
 30
0.0
 42
-0.000237
  0
VERTEX
  8
0
  5
F68
 10
968.865627
 20
169.472182
 30
0.0
 42
-0.043429
  0
VERTEX
  8
0
  5
F69
 10
968.312325
 20
168.952492
 30
0.0
 42
-0.043112
  0
VERTEX
  8
0
  5
F6A
 10
968.000069
 20
168.727419
 30
0.0
 42
-0.000191
  0
VERTEX
  8
0
  5
F6B
 10
967.668242
 20
168.528876
 30
0.0
 42
-0.04179
  0
VERTEX
  8
0
  5
F6C
 10
966.958872
 20
168.2182
 30
0.0
 42
-0.041572
  0
VERTEX
  8
0
  5
F6D
 10
966.58398
 20
168.107166
 30
0.0
 42
-0.000072
  0
VERTEX
  8
0
  5
F6E
 10
966.200524
 20
168.027314
 30
0.0
 42
-0.040966
  0
VERTEX
  8
0
  5
F6F
 10
965.419781
 20
167.963184
 30
0.0
 42
-0.040894
  0
VERTEX
  8
0
  5
F70
 10
964.639038
 20
168.027314
 30
0.0
 42
-0.041069
  0
VERTEX
  8
0
  5
F71
 10
964.255582
 20
168.107166
 30
0.0
 42
-0.000138
  0
VERTEX
  8
0
  5
F72
 10
963.88069
 20
168.2182
 30
0.0
 42
-0.0416
  0
VERTEX
  8
0
  5
F73
 10
963.17132
 20
168.528876
 30
0.0
 42
-0.042055
  0
VERTEX
  8
0
  5
F74
 10
962.839493
 20
168.727419
 30
0.0
 42
-0.000227
  0
VERTEX
  8
0
  5
F75
 10
962.527237
 20
168.952492
 30
0.0
 42
-0.043195
  0
VERTEX
  8
0
  5
F76
 10
961.973934
 20
169.472182
 30
0.0
 42
-0.043831
  0
VERTEX
  8
0
  5
F77
 10
961.734204
 20
169.765611
 30
0.0
 42
-0.000217
  0
VERTEX
  8
0
  5
F78
 10
961.522667
 20
170.077492
 30
0.0
 42
-0.045033
  0
VERTEX
  8
0
  5
F79
 10
961.191652
 20
170.744268
 30
0.0
 42
-0.045643
  0
VERTEX
  8
0
  5
F7A
 10
961.073304
 20
171.096863
 30
0.0
 42
-0.000091
  0
VERTEX
  8
0
  5
F7B
 10
960.988146
 20
171.457509
 30
0.0
 42
-0.046197
  0
VERTEX
  8
0
  5
F7C
 10
960.919781
 20
172.1918
 30
0.0
  0
VERTEX
  8
0
  5
F7D
 10
960.936972
 20
172.560526
 30
0.0
  0
SEQEND
  8
0
  5
F7E
  0
POLYLINE
  8
0
  5
60E
 66
     1
 10
0.0
 20
0.0
 30
0.0
  0
VERTEX
  8
0
  5
F7F
 10
969.896671
 20
125.634695
 30
0.0
 42
-0.042677
  0
VERTEX
  8
0
  5
F80
 10
969.766258
 20
124.967283
 30
0.0
 42
-0.045809
  0
VERTEX
  8
0
  5
F81
 10
969.497774
 20
124.274434
 30
0.0
 42
-0.045009
  0
VERTEX
  8
0
  5
F82
 10
969.105358
 20
123.63603
 30
0.0
 42
-0.044067
  0
VERTEX
  8
0
  5
F83
 10
968.600998
 20
123.071459
 30
0.0
 42
-0.043109
  0
VERTEX
  8
0
  5
F84
 10
968.000069
 20
122.597838
 30
0.0
 42
-0.042247
  0
VERTEX
  8
0
  5
F85
 10
967.320852
 20
122.229502
 30
0.0
 42
-0.04157
  0
VERTEX
  8
0
  5
F86
 10
966.58398
 20
121.977585
 30
0.0
 42
-0.04114
  0
VERTEX
  8
0
  5
F87
 10
965.811809
 20
121.849696
 30
0.0
 42
-0.040994
  0
VERTEX
  8
0
  5
F88
 10
965.027753
 20
121.849696
 30
0.0
 42
-0.041141
  0
VERTEX
  8
0
  5
F89
 10
964.255582
 20
121.977585
 30
0.0
 42
-0.041572
  0
VERTEX
  8
0
  5
F8A
 10
963.518709
 20
122.229502
 30
0.0
 42
-0.042249
  0
VERTEX
  8
0
  5
F8B
 10
962.839493
 20
122.597838
 30
0.0
 42
-0.043112
  0
VERTEX
  8
0
  5
F8C
 10
962.238564
 20
123.071459
 30
0.0
 42
-0.044071
  0
VERTEX
  8
0
  5
F8D
 10
961.734204
 20
123.63603
 30
0.0
 42
-0.045013
  0
VERTEX
  8
0
  5
F8E
 10
961.341788
 20
124.274434
 30
0.0
 42
-0.045812
  0
VERTEX
  8
0
  5
F8F
 10
961.073304
 20
124.967283
 30
0.0
 42
-0.042652
  0
VERTEX
  8
0
  5
F90
 10
960.94289
 20
125.634695
 30
0.0
  0
SEQEND
  8
0
  5
F91
  0
POLYLINE
  8
0
  5
622
 66
     1
 10
0.0
 20
0.0
 30
0.0
 70
     1
  0
VERTEX
  8
0
  5
F92
 10
960.936972
 20
125.575895
 30
0.0
 42
-0.015339
  0
VERTEX
  8
0
  5
F93
 10
960.988146
 20
125.941461
 30
0.0
 42
-0.030908
  0
VERTEX
  8
0
  5
F94
 10
961.073304
 20
126.302106
 30
0.0
 42
-0.000167
  0
VERTEX
  8
0
  5
F95
 10
961.191652
 20
126.654702
 30
0.0
 42
-0.045199
  0
VERTEX
  8
0
  5
F96
 10
961.522667
 20
127.321478
 30
0.0
 42
-0.045013
  0
VERTEX
  8
0
  5
F97
 10
961.734204
 20
127.633359
 30
0.0
 42
-0.000237
  0
VERTEX
  8
0
  5
F98
 10
961.973934
 20
127.926788
 30
0.0
 42
-0.043429
  0
VERTEX
  8
0
  5
F99
 10
962.527237
 20
128.446478
 30
0.0
 42
-0.043112
  0
VERTEX
  8
0
  5
F9A
 10
962.839493
 20
128.671551
 30
0.0
 42
-0.000191
  0
VERTEX
  8
0
  5
F9B
 10
963.17132
 20
128.870094
 30
0.0
 42
-0.04179
  0
VERTEX
  8
0
  5
F9C
 10
963.88069
 20
129.180769
 30
0.0
 42
-0.041572
  0
VERTEX
  8
0
  5
F9D
 10
964.255582
 20
129.291804
 30
0.0
 42
-0.000072
  0
VERTEX
  8
0
  5
F9E
 10
964.639038
 20
129.371656
 30
0.0
 42
-0.040966
  0
VERTEX
  8
0
  5
F9F
 10
965.419781
 20
129.435786
 30
0.0
 42
-0.040894
  0
VERTEX
  8
0
  5
FA0
 10
966.200524
 20
129.371656
 30
0.0
 42
-0.041069
  0
VERTEX
  8
0
  5
FA1
 10
966.58398
 20
129.291804
 30
0.0
 42
-0.000138
  0
VERTEX
  8
0
  5
FA2
 10
966.958872
 20
129.180769
 30
0.0
 42
-0.0416
  0
VERTEX
  8
0
  5
FA3
 10
967.668242
 20
128.870094
 30
0.0
 42
-0.042055
  0
VERTEX
  8
0
  5
FA4
 10
968.000069
 20
128.671551
 30
0.0
 42
-0.000227
  0
VERTEX
  8
0
  5
FA5
 10
968.312325
 20
128.446478
 30
0.0
 42
-0.043195
  0
VERTEX
  8
0
  5
FA6
 10
968.865627
 20
127.926788
 30
0.0
 42
-0.043831
  0
VERTEX
  8
0
  5
FA7
 10
969.105358
 20
127.633359
 30
0.0
 42
-0.000217
  0
VERTEX
  8
0
  5
FA8
 10
969.316895
 20
127.321478
 30
0.0
 42
-0.045033
  0
VERTEX
  8
0
  5
FA9
 10
969.64791
 20
126.654702
 30
0.0
 42
-0.045643
  0
VERTEX
  8
0
  5
FAA
 10
969.766258
 20
126.302106
 30
0.0
 42
-0.000091
  0
VERTEX
  8
0
  5
FAB
 10
969.851416
 20
125.941461
 30
0.0
 42
-0.046197
  0
VERTEX
  8
0
  5
FAC
 10
969.919781
 20
125.207169
 30
0.0
 42
-0.046198
  0
VERTEX
  8
0
  5
FAD
 10
969.851416
 20
124.472878
 30
0.0
 42
-0.046349
  0
VERTEX
  8
0
  5
FAE
 10
969.766258
 20
124.112232
 30
0.0
 42
-0.000167
  0
VERTEX
  8
0
  5
FAF
 10
969.64791
 20
123.759637
 30
0.0
 42
-0.045199
  0
VERTEX
  8
0
  5
FB0
 10
969.316895
 20
123.092861
 30
0.0
 42
-0.045013
  0
VERTEX
  8
0
  5
FB1
 10
969.105358
 20
122.78098
 30
0.0
 42
-0.000237
  0
VERTEX
  8
0
  5
FB2
 10
968.865627
 20
122.487551
 30
0.0
 42
-0.043429
  0
VERTEX
  8
0
  5
FB3
 10
968.312325
 20
121.967861
 30
0.0
 42
-0.043112
  0
VERTEX
  8
0
  5
FB4
 10
968.000069
 20
121.742788
 30
0.0
 42
-0.000191
  0
VERTEX
  8
0
  5
FB5
 10
967.668242
 20
121.544245
 30
0.0
 42
-0.04179
  0
VERTEX
  8
0
  5
FB6
 10
966.958872
 20
121.233569
 30
0.0
 42
-0.041572
  0
VERTEX
  8
0
  5
FB7
 10
966.58398
 20
121.122535
 30
0.0
 42
-0.000072
  0
VERTEX
  8
0
  5
FB8
 10
966.200524
 20
121.042683
 30
0.0
 42
-0.040966
  0
VERTEX
  8
0
  5
FB9
 10
965.419781
 20
120.978553
 30
0.0
 42
-0.040894
  0
VERTEX
  8
0
  5
FBA
 10
964.639038
 20
121.042683
 30
0.0
 42
-0.041069
  0
VERTEX
  8
0
  5
FBB
 10
964.255582
 20
121.122535
 30
0.0
 42
-0.000138
  0
VERTEX
  8
0
  5
FBC
 10
963.88069
 20
121.233569
 30
0.0
 42
-0.0416
  0
VERTEX
  8
0
  5
FBD
 10
963.17132
 20
121.544245
 30
0.0
 42
-0.042055
  0
VERTEX
  8
0
  5
FBE
 10
962.839493
 20
121.742788
 30
0.0
 42
-0.000227
  0
VERTEX
  8
0
  5
FBF
 10
962.527237
 20
121.967861
 30
0.0
 42
-0.043195
  0
VERTEX
  8
0
  5
FC0
 10
961.973934
 20
122.487551
 30
0.0
 42
-0.043831
  0
VERTEX
  8
0
  5
FC1
 10
961.734204
 20
122.78098
 30
0.0
 42
-0.000217
  0
VERTEX
  8
0
  5
FC2
 10
961.522667
 20
123.092861
 30
0.0
 42
-0.045033
  0
VERTEX
  8
0
  5
FC3
 10
961.191652
 20
123.759637
 30
0.0
 42
-0.045643
  0
VERTEX
  8
0
  5
FC4
 10
961.073304
 20
124.112232
 30
0.0
 42
-0.000091
  0
VERTEX
  8
0
  5
FC5
 10
960.988146
 20
124.472878
 30
0.0
 42
-0.046197
  0
VERTEX
  8
0
  5
FC6
 10
960.919781
 20
125.207169
 30
0.0
  0
VERTEX
  8
0
  5
FC7
 10
960.936972
 20
125.575895
 30
0.0
  0
SEQEND
  8
0
  5
FC8
  0
POLYLINE
  8
0
  5
65A
 66
     1
 10
0.0
 20
0.0
 30
0.0
 70
     1
  0
VERTEX
  8
0
  5
FC9
 10
960.936972
 20
149.06821
 30
0.0
 42
-0.015339
  0
VERTEX
  8
0
  5
FCA
 10
960.988146
 20
149.433776
 30
0.0
 42
-0.030908
  0
VERTEX
  8
0
  5
FCB
 10
961.073304
 20
149.794422
 30
0.0
 42
-0.000167
  0
VERTEX
  8
0
  5
FCC
 10
961.191652
 20
150.147017
 30
0.0
 42
-0.045199
  0
VERTEX
  8
0
  5
FCD
 10
961.522667
 20
150.813793
 30
0.0
 42
-0.045013
  0
VERTEX
  8
0
  5
FCE
 10
961.734204
 20
151.125675
 30
0.0
 42
-0.000237
  0
VERTEX
  8
0
  5
FCF
 10
961.973934
 20
151.419103
 30
0.0
 42
-0.043429
  0
VERTEX
  8
0
  5
FD0
 10
962.527237
 20
151.938793
 30
0.0
 42
-0.043112
  0
VERTEX
  8
0
  5
FD1
 10
962.839493
 20
152.163866
 30
0.0
 42
-0.000191
  0
VERTEX
  8
0
  5
FD2
 10
963.17132
 20
152.362409
 30
0.0
 42
-0.04179
  0
VERTEX
  8
0
  5
FD3
 10
963.88069
 20
152.673085
 30
0.0
 42
-0.041572
  0
VERTEX
  8
0
  5
FD4
 10
964.255582
 20
152.78412
 30
0.0
 42
-0.000072
  0
VERTEX
  8
0
  5
FD5
 10
964.639038
 20
152.863971
 30
0.0
 42
-0.040966
  0
VERTEX
  8
0
  5
FD6
 10
965.419781
 20
152.928102
 30
0.0
 42
-0.040894
  0
VERTEX
  8
0
  5
FD7
 10
966.200524
 20
152.863971
 30
0.0
 42
-0.041069
  0
VERTEX
  8
0
  5
FD8
 10
966.58398
 20
152.78412
 30
0.0
 42
-0.000138
  0
VERTEX
  8
0
  5
FD9
 10
966.958872
 20
152.673085
 30
0.0
 42
-0.0416
  0
VERTEX
  8
0
  5
FDA
 10
967.668242
 20
152.362409
 30
0.0
 42
-0.042055
  0
VERTEX
  8
0
  5
FDB
 10
968.000069
 20
152.163866
 30
0.0
 42
-0.000227
  0
VERTEX
  8
0
  5
FDC
 10
968.312325
 20
151.938793
 30
0.0
 42
-0.043195
  0
VERTEX
  8
0
  5
FDD
 10
968.865627
 20
151.419103
 30
0.0
 42
-0.043831
  0
VERTEX
  8
0
  5
FDE
 10
969.105358
 20
151.125675
 30
0.0
 42
-0.000217
  0
VERTEX
  8
0
  5
FDF
 10
969.316895
 20
150.813793
 30
0.0
 42
-0.045033
  0
VERTEX
  8
0
  5
FE0
 10
969.64791
 20
150.147017
 30
0.0
 42
-0.045643
  0
VERTEX
  8
0
  5
FE1
 10
969.766258
 20
149.794422
 30
0.0
 42
-0.000091
  0
VERTEX
  8
0
  5
FE2
 10
969.851416
 20
149.433776
 30
0.0
 42
-0.046197
  0
VERTEX
  8
0
  5
FE3
 10
969.919781
 20
148.699485
 30
0.0
 42
-0.046198
  0
VERTEX
  8
0
  5
FE4
 10
969.851416
 20
147.965193
 30
0.0
 42
-0.046349
  0
VERTEX
  8
0
  5
FE5
 10
969.766258
 20
147.604548
 30
0.0
 42
-0.000167
  0
VERTEX
  8
0
  5
FE6
 10
969.64791
 20
147.251953
 30
0.0
 42
-0.045199
  0
VERTEX
  8
0
  5
FE7
 10
969.316895
 20
146.585176
 30
0.0
 42
-0.045013
  0
VERTEX
  8
0
  5
FE8
 10
969.105358
 20
146.273295
 30
0.0
 42
-0.000237
  0
VERTEX
  8
0
  5
FE9
 10
968.865627
 20
145.979866
 30
0.0
 42
-0.043429
  0
VERTEX
  8
0
  5
FEA
 10
968.312325
 20
145.460176
 30
0.0
 42
-0.043112
  0
VERTEX
  8
0
  5
FEB
 10
968.000069
 20
145.235104
 30
0.0
 42
-0.000191
  0
VERTEX
  8
0
  5
FEC
 10
967.668242
 20
145.03656
 30
0.0
 42
-0.04179
  0
VERTEX
  8
0
  5
FED
 10
966.958872
 20
144.725885
 30
0.0
 42
-0.041572
  0
VERTEX
  8
0
  5
FEE
 10
966.58398
 20
144.61485
 30
0.0
 42
-0.000072
  0
VERTEX
  8
0
  5
FEF
 10
966.200524
 20
144.534999
 30
0.0
 42
-0.040966
  0
VERTEX
  8
0
  5
FF0
 10
965.419781
 20
144.470868
 30
0.0
 42
-0.040894
  0
VERTEX
  8
0
  5
FF1
 10
964.639038
 20
144.534999
 30
0.0
 42
-0.041069
  0
VERTEX
  8
0
  5
FF2
 10
964.255582
 20
144.61485
 30
0.0
 42
-0.000138
  0
VERTEX
  8
0
  5
FF3
 10
963.88069
 20
144.725885
 30
0.0
 42
-0.0416
  0
VERTEX
  8
0
  5
FF4
 10
963.17132
 20
145.03656
 30
0.0
 42
-0.042055
  0
VERTEX
  8
0
  5
FF5
 10
962.839493
 20
145.235104
 30
0.0
 42
-0.000227
  0
VERTEX
  8
0
  5
FF6
 10
962.527237
 20
145.460176
 30
0.0
 42
-0.043195
  0
VERTEX
  8
0
  5
FF7
 10
961.973934
 20
145.979866
 30
0.0
 42
-0.043831
  0
VERTEX
  8
0
  5
FF8
 10
961.734204
 20
146.273295
 30
0.0
 42
-0.000217
  0
VERTEX
  8
0
  5
FF9
 10
961.522667
 20
146.585176
 30
0.0
 42
-0.045033
  0
VERTEX
  8
0
  5
FFA
 10
961.191652
 20
147.251953
 30
0.0
 42
-0.045643
  0
VERTEX
  8
0
  5
FFB
 10
961.073304
 20
147.604548
 30
0.0
 42
-0.000091
  0
VERTEX
  8
0
  5
FFC
 10
960.988146
 20
147.965193
 30
0.0
 42
-0.046197
  0
VERTEX
  8
0
  5
FFD
 10
960.919781
 20
148.699485
 30
0.0
  0
VERTEX
  8
0
  5
FFE
 10
960.936972
 20
149.06821
 30
0.0
  0
SEQEND
  8
0
  5
FFF
  0
POLYLINE
  8
0
  5
692
 66
     1
 10
0.0
 20
0.0
 30
0.0
  0
VERTEX
  8
0
  5
1000
 10
969.896671
 20
149.12701
 30
0.0
 42
-0.042677
  0
VERTEX
  8
0
  5
1001
 10
969.766258
 20
148.459598
 30
0.0
 42
-0.045809
  0
VERTEX
  8
0
  5
1002
 10
969.497774
 20
147.76675
 30
0.0
 42
-0.045009
  0
VERTEX
  8
0
  5
1003
 10
969.105358
 20
147.128345
 30
0.0
 42
-0.044067
  0
VERTEX
  8
0
  5
1004
 10
968.600998
 20
146.563775
 30
0.0
 42
-0.043109
  0
VERTEX
  8
0
  5
1005
 10
968.000069
 20
146.090154
 30
0.0
 42
-0.042247
  0
VERTEX
  8
0
  5
1006
 10
967.320852
 20
145.721818
 30
0.0
 42
-0.04157
  0
VERTEX
  8
0
  5
1007
 10
966.58398
 20
145.469901
 30
0.0
 42
-0.04114
  0
VERTEX
  8
0
  5
1008
 10
965.811809
 20
145.342012
 30
0.0
 42
-0.040994
  0
VERTEX
  8
0
  5
1009
 10
965.027753
 20
145.342012
 30
0.0
 42
-0.041141
  0
VERTEX
  8
0
  5
100A
 10
964.255582
 20
145.469901
 30
0.0
 42
-0.041572
  0
VERTEX
  8
0
  5
100B
 10
963.518709
 20
145.721818
 30
0.0
 42
-0.042249
  0
VERTEX
  8
0
  5
100C
 10
962.839493
 20
146.090154
 30
0.0
 42
-0.043112
  0
VERTEX
  8
0
  5
100D
 10
962.238564
 20
146.563775
 30
0.0
 42
-0.044071
  0
VERTEX
  8
0
  5
100E
 10
961.734204
 20
147.128345
 30
0.0
 42
-0.045013
  0
VERTEX
  8
0
  5
100F
 10
961.341788
 20
147.76675
 30
0.0
 42
-0.045812
  0
VERTEX
  8
0
  5
1010
 10
961.073304
 20
148.459598
 30
0.0
 42
-0.042652
  0
VERTEX
  8
0
  5
1011
 10
960.94289
 20
149.12701
 30
0.0
  0
SEQEND
  8
0
  5
1012
  0
CIRCLE
  8
0
  5
6A6
 10
965.419781
 20
198.689628
 30
0.0
 40
4.5
  0
LINE
  8
0
  5
6A7
 10
973.419781
 20
188.689628
 30
0.0
 11
957.419781
 21
188.689628
 31
0.0
  0
LINE
  8
CENTER
  6
CENTER
  5
6A8
 10
958.417695
 20
198.689628
 30
0.0
 11
972.419781
 21
198.689628
 31
0.0
  0
LINE
  8
CENTER
  6
CENTER
  5
6A9
 10
972.419781
 20
223.689628
 30
0.0
 11
958.419781
 21
223.689628
 31
0.0
  0
CIRCLE
  8
0
  5
6AA
 10
965.419781
 20
223.689628
 30
0.0
 40
4.5
  0
CIRCLE
  8
0
  5
6AB
 10
965.419781
 20
248.689628
 30
0.0
 40
4.5
  0
LINE
  8
CENTER
  6
CENTER
  5
6AC
 10
958.417695
 20
298.689628
 30
0.0
 11
972.417695
 21
298.689628
 31
0.0
  0
LINE
  8
CENTER
  6
CENTER
  5
6AD
 10
958.419781
 20
273.689628
 30
0.0
 11
972.419781
 21
273.689628
 31
0.0
  0
CIRCLE
  8
0
  5
6AE
 10
965.419781
 20
273.689628
 30
0.0
 40
4.5
  0
LINE
  8
0
  5
6B0
 10
957.419781
 20
308.689628
 30
0.0
 11
955.419781
 21
297.172087
 31
0.0
  0
LINE
  8
0
  5
6B1
 10
955.419781
 20
319.512577
 30
0.0
 11
955.419781
 21
297.172087
 31
0.0
  0
LINE
  8
0
  5
6B2
 10
955.419781
 20
297.172087
 30
0.0
 11
953.419781
 21
308.689628
 31
0.0
  0
LINE
  8
0
  5
6B3
 10
891.154546
 20
296.568867
 30
0.0
 11
887.15977
 21
319.224368
 31
0.0
  0
LINE
  8
0
  5
6B4
 10
891.154546
 20
189.130446
 30
0.0
 11
891.154546
 21
308.248811
 31
0.0
  0
LINE
  8
0
  5
6B5
 10
893.654546
 20
308.689628
 30
0.0
 11
893.654546
 21
188.689628
 31
0.0
  0
LINE
  8
0
  5
6B6
 10
950.419781
 20
117.689628
 30
0.0
 11
950.419781
 21
379.689628
 31
0.0
  0
LINE
  8
0
  5
6B7
 10
975.419781
 20
297.172087
 30
0.0
 11
973.419781
 21
308.689628
 31
0.0
  0
LINE
  8
0
  5
6B8
 10
975.419781
 20
297.172087
 30
0.0
 11
975.419781
 21
319.512577
 31
0.0
  0
LINE
  8
0
  5
6B9
 10
977.419781
 20
308.689628
 30
0.0
 11
975.419781
 21
297.172087
 31
0.0
  0
CIRCLE
  8
0
  5
6BA
 10
965.419781
 20
298.689628
 30
0.0
 40
4.5
  0
LINE
  8
CENTER
  6
CENTER
  5
6BB
 10
965.419781
 20
384.689628
 30
0.0
 11
965.419781
 21
112.689628
 31
0.0
  0
LINE
  8
0
  5
6BC
 10
980.419781
 20
379.689628
 30
0.0
 11
980.419781
 21
117.689628
 31
0.0
  0
DIMENSION
  8
SCALE
  5
6BD
  2
*D18
 10
1057.376393
 20
117.689628
 30
0.0
 11
1044.176393
 21
248.689628
 31
0.0
 12
0.0
 22
-10.341845
 32
0.0
  1
262
 13
980.419781
 23
379.689628
 33
0.0
 14
980.419781
 24
117.689628
 34
0.0
 50
90.0
  3
STANDARD
1001
ACAD
1000
DSTYLE
1002
{
1070
   140
1040
2.2
1070
   145
1040
1.0
1070
    74
1070
     0
1070
   172
1070
     1
1070
    73
1070
     0
1070
    40
1040
6.0
1070
    42
1040
2.0
1070
    44
1040
1.5
1070
    43
1040
10.0
1070
     5
1000
YAZ3
1070
    41
1040
1.5
1002
}
  0
LINE
  8
0
  5
6E2
 10
867.812659
 20
508.90721
 30
0.0
 11
867.812659
 21
511.90721
 31
0.0
  0
LINE
  8
0
  5
6E3
 10
870.673926
 20
506.90721
 30
0.0
 11
867.812659
 21
508.90721
 31
0.0
  0
LINE
  8
0
  5
6E4
 10
867.812659
 20
504.90721
 30
0.0
 11
870.673926
 21
506.90721
 31
0.0
  0
LINE
  8
0
  5
6E5
 10
867.812659
 20
508.90721
 30
0.0
 11
862.812659
 21
506.90721
 31
0.0
  0
LINE
  8
0
  5
6E6
 10
862.812659
 20
506.90721
 30
0.0
 11
867.812659
 21
504.90721
 31
0.0
  0
LINE
  8
0
  5
6E7
 10
870.673926
 20
506.90721
 30
0.0
 11
862.812659
 21
506.90721
 31
0.0
  0
LINE
  8
0
  5
6E8
 10
867.812659
 20
481.90721
 30
0.0
 11
867.812659
 21
484.90721
 31
0.0
  0
LINE
  8
0
  5
6E9
 10
867.812659
 20
484.90721
 30
0.0
 11
870.673926
 21
486.90721
 31
0.0
  0
LINE
  8
0
  5
6EA
 10
870.673926
 20
486.90721
 30
0.0
 11
867.812659
 21
488.90721
 31
0.0
  0
LINE
  8
0
  5
6EB
 10
862.812659
 20
486.90721
 30
0.0
 11
867.812659
 21
484.90721
 31
0.0
  0
LINE
  8
0
  5
6EC
 10
862.812659
 20
486.90721
 30
0.0
 11
870.673926
 21
486.90721
 31
0.0
  0
LINE
  8
0
  5
6ED
 10
867.812659
 20
488.90721
 30
0.0
 11
862.812659
 21
486.90721
 31
0.0
  0
LINE
  8
CENTER
  6
CENTER
  5
6EE
 10
850.654546
 20
503.90721
 30
0.0
 11
850.654546
 21
489.90721
 31
0.0
  0
CIRCLE
  8
0
  5
6EF
 10
850.654546
 20
496.90721
 30
0.0
 40
4.5
  0
LINE
  8
0
  5
6F0
 10
867.812659
 20
488.90721
 30
0.0
 11
867.812659
 21
504.90721
 31
0.0
  0
POLYLINE
  8
0
  5
6F1
 66
     1
 10
0.0
 20
0.0
 30
0.0
  0
VERTEX
  8
0
  5
1013
 10
869.374204
 20
493.999488
 30
0.0
 42
0.012809
  0
VERTEX
  8
0
  5
1014
 10
869.462364
 20
494.334283
 30
0.0
 42
0.018894
  0
VERTEX
  8
0
  5
1015
 10
869.595516
 20
495.011642
 30
0.0
 42
0.016474
  0
VERTEX
  8
0
  5
1016
 10
869.686625
 20
495.746397
 30
0.0
 42
0.015204
  0
VERTEX
  8
0
  5
1017
 10
869.73289
 20
496.516323
 30
0.0
 42
0.014808
  0
VERTEX
  8
0
  5
1018
 10
869.73289
 20
497.298096
 30
0.0
 42
0.015204
  0
VERTEX
  8
0
  5
1019
 10
869.686625
 20
498.068023
 30
0.0
 42
0.016475
  0
VERTEX
  8
0
  5
101A
 10
869.595516
 20
498.802778
 30
0.0
 42
0.018897
  0
VERTEX
  8
0
  5
101B
 10
869.462364
 20
499.480136
 30
0.0
 42
0.012804
  0
VERTEX
  8
0
  5
101C
 10
869.374204
 20
499.814931
 30
0.0
  0
SEQEND
  8
0
  5
101D
  0
POLYLINE
  8
0
  5
6FD
 66
     1
 10
0.0
 20
0.0
 30
0.0
 70
     1
  0
VERTEX
  8
0
  5
101E
 10
870.411849
 20
501.388354
 30
0.0
 42
0.025739
  0
VERTEX
  8
0
  5
101F
 10
870.28156
 20
501.338845
 30
0.0
 42
0.071686
  0
VERTEX
  8
0
  5
1020
 10
870.143572
 20
501.248886
 30
0.0
 42
0.007214
  0
VERTEX
  8
0
  5
1021
 10
870.008371
 20
501.120878
 30
0.0
 42
0.054666
  0
VERTEX
  8
0
  5
1022
 10
869.779275
 20
500.804324
 30
0.0
 42
0.042757
  0
VERTEX
  8
0
  5
1023
 10
869.661026
 20
500.583538
 30
0.0
 42
0.002372
  0
VERTEX
  8
0
  5
1024
 10
869.551448
 20
500.334615
 30
0.0
 42
0.02689
  0
VERTEX
  8
0
  5
1025
 10
869.369808
 20
499.799754
 30
0.0
 42
0.023066
  0
VERTEX
  8
0
  5
1026
 10
869.286044
 20
499.480136
 30
0.0
 42
0.00081
  0
VERTEX
  8
0
  5
1027
 10
869.213063
 20
499.142694
 30
0.0
 42
0.017813
  0
VERTEX
  8
0
  5
1028
 10
869.102548
 20
498.4463
 30
0.0
 42
0.016475
  0
VERTEX
  8
0
  5
1029
 10
869.061784
 20
498.068023
 30
0.0
 42
0.000206
  0
VERTEX
  8
0
  5
102A
 10
869.032797
 20
497.683407
 30
0.0
 42
0.015101
  0
VERTEX
  8
0
  5
102B
 10
869.009729
 20
496.90721
 30
0.0
 42
0.014899
  0
VERTEX
  8
0
  5
102C
 10
869.032797
 20
496.131013
 30
0.0
 42
0.014998
  0
VERTEX
  8
0
  5
102D
 10
869.061784
 20
495.746397
 30
0.0
 42
0.000456
  0
VERTEX
  8
0
  5
102E
 10
869.102548
 20
495.368119
 30
0.0
 42
0.017081
  0
VERTEX
  8
0
  5
102F
 10
869.213063
 20
494.671725
 30
0.0
 42
0.018085
  0
VERTEX
  8
0
  5
1030
 10
869.286044
 20
494.334283
 30
0.0
 42
0.001378
  0
VERTEX
  8
0
  5
1031
 10
869.369808
 20
494.014665
 30
0.0
 42
0.024925
  0
VERTEX
  8
0
  5
1032
 10
869.551448
 20
493.479804
 30
0.0
 42
0.027806
  0
VERTEX
  8
0
  5
1033
 10
869.661026
 20
493.230882
 30
0.0
 42
0.004204
  0
VERTEX
  8
0
  5
1034
 10
869.779275
 20
493.010095
 30
0.0
 42
0.049183
  0
VERTEX
  8
0
  5
1035
 10
870.008371
 20
492.693541
 30
0.0
 42
0.058212
  0
VERTEX
  8
0
  5
1036
 10
870.143572
 20
492.565534
 30
0.0
 42
0.009469
  0
VERTEX
  8
0
  5
1037
 10
870.28156
 20
492.475575
 30
0.0
 42
0.112004
  0
VERTEX
  8
0
  5
1038
 10
870.54882
 20
492.40721
 30
0.0
 42
0.1129
  0
VERTEX
  8
0
  5
1039
 10
870.81608
 20
492.475575
 30
0.0
 42
0.107194
  0
VERTEX
  8
0
  5
103A
 10
870.954069
 20
492.565534
 30
0.0
 42
0.007214
  0
VERTEX
  8
0
  5
103B
 10
871.089269
 20
492.693541
 30
0.0
 42
0.054666
  0
VERTEX
  8
0
  5
103C
 10
871.318365
 20
493.010095
 30
0.0
 42
0.042757
  0
VERTEX
  8
0
  5
103D
 10
871.436614
 20
493.230882
 30
0.0
 42
0.002372
  0
VERTEX
  8
0
  5
103E
 10
871.546193
 20
493.479804
 30
0.0
 42
0.02689
  0
VERTEX
  8
0
  5
103F
 10
871.727832
 20
494.014665
 30
0.0
 42
0.023066
  0
VERTEX
  8
0
  5
1040
 10
871.811596
 20
494.334283
 30
0.0
 42
0.00081
  0
VERTEX
  8
0
  5
1041
 10
871.884577
 20
494.671725
 30
0.0
 42
0.017813
  0
VERTEX
  8
0
  5
1042
 10
871.995092
 20
495.368119
 30
0.0
 42
0.016475
  0
VERTEX
  8
0
  5
1043
 10
872.035856
 20
495.746397
 30
0.0
 42
0.000206
  0
VERTEX
  8
0
  5
1044
 10
872.064843
 20
496.131013
 30
0.0
 42
0.015101
  0
VERTEX
  8
0
  5
1045
 10
872.087911
 20
496.90721
 30
0.0
 42
0.014899
  0
VERTEX
  8
0
  5
1046
 10
872.064843
 20
497.683407
 30
0.0
 42
0.014998
  0
VERTEX
  8
0
  5
1047
 10
872.035856
 20
498.068023
 30
0.0
 42
0.000456
  0
VERTEX
  8
0
  5
1048
 10
871.995092
 20
498.4463
 30
0.0
 42
0.017081
  0
VERTEX
  8
0
  5
1049
 10
871.884577
 20
499.142694
 30
0.0
 42
0.018085
  0
VERTEX
  8
0
  5
104A
 10
871.811596
 20
499.480136
 30
0.0
 42
0.001378
  0
VERTEX
  8
0
  5
104B
 10
871.727832
 20
499.799754
 30
0.0
 42
0.024925
  0
VERTEX
  8
0
  5
104C
 10
871.546193
 20
500.334615
 30
0.0
 42
0.027806
  0
VERTEX
  8
0
  5
104D
 10
871.436614
 20
500.583538
 30
0.0
 42
0.004204
  0
VERTEX
  8
0
  5
104E
 10
871.318365
 20
500.804324
 30
0.0
 42
0.049183
  0
VERTEX
  8
0
  5
104F
 10
871.089269
 20
501.120878
 30
0.0
 42
0.058212
  0
VERTEX
  8
0
  5
1050
 10
870.954069
 20
501.248886
 30
0.0
 42
0.009469
  0
VERTEX
  8
0
  5
1051
 10
870.81608
 20
501.338845
 30
0.0
 42
0.112004
  0
VERTEX
  8
0
  5
1052
 10
870.54882
 20
501.40721
 30
0.0
  0
VERTEX
  8
0
  5
1053
 10
870.411849
 20
501.388354
 30
0.0
  0
SEQEND
  8
0
  5
1054
  0
LINE
  8
CENTER
  6
CENTER
  5
735
 10
800.654546
 20
503.90721
 30
0.0
 11
800.654546
 21
489.90721
 31
0.0
  0
CIRCLE
  8
0
  5
736
 10
800.654546
 20
496.90721
 30
0.0
 40
4.5
  0
LINE
  8
CENTER
  6
CENTER
  5
737
 10
825.654546
 20
504.161171
 30
0.0
 11
825.654546
 21
489.90721
 31
0.0
  0
CIRCLE
  8
0
  5
738
 10
825.654546
 20
496.90721
 30
0.0
 40
4.5
  0
DIMENSION
  8
SCALE
  5
739
  2
*D20
 10
825.654546
 20
524.189096
 30
0.0
 11
838.154546
 21
537.389096
 31
0.0
 12
0.0
 22
-7.387035
 32
0.0
  1
25
 13
850.654546
 23
503.90721
 33
0.0
 14
825.654546
 24
504.161171
 34
0.0
  3
STANDARD
1001
ACAD
1000
DSTYLE
1002
{
1070
   140
1040
2.2
1070
   145
1040
1.0
1070
    74
1070
     0
1070
   172
1070
     1
1070
    73
1070
     0
1070
    40
1040
6.0
1070
    42
1040
2.0
1070
    44
1040
1.5
1070
    43
1040
10.0
1070
     5
1000
YAZ3
1070
    41
1040
1.5
1002
}
  0
LINE
  8
1
  5
73A
 10
867.908778
 20
379.425543
 30
0.0
 11
867.644692
 21
379.689628
 31
0.0
  0
LINE
  8
1
  5
73B
 10
872.76451
 20
366.08453
 30
0.0
 11
871.221072
 21
367.627967
 31
0.0
  0
LINE
  8
0
  5
73C
 10
869.738679
 20
367.08842
 30
0.0
 11
872.087911
 21
367.943471
 31
0.0
  0
LINE
  8
1
  5
73D
 10
873.573799
 20
363.861027
 30
0.0
 11
870.184236
 21
367.25059
 31
0.0
  0
LINE
  8
1
  5
73E
 10
865.902052
 20
377.189628
 30
0.0
 11
863.402052
 21
379.689628
 31
0.0
  0
LINE
  8
1
  5
73F
 10
864.487838
 20
377.189628
 30
0.0
 11
861.987838
 21
379.689628
 31
0.0
  0
LINE
  8
1
  5
740
 10
863.073625
 20
377.189628
 30
0.0
 11
860.573625
 21
379.689628
 31
0.0
  0
LINE
  8
1
  5
741
 10
861.659411
 20
377.189628
 30
0.0
 11
859.159411
 21
379.689628
 31
0.0
  0
LINE
  8
1
  5
742
 10
860.245198
 20
377.189628
 30
0.0
 11
857.745198
 21
379.689628
 31
0.0
  0
LINE
  8
0
  5
743
 10
861.777125
 20
377.189628
 30
0.0
 11
868.514255
 21
370.452499
 31
0.0
  0
LINE
  8
1
  5
744
 10
868.718067
 20
377.20204
 30
0.0
 11
866.230479
 21
379.689628
 31
0.0
  0
LINE
  8
1
  5
745
 10
868.346563
 20
376.159331
 30
0.0
 11
864.816265
 21
379.689628
 31
0.0
  0
LINE
  8
0
  5
746
 10
866.660498
 20
375.545654
 30
0.0
 11
869.009729
 21
376.400704
 31
0.0
  0
LINE
  8
CENTER
  6
CENTER
  5
747
 10
865.850357
 20
370.461987
 30
0.0
 11
872.898052
 21
373.027138
 31
0.0
  0
LINE
  8
1
  5
748
 10
867.309726
 20
375.781954
 30
0.0
 11
866.153751
 21
376.937929
 31
0.0
  0
LINE
  8
0
  5
749
 10
846.154546
 20
379.689628
 30
0.0
 11
846.154546
 21
377.189628
 31
0.0
  0
LINE
  8
1
  5
74A
 10
856.002557
 20
377.189628
 30
0.0
 11
855.154546
 21
378.03764
 31
0.0
  0
LINE
  8
0
  5
74B
 10
855.154546
 20
379.689628
 30
0.0
 11
855.154546
 21
377.189628
 31
0.0
  0
LINE
  8
1
  5
74C
 10
843.274635
 20
377.189628
 30
0.0
 11
840.774635
 21
379.689628
 31
0.0
  0
LINE
  8
1
  5
74D
 10
841.860421
 20
377.189628
 30
0.0
 11
839.360421
 21
379.689628
 31
0.0
  0
LINE
  8
1
  5
74E
 10
840.446208
 20
377.189628
 30
0.0
 11
837.946208
 21
379.689628
 31
0.0
  0
LINE
  8
1
  5
74F
 10
839.031994
 20
377.189628
 30
0.0
 11
836.531994
 21
379.689628
 31
0.0
  0
LINE
  8
1
  5
750
 10
844.688848
 20
377.189628
 30
0.0
 11
842.188848
 21
379.689628
 31
0.0
  0
LINE
  8
1
  5
751
 10
846.103062
 20
377.189628
 30
0.0
 11
843.603062
 21
379.689628
 31
0.0
  0
LINE
  8
1
  5
752
 10
846.154546
 20
378.552358
 30
0.0
 11
845.017275
 21
379.689628
 31
0.0
  0
LINE
  8
1
  5
753
 10
858.830984
 20
377.189628
 30
0.0
 11
856.330984
 21
379.689628
 31
0.0
  0
LINE
  8
1
  5
754
 10
857.41677
 20
377.189628
 30
0.0
 11
855.154546
 21
379.451853
 31
0.0
  0
LINE
  8
1
  5
755
 10
877.483352
 20
352.880406
 30
0.0
 11
873.437349
 21
356.926409
 31
0.0
  0
LINE
  8
1
  5
756
 10
876.810953
 20
354.967019
 30
0.0
 11
872.62806
 21
359.149912
 31
0.0
  0
LINE
  8
1
  5
757
 10
876.446516
 20
352.503029
 30
0.0
 11
874.246637
 21
354.702907
 31
0.0
  0
LINE
  8
1
  5
758
 10
876.001664
 20
357.190521
 30
0.0
 11
871.818771
 21
361.373414
 31
0.0
  0
LINE
  8
1
  5
759
 10
875.40968
 20
352.125651
 30
0.0
 11
875.055926
 21
352.479405
 31
0.0
  0
LINE
  8
1
  5
75A
 10
874.383087
 20
361.637525
 30
0.0
 11
870.200194
 21
365.820418
 31
0.0
  0
LINE
  8
1
  5
75B
 10
875.192376
 20
359.414023
 30
0.0
 11
871.009483
 21
363.596916
 31
0.0
  0
LINE
  8
1
  5
75C
 10
834.789353
 20
377.189628
 30
0.0
 11
832.289353
 21
379.689628
 31
0.0
  0
LINE
  8
1
  5
75D
 10
831.960926
 20
377.189628
 30
0.0
 11
830.154546
 21
378.996009
 31
0.0
  0
LINE
  8
0
  5
75E
 10
830.154546
 20
379.689628
 30
0.0
 11
830.154546
 21
377.189628
 31
0.0
  0
LINE
  8
1
  5
75F
 10
833.37514
 20
377.189628
 30
0.0
 11
830.87514
 21
379.689628
 31
0.0
  0
LINE
  8
1
  5
760
 10
830.546713
 20
377.189628
 30
0.0
 11
830.154546
 21
377.581796
 31
0.0
  0
LINE
  8
1
  5
761
 10
819.233004
 20
377.189628
 30
0.0
 11
816.733004
 21
379.689628
 31
0.0
  0
LINE
  8
1
  5
762
 10
817.818791
 20
377.189628
 30
0.0
 11
815.318791
 21
379.689628
 31
0.0
  0
LINE
  8
1
  5
763
 10
821.154546
 20
379.510728
 30
0.0
 11
820.975645
 21
379.689628
 31
0.0
  0
LINE
  8
1
  5
764
 10
821.154546
 20
378.096514
 30
0.0
 11
819.561431
 21
379.689628
 31
0.0
  0
LINE
  8
0
  5
765
 10
821.154546
 20
379.689628
 30
0.0
 11
821.154546
 21
377.189628
 31
0.0
  0
LINE
  8
1
  5
766
 10
820.647218
 20
377.189628
 30
0.0
 11
818.147218
 21
379.689628
 31
0.0
  0
LINE
  8
1
  5
767
 10
807.919296
 20
377.189628
 30
0.0
 11
805.419296
 21
379.689628
 31
0.0
  0
LINE
  8
0
  5
768
 10
805.154546
 20
379.689628
 30
0.0
 11
805.154546
 21
377.189628
 31
0.0
  0
LINE
  8
1
  5
769
 10
806.505082
 20
377.189628
 30
0.0
 11
805.154546
 21
378.540165
 31
0.0
  0
LINE
  8
1
  5
76A
 10
810.747723
 20
377.189628
 30
0.0
 11
808.247723
 21
379.689628
 31
0.0
  0
LINE
  8
1
  5
76B
 10
813.57615
 20
377.189628
 30
0.0
 11
811.07615
 21
379.689628
 31
0.0
  0
LINE
  8
1
  5
76C
 10
812.161936
 20
377.189628
 30
0.0
 11
809.661936
 21
379.689628
 31
0.0
  0
LINE
  8
1
  5
76D
 10
809.333509
 20
377.189628
 30
0.0
 11
806.833509
 21
379.689628
 31
0.0
  0
LINE
  8
1
  5
76E
 10
796.154546
 20
377.64067
 30
0.0
 11
794.105587
 21
379.689628
 31
0.0
  0
LINE
  8
0
 62
     7
  5
76F
 10
796.154546
 20
379.689628
 30
0.0
 11
796.154546
 21
377.189628
 31
0.0
  0
LINE
  8
1
  5
770
 10
796.154546
 20
379.054884
 30
0.0
 11
795.519801
 21
379.689628
 31
0.0
  0
LINE
  8
1
  5
771
 10
816.404577
 20
377.189628
 30
0.0
 11
813.904577
 21
379.689628
 31
0.0
  0
LINE
  8
1
  5
772
 10
814.990364
 20
377.189628
 30
0.0
 11
812.490364
 21
379.689628
 31
0.0
  0
LINE
  8
1
  5
773
 10
837.617781
 20
377.189628
 30
0.0
 11
835.117781
 21
379.689628
 31
0.0
  0
LINE
  8
1
  5
774
 10
836.203567
 20
377.189628
 30
0.0
 11
833.703567
 21
379.689628
 31
0.0
  0
CIRCLE
  8
0
  5
775
 10
770.654546
 20
496.90721
 30
0.0
 40
2.75
  0
ARC
  8
0
  5
776
 10
767.654546
 20
496.90721
 30
0.0
 40
15.0
 50
90.0
 51
270.0
  0
LINE
  8
0
  5
777
 10
783.154546
 20
511.90721
 30
0.0
 11
783.154546
 21
481.90721
 31
0.0
  0
LINE
  8
CENTER
  6
CENTER
  5
778
 10
770.654546
 20
502.15721
 30
0.0
 11
770.654546
 21
491.65721
 31
0.0
  0
LINE
  8
SCALE
  5
779
 10
712.71713
 20
536.947207
 30
0.0
 11
773.927982
 21
536.947207
 31
0.0
  0
TEXT
  8
SCALE
  5
77A
 10
712.71713
 20
542.947207
 30
0.0
 40
13.2
  1
17-%%C9
  0
LINE
  8
1
  5
77B
 10
785.654546
 20
376.826962
 30
0.0
 11
783.154546
 21
379.326962
 31
0.0
  0
LINE
  8
1
  5
77C
 10
785.654546
 20
373.998534
 30
0.0
 11
783.154546
 21
376.498534
 31
0.0
  0
LINE
  8
1
  5
77D
 10
785.654546
 20
371.170107
 30
0.0
 11
783.154546
 21
373.670107
 31
0.0
  0
LINE
  8
1
  5
77E
 10
785.654546
 20
368.34168
 30
0.0
 11
783.154546
 21
370.84168
 31
0.0
  0
LINE
  8
1
  5
77F
 10
785.654546
 20
365.513253
 30
0.0
 11
783.154546
 21
368.013253
 31
0.0
  0
LINE
  8
1
  5
780
 10
785.654546
 20
375.412748
 30
0.0
 11
783.154546
 21
377.912748
 31
0.0
  0
LINE
  8
1
  5
781
 10
785.654546
 20
372.584321
 30
0.0
 11
783.154546
 21
375.084321
 31
0.0
  0
LINE
  8
1
  5
782
 10
785.654546
 20
369.755894
 30
0.0
 11
783.154546
 21
372.255894
 31
0.0
  0
LINE
  8
1
  5
783
 10
785.654546
 20
366.927467
 30
0.0
 11
783.154546
 21
369.427467
 31
0.0
  0
LINE
  8
0
 62
     7
  5
784
 10
783.154546
 20
367.189628
 30
0.0
 11
783.154546
 21
379.689628
 31
0.0
  0
LINE
  8
1
  5
785
 10
790.948733
 20
377.189628
 30
0.0
 11
788.448733
 21
379.689628
 31
0.0
  0
LINE
  8
1
  5
786
 10
788.120306
 20
377.189628
 30
0.0
 11
785.620306
 21
379.689628
 31
0.0
  0
LINE
  8
0
 62
     7
  5
787
 10
785.654546
 20
377.189628
 30
0.0
 11
785.654546
 21
364.689628
 31
0.0
  0
LINE
  8
1
  5
788
 10
792.362947
 20
377.189628
 30
0.0
 11
789.862947
 21
379.689628
 31
0.0
  0
LINE
  8
1
  5
789
 10
789.534519
 20
377.189628
 30
0.0
 11
787.034519
 21
379.689628
 31
0.0
  0
LINE
  8
1
  5
78A
 10
786.706092
 20
377.189628
 30
0.0
 11
784.206092
 21
379.689628
 31
0.0
  0
LINE
  8
1
  5
78B
 10
780.821316
 20
364.689628
 30
0.0
 11
778.321316
 21
367.189628
 31
0.0
  0
LINE
  8
1
  5
78C
 10
777.992889
 20
364.689628
 30
0.0
 11
776.404546
 21
366.277972
 31
0.0
  0
LINE
  8
0
 62
     7
  5
78D
 10
776.404546
 20
367.189628
 30
0.0
 11
776.404546
 21
364.689628
 31
0.0
  0
LINE
  8
1
  5
78E
 10
782.23553
 20
364.689628
 30
0.0
 11
779.73553
 21
367.189628
 31
0.0
  0
LINE
  8
1
  5
78F
 10
779.407102
 20
364.689628
 30
0.0
 11
776.907102
 21
367.189628
 31
0.0
  0
LINE
  8
1
  5
790
 10
776.578675
 20
364.689628
 30
0.0
 11
776.404546
 21
364.863758
 31
0.0
  0
LINE
  8
1
  5
791
 10
783.649743
 20
364.689628
 30
0.0
 11
781.149743
 21
367.189628
 31
0.0
  0
LINE
  8
1
  5
792
 10
785.063957
 20
364.689628
 30
0.0
 11
782.563957
 21
367.189628
 31
0.0
  0
LINE
  8
0
 62
     7
  5
793
 10
770.904546
 20
367.189628
 30
0.0
 11
770.904546
 21
364.689628
 31
0.0
  0
LINE
  8
1
  5
794
 10
770.904546
 20
366.121117
 30
0.0
 11
769.836035
 21
367.189628
 31
0.0
  0
LINE
  8
1
  5
795
 10
769.507607
 20
364.689628
 30
0.0
 11
767.007607
 21
367.189628
 31
0.0
  0
LINE
  8
1
  5
796
 10
766.67918
 20
364.689628
 30
0.0
 11
764.17918
 21
367.189628
 31
0.0
  0
LINE
  8
1
  5
797
 10
770.904546
 20
364.706904
 30
0.0
 11
768.421821
 21
367.189628
 31
0.0
  0
LINE
  8
1
  5
798
 10
768.093394
 20
364.689628
 30
0.0
 11
765.593394
 21
367.189628
 31
0.0
  0
LINE
  8
1
  5
799
 10
765.264967
 20
364.689628
 30
0.0
 11
762.764967
 21
367.189628
 31
0.0
  0
LINE
  8
1
  5
79A
 10
761.022326
 20
364.689628
 30
0.0
 11
758.522326
 21
367.189628
 31
0.0
  0
LINE
  8
0
 62
     7
  5
79B
 10
756.154546
 20
364.689628
 30
0.0
 11
756.154546
 21
367.189628
 31
0.0
  0
LINE
  8
1
  5
79C
 10
758.193899
 20
364.689628
 30
0.0
 11
756.154546
 21
366.728982
 31
0.0
  0
LINE
  8
1
  5
79D
 10
759.608113
 20
364.689628
 30
0.0
 11
757.108113
 21
367.189628
 31
0.0
  0
LINE
  8
1
  5
79E
 10
756.779685
 20
364.689628
 30
0.0
 11
756.154546
 21
365.314768
 31
0.0
  0
LINE
  8
1
  5
79F
 10
762.43654
 20
364.689628
 30
0.0
 11
759.93654
 21
367.189628
 31
0.0
  0
LINE
  8
1
  5
7A0
 10
763.850753
 20
364.689628
 30
0.0
 11
761.350753
 21
367.189628
 31
0.0
  0
LINE
  8
0
  5
7A1
 10
756.154546
 20
367.189628
 30
0.0
 11
783.154546
 21
367.189628
 31
0.0
  0
LINE
  8
0
  5
7A2
 10
785.654546
 20
364.689628
 30
0.0
 11
756.154546
 21
364.689628
 31
0.0
  0
LINE
  8
0
  5
7A3
 10
783.154546
 20
379.689628
 30
0.0
 11
867.812659
 21
379.689628
 31
0.0
  0
LINE
  8
0
  5
7A4
 10
866.06214
 20
377.189628
 30
0.0
 11
785.654546
 21
377.189628
 31
0.0
  0
LINE
  8
1
  5
7A5
 10
795.191374
 20
377.189628
 30
0.0
 11
792.691374
 21
379.689628
 31
0.0
  0
LINE
  8
1
  5
7A6
 10
793.77716
 20
377.189628
 30
0.0
 11
791.27716
 21
379.689628
 31
0.0
  0
LINE
  8
SCALE
  5
7A7
 10
797.209862
 20
499.802751
 30
0.0
 11
773.9279
 21
536.947339
 31
0.0
  0
INSERT
  8
SCALE
  5
7A8
  2
YAZ3
 10
797.209862
 20
499.802751
 30
0.0
 41
9.0
 42
9.0
 50
302.079192
 43
9.0
  0
DIMENSION
  8
SCALE
  5
7A9
  2
*D21
 10
800.654546
 20
550.819577
 30
0.0
 11
825.654546
 21
564.019577
 31
0.0
 12
0.0
 22
-7.387035
 32
0.0
  1
50
 13
850.654546
 23
503.90721
 33
0.0
 14
800.654546
 24
503.90721
 34
0.0
  3
STANDARD
1001
ACAD
1000
DSTYLE
1002
{
1070
   140
1040
2.2
1070
   145
1040
1.0
1070
    74
1070
     0
1070
   172
1070
     1
1070
    73
1070
     0
1070
    40
1040
6.0
1070
    42
1040
2.0
1070
    44
1040
1.5
1070
    43
1040
10.0
1070
     5
1000
YAZ3
1070
    41
1040
1.5
1002
}
  0
ARC
  8
0
  5
7C4
 10
671.402588
 20
446.503946
 30
0.0
 40
8.0
 50
0.0
 51
90.0
  0
ARC
  8
0
  5
7C5
 10
682.402588
 20
461.169233
 30
0.0
 40
8.0
 50
0.0
 51
87.877917
  0
LINE
  8
0
  5
7C6
 10
652.902588
 20
481.803946
 30
0.0
 11
652.902588
 21
477.603946
 31
0.0
  0
LINE
  8
0
  5
7C7
 10
650.802588
 20
479.703946
 30
0.0
 11
655.002588
 21
479.703946
 31
0.0
  0
CIRCLE
  8
0
  5
7C8
 10
652.902588
 20
479.703946
 30
0.0
 40
4.15
  0
CIRCLE
  8
0
  5
7C9
 10
652.902588
 20
479.703946
 30
0.0
 40
5.0
  0
LINE
  8
0
  5
7CA
 10
632.402588
 20
452.630227
 30
0.0
 11
632.402588
 21
460.556623
 31
0.0
  0
ARC
  8
0
  5
7CB
 10
626.402588
 20
446.675519
 30
0.0
 40
1.0
 50
0.0
 51
90.0
  0
LINE
  8
0
  5
7CC
 10
632.032588
 20
461.424488
 30
0.0
 11
632.402588
 21
460.556623
 31
0.0
  0
LINE
  8
0
  5
7CD
 10
632.032588
 20
461.424488
 30
0.0
 11
632.902588
 21
470.350319
 31
0.0
  0
LINE
  8
0
  5
7CE
 10
632.902588
 20
440.503946
 30
0.0
 11
657.402588
 21
440.503946
 31
0.0
  0
ARC
  8
0
  5
7CF
 10
612.902588
 20
-1414.457753
 30
0.0
 40
1884.91418
 50
87.877917
 51
89.392048
  0
LINE
  8
0
  5
7D0
 10
632.902588
 20
454.503946
 30
0.0
 11
671.402588
 21
454.503946
 31
0.0
  0
LINE
  8
0
  5
7D1
 10
700.102588
 20
412.603946
 30
0.0
 11
700.102588
 21
408.403946
 31
0.0
  0
CIRCLE
  8
0
  5
7D2
 10
700.102588
 20
410.503946
 30
0.0
 40
4.15
  0
LINE
  8
0
  5
7D3
 10
698.002588
 20
410.503946
 30
0.0
 11
702.202588
 21
410.503946
 31
0.0
  0
CIRCLE
  8
0
  5
7D4
 10
700.102588
 20
410.503946
 30
0.0
 40
5.0
  0
ARC
  8
0
  5
7D5
 10
675.072588
 20
346.049709
 30
0.0
 40
1.0
 50
0.0
 51
87.317062
  0
ARC
  8
0
  5
7D6
 10
675.072588
 20
338.958183
 30
0.0
 40
1.0
 50
272.682938
 51
0.0
  0
LINE
  8
0
  5
7D7
 10
676.072588
 20
338.958183
 30
0.0
 11
676.072588
 21
346.049709
 31
0.0
  0
LINE
  8
0
  5
7D8
 10
657.903257
 20
417.603946
 30
0.0
 11
657.903257
 21
413.403946
 31
0.0
  0
LINE
  8
0
  5
7D9
 10
657.902588
 20
408.703946
 30
0.0
 11
662.902588
 21
408.703946
 31
0.0
  0
LINE
  8
0
  5
7DA
 10
657.902588
 20
410.803946
 30
0.0
 11
662.902588
 21
410.803946
 31
0.0
  0
LINE
  8
0
  5
7DB
 10
657.902588
 20
420.203946
 30
0.0
 11
662.902588
 21
420.203946
 31
0.0
  0
LINE
  8
0
  5
7DC
 10
657.902588
 20
422.303946
 30
0.0
 11
662.902588
 21
422.303946
 31
0.0
  0
ARC
  8
0
  5
7DD
 10
659.902588
 20
430.503946
 30
0.0
 40
3.0
 50
0.0
 51
90.0
  0
CIRCLE
  8
0
  5
7DE
 10
657.903257
 20
415.503946
 30
0.0
 40
4.15
  0
ARC
  8
0
  5
7DF
 10
657.902588
 20
415.503946
 30
0.0
 40
4.7
 50
90.0
 51
270.0
  0
LINE
  8
0
  5
7E0
 10
660.003257
 20
415.503946
 30
0.0
 11
655.803257
 21
415.503946
 31
0.0
  0
ARC
  8
0
  5
7E1
 10
657.902588
 20
415.503946
 30
0.0
 40
6.8
 50
90.0
 51
270.0
  0
ARC
  8
0
  5
7E2
 10
659.902588
 20
392.503946
 30
0.0
 40
3.0
 50
270.0
 51
0.0
  0
ARC
  8
0
  5
7E3
 10
658.906099
 20
374.503946
 30
0.0
 40
1.0
 50
0.0
 51
90.0
  0
ARC
  8
0
  5
7E4
 10
662.002588
 20
376.003946
 30
0.0
 40
1.0
 50
0.0
 51
90.0
  0
LINE
  8
0
  5
7E5
 10
662.902588
 20
430.503946
 30
0.0
 11
662.902588
 21
392.503946
 31
0.0
  0
LINE
  8
CENTER
  5
7E6
 10
642.902588
 20
422.553946
 30
0.0
 11
642.902588
 21
408.453946
 31
0.0
  0
CIRCLE
  8
0
  5
7E7
 10
642.902588
 20
415.503946
 30
0.0
 40
2.05
  0
LINE
  8
0
  5
7E8
 10
627.402588
 20
437.675519
 30
0.0
 11
632.902588
 21
437.675519
 31
0.0
  0
LINE
  8
0
  5
7E9
 10
640.902588
 20
399.920145
 30
0.0
 11
640.902588
 21
405.503946
 31
0.0
  0
LINE
  8
0
  5
7EA
 10
627.402588
 20
389.503946
 30
0.0
 11
627.402588
 21
385.503946
 31
0.0
  0
LINE
  8
0
  5
7EB
 10
627.902588
 20
389.503946
 30
0.0
 11
627.902588
 21
378.003946
 31
0.0
  0
ARC
  8
0
  5
7EC
 10
628.902588
 20
378.003946
 30
0.0
 40
1.0
 50
180.0
 51
270.0
  0
ARC
  8
0
  5
7ED
 10
628.03537
 20
376.503946
 30
0.0
 40
1.0
 50
172.874984
 51
270.0
  0
LINE
  8
0
  5
7EE
 10
627.402588
 20
385.503946
 30
0.0
 11
627.043092
 21
376.627981
 31
0.0
  0
LINE
  8
0
  5
7EF
 10
634.902588
 20
405.503946
 30
0.0
 11
634.902588
 21
399.920145
 31
0.0
  0
LINE
  8
CENTER
  5
7F0
 10
637.902588
 20
413.503946
 30
0.0
 11
637.902588
 21
379.503946
 31
0.0
  0
ARC
  8
0
  5
7F1
 10
637.902588
 20
405.503946
 30
0.0
 40
3.0
 50
0.0
 51
180.0
  0
LINE
  8
CENTER
  5
7F2
 10
650.902588
 20
392.503946
 30
0.0
 11
624.902588
 21
392.503946
 31
0.0
  0
LINE
  8
0
  5
7F3
 10
628.902588
 20
377.003946
 30
0.0
 11
662.002588
 21
377.003946
 31
0.0
  0
LINE
  8
0
  5
7F4
 10
628.03537
 20
375.503946
 30
0.0
 11
658.906099
 21
375.503946
 31
0.0
  0
ARC
  8
0
  5
7F5
 10
637.902588
 20
392.503946
 30
0.0
 40
8.0
 50
112.024313
 51
67.975687
  0
LINE
  8
0
  5
7F6
 10
659.902588
 20
389.503946
 30
0.0
 11
645.318787
 21
389.503946
 31
0.0
  0
LINE
  8
0
  5
7F7
 10
656.402588
 20
358.596469
 30
0.0
 11
656.402588
 21
368.411424
 31
0.0
  0
LINE
  8
0
  5
7F8
 10
665.402588
 20
347.503946
 30
0.0
 11
663.002588
 21
347.503946
 31
0.0
  0
ARC
  8
0
  5
7F9
 10
660.906099
 20
346.003946
 30
0.0
 40
1.0
 50
90.0
 51
180.0
  0
ARC
  8
0
  5
7FA
 10
660.906099
 20
346.152467
 30
0.0
 40
1.0
 50
99.17256
 51
180.0
  0
LINE
  8
0
  5
7FB
 10
663.002588
 20
347.503946
 30
0.0
 11
660.746691
 21
347.139679
 31
0.0
  0
LINE
  8
0
  5
7FC
 10
647.902588
 20
353.688992
 30
0.0
 11
656.402588
 21
358.596469
 31
0.0
  0
LINE
  8
0
  5
7FD
 10
656.402588
 20
368.411424
 30
0.0
 11
647.902588
 21
373.318901
 31
0.0
  0
LINE
  8
0
  5
7FE
 10
663.002588
 20
337.503946
 30
0.0
 11
663.002588
 21
323.503946
 31
0.0
  0
ARC
  8
0
  5
7FF
 10
660.002588
 20
323.503946
 30
0.0
 40
3.0
 50
270.0
 51
0.0
  0
ARC
  8
0
  5
800
 10
662.002588
 20
317.503946
 30
0.0
 40
1.0
 50
360.0
 51
90.0
  0
LINE
  8
0
  5
801
 10
658.906099
 20
338.503946
 30
0.0
 11
659.969904
 21
338.503946
 31
0.0
  0
ARC
  8
0
  5
802
 10
660.906099
 20
339.003946
 30
0.0
 40
1.0
 50
180.0
 51
270.0
  0
ARC
  8
0
  5
803
 10
660.906099
 20
338.855426
 30
0.0
 40
1.0
 50
180.0
 51
260.82744
  0
LINE
  8
0
  5
804
 10
660.746691
 20
337.868213
 30
0.0
 11
663.002588
 21
337.503946
 31
0.0
  0
LINE
  8
0
  5
805
 10
659.906099
 20
338.855426
 30
0.0
 11
659.906099
 21
339.503946
 31
0.0
  0
LINE
  8
0
  5
806
 10
663.002588
 20
337.503946
 30
0.0
 11
665.402588
 21
337.503946
 31
0.0
  0
LINE
  8
0
  5
807
 10
659.906099
 20
346.152467
 30
0.0
 11
659.906099
 21
338.855426
 31
0.0
  0
LINE
  8
0
  5
808
 10
639.402588
 20
368.411424
 30
0.0
 11
639.402588
 21
358.596469
 31
0.0
  0
LINE
  8
0
  5
809
 10
639.402588
 20
358.596469
 30
0.0
 11
647.902588
 21
353.688992
 31
0.0
  0
CIRCLE
  8
0
  5
80A
 10
647.902588
 20
363.503946
 30
0.0
 40
3.491272
  0
LINE
  8
0
  5
80B
 10
647.902588
 20
373.318901
 30
0.0
 11
639.402588
 21
368.411424
 31
0.0
  0
LINE
  8
0
  5
80C
 10
665.402588
 20
432.503946
 30
0.0
 11
665.402588
 21
347.503946
 31
0.0
  0
LINE
  8
0
  5
80D
 10
663.002588
 20
376.003946
 30
0.0
 11
663.002588
 21
347.503946
 31
0.0
  0
LINE
  8
0
  5
80E
 10
659.906099
 20
374.503946
 30
0.0
 11
659.906099
 21
346.152467
 31
0.0
  0
LINE
  8
0
  5
80F
 10
665.402588
 20
337.503946
 30
0.0
 11
675.119397
 21
337.95928
 31
0.0
  0
LINE
  8
0
  5
810
 10
660.906099
 20
338.003946
 30
0.0
 11
675.072588
 21
338.003946
 31
0.0
  0
LINE
  8
0
  5
811
 10
675.119397
 20
347.048613
 30
0.0
 11
665.402588
 21
347.503946
 31
0.0
  0
LINE
  8
0
  5
812
 10
660.906099
 20
347.003946
 30
0.0
 11
675.072588
 21
347.003946
 31
0.0
  0
LINE
  8
0
  5
813
 10
632.902588
 20
437.675519
 30
0.0
 11
632.902588
 21
470.350319
 31
0.0
  0
LINE
  8
0
  5
814
 10
632.902588
 20
437.675519
 30
0.0
 11
632.402588
 21
452.630227
 31
0.0
  0
LINE
  8
0
  5
815
 10
627.402588
 20
446.675519
 30
0.0
 11
627.402588
 21
433.503946
 31
0.0
  0
ARC
  8
0
  5
816
 10
657.402588
 20
432.503946
 30
0.0
 40
8.0
 50
0.0
 51
90.0
  0
ARC
  8
0
  5
817
 10
619.402588
 20
446.675519
 30
0.0
 40
1.0
 50
90.0
 51
180.0
  0
POLYLINE
  8
0
  5
818
 66
     1
 10
0.0
 20
0.0
 30
0.0
 70
     1
  0
VERTEX
  8
0
  5
1055
 10
618.374202
 20
460.934134
 30
0.0
 42
0.028069
  0
VERTEX
  8
0
  5
1056
 10
618.277136
 20
460.971963
 30
0.0
 42
0.056669
  0
VERTEX
  8
0
  5
1057
 10
618.070897
 20
461.005427
 30
0.0
 42
0.001339
  0
VERTEX
  8
0
  5
1058
 10
617.87042
 20
461.028844
 30
0.0
 42
0.001686
  0
VERTEX
  8
0
  5
1059
 10
617.629746
 20
461.053839
 30
0.0
 42
0.008321
  0
VERTEX
  8
0
  5
105A
 10
617.115833
 20
461.091145
 30
0.0
 42
0.004561
  0
VERTEX
  8
0
  5
105B
 10
616.777069
 20
461.110162
 30
0.0
 42
0.000282
  0
VERTEX
  8
0
  5
105C
 10
616.411183
 20
461.12744
 30
0.0
 42
0.003445
  0
VERTEX
  8
0
  5
105D
 10
615.652588
 20
461.154768
 30
0.0
 42
0.002936
  0
VERTEX
  8
0
  5
105E
 10
615.218178
 20
461.166468
 30
0.0
 42
0.00008
  0
VERTEX
  8
0
  5
105F
 10
614.769453
 20
461.176032
 30
0.0
 42
0.00244
  0
VERTEX
  8
0
  5
1060
 10
613.857653
 20
461.188621
 30
0.0
 42
0.002308
  0
VERTEX
  8
0
  5
1061
 10
613.380126
 20
461.191881
 30
0.0
 42
0.002241
  0
VERTEX
  8
0
  5
1062
 10
612.42505
 20
461.191881
 30
0.0
 42
0.000036
  0
VERTEX
  8
0
  5
1063
 10
611.947523
 20
461.188621
 30
0.0
 42
0.002365
  0
VERTEX
  8
0
  5
1064
 10
611.035723
 20
461.176032
 30
0.0
 42
0.002452
  0
VERTEX
  8
0
  5
1065
 10
610.586999
 20
461.166468
 30
0.0
 42
0.000148
  0
VERTEX
  8
0
  5
1066
 10
610.152588
 20
461.154768
 30
0.0
 42
0.003211
  0
VERTEX
  8
0
  5
1067
 10
609.393993
 20
461.12744
 30
0.0
 42
0.003583
  0
VERTEX
  8
0
  5
1068
 10
609.028107
 20
461.110162
 30
0.0
 42
0.000472
  0
VERTEX
  8
0
  5
1069
 10
608.689344
 20
461.091145
 30
0.0
 42
0.007259
  0
VERTEX
  8
0
  5
106A
 10
608.175431
 20
461.053839
 30
0.0
 42
0.009603
  0
VERTEX
  8
0
  5
106B
 10
607.934757
 20
461.028844
 30
0.0
 42
0.000307
  0
VERTEX
  8
0
  5
106C
 10
607.734279
 20
461.005427
 30
0.0
 42
0.041804
  0
VERTEX
  8
0
  5
106D
 10
607.52804
 20
460.971963
 30
0.0
 42
0.037906
  0
VERTEX
  8
0
  5
106E
 10
607.430974
 20
460.934134
 30
0.0
 42
0.633866
  0
VERTEX
  8
0
  5
106F
 10
607.430974
 20
460.881768
 30
0.0
 42
0.028069
  0
VERTEX
  8
0
  5
1070
 10
607.52804
 20
460.843938
 30
0.0
 42
0.056669
  0
VERTEX
  8
0
  5
1071
 10
607.734279
 20
460.810475
 30
0.0
 42
0.001339
  0
VERTEX
  8
0
  5
1072
 10
607.934757
 20
460.787058
 30
0.0
 42
0.001686
  0
VERTEX
  8
0
  5
1073
 10
608.175431
 20
460.762063
 30
0.0
 42
0.008321
  0
VERTEX
  8
0
  5
1074
 10
608.689344
 20
460.724756
 30
0.0
 42
0.004561
  0
VERTEX
  8
0
  5
1075
 10
609.028107
 20
460.705739
 30
0.0
 42
0.000282
  0
VERTEX
  8
0
  5
1076
 10
609.393993
 20
460.688462
 30
0.0
 42
0.003445
  0
VERTEX
  8
0
  5
1077
 10
610.152588
 20
460.661134
 30
0.0
 42
0.002936
  0
VERTEX
  8
0
  5
1078
 10
610.586999
 20
460.649434
 30
0.0
 42
0.00008
  0
VERTEX
  8
0
  5
1079
 10
611.035723
 20
460.63987
 30
0.0
 42
0.00244
  0
VERTEX
  8
0
  5
107A
 10
611.947523
 20
460.627281
 30
0.0
 42
0.002308
  0
VERTEX
  8
0
  5
107B
 10
612.42505
 20
460.624021
 30
0.0
 42
0.002241
  0
VERTEX
  8
0
  5
107C
 10
613.380126
 20
460.624021
 30
0.0
 42
0.000036
  0
VERTEX
  8
0
  5
107D
 10
613.857653
 20
460.627281
 30
0.0
 42
0.002365
  0
VERTEX
  8
0
  5
107E
 10
614.769453
 20
460.63987
 30
0.0
 42
0.002452
  0
VERTEX
  8
0
  5
107F
 10
615.218178
 20
460.649434
 30
0.0
 42
0.000148
  0
VERTEX
  8
0
  5
1080
 10
615.652588
 20
460.661134
 30
0.0
 42
0.003211
  0
VERTEX
  8
0
  5
1081
 10
616.411183
 20
460.688462
 30
0.0
 42
0.003583
  0
VERTEX
  8
0
  5
1082
 10
616.777069
 20
460.705739
 30
0.0
 42
0.000472
  0
VERTEX
  8
0
  5
1083
 10
617.115833
 20
460.724756
 30
0.0
 42
0.007259
  0
VERTEX
  8
0
  5
1084
 10
617.629746
 20
460.762063
 30
0.0
 42
0.009603
  0
VERTEX
  8
0
  5
1085
 10
617.87042
 20
460.787058
 30
0.0
 42
0.000307
  0
VERTEX
  8
0
  5
1086
 10
618.070897
 20
460.810475
 30
0.0
 42
0.041804
  0
VERTEX
  8
0
  5
1087
 10
618.277136
 20
460.843938
 30
0.0
 42
0.037906
  0
VERTEX
  8
0
  5
1088
 10
618.374202
 20
460.881768
 30
0.0
 42
0.633866
  0
VERTEX
  8
0
  5
1089
 10
618.374202
 20
460.934134
 30
0.0
  0
SEQEND
  8
0
  5
108A
  0
POLYLINE
  8
0
  5
84F
 66
     1
 10
0.0
 20
0.0
 30
0.0
 70
     1
  0
VERTEX
  8
0
  5
108B
 10
607.430974
 20
460.934134
 30
0.0
 42
-0.028069
  0
VERTEX
  8
0
  5
108C
 10
607.52804
 20
460.971963
 30
0.0
 42
-0.056669
  0
VERTEX
  8
0
  5
108D
 10
607.734279
 20
461.005427
 30
0.0
 42
-0.001339
  0
VERTEX
  8
0
  5
108E
 10
607.934757
 20
461.028844
 30
0.0
 42
-0.001686
  0
VERTEX
  8
0
  5
108F
 10
608.175431
 20
461.053839
 30
0.0
 42
-0.008321
  0
VERTEX
  8
0
  5
1090
 10
608.689344
 20
461.091145
 30
0.0
 42
-0.004561
  0
VERTEX
  8
0
  5
1091
 10
609.028107
 20
461.110162
 30
0.0
 42
-0.000282
  0
VERTEX
  8
0
  5
1092
 10
609.393993
 20
461.12744
 30
0.0
 42
-0.003445
  0
VERTEX
  8
0
  5
1093
 10
610.152588
 20
461.154768
 30
0.0
 42
-0.002936
  0
VERTEX
  8
0
  5
1094
 10
610.586999
 20
461.166468
 30
0.0
 42
-0.00008
  0
VERTEX
  8
0
  5
1095
 10
611.035723
 20
461.176032
 30
0.0
 42
-0.00244
  0
VERTEX
  8
0
  5
1096
 10
611.947523
 20
461.188621
 30
0.0
 42
-0.002308
  0
VERTEX
  8
0
  5
1097
 10
612.42505
 20
461.191881
 30
0.0
 42
-0.002241
  0
VERTEX
  8
0
  5
1098
 10
613.380126
 20
461.191881
 30
0.0
 42
-0.000036
  0
VERTEX
  8
0
  5
1099
 10
613.857653
 20
461.188621
 30
0.0
 42
-0.002365
  0
VERTEX
  8
0
  5
109A
 10
614.769453
 20
461.176032
 30
0.0
 42
-0.002452
  0
VERTEX
  8
0
  5
109B
 10
615.218178
 20
461.166468
 30
0.0
 42
-0.000148
  0
VERTEX
  8
0
  5
109C
 10
615.652588
 20
461.154768
 30
0.0
 42
-0.003211
  0
VERTEX
  8
0
  5
109D
 10
616.411183
 20
461.12744
 30
0.0
 42
-0.003583
  0
VERTEX
  8
0
  5
109E
 10
616.777069
 20
461.110162
 30
0.0
 42
-0.000472
  0
VERTEX
  8
0
  5
109F
 10
617.115833
 20
461.091145
 30
0.0
 42
-0.007259
  0
VERTEX
  8
0
  5
10A0
 10
617.629746
 20
461.053839
 30
0.0
 42
-0.009603
  0
VERTEX
  8
0
  5
10A1
 10
617.87042
 20
461.028844
 30
0.0
 42
-0.000307
  0
VERTEX
  8
0
  5
10A2
 10
618.070897
 20
461.005427
 30
0.0
 42
-0.041804
  0
VERTEX
  8
0
  5
10A3
 10
618.277136
 20
460.971963
 30
0.0
 42
-0.037906
  0
VERTEX
  8
0
  5
10A4
 10
618.374202
 20
460.934134
 30
0.0
 42
-0.633866
  0
VERTEX
  8
0
  5
10A5
 10
618.374202
 20
460.881768
 30
0.0
 42
-0.028069
  0
VERTEX
  8
0
  5
10A6
 10
618.277136
 20
460.843938
 30
0.0
 42
-0.056669
  0
VERTEX
  8
0
  5
10A7
 10
618.070897
 20
460.810475
 30
0.0
 42
-0.001339
  0
VERTEX
  8
0
  5
10A8
 10
617.87042
 20
460.787058
 30
0.0
 42
-0.001686
  0
VERTEX
  8
0
  5
10A9
 10
617.629746
 20
460.762063
 30
0.0
 42
-0.008321
  0
VERTEX
  8
0
  5
10AA
 10
617.115833
 20
460.724756
 30
0.0
 42
-0.004561
  0
VERTEX
  8
0
  5
10AB
 10
616.777069
 20
460.705739
 30
0.0
 42
-0.000282
  0
VERTEX
  8
0
  5
10AC
 10
616.411183
 20
460.688462
 30
0.0
 42
-0.003445
  0
VERTEX
  8
0
  5
10AD
 10
615.652588
 20
460.661134
 30
0.0
 42
-0.002936
  0
VERTEX
  8
0
  5
10AE
 10
615.218178
 20
460.649434
 30
0.0
 42
-0.00008
  0
VERTEX
  8
0
  5
10AF
 10
614.769453
 20
460.63987
 30
0.0
 42
-0.00244
  0
VERTEX
  8
0
  5
10B0
 10
613.857653
 20
460.627281
 30
0.0
 42
-0.002308
  0
VERTEX
  8
0
  5
10B1
 10
613.380126
 20
460.624021
 30
0.0
 42
-0.002241
  0
VERTEX
  8
0
  5
10B2
 10
612.42505
 20
460.624021
 30
0.0
 42
-0.000036
  0
VERTEX
  8
0
  5
10B3
 10
611.947523
 20
460.627281
 30
0.0
 42
-0.002365
  0
VERTEX
  8
0
  5
10B4
 10
611.035723
 20
460.63987
 30
0.0
 42
-0.002452
  0
VERTEX
  8
0
  5
10B5
 10
610.586999
 20
460.649434
 30
0.0
 42
-0.000148
  0
VERTEX
  8
0
  5
10B6
 10
610.152588
 20
460.661134
 30
0.0
 42
-0.003211
  0
VERTEX
  8
0
  5
10B7
 10
609.393993
 20
460.688462
 30
0.0
 42
-0.003583
  0
VERTEX
  8
0
  5
10B8
 10
609.028107
 20
460.705739
 30
0.0
 42
-0.000472
  0
VERTEX
  8
0
  5
10B9
 10
608.689344
 20
460.724756
 30
0.0
 42
-0.007259
  0
VERTEX
  8
0
  5
10BA
 10
608.175431
 20
460.762063
 30
0.0
 42
-0.009603
  0
VERTEX
  8
0
  5
10BB
 10
607.934757
 20
460.787058
 30
0.0
 42
-0.000307
  0
VERTEX
  8
0
  5
10BC
 10
607.734279
 20
460.810475
 30
0.0
 42
-0.041804
  0
VERTEX
  8
0
  5
10BD
 10
607.52804
 20
460.843938
 30
0.0
 42
-0.037906
  0
VERTEX
  8
0
  5
10BE
 10
607.430974
 20
460.881768
 30
0.0
 42
-0.633866
  0
VERTEX
  8
0
  5
10BF
 10
607.430974
 20
460.934134
 30
0.0
  0
SEQEND
  8
0
  5
10C0
  0
LINE
  8
0
  5
886
 10
593.402588
 20
460.556623
 30
0.0
 11
593.402588
 21
452.630227
 31
0.0
  0
LINE
  8
0
  5
887
 10
593.402588
 20
460.556623
 30
0.0
 11
593.772588
 21
461.424488
 31
0.0
  0
LINE
  8
0
  5
888
 10
592.902588
 20
470.350319
 30
0.0
 11
593.772588
 21
461.424488
 31
0.0
  0
LINE
  8
0
  5
889
 10
572.902588
 20
477.603946
 30
0.0
 11
572.902588
 21
481.803946
 31
0.0
  0
CIRCLE
  8
0
  5
88A
 10
572.902588
 20
479.703946
 30
0.0
 40
5.0
  0
CIRCLE
  8
0
  5
88B
 10
572.902588
 20
479.703946
 30
0.0
 40
4.15
  0
LINE
  8
0
  5
88C
 10
570.802588
 20
479.703946
 30
0.0
 11
575.002588
 21
479.703946
 31
0.0
  0
ARC
  8
0
  5
88D
 10
554.402588
 20
446.503946
 30
0.0
 40
8.0
 50
90.0
 51
180.0
  0
LINE
  8
0
  5
88E
 10
554.402588
 20
454.503946
 30
0.0
 11
592.902588
 21
454.503946
 31
0.0
  0
ARC
  8
0
  5
88F
 10
612.902588
 20
-1414.457753
 30
0.0
 40
1884.91418
 50
90.607952
 51
92.122083
  0
LINE
  8
0
  5
890
 10
568.402588
 20
440.503946
 30
0.0
 11
592.902588
 21
440.503946
 31
0.0
  0
CIRCLE
  8
0
  5
891
 10
608.902588
 20
415.503946
 30
0.0
 40
4.7
  0
CIRCLE
  8
0
  5
892
 10
608.903257
 20
415.503946
 30
0.0
 40
4.15
  0
LINE
  8
0
  5
893
 10
611.003257
 20
415.503946
 30
0.0
 11
606.803257
 21
415.503946
 31
0.0
  0
LINE
  8
0
  5
894
 10
608.903257
 20
417.603946
 30
0.0
 11
608.903257
 21
413.403946
 31
0.0
  0
LINE
  8
0
  5
895
 10
618.402588
 20
385.503946
 30
0.0
 11
618.402588
 21
389.503946
 31
0.0
  0
LINE
  8
0
  5
896
 10
618.402588
 20
385.503946
 30
0.0
 11
618.902588
 21
375.409827
 31
0.0
  0
ARC
  8
0
  5
897
 10
611.902588
 20
386.503946
 30
0.0
 40
3.0
 50
90.0
 51
180.0
  0
LINE
  8
0
  5
898
 10
608.902588
 20
386.503946
 30
0.0
 11
608.902588
 21
378.4412
 31
0.0
  0
LINE
  8
CENTER
  5
899
 10
582.902588
 20
408.453946
 30
0.0
 11
582.902588
 21
422.553946
 31
0.0
  0
LINE
  8
0
  5
89A
 10
584.902588
 20
405.503946
 30
0.0
 11
584.902588
 21
399.920145
 31
0.0
  0
LINE
  8
0
  5
89B
 10
590.902588
 20
399.920145
 30
0.0
 11
590.902588
 21
405.503946
 31
0.0
  0
ARC
  8
0
  5
89C
 10
587.902588
 20
405.503946
 30
0.0
 40
3.0
 50
0.0
 51
180.0
  0
LINE
  8
CENTER
  5
89D
 10
587.902588
 20
413.503946
 30
0.0
 11
587.902588
 21
379.503946
 31
0.0
  0
LINE
  8
0
  5
89E
 10
592.902588
 20
437.675519
 30
0.0
 11
618.402588
 21
437.675519
 31
0.0
  0
CIRCLE
  8
0
  5
89F
 10
608.902588
 20
415.503946
 30
0.0
 40
6.8
  0
ARC
  8
0
  5
8A0
 10
615.902588
 20
349.503946
 30
0.0
 40
2.0
 50
270.0
 51
0.0
  0
ARC
  8
0
  5
8A1
 10
617.902588
 20
347.557962
 30
0.0
 40
1.0
 50
266.987212
 51
0.0
  0
LINE
  8
0
  5
8A2
 10
608.902588
 20
347.503946
 30
0.0
 11
615.902588
 21
347.503946
 31
0.0
  0
LINE
  8
0
  5
8A3
 10
617.850029
 20
346.559344
 30
0.0
 11
608.902588
 21
347.030262
 31
0.0
  0
LINE
  8
0
  5
8A4
 10
618.902588
 20
338.503946
 30
0.0
 11
617.9377
 21
321.241287
 31
0.0
  0
LINE
  8
0
  5
8A5
 10
617.902588
 20
335.503946
 30
0.0
 11
617.902588
 21
321.503946
 31
0.0
  0
ARC
  8
0
  5
8A6
 10
618.902588
 20
321.503946
 30
0.0
 40
1.0
 50
180.0
 51
270.0
  0
ARC
  8
0
  5
8A7
 10
619.902588
 20
317.503946
 30
0.0
 40
1.0
 50
90.0
 51
180.0
  0
ARC
  8
0
  5
8A8
 10
615.902588
 20
335.503946
 30
0.0
 40
2.0
 50
0.0
 51
90.0
  0
LINE
  8
0
  5
8A9
 10
608.902588
 20
337.977631
 30
0.0
 11
618.902588
 21
338.503946
 31
0.0
  0
LINE
  8
0
  5
8AA
 10
615.902588
 20
337.503946
 30
0.0
 11
608.902588
 21
337.503946
 31
0.0
  0
LINE
  8
0
  5
8AB
 10
608.902588
 20
362.566693
 30
0.0
 11
608.902588
 21
328.4412
 31
0.0
  0
LINE
  8
0
  5
8AC
 10
618.902588
 20
347.557962
 30
0.0
 11
618.902588
 21
338.503946
 31
0.0
  0
LINE
  8
0
  5
8AD
 10
600.48639
 20
373.503946
 30
0.0
 11
593.902588
 21
373.503946
 31
0.0
  0
LINE
  8
0
  5
8AE
 10
593.902588
 20
367.503946
 30
0.0
 11
600.48639
 21
367.503946
 31
0.0
  0
LINE
  8
0
  5
8AF
 10
582.902588
 20
360.603946
 30
0.0
 11
582.902588
 21
356.403946
 31
0.0
  0
ARC
  8
0
  5
8B0
 10
593.902588
 20
370.503946
 30
0.0
 40
3.0
 50
90.0
 51
270.0
  0
LINE
  8
0
  5
8B1
 10
593.902588
 20
317.503946
 30
0.0
 11
600.48639
 21
317.503946
 31
0.0
  0
LINE
  8
0
  5
8B2
 10
600.48639
 20
323.503946
 30
0.0
 11
593.902588
 21
323.503946
 31
0.0
  0
LINE
  8
0
  5
8B3
 10
600.48639
 20
323.503946
 30
0.0
 11
593.902588
 21
323.503946
 31
0.0
  0
ARC
  8
0
  5
8B4
 10
593.902588
 20
320.503946
 30
0.0
 40
3.0
 50
90.0
 51
270.0
  0
LINE
  8
CENTER
  5
8B5
 10
585.902588
 20
370.503946
 30
0.0
 11
620.902588
 21
370.503946
 31
0.0
  0
LINE
  8
CENTER
  5
8B6
 10
585.902588
 20
320.503946
 30
0.0
 11
620.902588
 21
320.503946
 31
0.0
  0
ARC
  8
0
  5
8B7
 10
607.902588
 20
320.503946
 30
0.0
 40
8.0
 50
202.024313
 51
157.975687
  0
ARC
  8
0
  5
8B8
 10
607.902588
 20
370.503946
 30
0.0
 40
8.0
 50
202.024313
 51
157.975687
  0
LINE
  8
CENTER
  5
8B9
 10
607.902588
 20
383.503946
 30
0.0
 11
607.902588
 21
357.503946
 31
0.0
  0
LINE
  8
0
  5
8BA
 10
617.902588
 20
389.503946
 30
0.0
 11
617.902588
 21
349.503946
 31
0.0
  0
LINE
  8
0
  5
8BB
 10
618.902588
 20
375.441689
 30
0.0
 11
618.902588
 21
347.557962
 31
0.0
  0
INSERT
  8
SCALE
  5
8BC
  2
YAZ3
 10
581.342047
 20
416.833311
 30
0.0
 41
9.0
 42
9.0
 50
326.491965
 43
9.0
  0
LINE
  8
0
  5
8BD
 10
562.902588
 20
422.303946
 30
0.0
 11
567.902588
 21
422.303946
 31
0.0
  0
ARC
  8
0
  5
8BE
 10
565.902588
 20
430.503946
 30
0.0
 40
3.0
 50
90.0
 51
180.0
  0
LINE
  8
0
  5
8BF
 10
562.902588
 20
410.803946
 30
0.0
 11
567.902588
 21
410.803946
 31
0.0
  0
LINE
  8
0
  5
8C0
 10
562.902588
 20
408.703946
 30
0.0
 11
567.902588
 21
408.703946
 31
0.0
  0
LINE
  8
0
  5
8C1
 10
562.902588
 20
420.203946
 30
0.0
 11
567.902588
 21
420.203946
 31
0.0
  0
LINE
  8
0
  5
8C2
 10
567.903257
 20
417.603946
 30
0.0
 11
567.903257
 21
413.403946
 31
0.0
  0
LINE
  8
0
  5
8C3
 10
570.003257
 20
415.503946
 30
0.0
 11
565.803257
 21
415.503946
 31
0.0
  0
CIRCLE
  8
0
  5
8C4
 10
567.903257
 20
415.503946
 30
0.0
 40
4.15
  0
ARC
  8
0
  5
8C5
 10
567.902588
 20
415.503946
 30
0.0
 40
6.8
 50
270.0
 51
90.0
  0
ARC
  8
0
  5
8C6
 10
567.902588
 20
415.503946
 30
0.0
 40
4.7
 50
270.0
 51
90.0
  0
ARC
  8
0
  5
8C7
 10
551.320494
 20
346.103946
 30
0.0
 40
0.9
 50
90.0
 51
179.522089
  0
ARC
  8
0
  5
8C8
 10
1342.562968
 20
345.503946
 30
0.0
 40
792.17
 50
180.471027
 51
180.477911
  0
ARC
  8
0
  5
8C9
 10
551.320494
 20
338.903946
 30
0.0
 40
0.9
 50
180.477911
 51
270.0
  0
LINE
  8
0
  5
8CA
 10
550.393127
 20
346.004895
 30
0.0
 11
550.393127
 21
338.991615
 31
0.0
  0
LINE
  8
0
  5
8CB
 10
562.902588
 20
338.003946
 30
0.0
 11
551.320494
 21
338.003946
 31
0.0
  0
LINE
  8
0
  5
8CC
 10
551.320494
 20
347.003946
 30
0.0
 11
562.902588
 21
347.003946
 31
0.0
  0
LINE
  8
0
  5
8CD
 10
560.402588
 20
347.003946
 30
0.0
 11
560.402588
 21
432.503946
 31
0.0
  0
LINE
  8
CENTER
  5
8CE
 10
600.902588
 20
392.503946
 30
0.0
 11
574.902588
 21
392.503946
 31
0.0
  0
CIRCLE
  8
0
  5
8CF
 10
582.902588
 20
358.503946
 30
0.0
 40
6.8
  0
LINE
  8
CENTER
  5
8D0
 10
575.852588
 20
375.503946
 30
0.0
 11
589.952588
 21
375.503946
 31
0.0
  0
ARC
  8
0
  5
8D1
 10
587.902588
 20
392.503946
 30
0.0
 40
8.0
 50
112.024313
 51
67.975687
  0
LINE
  8
CENTER
  5
8D2
 10
575.852588
 20
315.503946
 30
0.0
 11
589.952588
 21
315.503946
 31
0.0
  0
CIRCLE
  8
0
  5
8D3
 10
582.902588
 20
375.503946
 30
0.0
 40
2.05
  0
CIRCLE
  8
0
  5
8D4
 10
582.902588
 20
315.503946
 30
0.0
 40
2.05
  0
CIRCLE
  8
0
  5
8D5
 10
582.902588
 20
358.503946
 30
0.0
 40
4.15
  0
CIRCLE
  8
0
  5
8D6
 10
582.902588
 20
358.503946
 30
0.0
 40
4.7
  0
LINE
  8
0
  5
8D7
 10
585.002588
 20
358.503946
 30
0.0
 11
580.802588
 21
358.503946
 31
0.0
  0
CIRCLE
  8
0
  5
8D8
 10
582.902588
 20
415.503946
 30
0.0
 40
2.05
  0
ARC
  8
0
  5
8D9
 10
568.402588
 20
432.503946
 30
0.0
 40
8.0
 50
90.0
 51
180.0
  0
LINE
  8
0
  5
8DA
 10
592.902588
 20
470.350319
 30
0.0
 11
592.902588
 21
437.675519
 31
0.0
  0
LINE
  8
0
  5
8DB
 10
593.402588
 20
452.630227
 30
0.0
 11
592.902588
 21
437.675519
 31
0.0
  0
LINE
  8
0
  5
8DC
 10
618.402588
 20
433.503946
 30
0.0
 11
618.402588
 21
446.675519
 31
0.0
  0
DIMENSION
  8
SCALE
  5
8DD
  2
*D13
 10
642.902588
 20
523.329137
 30
0.0
 11
612.902588
 21
536.529137
 31
0.0
 12
0.0
 22
15.894744
 32
0.0
  1
60
 13
582.902588
 23
422.553946
 33
0.0
 14
642.902588
 24
422.553946
 34
0.0
  3
STANDARD
1001
ACAD
1000
DSTYLE
1002
{
1070
   140
1040
2.2
1070
   145
1040
1.0
1070
    74
1070
     0
1070
   172
1070
     1
1070
    73
1070
     0
1070
    40
1040
6.0
1070
    42
1040
2.0
1070
    44
1040
1.5
1070
    43
1040
10.0
1070
     5
1000
YAZ3
1070
    41
1040
1.5
1002
}
  0
DIMENSION
  8
SCALE
  5
8DE
  2
*D12
 10
637.902588
 20
498.856177
 30
0.0
 11
612.902588
 21
512.056177
 31
0.0
 12
0.0
 22
15.894744
 32
0.0
  1
50
 13
587.902588
 23
413.503946
 33
0.0
 14
637.902588
 24
413.503946
 34
0.0
  3
STANDARD
1001
ACAD
1000
DSTYLE
1002
{
1070
   140
1040
2.2
1070
   145
1040
1.0
1070
    74
1070
     0
1070
   172
1070
     1
1070
    73
1070
     0
1070
    40
1040
6.0
1070
    42
1040
2.0
1070
    44
1040
1.5
1070
    43
1040
10.0
1070
     5
1000
YAZ3
1070
    41
1040
1.5
1002
}
  0
LINE
  8
0
  5
8DF
 10
659.902588
 20
433.503946
 30
0.0
 11
565.902588
 21
433.503946
 31
0.0
  0
LINE
  8
0
  5
8E0
 10
662.002588
 20
318.503946
 30
0.0
 11
619.902588
 21
318.503946
 31
0.0
  0
LINE
  8
0
  5
8E1
 10
618.902588
 20
320.503946
 30
0.0
 11
660.002588
 21
320.503946
 31
0.0
  0
LINE
  8
0
  5
8E2
 10
618.902588
 20
338.503946
 30
0.0
 11
658.906099
 21
338.503946
 31
0.0
  0
LINE
  8
0
  5
8E3
 10
630.48639
 20
389.503946
 30
0.0
 11
611.902588
 21
389.503946
 31
0.0
  0
LINE
  8
0
  5
8E4
 10
627.402588
 20
385.503946
 30
0.0
 11
618.402588
 21
385.503946
 31
0.0
  0
LINE
  8
0
  5
8E5
 10
593.402588
 20
452.630227
 30
0.0
 11
632.402588
 21
452.630227
 31
0.0
  0
LINE
  8
0
  5
8E6
 10
632.402588
 20
460.556623
 30
0.0
 11
593.402588
 21
460.556623
 31
0.0
  0
LINE
  8
0
  5
8E7
 10
593.772588
 20
461.424488
 30
0.0
 11
632.032588
 21
461.424488
 31
0.0
  0
ARC
  8
0
  5
8E8
 10
612.902588
 20
-1414.457753
 30
0.0
 40
1884.91418
 50
89.392048
 51
90.607952
  0
LINE
  8
0
  5
8E9
 10
619.402588
 20
447.675519
 30
0.0
 11
626.402588
 21
447.675519
 31
0.0
  0
ARC
  8
0
  5
8EC
 10
701.117947
 20
480.414452
 30
0.0
 40
8.0
 50
0.0
 51
90.861449
  0
ARC
  8
0
  5
8ED
 10
703.034236
 20
482.628258
 30
0.0
 40
8.0
 50
0.0
 51
90.0
  0
LINE
  8
0
  5
8F3
 10
868.514255
 20
126.926758
 30
0.0
 11
861.777125
 21
120.189628
 31
0.0
  0
LINE
  8
0
  5
8F4
 10
783.154546
 20
117.689628
 30
0.0
 11
783.154546
 21
130.189628
 31
0.0
  0
LINE
  8
0
  5
8F5
 10
785.654546
 20
132.689628
 30
0.0
 11
785.654546
 21
120.189628
 31
0.0
  0
LINE
  8
0
  5
8F6
 10
776.404546
 20
132.689628
 30
0.0
 11
785.654546
 21
132.689628
 31
0.0
  0
LINE
  8
0
  5
8F7
 10
783.154546
 20
130.189628
 30
0.0
 11
776.404546
 21
130.189628
 31
0.0
  0
LINE
  8
0
  5
8F8
 10
756.154546
 20
130.189628
 30
0.0
 11
756.154546
 21
132.689628
 31
0.0
  0
LINE
  8
0
  5
8F9
 10
770.904546
 20
130.189628
 30
0.0
 11
756.154546
 21
130.189628
 31
0.0
  0
LINE
  8
0
  5
8FA
 10
756.154546
 20
132.689628
 30
0.0
 11
770.904546
 21
132.689628
 31
0.0
  0
LINE
  8
0
  5
8FB
 10
770.904546
 20
132.689628
 30
0.0
 11
776.404546
 21
132.689628
 31
0.0
  0
LINE
  8
0
  5
8FC
 10
776.404546
 20
130.189628
 30
0.0
 11
770.904546
 21
130.189628
 31
0.0
  0
DIMENSION
  8
SCALE
  5
8FD
  2
*D10
 10
738.911866
 20
130.189628
 30
0.0
 11
725.711866
 21
97.821057
 31
0.0
 12
0.0
 22
-10.341845
 32
0.0
  1
2.3
 13
756.154546
 23
132.689628
 33
0.0
 14
756.154546
 24
130.189628
 34
0.0
 50
90.0
  3
STANDARD
1001
ACAD
1000
DSTYLE
1002
{
1070
   140
1040
2.2
1070
   145
1040
1.0
1070
    74
1070
     0
1070
   172
1070
     1
1070
    73
1070
     0
1070
    40
1040
6.0
1070
    42
1040
2.0
1070
    44
1040
1.5
1070
    43
1040
10.0
1070
     5
1000
YAZ3
1070
    41
1040
1.5
1002
}
  0
LINE
  8
0
  5
8FE
 10
867.812659
 20
117.689628
 30
0.0
 11
783.154546
 21
117.689628
 31
0.0
  0
LINE
  8
0
  5
8FF
 10
785.654546
 20
120.189628
 30
0.0
 11
866.06214
 21
120.189628
 31
0.0
  0
LINE
  8
0
  5
900
 10
700.102588
 20
282.603946
 30
0.0
 11
700.102588
 21
278.403946
 31
0.0
  0
LINE
  8
0
  5
901
 10
702.202588
 20
280.503946
 30
0.0
 11
698.002588
 21
280.503946
 31
0.0
  0
CIRCLE
  8
0
  5
902
 10
700.102588
 20
280.503946
 30
0.0
 40
4.15
  0
CIRCLE
  8
0
  5
903
 10
700.102588
 20
280.503946
 30
0.0
 40
5.0
  0
ARC
  8
0
  5
904
 10
671.402588
 20
244.503946
 30
0.0
 40
8.0
 50
270.0
 51
0.0
  0
ARC
  8
0
  5
905
 10
682.402588
 20
229.83866
 30
0.0
 40
8.0
 50
272.122083
 51
0.0
  0
ARC
  8
0
  5
906
 10
662.002588
 20
255.503946
 30
0.0
 40
1.0
 50
270.0
 51
0.0
  0
INSERT
  8
SCALE
  5
907
  2
YAZ3
 10
639.902588
 20
305.503946
 30
0.0
 41
9.0
 42
9.0
 50
87.194886
 43
9.0
  0
INSERT
  8
SCALE
  5
908
  2
YAZ3
 10
642.902588
 20
275.503946
 30
0.0
 41
9.0
 42
9.0
 50
85.441606
 43
9.0
  0
LINE
  8
0
  5
909
 10
657.402588
 20
250.503946
 30
0.0
 11
632.902588
 21
250.503946
 31
0.0
  0
CIRCLE
  8
0
  5
90A
 10
642.902588
 20
278.503946
 30
0.0
 40
3.0
  0
CIRCLE
  8
0
  5
90B
 10
642.902588
 20
305.503946
 30
0.0
 40
3.0
  0
LINE
  8
0
  5
90C
 10
655.002588
 20
211.303946
 30
0.0
 11
650.802588
 21
211.303946
 31
0.0
  0
CIRCLE
  8
0
  5
90D
 10
652.902588
 20
211.303946
 30
0.0
 40
4.15
  0
CIRCLE
  8
0
  5
90E
 10
652.902588
 20
211.303946
 30
0.0
 40
5.0
  0
LINE
  8
0
  5
90F
 10
652.902588
 20
213.403946
 30
0.0
 11
652.902588
 21
209.203946
 31
0.0
  0
LINE
  8
0
  5
910
 10
632.902588
 20
220.657574
 30
0.0
 11
632.032588
 21
229.583404
 31
0.0
  0
LINE
  8
0
  5
911
 10
632.402588
 20
230.45127
 30
0.0
 11
632.402588
 21
238.377666
 31
0.0
  0
LINE
  8
0
  5
912
 10
632.402588
 20
230.45127
 30
0.0
 11
632.032588
 21
229.583404
 31
0.0
  0
LINE
  8
0
  5
913
 10
632.902588
 20
220.657574
 30
0.0
 11
632.902588
 21
253.332374
 31
0.0
  0
LINE
  8
0
  5
914
 10
632.402588
 20
238.377666
 30
0.0
 11
632.902588
 21
253.332374
 31
0.0
  0
ARC
  8
0
  5
915
 10
612.902588
 20
2105.465645
 30
0.0
 40
1884.91418
 50
270.607952
 51
272.122083
  0
LINE
  8
0
  5
916
 10
671.402588
 20
236.503946
 30
0.0
 11
632.902588
 21
236.503946
 31
0.0
  0
ARC
  8
0
  5
917
 10
657.402588
 20
258.503946
 30
0.0
 40
8.0
 50
270.0
 51
0.0
  0
LINE
  8
SCALE
  5
918
 10
642.902588
 20
275.503946
 30
0.0
 11
631.305506
 21
130.044516
 31
0.0
  0
LINE
  8
SCALE
  5
919
 10
639.902588
 20
305.503946
 30
0.0
 11
631.30549
 21
130.044439
 31
0.0
  0
ARC
  8
0
  5
91A
 10
617.902588
 20
290.503946
 30
0.0
 40
1.0
 50
270.0
 51
0.0
  0
ARC
  8
0
  5
91B
 10
605.902588
 20
296.503946
 30
0.0
 40
3.0
 50
270.0
 51
0.0
  0
LINE
  8
0
  5
91C
 10
582.90251
 20
302.603946
 30
0.0
 11
582.90251
 21
298.403946
 31
0.0
  0
LINE
  8
0
  5
91D
 10
587.602588
 20
300.503946
 30
0.0
 11
587.602588
 21
293.503946
 31
0.0
  0
LINE
  8
0
  5
91E
 10
589.702588
 20
300.503946
 30
0.0
 11
589.702588
 21
293.503946
 31
0.0
  0
POLYLINE
  8
0
  5
91F
 66
     1
 10
0.0
 20
0.0
 30
0.0
 70
     1
  0
VERTEX
  8
0
  5
10C1
 10
607.430974
 20
230.073759
 30
0.0
 42
0.028069
  0
VERTEX
  8
0
  5
10C2
 10
607.52804
 20
230.035929
 30
0.0
 42
0.056669
  0
VERTEX
  8
0
  5
10C3
 10
607.734279
 20
230.002466
 30
0.0
 42
0.001339
  0
VERTEX
  8
0
  5
10C4
 10
607.934757
 20
229.979049
 30
0.0
 42
0.001686
  0
VERTEX
  8
0
  5
10C5
 10
608.175431
 20
229.954054
 30
0.0
 42
0.008321
  0
VERTEX
  8
0
  5
10C6
 10
608.689344
 20
229.916748
 30
0.0
 42
0.004561
  0
VERTEX
  8
0
  5
10C7
 10
609.028107
 20
229.897731
 30
0.0
 42
0.000282
  0
VERTEX
  8
0
  5
10C8
 10
609.393993
 20
229.880453
 30
0.0
 42
0.003445
  0
VERTEX
  8
0
  5
10C9
 10
610.152588
 20
229.853125
 30
0.0
 42
0.002936
  0
VERTEX
  8
0
  5
10CA
 10
610.586999
 20
229.841425
 30
0.0
 42
0.00008
  0
VERTEX
  8
0
  5
10CB
 10
611.035723
 20
229.831861
 30
0.0
 42
0.00244
  0
VERTEX
  8
0
  5
10CC
 10
611.947523
 20
229.819272
 30
0.0
 42
0.002308
  0
VERTEX
  8
0
  5
10CD
 10
612.42505
 20
229.816012
 30
0.0
 42
0.002241
  0
VERTEX
  8
0
  5
10CE
 10
613.380126
 20
229.816012
 30
0.0
 42
0.000036
  0
VERTEX
  8
0
  5
10CF
 10
613.857653
 20
229.819272
 30
0.0
 42
0.002365
  0
VERTEX
  8
0
  5
10D0
 10
614.769453
 20
229.831861
 30
0.0
 42
0.002452
  0
VERTEX
  8
0
  5
10D1
 10
615.218178
 20
229.841425
 30
0.0
 42
0.000148
  0
VERTEX
  8
0
  5
10D2
 10
615.652588
 20
229.853125
 30
0.0
 42
0.003211
  0
VERTEX
  8
0
  5
10D3
 10
616.411183
 20
229.880453
 30
0.0
 42
0.003583
  0
VERTEX
  8
0
  5
10D4
 10
616.777069
 20
229.897731
 30
0.0
 42
0.000472
  0
VERTEX
  8
0
  5
10D5
 10
617.115833
 20
229.916748
 30
0.0
 42
0.007259
  0
VERTEX
  8
0
  5
10D6
 10
617.629746
 20
229.954054
 30
0.0
 42
0.009603
  0
VERTEX
  8
0
  5
10D7
 10
617.87042
 20
229.979049
 30
0.0
 42
0.000307
  0
VERTEX
  8
0
  5
10D8
 10
618.070897
 20
230.002466
 30
0.0
 42
0.041804
  0
VERTEX
  8
0
  5
10D9
 10
618.277136
 20
230.035929
 30
0.0
 42
0.037906
  0
VERTEX
  8
0
  5
10DA
 10
618.374202
 20
230.073759
 30
0.0
 42
0.633866
  0
VERTEX
  8
0
  5
10DB
 10
618.374202
 20
230.126125
 30
0.0
 42
0.028069
  0
VERTEX
  8
0
  5
10DC
 10
618.277136
 20
230.163955
 30
0.0
 42
0.056669
  0
VERTEX
  8
0
  5
10DD
 10
618.070897
 20
230.197418
 30
0.0
 42
0.001339
  0
VERTEX
  8
0
  5
10DE
 10
617.87042
 20
230.220835
 30
0.0
 42
0.001686
  0
VERTEX
  8
0
  5
10DF
 10
617.629746
 20
230.24583
 30
0.0
 42
0.008321
  0
VERTEX
  8
0
  5
10E0
 10
617.115833
 20
230.283137
 30
0.0
 42
0.004561
  0
VERTEX
  8
0
  5
10E1
 10
616.777069
 20
230.302153
 30
0.0
 42
0.000282
  0
VERTEX
  8
0
  5
10E2
 10
616.411183
 20
230.319431
 30
0.0
 42
0.003445
  0
VERTEX
  8
0
  5
10E3
 10
615.652588
 20
230.346759
 30
0.0
 42
0.002936
  0
VERTEX
  8
0
  5
10E4
 10
615.218178
 20
230.358459
 30
0.0
 42
0.00008
  0
VERTEX
  8
0
  5
10E5
 10
614.769453
 20
230.368023
 30
0.0
 42
0.00244
  0
VERTEX
  8
0
  5
10E6
 10
613.857653
 20
230.380612
 30
0.0
 42
0.002308
  0
VERTEX
  8
0
  5
10E7
 10
613.380126
 20
230.383872
 30
0.0
 42
0.002241
  0
VERTEX
  8
0
  5
10E8
 10
612.42505
 20
230.383872
 30
0.0
 42
0.000036
  0
VERTEX
  8
0
  5
10E9
 10
611.947523
 20
230.380612
 30
0.0
 42
0.002365
  0
VERTEX
  8
0
  5
10EA
 10
611.035723
 20
230.368023
 30
0.0
 42
0.002452
  0
VERTEX
  8
0
  5
10EB
 10
610.586999
 20
230.358459
 30
0.0
 42
0.000148
  0
VERTEX
  8
0
  5
10EC
 10
610.152588
 20
230.346759
 30
0.0
 42
0.003211
  0
VERTEX
  8
0
  5
10ED
 10
609.393993
 20
230.319431
 30
0.0
 42
0.003583
  0
VERTEX
  8
0
  5
10EE
 10
609.028107
 20
230.302153
 30
0.0
 42
0.000472
  0
VERTEX
  8
0
  5
10EF
 10
608.689344
 20
230.283137
 30
0.0
 42
0.007259
  0
VERTEX
  8
0
  5
10F0
 10
608.175431
 20
230.24583
 30
0.0
 42
0.009603
  0
VERTEX
  8
0
  5
10F1
 10
607.934757
 20
230.220835
 30
0.0
 42
0.000307
  0
VERTEX
  8
0
  5
10F2
 10
607.734279
 20
230.197418
 30
0.0
 42
0.041804
  0
VERTEX
  8
0
  5
10F3
 10
607.52804
 20
230.163955
 30
0.0
 42
0.037906
  0
VERTEX
  8
0
  5
10F4
 10
607.430974
 20
230.126125
 30
0.0
 42
0.633866
  0
VERTEX
  8
0
  5
10F5
 10
607.430974
 20
230.073759
 30
0.0
  0
SEQEND
  8
0
  5
10F6
  0
POLYLINE
  8
0
  5
956
 66
     1
 10
0.0
 20
0.0
 30
0.0
 70
     1
  0
VERTEX
  8
0
  5
10F7
 10
618.374202
 20
230.073759
 30
0.0
 42
-0.028069
  0
VERTEX
  8
0
  5
10F8
 10
618.277136
 20
230.035929
 30
0.0
 42
-0.056669
  0
VERTEX
  8
0
  5
10F9
 10
618.070897
 20
230.002466
 30
0.0
 42
-0.001339
  0
VERTEX
  8
0
  5
10FA
 10
617.87042
 20
229.979049
 30
0.0
 42
-0.001686
  0
VERTEX
  8
0
  5
10FB
 10
617.629746
 20
229.954054
 30
0.0
 42
-0.008321
  0
VERTEX
  8
0
  5
10FC
 10
617.115833
 20
229.916748
 30
0.0
 42
-0.004561
  0
VERTEX
  8
0
  5
10FD
 10
616.777069
 20
229.897731
 30
0.0
 42
-0.000282
  0
VERTEX
  8
0
  5
10FE
 10
616.411183
 20
229.880453
 30
0.0
 42
-0.003445
  0
VERTEX
  8
0
  5
10FF
 10
615.652588
 20
229.853125
 30
0.0
 42
-0.002936
  0
VERTEX
  8
0
  5
1100
 10
615.218178
 20
229.841425
 30
0.0
 42
-0.00008
  0
VERTEX
  8
0
  5
1101
 10
614.769453
 20
229.831861
 30
0.0
 42
-0.00244
  0
VERTEX
  8
0
  5
1102
 10
613.857653
 20
229.819272
 30
0.0
 42
-0.002308
  0
VERTEX
  8
0
  5
1103
 10
613.380126
 20
229.816012
 30
0.0
 42
-0.002241
  0
VERTEX
  8
0
  5
1104
 10
612.42505
 20
229.816012
 30
0.0
 42
-0.000036
  0
VERTEX
  8
0
  5
1105
 10
611.947523
 20
229.819272
 30
0.0
 42
-0.002365
  0
VERTEX
  8
0
  5
1106
 10
611.035723
 20
229.831861
 30
0.0
 42
-0.002452
  0
VERTEX
  8
0
  5
1107
 10
610.586999
 20
229.841425
 30
0.0
 42
-0.000148
  0
VERTEX
  8
0
  5
1108
 10
610.152588
 20
229.853125
 30
0.0
 42
-0.003211
  0
VERTEX
  8
0
  5
1109
 10
609.393993
 20
229.880453
 30
0.0
 42
-0.003583
  0
VERTEX
  8
0
  5
110A
 10
609.028107
 20
229.897731
 30
0.0
 42
-0.000472
  0
VERTEX
  8
0
  5
110B
 10
608.689344
 20
229.916748
 30
0.0
 42
-0.007259
  0
VERTEX
  8
0
  5
110C
 10
608.175431
 20
229.954054
 30
0.0
 42
-0.009603
  0
VERTEX
  8
0
  5
110D
 10
607.934757
 20
229.979049
 30
0.0
 42
-0.000307
  0
VERTEX
  8
0
  5
110E
 10
607.734279
 20
230.002466
 30
0.0
 42
-0.041804
  0
VERTEX
  8
0
  5
110F
 10
607.52804
 20
230.035929
 30
0.0
 42
-0.037906
  0
VERTEX
  8
0
  5
1110
 10
607.430974
 20
230.073759
 30
0.0
 42
-0.633866
  0
VERTEX
  8
0
  5
1111
 10
607.430974
 20
230.126125
 30
0.0
 42
-0.028069
  0
VERTEX
  8
0
  5
1112
 10
607.52804
 20
230.163955
 30
0.0
 42
-0.056669
  0
VERTEX
  8
0
  5
1113
 10
607.734279
 20
230.197418
 30
0.0
 42
-0.001339
  0
VERTEX
  8
0
  5
1114
 10
607.934757
 20
230.220835
 30
0.0
 42
-0.001686
  0
VERTEX
  8
0
  5
1115
 10
608.175431
 20
230.24583
 30
0.0
 42
-0.008321
  0
VERTEX
  8
0
  5
1116
 10
608.689344
 20
230.283137
 30
0.0
 42
-0.004561
  0
VERTEX
  8
0
  5
1117
 10
609.028107
 20
230.302153
 30
0.0
 42
-0.000282
  0
VERTEX
  8
0
  5
1118
 10
609.393993
 20
230.319431
 30
0.0
 42
-0.003445
  0
VERTEX
  8
0
  5
1119
 10
610.152588
 20
230.346759
 30
0.0
 42
-0.002936
  0
VERTEX
  8
0
  5
111A
 10
610.586999
 20
230.358459
 30
0.0
 42
-0.00008
  0
VERTEX
  8
0
  5
111B
 10
611.035723
 20
230.368023
 30
0.0
 42
-0.00244
  0
VERTEX
  8
0
  5
111C
 10
611.947523
 20
230.380612
 30
0.0
 42
-0.002308
  0
VERTEX
  8
0
  5
111D
 10
612.42505
 20
230.383872
 30
0.0
 42
-0.002241
  0
VERTEX
  8
0
  5
111E
 10
613.380126
 20
230.383872
 30
0.0
 42
-0.000036
  0
VERTEX
  8
0
  5
111F
 10
613.857653
 20
230.380612
 30
0.0
 42
-0.002365
  0
VERTEX
  8
0
  5
1120
 10
614.769453
 20
230.368023
 30
0.0
 42
-0.002452
  0
VERTEX
  8
0
  5
1121
 10
615.218178
 20
230.358459
 30
0.0
 42
-0.000148
  0
VERTEX
  8
0
  5
1122
 10
615.652588
 20
230.346759
 30
0.0
 42
-0.003211
  0
VERTEX
  8
0
  5
1123
 10
616.411183
 20
230.319431
 30
0.0
 42
-0.003583
  0
VERTEX
  8
0
  5
1124
 10
616.777069
 20
230.302153
 30
0.0
 42
-0.000472
  0
VERTEX
  8
0
  5
1125
 10
617.115833
 20
230.283137
 30
0.0
 42
-0.007259
  0
VERTEX
  8
0
  5
1126
 10
617.629746
 20
230.24583
 30
0.0
 42
-0.009603
  0
VERTEX
  8
0
  5
1127
 10
617.87042
 20
230.220835
 30
0.0
 42
-0.000307
  0
VERTEX
  8
0
  5
1128
 10
618.070897
 20
230.197418
 30
0.0
 42
-0.041804
  0
VERTEX
  8
0
  5
1129
 10
618.277136
 20
230.163955
 30
0.0
 42
-0.037906
  0
VERTEX
  8
0
  5
112A
 10
618.374202
 20
230.126125
 30
0.0
 42
-0.633866
  0
VERTEX
  8
0
  5
112B
 10
618.374202
 20
230.073759
 30
0.0
  0
SEQEND
  8
0
  5
112C
  0
LINE
  8
0
  5
98D
 10
593.772588
 20
229.583404
 30
0.0
 11
592.902588
 21
220.657574
 31
0.0
  0
LINE
  8
0
  5
98E
 10
593.402588
 20
238.377666
 30
0.0
 11
593.402588
 21
230.45127
 31
0.0
  0
LINE
  8
0
  5
98F
 10
593.772588
 20
229.583404
 30
0.0
 11
593.402588
 21
230.45127
 31
0.0
  0
LINE
  8
0
  5
990
 10
592.902588
 20
253.332374
 30
0.0
 11
592.902588
 21
220.657574
 31
0.0
  0
LINE
  8
0
  5
991
 10
592.902588
 20
253.332374
 30
0.0
 11
593.402588
 21
238.377666
 31
0.0
  0
LINE
  8
0
  5
992
 10
576.102588
 20
300.503946
 30
0.0
 11
576.102588
 21
293.503946
 31
0.0
  0
LINE
  8
0
  5
993
 10
578.202588
 20
300.503946
 30
0.0
 11
578.202588
 21
293.503946
 31
0.0
  0
ARC
  8
0
  5
994
 10
565.902588
 20
296.503946
 30
0.0
 40
3.0
 50
180.0
 51
270.0
  0
ARC
  8
0
  5
995
 10
563.802588
 20
288.503946
 30
0.0
 40
1.0
 50
90.0
 51
180.0
  0
ARC
  8
0
  5
996
 10
563.802588
 20
255.503946
 30
0.0
 40
1.0
 50
180.0
 51
270.0
  0
LINE
  8
0
  5
997
 10
562.802588
 20
288.503946
 30
0.0
 11
562.802588
 21
255.503946
 31
0.0
  0
ARC
  8
0
  5
998
 10
568.402588
 20
258.503946
 30
0.0
 40
8.0
 50
180.0
 51
270.0
  0
LINE
  8
0
  5
999
 10
575.002588
 20
211.303946
 30
0.0
 11
570.802588
 21
211.303946
 31
0.0
  0
CIRCLE
  8
0
  5
99A
 10
572.902588
 20
211.303946
 30
0.0
 40
5.0
  0
CIRCLE
  8
0
  5
99B
 10
572.902588
 20
211.303946
 30
0.0
 40
4.15
  0
LINE
  8
0
  5
99C
 10
572.902588
 20
209.203946
 30
0.0
 11
572.902588
 21
213.403946
 31
0.0
  0
ARC
  8
0
  5
99D
 10
554.402588
 20
244.503946
 30
0.0
 40
8.0
 50
180.0
 51
270.0
  0
ARC
  8
0
  5
99E
 10
582.902588
 20
300.503946
 30
0.0
 40
6.8
 50
0.0
 51
180.0
  0
LINE
  8
0
  5
99F
 10
617.902588
 20
289.503946
 30
0.0
 11
563.802588
 21
289.503946
 31
0.0
  0
LINE
  8
0
  5
9A0
 10
592.902588
 20
236.503946
 30
0.0
 11
554.402588
 21
236.503946
 31
0.0
  0
ARC
  8
0
  5
9A1
 10
612.902588
 20
2105.465645
 30
0.0
 40
1884.91418
 50
267.877917
 51
269.392048
  0
LINE
  8
0
  5
9A2
 10
592.902588
 20
250.503946
 30
0.0
 11
568.402588
 21
250.503946
 31
0.0
  0
LINE
  8
0
  5
9A3
 10
605.902588
 20
293.503946
 30
0.0
 11
565.902588
 21
293.503946
 31
0.0
  0
ARC
  8
0
  5
9A4
 10
582.902588
 20
300.503946
 30
0.0
 40
4.7
 50
0.0
 51
180.0
  0
LINE
  8
0
  5
9A5
 10
585.00251
 20
300.503946
 30
0.0
 11
580.80251
 21
300.503946
 31
0.0
  0
CIRCLE
  8
0
  5
9A6
 10
582.90251
 20
300.503946
 30
0.0
 40
4.15
  0
TEXT
  8
1
  5
9A7
 10
569.474017
 20
92.111662
 30
0.0
 40
15.0
  1
Rear View
 41
0.8
  7
UT7
 72
     1
 11
612.902588
 21
92.111662
 31
0.0
  0
LINE
  8
1
  5
9A8
 10
567.902588
 20
86.111662
 30
0.0
 11
657.902588
 21
86.111662
 31
0.0
  0
LINE
  8
0
  5
9A9
 10
563.802588
 20
254.503946
 30
0.0
 11
662.002588
 21
254.503946
 31
0.0
  0
ARC
  8
0
  5
9AA
 10
612.902588
 20
2105.465645
 30
0.0
 40
1884.91418
 50
269.392048
 51
270.607952
  0
LINE
  8
0
  5
9AB
 10
632.032588
 20
229.583404
 30
0.0
 11
593.772588
 21
229.583404
 31
0.0
  0
LINE
  8
0
  5
9AC
 10
593.402588
 20
230.45127
 30
0.0
 11
632.402588
 21
230.45127
 31
0.0
  0
LINE
  8
0
  5
9AD
 10
632.402588
 20
238.377666
 30
0.0
 11
593.402588
 21
238.377666
 31
0.0
  0
LINE
  8
0
  5
9AE
 10
632.902588
 20
253.332374
 30
0.0
 11
592.902588
 21
253.332374
 31
0.0
  0
DIMENSION
  8
SCALE
  5
9AF
  2
*D9
 10
711.034236
 20
169.762504
 30
0.0
 11
659.468412
 21
182.962504
 31
0.0
 12
0.0
 22
15.894744
 32
0.0
  1
103
 13
607.902588
 23
307.503946
 33
0.0
 14
711.034236
 24
208.379635
 34
0.0
  3
STANDARD
1001
ACAD
1000
DSTYLE
1002
{
1070
   140
1040
2.2
1070
   145
1040
1.0
1070
    74
1070
     0
1070
   172
1070
     1
1070
    73
1070
     0
1070
    40
1040
6.0
1070
    42
1040
2.0
1070
    44
1040
1.5
1070
    43
1040
10.0
1070
     5
1000
YAZ3
1070
    41
1040
1.5
1002
}
  0
ARC
  8
0
  5
9B0
 10
701.117947
 20
210.593441
 30
0.0
 40
8.0
 50
269.138551
 51
0.0
  0
ARC
  8
0
  5
9B1
 10
703.034236
 20
208.379635
 30
0.0
 40
8.0
 50
270.0
 51
0.0
  0
LINE
  8
0
  5
9B2
 10
546.402588
 20
244.503946
 30
0.0
 11
546.402588
 21
446.503946
 31
0.0
  0
LINE
  8
0
  5
9B3
 10
562.902588
 20
430.503946
 30
0.0
 11
562.902588
 21
296.503946
 31
0.0
  0
LINE
  8
0
  5
9B4
 10
560.402588
 20
258.503946
 30
0.0
 11
560.402588
 21
338.003946
 31
0.0
  0
DIMENSION
  8
SCALE
  5
9B5
  2
*D11
 10
735.89625
 20
392.503946
 30
0.0
 11
722.69625
 21
296.44179
 31
0.0
 12
0.0
 22
15.894744
 32
0.0
  1
192
 13
703.034236
 23
200.379635
 33
0.0
 14
650.902588
 24
392.503946
 34
0.0
 50
90.0
  3
STANDARD
1001
ACAD
1000
DSTYLE
1002
{
1070
   140
1040
2.2
1070
   145
1040
1.0
1070
    74
1070
     0
1070
   172
1070
     1
1070
    73
1070
     0
1070
    40
1040
6.0
1070
    42
1040
2.0
1070
    44
1040
1.5
1070
    43
1040
10.0
1070
     5
1000
YAZ3
1070
    41
1040
1.5
1002
}
  0
LINE
  8
CENTER
  5
9B6
 10
607.902588
 20
333.503946
 30
0.0
 11
607.902588
 21
307.503946
 31
0.0
  0
LINE
  8
0
  5
9B7
 10
665.402588
 20
337.503946
 30
0.0
 11
665.402588
 21
258.503946
 31
0.0
  0
LINE
  8
0
  5
9B8
 10
679.402588
 20
446.503946
 30
0.0
 11
679.402588
 21
244.503946
 31
0.0
  0
LINE
  8
0
  5
9B9
 10
690.402588
 20
461.169233
 30
0.0
 11
690.402588
 21
229.83866
 31
0.0
  0
LINE
  8
0
  5
9BA
 10
709.117947
 20
480.414452
 30
0.0
 11
709.117947
 21
210.593441
 31
0.0
  0
LINE
  8
0
  5
9BB
 10
711.034236
 20
482.628258
 30
0.0
 11
711.034236
 21
208.379635
 31
0.0
  0
LINE
  8
0
  5
9BC
 10
608.902588
 20
312.566693
 30
0.0
 11
608.902588
 21
296.503946
 31
0.0
  0
LINE
  8
0
  5
9BD
 10
618.902588
 20
317.503946
 30
0.0
 11
618.902588
 21
290.503946
 31
0.0
  0
LINE
  8
0
  5
9BE
 10
663.002588
 20
255.503946
 30
0.0
 11
663.002588
 21
317.503946
 31
0.0
  0
LINE
  8
1
  5
9BF
 10
827.706466
 20
86.111662
 30
0.0
 11
1007.706466
 21
86.111662
 31
0.0
  0
TEXT
  8
1
  5
9C0
 10
827.706466
 20
92.111662
 30
0.0
 40
15.0
  1
Bracket (accessory)
 41
0.8
  7
UT7
 72
     1
 11
917.706466
 21
92.111662
 31
0.0
  0
DIMENSION
  8
SCALE
  5
9C2
  2
*D28
 10
866.06214
 20
377.189628
 30
0.0
 11
854.395385
 21
301.767179
 31
0.0
 12
0.0
 22
-10.341845
 32
0.0
 70
     2
  1
160%%D
 13
891.154546
 23
189.130446
 33
0.0
 14
891.154546
 24
308.248811
 34
0.0
 15
891.154546
 25
308.248811
 35
0.0
 16
843.001988
 26
323.553423
 36
0.0
  3
STANDARD
1001
ACAD
1000
DSTYLE
1002
{
1070
   140
1040
2.2
1070
   145
1040
1.0
1070
    74
1070
     0
1070
   172
1070
     1
1070
    73
1070
     0
1070
    40
1040
6.0
1070
    42
1040
2.0
1070
    44
1040
1.5
1070
    43
1040
10.0
1070
     5
1000
YAZ3
1070
    41
1040
1.5
1002
}
  0
LINE
  8
CENTER
  6
CENTER
  5
9C3
 10
899.24503
 20
248.689628
 30
0.0
 11
756.24503
 21
248.689628
 31
0.0
  0
LINE
  8
0
  5
9C5
 10
867.812659
 20
117.689628
 30
0.0
 11
893.654546
 21
188.689628
 31
0.0
  0
LINE
  8
0
  5
9C6
 10
891.154546
 20
189.130446
 30
0.0
 11
866.06214
 21
120.189628
 31
0.0
  0
LINE
  8
0
  5
9C7
 10
893.654546
 20
481.90721
 30
0.0
 11
767.654546
 21
481.90721
 31
0.0
  0
LINE
  8
0
  5
9C8
 10
767.654546
 20
511.90721
 30
0.0
 11
893.654546
 21
511.90721
 31
0.0
  0
LINE
  8
CENTER
  6
CENTER
  5
9C9
 10
747.654546
 20
496.90721
 30
0.0
 11
898.654546
 21
496.90721
 31
0.0
  0
DIMENSION
  8
SCALE
  5
9CA
  2
*D29
 10
752.654546
 20
403.717872
 30
0.0
 11
823.154546
 21
416.917872
 31
0.0
  1
141
 13
893.654546
 23
481.90721
 33
0.0
 14
752.654546
 24
496.90721
 34
0.0
  3
STANDARD
1001
ACAD
1000
DSTYLE
1002
{
1070
   140
1040
2.2
1070
   340
1005
CBE
1070
   145
1040
1.0
1070
    74
1070
     0
1070
   172
1070
     1
1070
    73
1070
     0
1070
   272
1070
     4
1070
    40
1040
6.0
1070
   287
1070
     3
1070
    42
1040
2.0
1070
    44
1040
1.5
1070
    43
1040
10.0
1070
   271
1070
     4
1070
     5
1000
YAZ3
1070
    41
1040
1.5
1002
}
  0
DIMENSION
  8
SCALE
  5
9CE
  2
*D19
 10
825.654546
 20
458.246953
 30
0.0
 11
859.654546
 21
471.446953
 31
0.0
 12
0.0
 22
-7.387035
 32
0.0
  1
68
 13
893.654546
 23
481.90721
 33
0.0
 14
825.654546
 24
489.90721
 34
0.0
  3
STANDARD
1001
ACAD
1000
DSTYLE
1002
{
1070
   140
1040
2.2
1070
   145
1040
1.0
1070
    74
1070
     0
1070
   172
1070
     1
1070
    73
1070
     0
1070
    40
1040
6.0
1070
    42
1040
2.0
1070
    44
1040
1.5
1070
    43
1040
10.0
1070
     5
1000
YAZ3
1070
    41
1040
1.5
1002
}
  0
DIMENSION
  8
SCALE
  5
9CF
  2
*D30
 10
770.654546
 20
430.348352
 30
0.0
 11
832.154546
 21
443.548352
 31
0.0
  1
123
 13
893.654546
 23
481.90721
 33
0.0
 14
770.654546
 24
491.65721
 34
0.0
  3
STANDARD
1001
ACAD
1000
DSTYLE
1002
{
1070
   140
1040
2.2
1070
   340
1005
CBE
1070
   145
1040
1.0
1070
    74
1070
     0
1070
   172
1070
     1
1070
    73
1070
     0
1070
   272
1070
     4
1070
    40
1040
6.0
1070
   287
1070
     3
1070
    42
1040
2.0
1070
    44
1040
1.5
1070
    43
1040
10.0
1070
   271
1070
     4
1070
     5
1000
YAZ3
1070
    41
1040
1.5
1002
}
  0
DIMENSION
  8
SCALE
  5
9D0
  2
*D27
 10
913.733626
 20
387.890071
 30
0.0
 11
934.688072
 21
368.912422
 31
0.0
 12
0.0
 22
-10.341845
 32
0.0
 70
     1
  1
50
 13
889.999059
 23
326.042507
 33
0.0
 14
872.898052
 24
373.027138
 34
0.0
  3
STANDARD
1001
ACAD
1000
DSTYLE
1002
{
1070
   140
1040
2.2
1070
   145
1040
1.0
1070
    74
1070
     0
1070
   172
1070
     1
1070
    73
1070
     0
1070
    40
1040
6.0
1070
    42
1040
2.0
1070
    44
1040
1.5
1070
    43
1040
10.0
1070
     5
1000
YAZ3
1070
    41
1040
1.5
1002
}
  0
LINE
  8
0
  5
9D1
 10
891.154546
 20
308.248811
 30
0.0
 11
866.06214
 21
377.189628
 31
0.0
  0
LINE
  8
0
  5
9D2
 10
893.654546
 20
308.689628
 30
0.0
 11
867.812659
 21
379.689628
 31
0.0
  0
LINE
  8
CENTER
  6
CENTER
  5
9D3
 10
874.400861
 20
346.969671
 30
0.0
 11
881.448555
 21
349.534822
 31
0.0
  0
LINE
  8
0
  5
9D8
 10
875.211001
 20
352.053338
 30
0.0
 11
877.560233
 21
352.908389
 31
0.0
  0
ARC
  8
0
  5
A04
 10
300.791596
 20
834.1278
 30
0.0
 40
1.6
 50
0.0
 51
87.0
  0
ARC
  8
0
  5
A05
 10
270.570517
 20
834.016281
 30
0.0
 40
3.2
 50
0.0
 51
90.0
  0
ARC
  8
0
  5
A06
 10
271.518407
 20
832.416281
 30
0.0
 40
1.6
 50
90.0
 51
180.0
  0
ARC
  8
0
  5
A07
 10
271.53816
 20
833.211889
 30
0.0
 40
0.8
 50
0.0
 51
90.0
  0
LINE
  8
0
  5
A08
 10
260.567596
 20
836.416281
 30
0.0
 11
260.567596
 21
834.011889
 31
0.0
  0
ARC
  8
0
  5
A09
 10
259.767596
 20
832.416281
 30
0.0
 40
1.6
 50
90.0
 51
180.0
  0
ARC
  8
0
  5
A0A
 10
261.367596
 20
836.416281
 30
0.0
 40
0.8
 50
90.0
 51
180.0
  0
LINE
  8
0
  5
A0B
 10
259.649132
 20
834.011889
 30
0.0
 11
271.53816
 21
834.011889
 31
0.0
  0
LINE
  8
0
  5
A0C
 10
270.570517
 20
837.216281
 30
0.0
 11
261.367596
 21
837.216281
 31
0.0
  0
LINE
  8
0
  5
A0D
 10
300.875333
 20
835.725607
 30
0.0
 11
271.023336
 21
837.18408
 31
0.0
  0
LINE
  8
0
  5
A14
 10
321.767596
 20
826.016281
 30
0.0
 11
389.494086
 21
826.016281
 31
0.0
  0
LINE
  8
0
  5
A2A
 10
535.378381
 20
613.172879
 30
0.0
 11
535.378381
 21
624.340482
 31
0.0
  0
LINE
  8
0
  5
A2B
 10
523.378381
 20
624.340482
 30
0.0
 11
523.378381
 21
613.172879
 31
0.0
  0
INSERT
  8
SCALE
  5
A2C
  2
YAZ3
 10
515.826318
 20
606.845869
 30
0.0
 41
9.0
 42
9.0
 50
320.304604
 43
9.0
  0
LINE
  8
CENTER
  5
A2D
 10
529.378381
 20
637.007149
 30
0.0
 11
529.378381
 21
575.673816
 31
0.0
  0
ARC
  8
0
  5
A2E
 10
529.378381
 20
624.340482
 30
0.0
 40
6.0
 50
0.0
 51
180.0
  0
TEXT
  8
SCALE
  5
A2F
 10
460.137297
 20
632.38133
 30
0.0
 40
13.2
  1
%%C16
  0
LINE
  8
SCALE
  5
A30
 10
460.137297
 20
626.38133
 30
0.0
 11
492.291894
 21
626.38133
 31
0.0
  0
LINE
  8
SCALE
  5
A32
 10
515.826318
 20
606.845869
 30
0.0
 11
492.291894
 21
626.38133
 31
0.0
  0
LINE
  8
0
  5
A33
 10
384.665659
 20
824.016281
 30
0.0
 11
390.055363
 21
818.626577
 31
0.0
  0
ARC
  8
0
  5
A34
 10
376.567596
 20
796.553539
 30
0.0
 40
1.6
 50
0.0
 51
45.0
  0
LINE
  8
0
  5
A35
 10
408.167596
 20
768.863627
 30
0.0
 11
388.093671
 21
824.016281
 31
0.0
  0
ARC
  8
0
  5
A36
 10
377.367596
 20
723.57728
 30
0.0
 40
0.8
 50
272.862405
 51
0.0
  0
ARC
  8
0
  5
A37
 10
377.367596
 20
714.055281
 30
0.0
 40
0.8
 50
0.0
 51
87.137595
  0
LINE
  8
0
  5
A38
 10
371.687695
 20
722.492286
 30
0.0
 11
377.407546
 21
722.778278
 31
0.0
  0
LINE
  8
0
  5
A39
 10
377.407546
 20
714.854283
 30
0.0
 11
371.687695
 21
715.140276
 31
0.0
  0
LINE
  8
0
  5
A3A
 10
408.167596
 20
759.519672
 30
0.0
 11
404.971775
 21
777.644072
 31
0.0
  0
ARC
  8
0
  5
A3B
 10
418.57443
 20
680.395592
 30
0.0
 40
2.20625
 50
309.597753
 51
50.402247
  0
ARC
  8
0
  5
A3C
 10
416.57443
 20
680.395592
 30
0.0
 40
2.20625
 50
309.597753
 51
50.402247
  0
ARC
  8
0
  5
A3D
 10
419.38693
 20
676.995592
 30
0.0
 40
2.20625
 50
129.597753
 51
230.402247
  0
ARC
  8
0
  5
A3E
 10
421.38693
 20
676.995592
 30
0.0
 40
2.20625
 50
129.597753
 51
230.402247
  0
LINE
  8
0
  5
A3F
 10
404.971775
 20
664.788489
 30
0.0
 11
408.167596
 21
682.91289
 31
0.0
  0
ARC
  8
0
  5
A40
 10
376.567596
 20
645.879022
 30
0.0
 40
1.6
 50
315.0
 51
0.0
  0
LINE
  8
0
  5
A41
 10
407.000787
 20
676.295592
 30
0.0
 11
378.167596
 21
676.295592
 31
0.0
  0
LINE
  8
0
  5
A42
 10
378.167596
 20
681.095592
 30
0.0
 11
407.847157
 21
681.095592
 31
0.0
  0
LINE
  8
0
  5
A43
 10
390.055363
 20
623.805984
 30
0.0
 11
384.665659
 21
618.416281
 31
0.0
  0
LINE
  8
0
  5
A44
 10
408.167596
 20
673.568934
 30
0.0
 11
388.093671
 21
618.416281
 31
0.0
  0
LINE
  8
0
  5
A45
 10
389.494086
 20
616.416281
 30
0.0
 11
410.167596
 21
673.216281
 31
0.0
  0
LINE
  8
0
  5
A46
 10
410.167596
 20
681.095592
 30
0.0
 11
418.666687
 21
681.095592
 31
0.0
  0
LINE
  8
0
  5
A47
 10
417.294673
 20
676.295592
 30
0.0
 11
410.167596
 21
676.295592
 31
0.0
  0
LINE
  8
0
  5
A48
 10
378.167596
 20
645.879022
 30
0.0
 11
378.167596
 21
796.553539
 31
0.0
  0
LINE
  8
0
  5
A49
 10
410.167596
 20
769.216281
 30
0.0
 11
410.167596
 21
673.216281
 31
0.0
  0
LINE
  8
0
  5
A4A
 10
408.167596
 20
673.568934
 30
0.0
 11
408.167596
 21
768.863627
 31
0.0
  0
ARC
  8
0
  5
A4B
 10
524.68723
 20
480.414452
 30
0.0
 40
8.0
 50
89.138551
 51
180.0
  0
ARC
  8
0
  5
A4C
 10
522.77094
 20
482.628258
 30
0.0
 40
8.0
 50
90.0
 51
180.0
  0
LINE
  8
0
  5
A4D
 10
523.602588
 20
410.503946
 30
0.0
 11
527.802588
 21
410.503946
 31
0.0
  0
LINE
  8
0
  5
A4E
 10
525.702588
 20
408.403946
 30
0.0
 11
525.702588
 21
412.603946
 31
0.0
  0
CIRCLE
  8
0
  5
A4F
 10
525.702588
 20
410.503946
 30
0.0
 40
4.15
  0
CIRCLE
  8
0
  5
A50
 10
525.702588
 20
410.503946
 30
0.0
 40
5.0
  0
ARC
  8
0
  5
A51
 10
409.290564
 20
439.551207
 30
0.0
 40
2.0
 50
0.0
 51
45.0
  0
ARC
  8
0
  5
A52
 10
396.335857
 20
452.505915
 30
0.0
 40
2.0
 50
45.0
 51
81.0
  0
LINE
  8
0
  5
A53
 10
397.75007
 20
453.920129
 30
0.0
 11
410.704778
 21
440.965421
 31
0.0
  0
LINE
  8
0
  5
A54
 10
403.190689
 20
346.974641
 30
0.0
 11
410.340502
 21
347.332131
 31
0.0
  0
ARC
  8
0
  5
A55
 10
410.290564
 20
348.330884
 30
0.0
 40
1.0
 50
272.862405
 51
0.0
  0
ARC
  8
0
  5
A56
 10
403.290564
 20
344.977136
 30
0.0
 40
2.0
 50
92.862405
 51
180.0
  0
LINE
  8
0
  5
A57
 10
410.340502
 20
337.427138
 30
0.0
 11
403.190689
 21
337.784628
 31
0.0
  0
ARC
  8
0
  5
A58
 10
410.290564
 20
336.428385
 30
0.0
 40
1.0
 50
0.0
 51
87.137595
  0
ARC
  8
0
  5
A59
 10
403.290564
 20
339.782133
 30
0.0
 40
2.0
 50
180.0
 51
267.137595
  0
LINE
  8
0
  5
A5A
 10
401.290564
 20
339.782133
 30
0.0
 11
401.290564
 21
344.977136
 31
0.0
  0
INSERT
  8
SCALE
  5
A5B
  2
YAZ3
 10
411.290564
 20
315.228774
 30
0.0
 41
9.0
 42
9.0
 50
180.0
 43
9.0
  0
LINE
  8
SCALE
  5
A5C
 10
451.307347
 20
467.023823
 30
0.0
 11
505.535557
 21
467.023823
 31
0.0
  0
TEXT
  8
SCALE
  5
A5D
 10
451.307347
 20
473.023823
 30
0.0
 40
13.2
  1
4-M5
  0
LINE
  8
SCALE
  5
A5E
 10
411.290564
 20
315.228774
 30
0.0
 11
462.110097
 21
315.228774
 31
0.0
  0
ARC
  8
0
  5
A5F
 10
366.203829
 20
806.917305
 30
0.0
 40
1.6
 50
45.0
 51
81.0
  0
LINE
  8
0
  5
A60
 10
370.167596
 20
716.738279
 30
0.0
 11
370.167596
 21
720.894282
 31
0.0
  0
LINE
  8
0
  5
A61
 10
318.983084
 20
816.016281
 30
0.0
 11
321.767596
 21
816.016281
 31
0.0
  0
LINE
  8
0
  5
A62
 10
323.767596
 20
824.016281
 30
0.0
 11
323.767596
 21
815.258488
 31
0.0
  0
LINE
  8
0
  5
A63
 10
302.391596
 20
818.644114
 30
0.0
 11
366.454125
 21
808.497606
 31
0.0
  0
ARC
  8
0
  5
A64
 10
366.203829
 20
635.515256
 30
0.0
 40
1.6
 50
279.0
 51
315.0
  0
LINE
  8
0
  5
A65
 10
321.767596
 20
626.416281
 30
0.0
 11
318.983084
 21
626.416281
 31
0.0
  0
LINE
  8
0
  5
A66
 10
321.767596
 20
616.416281
 30
0.0
 11
321.767596
 21
626.416281
 31
0.0
  0
LINE
  8
0
  5
A67
 10
323.767596
 20
627.174073
 30
0.0
 11
323.767596
 21
618.416281
 31
0.0
  0
ARC
  8
0
  5
A68
 10
300.791596
 20
608.304761
 30
0.0
 40
1.6
 50
273.0
 51
0.0
  0
LINE
  8
0
  5
A69
 10
366.454125
 20
633.934955
 30
0.0
 11
302.391596
 21
623.788447
 31
0.0
  0
LINE
  8
0
  5
A6A
 10
366.967596
 20
806.654102
 30
0.0
 11
366.967596
 21
636.254102
 31
0.0
  0
ARC
  8
0
  5
A6B
 10
271.518407
 20
610.016281
 30
0.0
 40
1.6
 50
180.0
 51
270.0
  0
ARC
  8
0
  5
A6C
 10
271.53816
 20
609.220672
 30
0.0
 40
0.8
 50
270.0
 51
0.0
  0
ARC
  8
0
  5
A6D
 10
270.570517
 20
608.416281
 30
0.0
 40
3.2
 50
270.0
 51
0.0
  0
ARC
  8
0
  5
A6E
 10
259.767596
 20
610.016281
 30
0.0
 40
1.6
 50
180.0
 51
270.0
  0
LINE
  8
0
  5
A6F
 10
260.567596
 20
608.420672
 30
0.0
 11
260.567596
 21
606.016281
 31
0.0
  0
ARC
  8
0
  5
A70
 10
261.367596
 20
606.016281
 30
0.0
 40
0.8
 50
180.0
 51
270.0
  0
LINE
  8
0
  5
A71
 10
261.367596
 20
605.216281
 30
0.0
 11
270.570517
 21
605.216281
 31
0.0
  0
LINE
  8
0
  5
A72
 10
259.767596
 20
608.416281
 30
0.0
 11
271.518407
 21
608.416281
 31
0.0
  0
ARC
  8
0
  5
A73
 10
209.653898
 20
671.116919
 30
0.0
 40
2.0
 50
3.0
 51
110.69104
  0
LINE
  8
0
  5
A74
 10
213.315173
 20
638.781778
 30
0.0
 11
213.315173
 21
639.470284
 31
0.0
  0
ARC
  8
0
  5
A75
 10
206.511132
 20
634.042834
 30
0.0
 40
2.0
 50
287.636473
 51
0.0
  0
LINE
  8
0
  5
A76
 10
208.511132
 20
634.042834
 30
0.0
 11
208.511132
 21
635.738233
 31
0.0
  0
ARC
  8
0
  5
A77
 10
211.315173
 20
638.781778
 30
0.0
 40
2.0
 50
288.792856
 51
0.0
  0
LINE
  8
0
  5
A78
 10
213.315173
 20
639.470284
 30
0.0
 11
211.651157
 21
671.22159
 31
0.0
  0
LINE
  8
0
  5
A79
 10
271.023336
 20
605.248481
 30
0.0
 11
300.875333
 21
606.706954
 31
0.0
  0
ARC
  8
0
  5
A7A
 10
314.570564
 20
486.519034
 30
0.0
 40
2.0
 50
0.0
 51
87.0
  0
ARC
  8
0
  5
A7B
 10
276.794216
 20
486.379635
 30
0.0
 40
4.0
 50
0.0
 51
90.0
  0
ARC
  8
0
  5
A7C
 10
278.00377
 20
485.374145
 30
0.0
 40
1.0
 50
0.0
 51
90.0
  0
ARC
  8
0
  5
A7D
 10
277.979078
 20
484.379635
 30
0.0
 40
2.0
 50
90.0
 51
180.0
  0
ARC
  8
0
  5
A7E
 10
265.290564
 20
489.379635
 30
0.0
 40
1.0
 50
90.0
 51
180.0
  0
ARC
  8
0
  5
A7F
 10
263.290564
 20
484.379635
 30
0.0
 40
2.0
 50
90.0
 51
180.0
  0
LINE
  8
0
  5
A80
 10
264.290564
 20
489.379635
 30
0.0
 11
264.290564
 21
486.374145
 31
0.0
  0
LINE
  8
0
  5
A81
 10
263.142485
 20
486.374145
 30
0.0
 11
278.00377
 21
486.374145
 31
0.0
  0
LINE
  8
0
  5
A82
 10
276.794216
 20
490.379635
 30
0.0
 11
265.290564
 21
490.379635
 31
0.0
  0
ARC
  8
0
  5
A83
 10
205.315173
 20
482.379635
 30
0.0
 40
4.0
 50
0.0
 51
90.0
  0
ARC
  8
0
  5
A84
 10
206.511132
 20
483.379635
 30
0.0
 40
2.0
 50
0.0
 51
90.0
  0
ARC
  8
0
  5
A85
 10
205.315173
 20
482.379635
 30
0.0
 40
8.0
 50
0.0
 51
90.0
  0
LINE
  8
0
  5
A86
 10
314.675236
 20
488.516293
 30
0.0
 11
277.36024
 21
490.339384
 31
0.0
  0
TEXT
  8
1
  5
A87
 10
218.290564
 20
521.586743
 30
0.0
 40
15.0
  1
Bracket installation figure
 41
0.8
  7
UT7
 72
     1
 11
336.290564
 21
521.586743
 31
0.0
  0
LINE
  8
1
  5
A88
 10
218.290564
 20
515.586743
 30
0.0
 11
454.290564
 21
515.586743
 31
0.0
  0
DIMENSION
  8
SCALE
  5
A89
  2
*D24
 10
410.167596
 20
553.235537
 30
0.0
 11
334.167596
 21
566.435537
 31
0.0
  1
190
 13
258.167596
 23
610.016281
 33
0.0
 14
410.167596
 24
673.216281
 34
0.0
  3
STANDARD
1001
ACAD
1000
DSTYLE
1002
{
1070
   140
1040
2.2
1070
   145
1040
1.0
1070
    74
1070
     0
1070
   172
1070
     1
1070
    73
1070
     0
1070
    40
1040
6.0
1070
    42
1040
2.0
1070
    44
1040
1.5
1070
    43
1040
10.0
1070
     5
1000
YAZ3
1070
    41
1040
1.5
1002
}
  0
DIMENSION
  8
SCALE
  5
A8A
  2
*D25
 10
410.167596
 20
579.282582
 30
0.0
 11
394.167596
 21
592.482582
 31
0.0
  1
40
 13
378.167596
 23
645.879022
 33
0.0
 14
410.167596
 24
673.216281
 34
0.0
  3
STANDARD
1001
ACAD
1000
DSTYLE
1002
{
1070
   140
1040
2.2
1070
   145
1040
1.0
1070
    74
1070
     0
1070
   172
1070
     1
1070
    73
1070
     0
1070
    40
1040
6.0
1070
    42
1040
2.0
1070
    44
1040
1.5
1070
    43
1040
10.0
1070
     5
1000
YAZ3
1070
    41
1040
1.5
1002
}
  0
LINE
  8
0
  5
A8B
 10
316.570564
 20
467.164427
 30
0.0
 11
396.648725
 21
454.481292
 31
0.0
  0
LINE
  8
0
  5
A8C
 10
389.494086
 20
616.416281
 30
0.0
 11
321.767596
 21
616.416281
 31
0.0
  0
LINE
  8
0
  5
A8D
 10
323.767596
 20
618.416281
 30
0.0
 11
388.093671
 21
618.416281
 31
0.0
  0
LINE
  8
0
  5
A8E
 10
377.698966
 20
644.747651
 30
0.0
 11
367.3352
 21
634.383885
 31
0.0
  0
LINE
  8
0
  5
A8F
 10
388.093671
 20
824.016281
 30
0.0
 11
323.767596
 21
824.016281
 31
0.0
  0
ARC
  8
0
  5
A90
 10
371.767596
 20
720.894282
 30
0.0
 40
1.6
 50
92.862405
 51
180.0
  0
ARC
  8
0
  5
A91
 10
371.767596
 20
716.738279
 30
0.0
 40
1.6
 50
180.0
 51
267.137595
  0
LINE
  8
0
  5
A92
 10
367.3352
 20
808.048676
 30
0.0
 11
377.698966
 21
797.68491
 31
0.0
  0
LINE
  8
0
  5
A93
 10
525.702588
 20
278.403946
 30
0.0
 11
525.702588
 21
282.603946
 31
0.0
  0
LINE
  8
0
  5
A94
 10
527.802588
 20
280.503946
 30
0.0
 11
523.602588
 21
280.503946
 31
0.0
  0
CIRCLE
  8
0
  5
A95
 10
525.702588
 20
280.503946
 30
0.0
 40
5.0
  0
CIRCLE
  8
0
  5
A96
 10
525.702588
 20
280.503946
 30
0.0
 40
4.15
  0
ARC
  8
0
  5
A97
 10
524.68723
 20
210.593441
 30
0.0
 40
8.0
 50
180.0
 51
270.861449
  0
ARC
  8
0
  5
A98
 10
522.77094
 20
208.379635
 30
0.0
 40
8.0
 50
180.0
 51
270.0
  0
LINE
  8
0
  5
A99
 10
457.110097
 20
287.228774
 30
0.0
 11
457.110097
 21
250.760685
 31
0.0
  0
TEXT
  8
SCALE
  6
CONTINUOUS
  5
A9A
 10
475.510097
 20
200.619416
 30
0.0
 40
13.2
  1
600
 50
90.0
  0
LINE
  8
0
  5
A9B
 10
457.110097
 20
247.760685
 30
0.0
 11
457.110097
 21
219.952916
 31
0.0
  0
INSERT
  8
SCALE
  5
A9C
  2
YAZ3
 10
482.110097
 20
139.952916
 30
0.0
 41
9.0
 42
9.0
 50
270.0
 43
9.0
  0
LINE
  8
1
  5
A9D
 10
456.010097
 20
149.952916
 30
0.0
 11
456.010097
 21
154.952916
 31
0.0
  0
LINE
  8
1
  5
A9E
 10
456.310097
 20
139.952916
 30
0.0
 11
456.310097
 21
149.952916
 31
0.0
  0
LINE
  8
SCALE
  6
CONTINUOUS
  5
A9F
 10
469.110097
 20
139.952916
 30
0.0
 11
491.110097
 21
139.952916
 31
0.0
  0
CIRCLE
  8
1
  5
AA0
 10
477.416187
 20
103.062945
 30
0.0
 40
5.777778
  0
TEXT
  8
1
  5
AA1
 10
473.301901
 20
97.729612
 30
0.0
 40
12.0
  1
-
 41
0.8
  7
UT7
 72
     1
 11
477.416187
 21
97.729612
 31
0.0
  0
TEXT
  8
1
  5
AA2
 10
459.816187
 20
114.006406
 30
0.0
 40
12.0
  1
White
 41
0.8
  7
UT7
 72
     1
 11
477.416187
 21
114.006406
 31
0.0
  0
LINE
  8
SCALE
  6
CONTINUOUS
  5
AA3
 10
482.110097
 20
139.952916
 30
0.0
 11
482.110097
 21
295.228774
 31
0.0
  0
LINE
  8
1
  5
AA4
 10
456.310097
 20
154.952916
 30
0.0
 11
456.310097
 21
219.952916
 31
0.0
  0
ARC
  8
0
  5
AA5
 10
449.110097
 20
287.228774
 30
0.0
 40
2.0
 50
0.0
 51
90.0
  0
ARC
  8
0
  5
AA6
 10
452.610097
 20
247.135685
 30
0.0
 40
1.625
 50
22.619865
 51
157.380135
  0
ARC
  8
0
  5
AA7
 10
452.610097
 20
250.135685
 30
0.0
 40
1.625
 50
22.619865
 51
157.380135
  0
LINE
  8
0
  5
AA8
 10
451.110097
 20
250.760685
 30
0.0
 11
451.110097
 21
287.228774
 31
0.0
  0
LINE
  8
0
  5
AA9
 10
451.110097
 20
219.952916
 30
0.0
 11
451.110097
 21
247.760685
 31
0.0
  0
ARC
  8
0
  5
AAA
 10
409.290564
 20
251.208062
 30
0.0
 40
2.0
 50
315.0
 51
0.0
  0
ARC
  8
0
  5
AAB
 10
396.335857
 20
238.253354
 30
0.0
 40
2.0
 50
279.0
 51
315.0
  0
LINE
  8
0
  5
AAC
 10
410.704778
 20
249.793848
 30
0.0
 11
397.75007
 21
236.83914
 31
0.0
  0
LINE
  8
0
  5
AAD
 10
449.110097
 20
289.228774
 30
0.0
 11
411.290564
 21
289.228774
 31
0.0
  0
LINE
  8
0
  5
AAE
 10
411.290564
 20
295.228774
 30
0.0
 11
449.110097
 21
295.228774
 31
0.0
  0
LINE
  8
1
  5
AAF
 10
455.010097
 20
149.952916
 30
0.0
 11
455.010097
 21
154.952916
 31
0.0
  0
LINE
  8
1
  5
AB0
 10
453.610097
 20
154.952916
 30
0.0
 11
453.610097
 21
149.952916
 31
0.0
  0
LINE
  8
1
  5
AB1
 10
452.610097
 20
154.952916
 30
0.0
 11
452.610097
 21
149.952916
 31
0.0
  0
LINE
  8
1
  5
AB2
 10
453.910097
 20
149.952916
 30
0.0
 11
452.310097
 21
149.952916
 31
0.0
  0
LINE
  8
1
  5
AB3
 10
452.310097
 20
154.952916
 30
0.0
 11
453.910097
 21
154.952916
 31
0.0
  0
LINE
  8
1
  5
AB4
 10
452.310097
 20
139.952916
 30
0.0
 11
453.910097
 21
139.952916
 31
0.0
  0
LINE
  8
1
  5
AB5
 10
454.710097
 20
149.952916
 30
0.0
 11
454.710097
 21
139.952916
 31
0.0
  0
LINE
  8
1
  5
AB6
 10
453.910097
 20
139.952916
 30
0.0
 11
453.910097
 21
149.952916
 31
0.0
  0
LINE
  8
1
  5
AB7
 10
452.310097
 20
149.952916
 30
0.0
 11
452.310097
 21
139.952916
 31
0.0
  0
TEXT
  8
1
  5
AB8
 10
426.689721
 20
97.729612
 30
0.0
 40
12.0
  1
+
 41
0.8
  7
UT7
 72
     1
 11
430.804007
 21
97.729612
 31
0.0
  0
CIRCLE
  8
1
  5
AB9
 10
430.804007
 20
103.062945
 30
0.0
 40
5.777778
  0
TEXT
  8
1
  5
ABA
 10
413.204007
 20
114.006406
 30
0.0
 40
12.0
  1
Black
 41
0.8
  7
UT7
 72
     1
 11
430.804007
 21
114.006406
 31
0.0
  0
DIMENSION
  8
SCALE
  5
ABB
  2
*D8
 10
436.627612
 20
219.952916
 30
0.0
 11
423.427612
 21
179.952916
 31
0.0
 12
0.0
 22
15.894744
 32
0.0
  1
100
 13
452.310097
 23
139.952916
 33
0.0
 14
451.110097
 24
219.952916
 34
0.0
 50
90.0
  3
STANDARD
1001
ACAD
1000
DSTYLE
1002
{
1070
   140
1040
2.2
1070
   145
1040
1.0
1070
    74
1070
     0
1070
   172
1070
     1
1070
    73
1070
     0
1070
    40
1040
6.0
1070
    42
1040
2.0
1070
    44
1040
1.5
1070
    43
1040
10.0
1070
     5
1000
YAZ3
1070
    41
1040
1.5
1002
}
  0
LINE
  8
1
  5
ABC
 10
454.710097
 20
219.952916
 30
0.0
 11
454.710097
 21
154.952916
 31
0.0
  0
LINE
  8
1
  5
ABD
 10
453.910097
 20
154.952916
 30
0.0
 11
453.910097
 21
219.952916
 31
0.0
  0
LINE
  8
1
  5
ABE
 10
452.310097
 20
219.952916
 30
0.0
 11
452.310097
 21
154.952916
 31
0.0
  0
LINE
  8
1
  5
ABF
 10
454.710097
 20
139.952916
 30
0.0
 11
456.310097
 21
139.952916
 31
0.0
  0
LINE
  8
1
  5
AC0
 10
456.310097
 20
149.952916
 30
0.0
 11
454.710097
 21
149.952916
 31
0.0
  0
LINE
  8
1
  5
AC1
 10
454.710097
 20
154.952916
 30
0.0
 11
456.310097
 21
154.952916
 31
0.0
  0
ARC
  8
0
  5
AC2
 10
449.110097
 20
287.228774
 30
0.0
 40
8.0
 50
0.0
 51
90.0
  0
LINE
  8
0
  5
AC3
 10
457.110097
 20
219.952916
 30
0.0
 11
451.110097
 21
219.952916
 31
0.0
  0
ARC
  8
0
  5
AC4
 10
455.610097
 20
248.385685
 30
0.0
 40
1.625
 50
202.619865
 51
337.380135
  0
ARC
  8
0
  5
AC5
 10
455.610097
 20
251.385685
 30
0.0
 40
1.625
 50
202.619865
 51
337.380135
  0
ARC
  8
0
  5
AC6
 10
314.570564
 20
204.240235
 30
0.0
 40
2.0
 50
273.0
 51
0.0
  0
ARC
  8
0
  5
AC7
 10
276.794216
 20
204.379635
 30
0.0
 40
4.0
 50
270.0
 51
0.0
  0
ARC
  8
0
  5
AC8
 10
278.00377
 20
205.385124
 30
0.0
 40
1.0
 50
270.0
 51
0.0
  0
ARC
  8
0
  5
AC9
 10
277.979078
 20
206.379635
 30
0.0
 40
2.0
 50
180.0
 51
270.0
  0
ARC
  8
0
  5
ACA
 10
265.290564
 20
201.379635
 30
0.0
 40
1.0
 50
180.0
 51
270.0
  0
LINE
  8
0
  5
ACB
 10
264.290564
 20
204.385124
 30
0.0
 11
264.290564
 21
201.379635
 31
0.0
  0
ARC
  8
0
  5
ACC
 10
263.290564
 20
206.379635
 30
0.0
 40
2.0
 50
180.0
 51
270.0
  0
LINE
  8
0
  5
ACD
 10
263.290564
 20
204.379635
 30
0.0
 11
277.979078
 21
204.379635
 31
0.0
  0
LINE
  8
0
  5
ACE
 10
265.290564
 20
200.379635
 30
0.0
 11
276.794216
 21
200.379635
 31
0.0
  0
ARC
  8
0
  5
ACF
 10
205.315173
 20
208.379635
 30
0.0
 40
4.0
 50
270.0
 51
0.0
  0
ARC
  8
0
  5
AD0
 10
206.511132
 20
207.379635
 30
0.0
 40
2.0
 50
270.0
 51
0.0
  0
ARC
  8
0
  5
AD1
 10
205.315173
 20
208.379635
 30
0.0
 40
8.0
 50
270.0
 51
0.0
  0
LINE
  8
0
  5
AD2
 10
277.36024
 20
200.419885
 30
0.0
 11
314.675236
 21
202.242976
 31
0.0
  0
DIMENSION
  8
SCALE
  5
AD3
  2
*D6
 10
411.290564
 20
172.125368
 30
0.0
 11
336.290564
 21
185.325368
 31
0.0
 12
0.0
 22
15.894744
 32
0.0
  1
150
 13
261.290564
 23
206.379635
 33
0.0
 14
411.290564
 24
251.208062
 34
0.0
  3
STANDARD
1001
ACAD
1000
DSTYLE
1002
{
1070
   140
1040
2.2
1070
   145
1040
1.0
1070
    74
1070
     0
1070
   172
1070
     1
1070
    73
1070
     0
1070
    40
1040
6.0
1070
    42
1040
2.0
1070
    44
1040
1.5
1070
    43
1040
10.0
1070
     5
1000
YAZ3
1070
    41
1040
1.5
1002
}
  0
TEXT
  8
1
  5
AD4
 10
294.576279
 20
92.111662
 30
0.0
 40
15.0
  1
Side View
 41
0.8
  7
UT7
 72
     1
 11
336.290564
 21
92.111662
 31
0.0
  0
LINE
  8
1
  5
AD5
 10
293.290564
 20
86.111662
 30
0.0
 11
379.290564
 21
86.111662
 31
0.0
  0
LINE
  8
0
  5
AD6
 10
396.648725
 20
236.277977
 30
0.0
 11
316.570564
 21
223.594842
 31
0.0
  0
DIMENSION
  8
SCALE
  5
AD7
  2
*D7
 10
239.355736
 20
490.379635
 30
0.0
 11
226.155736
 21
345.379635
 31
0.0
 12
0.0
 22
15.894744
 32
0.0
  1
290
 13
205.315173
 23
200.379635
 33
0.0
 14
205.315173
 24
490.379635
 34
0.0
 50
90.0
  3
STANDARD
1001
ACAD
1000
DSTYLE
1002
{
1070
   140
1040
2.2
1070
   145
1040
1.0
1070
    74
1070
     0
1070
   172
1070
     1
1070
    73
1070
     0
1070
    40
1040
6.0
1070
    42
1040
2.0
1070
    44
1040
1.5
1070
    43
1040
10.0
1070
     5
1000
YAZ3
1070
    41
1040
1.5
1002
}
  0
LINE
  8
0
  5
AD8
 10
208.511132
 20
207.379635
 30
0.0
 11
208.511132
 21
483.379635
 31
0.0
  0
LINE
  8
0
  5
AD9
 10
213.315173
 20
208.379635
 30
0.0
 11
213.315173
 21
482.379635
 31
0.0
  0
LINE
  8
0
  5
ADA
 10
209.315173
 20
208.379635
 30
0.0
 11
209.315173
 21
482.379635
 31
0.0
  0
LINE
  8
0
  5
ADB
 10
411.290564
 20
251.208062
 30
0.0
 11
411.290564
 21
439.551207
 31
0.0
  0
LINE
  8
0
  5
ADC
 10
316.570564
 20
204.240235
 30
0.0
 11
316.570564
 21
486.519034
 31
0.0
  0
LINE
  8
0
  5
ADD
 10
397.290564
 20
452.176911
 30
0.0
 11
397.290564
 21
239.176911
 31
0.0
  0
LINE
  8
0
  5
ADE
 10
280.794216
 20
204.379635
 30
0.0
 11
280.794216
 21
486.092235
 31
0.0
  0
LINE
  8
0
  5
ADF
 10
279.00377
 20
485.374145
 30
0.0
 11
279.00377
 21
205.385124
 31
0.0
  0
LINE
  8
0
  5
AE0
 10
275.979078
 20
484.379635
 30
0.0
 11
275.979078
 21
206.379635
 31
0.0
  0
LINE
  8
0
  5
AE1
 10
261.290564
 20
484.379635
 30
0.0
 11
261.290564
 21
206.379635
 31
0.0
  0
LINE
  8
0
  5
AE2
 10
516.68723
 20
210.593441
 30
0.0
 11
516.68723
 21
480.414452
 31
0.0
  0
LINE
  8
0
  5
AE3
 10
514.77094
 20
208.379635
 30
0.0
 11
514.77094
 21
482.628258
 31
0.0
  0
LINE
  8
0
  5
AE4
 10
535.402588
 20
229.83866
 30
0.0
 11
535.402588
 21
461.169233
 31
0.0
  0
ARC
  8
SCALE
  5
AE5
 10
462.110097
 20
295.228774
 30
0.0
 40
20.0
 50
0.0
 51
90.0
  0
ARC
  8
0
  5
AE6
 10
166.986745
 20
765.89523
 30
0.0
 40
2.0
 50
45.0
 51
90.0
  0
ARC
  8
0
  5
AE7
 10
179.917515
 20
752.96446
 30
0.0
 40
2.0
 50
7.254389
 51
45.0
  0
LINE
  8
0
  5
AE8
 10
168.400959
 20
767.309444
 30
0.0
 11
181.331729
 21
754.378674
 31
0.0
  0
LINE
  8
0
  5
AE9
 10
135.315173
 20
753.89523
 30
0.0
 11
181.315173
 21
753.89523
 31
0.0
  0
LINE
  8
0
  5
AEA
 10
181.901506
 20
753.21701
 30
0.0
 11
192.815173
 21
667.481043
 31
0.0
  0
LINE
  8
0
  5
AEB
 10
135.315173
 20
656.651025
 30
0.0
 11
135.315173
 21
767.89523
 31
0.0
  0
LINE
  8
1
 62
     7
  5
AEC
 10
115.315173
 20
767.89523
 30
0.0
 11
116.266422
 21
767.89523
 31
0.0
  0
ARC
  8
0
  5
AED
 10
111.218919
 20
766.89523
 30
0.0
 40
1.0
 50
90.0
 51
177.137595
  0
ARC
  8
0
  5
AEE
 10
99.31642
 20
766.89523
 30
0.0
 40
1.0
 50
2.862405
 51
90.0
  0
ARC
  8
0
  5
AEF
 10
107.865171
 20
759.89523
 30
0.0
 40
2.0
 50
270.0
 51
357.137595
  0
ARC
  8
0
  5
AF0
 10
102.670168
 20
759.89523
 30
0.0
 40
2.0
 50
182.862405
 51
270.0
  0
LINE
  8
0
  5
AF1
 10
107.865171
 20
757.89523
 30
0.0
 11
102.670168
 21
757.89523
 31
0.0
  0
LINE
  8
0
  5
AF2
 10
110.220166
 20
766.945168
 30
0.0
 11
109.862676
 21
759.795355
 31
0.0
  0
LINE
  8
0
  5
AF3
 10
100.672663
 20
759.795355
 30
0.0
 11
100.315173
 21
766.945168
 31
0.0
  0
ARC
  8
0
  5
AF4
 10
63.6436
 20
765.89523
 30
0.0
 40
2.0
 50
90.0
 51
135.0
  0
ARC
  8
0
  5
AF5
 10
50.71283
 20
752.96446
 30
0.0
 40
2.0
 50
135.0
 51
172.745611
  0
LINE
  8
0
  5
AF6
 10
49.298616
 20
754.378674
 30
0.0
 11
62.229386
 21
767.309444
 31
0.0
  0
LINE
  8
0
  5
AF7
 10
49.270772
 20
753.89523
 30
0.0
 11
95.315173
 21
753.89523
 31
0.0
  0
CIRCLE
  8
0
  5
AF8
 10
115.315173
 20
687.89523
 30
0.0
 40
2.5
  0
LINE
  8
0
  5
AF9
 10
37.815173
 20
667.481043
 30
0.0
 11
48.728839
 21
753.21701
 31
0.0
  0
LINE
  8
0
  5
AFA
 10
95.315173
 20
656.651025
 30
0.0
 11
95.315173
 21
767.89523
 31
0.0
  0
LINE
  8
0
  5
AFB
 10
95.315173
 20
702.89523
 30
0.0
 11
135.315173
 21
702.89523
 31
0.0
  0
LINE
  8
0
  5
AFC
 10
95.315173
 20
752.94523
 30
0.0
 11
135.315173
 21
752.94523
 31
0.0
  0
LINE
  8
0
  5
AFD
 10
63.6436
 20
767.89523
 30
0.0
 11
166.986745
 21
767.89523
 31
0.0
  0
CIRCLE
  8
0
  5
AFE
 10
115.315173
 20
687.89523
 30
0.0
 40
4.75
  0
CIRCLE
  8
SILK
  5
AFF
 10
194.315173
 20
455.111685
 30
0.0
 40
0.75
  0
CIRCLE
  8
SILK
  5
B00
 10
193.315173
 20
453.379635
 30
0.0
 40
0.75
  0
CIRCLE
  8
SILK
  5
B01
 10
193.315173
 20
460.307838
 30
0.0
 40
0.75
  0
CIRCLE
  8
SILK
  5
B02
 10
193.315173
 20
456.843736
 30
0.0
 40
0.75
  0
CIRCLE
  8
SILK
  5
B03
 10
193.315173
 20
463.771939
 30
0.0
 40
0.75
  0
CIRCLE
  8
SILK
  5
B04
 10
193.315173
 20
467.236041
 30
0.0
 40
0.75
  0
CIRCLE
  8
SILK
  5
B05
 10
194.315173
 20
458.575787
 30
0.0
 40
0.75
  0
CIRCLE
  8
SILK
  5
B06
 10
194.315173
 20
462.039889
 30
0.0
 40
0.75
  0
CIRCLE
  8
SILK
  5
B07
 10
194.315173
 20
465.50399
 30
0.0
 40
0.75
  0
CIRCLE
  8
SILK
  5
B08
 10
185.315173
 20
453.379635
 30
0.0
 40
0.75
  0
CIRCLE
  8
SILK
  5
B09
 10
185.315173
 20
460.307838
 30
0.0
 40
0.75
  0
CIRCLE
  8
SILK
  5
B0A
 10
185.315173
 20
456.843736
 30
0.0
 40
0.75
  0
CIRCLE
  8
SILK
  5
B0B
 10
185.315173
 20
463.771939
 30
0.0
 40
0.75
  0
CIRCLE
  8
SILK
  5
B0C
 10
185.315173
 20
467.236041
 30
0.0
 40
0.75
  0
CIRCLE
  8
SILK
  5
B0D
 10
184.315173
 20
455.111685
 30
0.0
 40
0.75
  0
CIRCLE
  8
SILK
  5
B0E
 10
182.315173
 20
455.111685
 30
0.0
 40
0.75
  0
CIRCLE
  8
SILK
  5
B0F
 10
183.315173
 20
453.379635
 30
0.0
 40
0.75
  0
CIRCLE
  8
SILK
  5
B10
 10
183.315173
 20
456.843736
 30
0.0
 40
0.75
  0
CIRCLE
  8
SILK
  5
B11
 10
183.315173
 20
460.307838
 30
0.0
 40
0.75
  0
CIRCLE
  8
SILK
  5
B12
 10
183.315173
 20
463.771939
 30
0.0
 40
0.75
  0
CIRCLE
  8
SILK
  5
B13
 10
183.315173
 20
467.236041
 30
0.0
 40
0.75
  0
CIRCLE
  8
SILK
  5
B14
 10
184.315173
 20
458.575787
 30
0.0
 40
0.75
  0
CIRCLE
  8
SILK
  5
B15
 10
184.315173
 20
462.039889
 30
0.0
 40
0.75
  0
CIRCLE
  8
SILK
  5
B16
 10
184.315173
 20
465.50399
 30
0.0
 40
0.75
  0
CIRCLE
  8
SILK
  5
B17
 10
182.315173
 20
458.575787
 30
0.0
 40
0.75
  0
CIRCLE
  8
SILK
  5
B18
 10
182.315173
 20
462.039889
 30
0.0
 40
0.75
  0
CIRCLE
  8
SILK
  5
B19
 10
182.315173
 20
465.50399
 30
0.0
 40
0.75
  0
CIRCLE
  8
SILK
  5
B1A
 10
186.315173
 20
455.111685
 30
0.0
 40
0.75
  0
CIRCLE
  8
SILK
  5
B1B
 10
190.315173
 20
455.111685
 30
0.0
 40
0.75
  0
CIRCLE
  8
SILK
  5
B1C
 10
188.315173
 20
455.111685
 30
0.0
 40
0.75
  0
CIRCLE
  8
SILK
  5
B1D
 10
187.315173
 20
453.379635
 30
0.0
 40
0.75
  0
CIRCLE
  8
SILK
  5
B1E
 10
189.315173
 20
453.379635
 30
0.0
 40
0.75
  0
CIRCLE
  8
SILK
  5
B1F
 10
186.315173
 20
458.575787
 30
0.0
 40
0.75
  0
CIRCLE
  8
SILK
  5
B20
 10
186.315173
 20
462.039889
 30
0.0
 40
0.75
  0
CIRCLE
  8
SILK
  5
B21
 10
186.315173
 20
465.50399
 30
0.0
 40
0.75
  0
CIRCLE
  8
SILK
  5
B22
 10
187.315173
 20
460.307838
 30
0.0
 40
0.75
  0
CIRCLE
  8
SILK
  5
B23
 10
187.315173
 20
456.843736
 30
0.0
 40
0.75
  0
CIRCLE
  8
SILK
  5
B24
 10
187.315173
 20
463.771939
 30
0.0
 40
0.75
  0
CIRCLE
  8
SILK
  5
B25
 10
187.315173
 20
467.236041
 30
0.0
 40
0.75
  0
CIRCLE
  8
SILK
  5
B26
 10
189.315173
 20
460.307838
 30
0.0
 40
0.75
  0
CIRCLE
  8
SILK
  5
B27
 10
189.315173
 20
456.843736
 30
0.0
 40
0.75
  0
CIRCLE
  8
SILK
  5
B28
 10
190.315173
 20
458.575787
 30
0.0
 40
0.75
  0
CIRCLE
  8
SILK
  5
B29
 10
189.315173
 20
463.771939
 30
0.0
 40
0.75
  0
CIRCLE
  8
SILK
  5
B2A
 10
190.315173
 20
462.039889
 30
0.0
 40
0.75
  0
CIRCLE
  8
SILK
  5
B2B
 10
190.315173
 20
465.50399
 30
0.0
 40
0.75
  0
CIRCLE
  8
SILK
  5
B2C
 10
189.315173
 20
467.236041
 30
0.0
 40
0.75
  0
CIRCLE
  8
SILK
  5
B2D
 10
188.315173
 20
458.575787
 30
0.0
 40
0.75
  0
CIRCLE
  8
SILK
  5
B2E
 10
188.315173
 20
462.039889
 30
0.0
 40
0.75
  0
CIRCLE
  8
SILK
  5
B2F
 10
188.315173
 20
465.50399
 30
0.0
 40
0.75
  0
CIRCLE
  8
SILK
  5
B30
 10
191.315173
 20
453.379635
 30
0.0
 40
0.75
  0
CIRCLE
  8
SILK
  5
B31
 10
191.315173
 20
460.307838
 30
0.0
 40
0.75
  0
CIRCLE
  8
SILK
  5
B32
 10
191.315173
 20
456.843736
 30
0.0
 40
0.75
  0
CIRCLE
  8
SILK
  5
B33
 10
191.315173
 20
463.771939
 30
0.0
 40
0.75
  0
CIRCLE
  8
SILK
  5
B34
 10
191.315173
 20
467.236041
 30
0.0
 40
0.75
  0
CIRCLE
  8
SILK
  5
B35
 10
192.315173
 20
455.111685
 30
0.0
 40
0.75
  0
CIRCLE
  8
SILK
  5
B36
 10
192.315173
 20
458.575787
 30
0.0
 40
0.75
  0
CIRCLE
  8
SILK
  5
B37
 10
192.315173
 20
462.039889
 30
0.0
 40
0.75
  0
CIRCLE
  8
SILK
  5
B38
 10
192.315173
 20
465.50399
 30
0.0
 40
0.75
  0
CIRCLE
  8
SILK
  5
B39
 10
180.315173
 20
455.111685
 30
0.0
 40
0.75
  0
CIRCLE
  8
SILK
  5
B3A
 10
180.315173
 20
458.575787
 30
0.0
 40
0.75
  0
CIRCLE
  8
SILK
  5
B3B
 10
180.315173
 20
462.039889
 30
0.0
 40
0.75
  0
CIRCLE
  8
SILK
  5
B3C
 10
180.315173
 20
465.50399
 30
0.0
 40
0.75
  0
CIRCLE
  8
SILK
  5
B3D
 10
174.315173
 20
455.111685
 30
0.0
 40
0.75
  0
CIRCLE
  8
SILK
  5
B3E
 10
173.315173
 20
453.379635
 30
0.0
 40
0.75
  0
CIRCLE
  8
SILK
  5
B3F
 10
174.315173
 20
458.575787
 30
0.0
 40
0.75
  0
CIRCLE
  8
SILK
  5
B40
 10
174.315173
 20
462.039889
 30
0.0
 40
0.75
  0
CIRCLE
  8
SILK
  5
B41
 10
174.315173
 20
465.50399
 30
0.0
 40
0.75
  0
CIRCLE
  8
SILK
  5
B42
 10
173.315173
 20
460.307838
 30
0.0
 40
0.75
  0
CIRCLE
  8
SILK
  5
B43
 10
173.315173
 20
456.843736
 30
0.0
 40
0.75
  0
CIRCLE
  8
SILK
  5
B44
 10
173.315173
 20
463.771939
 30
0.0
 40
0.75
  0
CIRCLE
  8
SILK
  5
B45
 10
173.315173
 20
467.236041
 30
0.0
 40
0.75
  0
CIRCLE
  8
SILK
  5
B46
 10
172.315173
 20
455.111685
 30
0.0
 40
0.75
  0
CIRCLE
  8
SILK
  5
B47
 10
172.315173
 20
458.575787
 30
0.0
 40
0.75
  0
CIRCLE
  8
SILK
  5
B48
 10
172.315173
 20
462.039889
 30
0.0
 40
0.75
  0
CIRCLE
  8
SILK
  5
B49
 10
172.315173
 20
465.50399
 30
0.0
 40
0.75
  0
CIRCLE
  8
SILK
  5
B4A
 10
176.315173
 20
455.111685
 30
0.0
 40
0.75
  0
CIRCLE
  8
SILK
  5
B4B
 10
178.315173
 20
455.111685
 30
0.0
 40
0.75
  0
CIRCLE
  8
SILK
  5
B4C
 10
175.315173
 20
453.379635
 30
0.0
 40
0.75
  0
CIRCLE
  8
SILK
  5
B4D
 10
179.315173
 20
453.379635
 30
0.0
 40
0.75
  0
CIRCLE
  8
SILK
  5
B4E
 10
177.315173
 20
453.379635
 30
0.0
 40
0.75
  0
CIRCLE
  8
SILK
  5
B4F
 10
175.315173
 20
460.307838
 30
0.0
 40
0.75
  0
CIRCLE
  8
SILK
  5
B50
 10
175.315173
 20
456.843736
 30
0.0
 40
0.75
  0
CIRCLE
  8
SILK
  5
B51
 10
175.315173
 20
463.771939
 30
0.0
 40
0.75
  0
CIRCLE
  8
SILK
  5
B52
 10
175.315173
 20
467.236041
 30
0.0
 40
0.75
  0
CIRCLE
  8
SILK
  5
B53
 10
176.315173
 20
458.575787
 30
0.0
 40
0.75
  0
CIRCLE
  8
SILK
  5
B54
 10
176.315173
 20
462.039889
 30
0.0
 40
0.75
  0
CIRCLE
  8
SILK
  5
B55
 10
176.315173
 20
465.50399
 30
0.0
 40
0.75
  0
CIRCLE
  8
SILK
  5
B56
 10
178.315173
 20
458.575787
 30
0.0
 40
0.75
  0
CIRCLE
  8
SILK
  5
B57
 10
178.315173
 20
462.039889
 30
0.0
 40
0.75
  0
CIRCLE
  8
SILK
  5
B58
 10
178.315173
 20
465.50399
 30
0.0
 40
0.75
  0
CIRCLE
  8
SILK
  5
B59
 10
179.315173
 20
460.307838
 30
0.0
 40
0.75
  0
CIRCLE
  8
SILK
  5
B5A
 10
179.315173
 20
456.843736
 30
0.0
 40
0.75
  0
CIRCLE
  8
SILK
  5
B5B
 10
179.315173
 20
463.771939
 30
0.0
 40
0.75
  0
CIRCLE
  8
SILK
  5
B5C
 10
179.315173
 20
467.236041
 30
0.0
 40
0.75
  0
CIRCLE
  8
SILK
  5
B5D
 10
177.315173
 20
460.307838
 30
0.0
 40
0.75
  0
CIRCLE
  8
SILK
  5
B5E
 10
177.315173
 20
456.843736
 30
0.0
 40
0.75
  0
CIRCLE
  8
SILK
  5
B5F
 10
177.315173
 20
463.771939
 30
0.0
 40
0.75
  0
CIRCLE
  8
SILK
  5
B60
 10
177.315173
 20
467.236041
 30
0.0
 40
0.75
  0
CIRCLE
  8
SILK
  5
B61
 10
170.315173
 20
455.111685
 30
0.0
 40
0.75
  0
CIRCLE
  8
SILK
  5
B62
 10
170.315173
 20
458.575787
 30
0.0
 40
0.75
  0
CIRCLE
  8
SILK
  5
B63
 10
170.315173
 20
462.039889
 30
0.0
 40
0.75
  0
CIRCLE
  8
SILK
  5
B64
 10
170.315173
 20
465.50399
 30
0.0
 40
0.75
  0
CIRCLE
  8
SILK
  5
B65
 10
171.315173
 20
453.379635
 30
0.0
 40
0.75
  0
CIRCLE
  8
SILK
  5
B66
 10
171.315173
 20
460.307838
 30
0.0
 40
0.75
  0
CIRCLE
  8
SILK
  5
B67
 10
171.315173
 20
456.843736
 30
0.0
 40
0.75
  0
CIRCLE
  8
SILK
  5
B68
 10
171.315173
 20
463.771939
 30
0.0
 40
0.75
  0
CIRCLE
  8
SILK
  5
B69
 10
171.315173
 20
467.236041
 30
0.0
 40
0.75
  0
CIRCLE
  8
SILK
  5
B6A
 10
181.315173
 20
453.379635
 30
0.0
 40
0.75
  0
CIRCLE
  8
SILK
  5
B6B
 10
181.315173
 20
460.307838
 30
0.0
 40
0.75
  0
CIRCLE
  8
SILK
  5
B6C
 10
181.315173
 20
456.843736
 30
0.0
 40
0.75
  0
CIRCLE
  8
SILK
  5
B6D
 10
181.315173
 20
463.771939
 30
0.0
 40
0.75
  0
CIRCLE
  8
SILK
  5
B6E
 10
181.315173
 20
467.236041
 30
0.0
 40
0.75
  0
TEXT
  8
1
  5
B6F
 10
76.172315
 20
521.586743
 30
0.0
 40
15.0
  1
Top View
 41
0.8
  7
UT7
 72
     1
 11
115.315173
 21
521.586743
 31
0.0
  0
LINE
  8
1
  5
B70
 10
75.315173
 20
515.586743
 30
0.0
 11
155.315173
 21
515.586743
 31
0.0
  0
ARC
  8
0
  5
B71
 10
20.976447
 20
671.116919
 30
0.0
 40
2.0
 50
69.30896
 51
177.0
  0
LINE
  8
0
  5
B72
 10
17.315173
 20
638.781778
 30
0.0
 11
17.315173
 21
639.470284
 31
0.0
  0
ARC
  8
0
  5
B73
 10
19.315173
 20
638.781778
 30
0.0
 40
2.0
 50
180.0
 51
251.207144
  0
LINE
  8
0
  5
B74
 10
22.119213
 20
635.738233
 30
0.0
 11
22.119213
 21
634.042834
 31
0.0
  0
ARC
  8
0
  5
B75
 10
24.119213
 20
634.042834
 30
0.0
 40
2.0
 50
180.0
 51
252.363527
  0
LINE
  8
0
  5
B76
 10
17.315173
 20
639.470284
 30
0.0
 11
18.979188
 21
671.22159
 31
0.0
  0
ARC
  8
0
  5
B77
 10
25.315173
 20
482.379635
 30
0.0
 40
8.0
 50
90.0
 51
180.0
  0
ARC
  8
0
  5
B78
 10
25.315173
 20
482.379635
 30
0.0
 40
4.0
 50
90.0
 51
180.0
  0
ARC
  8
0
  5
B79
 10
24.119213
 20
483.379635
 30
0.0
 40
2.0
 50
90.0
 51
180.0
  0
LINE
  8
1
  5
B7A
 10
119.978398
 20
252.843385
 30
0.0
 11
124.065173
 21
257.078385
 31
0.0
1001
ACAD
1000
ASC_BOUNDS
1002
{
1070
    19
1005
0
1002
}
  0
LINE
  8
1
  5
B7B
 10
124.065173
 20
259.895885
 30
0.0
 11
124.065173
 21
260.455885
 31
0.0
1001
ACAD
1000
ASC_BOUNDS
1002
{
1070
    19
1005
0
1002
}
  0
ARC
  8
1
  5
B7C
 10
125.815173
 20
261.879635
 30
0.0
 40
0.5
 50
0.0
 51
90.0
  0
ARC
  8
1
  5
B7D
 10
125.815173
 20
240.879635
 30
0.0
 40
0.5
 50
270.0
 51
0.0
  0
LINE
  8
1
  5
B7E
 10
126.315173
 20
261.879635
 30
0.0
 11
126.315173
 21
240.879635
 31
0.0
  0
LINE
  8
1
  5
B7F
 10
124.065173
 20
257.078385
 30
0.0
 11
124.065173
 21
242.343385
 31
0.0
1001
ACAD
1000
ASC_BOUNDS
1002
{
1070
    19
1005
0
1002
}
  0
LINE
  8
1
  5
B80
 10
111.04036
 20
252.843385
 30
0.0
 11
115.414223
 21
252.843385
 31
0.0
1001
ACAD
1000
ASC_BOUNDS
1002
{
1070
    19
1005
0
1002
}
  0
ARC
  8
1
  5
B81
 10
104.815173
 20
261.879635
 30
0.0
 40
0.5
 50
90.0
 51
180.0
  0
LINE
  8
1
  5
B82
 10
106.565173
 20
249.535885
 30
0.0
 11
106.565173
 21
256.535885
 31
0.0
1001
ACAD
1000
ASC_BOUNDS
1002
{
1070
    19
1005
0
1002
}
  0
LINE
  8
1
  5
B83
 10
106.565173
 20
260.455885
 30
0.0
 11
106.565173
 21
259.895885
 31
0.0
1001
ACAD
1000
ASC_BOUNDS
1002
{
1070
    19
1005
0
1002
}
  0
LINE
  8
1
  5
B84
 10
106.565173
 20
256.535885
 30
0.0
 11
113.320173
 21
256.535885
 31
0.0
1001
ACAD
1000
ASC_BOUNDS
1002
{
1070
    19
1005
0
1002
}
  0
LINE
  8
1
  5
B85
 10
106.565173
 20
248.205885
 30
0.0
 11
111.04036
 21
252.843385
 31
0.0
1001
ACAD
1000
ASC_BOUNDS
1002
{
1070
    19
1005
0
1002
}
  0
LINE
  8
1
  5
B86
 10
106.565173
 20
249.535885
 30
0.0
 11
113.320173
 21
256.535885
 31
0.0
1001
ACAD
1000
ASC_BOUNDS
1002
{
1070
    19
1005
0
1002
}
  0
ARC
  8
1
  5
B87
 10
104.815173
 20
240.879635
 30
0.0
 40
0.5
 50
180.0
 51
270.0
  0
LINE
  8
1
  5
B88
 10
113.320173
 20
242.343385
 30
0.0
 11
106.565173
 21
242.343385
 31
0.0
1001
ACAD
1000
ASC_BOUNDS
1002
{
1070
    19
1005
0
1002
}
  0
LINE
  8
1
  5
B89
 10
104.315173
 20
240.879635
 30
0.0
 11
104.315173
 21
261.879635
 31
0.0
  0
LINE
  8
1
  5
B8A
 10
113.320173
 20
249.343385
 30
0.0
 11
113.320173
 21
242.343385
 31
0.0
1001
ACAD
1000
ASC_BOUNDS
1002
{
1070
    19
1005
0
1002
}
  0
LINE
  8
1
  5
B8B
 10
106.565173
 20
243.673385
 30
0.0
 11
106.565173
 21
248.205885
 31
0.0
1001
ACAD
1000
ASC_BOUNDS
1002
{
1070
    19
1005
0
1002
}
  0
LINE
  8
1
  5
B8C
 10
106.565173
 20
242.343385
 30
0.0
 11
113.320173
 21
249.343385
 31
0.0
1001
ACAD
1000
ASC_BOUNDS
1002
{
1070
    19
1005
0
1002
}
  0
LINE
  8
1
  5
B8D
 10
115.414223
 20
252.843385
 30
0.0
 11
106.565173
 21
243.673385
 31
0.0
1001
ACAD
1000
ASC_BOUNDS
1002
{
1070
    19
1005
0
1002
}
  0
LINE
  8
1
  5
B8E
 10
117.607673
 20
242.343385
 30
0.0
 11
117.607673
 21
252.843385
 31
0.0
1001
ACAD
1000
ASC_BOUNDS
1002
{
1070
    19
1005
0
1002
}
  0
TEXT
  8
1
  5
B8F
 10
68.45803
 20
92.111662
 30
0.0
 40
15.0
  1
Front View
 41
0.8
  7
UT7
 72
     1
 11
115.315173
 21
92.111662
 31
0.0
  0
LINE
  8
1
  5
B90
 10
67.315173
 20
86.111662
 30
0.0
 11
163.315173
 21
86.111662
 31
0.0
  0
TEXT
  8
1
  5
B91
 10
41.021406
 20
62.602644
 30
0.0
 40
15.0
  1
UNIT:mm
 41
0.8
  7
UT7
  0
INSERT
  8
1
  5
B92
  2
*X4
 10
-934.390427
 20
-349.713537
 30
0.0
1001
ACAD
1000
HATCH
1002
{
1070
    19
1000
ANSI31
1040
2.777778
1040
10.995574
1000
ASC_BOUNDS
1070
     1
1070
     2
1070
    19
1005
0
1005
0
1005
0
1005
0
1005
0
1005
0
1005
0
1005
0
1005
0
1005
0
1005
0
1005
0
1005
0
1005
0
1005
0
1005
0
1005
0
1005
0
1005
0
1000
ASC_SEEDPOINT
1011
-934.390427
1021
42.03108
1031
0.0
1002
}
  0
LINE
  8
1
  5
B93
 10
125.815173
 20
240.379635
 30
0.0
 11
104.815173
 21
240.379635
 31
0.0
  0
LINE
  8
1
  5
B94
 10
124.065173
 20
259.895885
 30
0.0
 11
106.565173
 21
259.895885
 31
0.0
1001
ACAD
1000
ASC_BOUNDS
1002
{
1070
    19
1005
0
1002
}
  0
LINE
  8
1
  5
B95
 10
106.565173
 20
260.455885
 30
0.0
 11
124.065173
 21
260.455885
 31
0.0
1001
ACAD
1000
ASC_BOUNDS
1002
{
1070
    19
1005
0
1002
}
  0
LINE
  8
1
  5
B96
 10
104.815173
 20
262.379635
 30
0.0
 11
125.815173
 21
262.379635
 31
0.0
  0
LINE
  8
1
  5
B97
 10
124.065173
 20
242.343385
 30
0.0
 11
117.607673
 21
242.343385
 31
0.0
1001
ACAD
1000
ASC_BOUNDS
1002
{
1070
    19
1005
0
1002
}
  0
LINE
  8
1
  5
B98
 10
117.607673
 20
252.843385
 30
0.0
 11
119.978398
 21
252.843385
 31
0.0
1001
ACAD
1000
ASC_BOUNDS
1002
{
1070
    19
1005
0
1002
}
  0
ARC
  8
0
  5
B99
 10
25.315173
 20
208.379635
 30
0.0
 40
8.0
 50
180.0
 51
270.0
  0
ARC
  8
0
  5
B9A
 10
24.119213
 20
207.379635
 30
0.0
 40
2.0
 50
180.0
 51
270.0
  0
ARC
  8
0
  5
B9B
 10
25.315173
 20
208.379635
 30
0.0
 40
4.0
 50
180.0
 51
270.0
  0
LINE
  8
0
  5
B9E
 10
17.315173
 20
482.379635
 30
0.0
 11
17.315173
 21
208.379635
 31
0.0
  0
LINE
  8
0
  5
B9F
 10
22.119213
 20
483.379635
 30
0.0
 11
22.119213
 21
207.379635
 31
0.0
  0
LINE
  8
0
  5
BA0
 10
21.315173
 20
482.379635
 30
0.0
 11
21.315173
 21
208.379635
 31
0.0
  0
DIMENSION
  8
SCALE
  5
BA2
  2
*D5
 10
213.315173
 20
172.125368
 30
0.0
 11
115.315173
 21
185.325368
 31
0.0
 12
0.0
 22
15.894744
 32
0.0
  1
196
 13
17.315173
 23
208.379635
 33
0.0
 14
213.315173
 24
208.379635
 34
0.0
  3
STANDARD
1001
ACAD
1000
DSTYLE
1002
{
1070
   140
1040
2.2
1070
   145
1040
1.0
1070
    74
1070
     0
1070
   172
1070
     1
1070
    73
1070
     0
1070
    40
1040
6.0
1070
    42
1040
2.0
1070
    44
1040
1.5
1070
    43
1040
10.0
1070
     5
1000
YAZ3
1070
    41
1040
1.5
1002
}
  0
LINE
  8
0
  5
BA3
 10
25.315173
 20
200.379635
 30
0.0
 11
205.315173
 21
200.379635
 31
0.0
  0
LINE
  8
0
  5
BA4
 10
24.119213
 20
205.379635
 30
0.0
 11
206.511132
 21
205.379635
 31
0.0
  0
LINE
  8
0
  5
BA5
 10
25.315173
 20
204.379635
 30
0.0
 11
205.315173
 21
204.379635
 31
0.0
  0
ARC
  8
0
  5
BA6
 10
115.315173
 20
920.89523
 30
0.0
 40
300.0
 50
251.207144
 51
288.792856
  0
ARC
  8
0
  5
BA7
 10
115.315173
 20
920.89523
 30
0.0
 40
303.0
 50
252.363527
 51
287.636473
  0
ARC
  8
0
  5
BA8
 10
115.315173
 20
920.89523
 30
0.0
 40
265.0
 50
249.30896
 51
290.69104
  0
LINE
  8
0
  5
BA9
 10
205.315173
 20
490.379635
 30
0.0
 11
25.315173
 21
490.379635
 31
0.0
  0
LINE
  8
0
  5
BAA
 10
206.511132
 20
485.379635
 30
0.0
 11
24.119213
 21
485.379635
 31
0.0
  0
LINE
  8
0
  5
BAB
 10
205.315173
 20
486.379635
 30
0.0
 11
25.315173
 21
486.379635
 31
0.0
  0
LINE
  8
0
  5
BAC
 10
410.167596
 20
769.216281
 30
0.0
 11
389.494086
 21
826.016281
 31
0.0
  0
LINE
  8
0
  5
BAD
 10
321.767596
 20
816.016281
 30
0.0
 11
321.767596
 21
826.016281
 31
0.0
  0
LINE
  8
0
  5
BAE
 10
273.770517
 20
608.416281
 30
0.0
 11
273.770517
 21
833.786361
 31
0.0
  0
LINE
  8
0
  5
BAF
 10
272.33816
 20
833.211889
 30
0.0
 11
272.33816
 21
609.220672
 31
0.0
  0
LINE
  8
0
  5
BB0
 10
258.167596
 20
832.416281
 30
0.0
 11
258.167596
 21
610.016281
 31
0.0
  0
LINE
  8
0
  5
BB1
 10
269.918407
 20
832.416281
 30
0.0
 11
269.918407
 21
610.016281
 31
0.0
  0
LINE
  8
0
  5
BB2
 10
302.391596
 20
608.304761
 30
0.0
 11
302.391596
 21
834.1278
 31
0.0
  0
LINE
  8
1
  5
BDD
 10
451.378381
 20
549.253736
 30
0.0
 11
607.378381
 21
549.253736
 31
0.0
  0
TEXT
  8
1
  5
BDE
 10
452.235524
 20
555.253736
 30
0.0
 40
15.0
  1
Fixing hole (1/2)
 41
0.8
  7
UT7
 72
     1
 11
529.378381
 21
555.253736
 31
0.0
  0
ARC
  8
0
  5
BDF
 10
612.902588
 20
6347.257171
 30
0.0
 40
5859.505896
 50
269.138551
 51
270.861449
  0
LINE
  8
0
  5
BE0
 10
522.77094
 20
490.628258
 30
0.0
 11
703.034236
 21
490.628258
 31
0.0
  0
LINE
  8
0
  5
BE1
 10
703.034236
 20
200.379635
 30
0.0
 11
522.77094
 21
200.379635
 31
0.0
  0
ARC
  8
0
  5
BE2
 10
612.902588
 20
-5656.249278
 30
0.0
 40
5859.505896
 50
89.138551
 51
90.861449
  0
LINE
  8
SCALE
  5
BE3
 10
495.451476
 20
130.044104
 30
0.0
 11
631.305473
 21
130.044104
 31
0.0
  0
TEXT
  8
SCALE
  5
BE4
 10
496.070797
 20
135.454358
 30
0.0
 40
13.2
  1
Rotary switch
  0
ARC
  8
0
  5
BE5
 10
543.402588
 20
229.83866
 30
0.0
 40
8.0
 50
180.0
 51
267.877917
  0
DIMENSION
  8
SCALE
  5
BE6
  2
*D15
 10
486.318039
 20
375.503946
 30
0.0
 11
473.118039
 21
345.503946
 31
0.0
 12
0.0
 22
15.894744
 32
0.0
  1
60
 13
575.852588
 23
315.503946
 33
0.0
 14
575.852588
 24
375.503946
 34
0.0
 50
90.0
  3
STANDARD
1001
ACAD
1000
DSTYLE
1002
{
1070
   140
1040
2.2
1070
   145
1040
1.0
1070
    74
1070
     0
1070
   172
1070
     1
1070
    73
1070
     0
1070
    40
1040
6.0
1070
    42
1040
2.0
1070
    44
1040
1.5
1070
    43
1040
10.0
1070
     5
1000
YAZ3
1070
    41
1040
1.5
1002
}
  0
DIMENSION
  8
SCALE
  5
BE7
  2
*D14
 10
510.489209
 20
370.503946
 30
0.0
 11
497.289209
 21
345.503946
 31
0.0
 12
0.0
 22
15.894744
 32
0.0
  1
50
 13
585.902588
 23
320.503946
 33
0.0
 14
585.902588
 24
370.503946
 34
0.0
 50
90.0
  3
STANDARD
1001
ACAD
1000
DSTYLE
1002
{
1070
   140
1040
2.2
1070
   145
1040
1.0
1070
    74
1070
     0
1070
   172
1070
     1
1070
    73
1070
     0
1070
    40
1040
6.0
1070
    42
1040
2.0
1070
    44
1040
1.5
1070
    43
1040
10.0
1070
     5
1000
YAZ3
1070
    41
1040
1.5
1002
}
  0
LINE
  8
SCALE
  5
BE8
 10
581.342047
 20
416.833311
 30
0.0
 11
505.535557
 21
467.023823
 31
0.0
  0
ARC
  8
0
  5
BE9
 10
543.402588
 20
461.169233
 30
0.0
 40
8.0
 50
92.122083
 51
180.0
  0
DIMENSION
  8
SCALE
  5
BEA
  2
*D23
 10
523.378381
 20
645.770664
 30
0.0
 11
529.378381
 21
658.970664
 31
0.0
 12
24.149694
 22
36.210117
 32
0.0
  1
6
 13
535.378381
 23
624.340482
 33
0.0
 14
523.378381
 24
624.340482
 34
0.0
  3
STANDARD
1001
ACAD
1000
DSTYLE
1002
{
1070
   140
1040
2.2
1070
   145
1040
1.0
1070
    74
1070
     0
1070
   172
1070
     1
1070
    73
1070
     0
1070
    40
1040
6.0
1070
    42
1040
2.0
1070
    44
1040
1.5
1070
    43
1040
10.0
1070
     5
1000
YAZ3
1070
    41
1040
1.5
1002
}
  0
LINE
  8
CENTER
  5
BEB
 10
552.045048
 20
598.340482
 30
0.0
 11
506.711714
 21
598.340482
 31
0.0
  0
ARC
  8
0
  5
BEC
 10
529.378381
 20
598.340482
 30
0.0
 40
16.0
 50
112.024313
 51
67.975687
  0
DIMENSION
  8
SCALE
  5
BED
  2
*D22
 10
574.891862
 20
598.340482
 30
0.0
 11
561.691862
 21
614.340482
 31
0.0
 12
24.149694
 22
36.210117
 32
0.0
  1
16
 13
529.378381
 23
630.340482
 33
0.0
 14
552.045048
 24
598.340482
 34
0.0
 50
90.0
  3
STANDARD
1001
ACAD
1000
DSTYLE
1002
{
1070
   140
1040
2.2
1070
   145
1040
1.0
1070
    74
1070
     0
1070
   172
1070
     1
1070
    73
1070
     0
1070
    40
1040
6.0
1070
    42
1040
2.0
1070
    44
1040
1.5
1070
    43
1040
10.0
1070
     5
1000
YAZ3
1070
    41
1040
1.5
1002
}
  0
ENDSEC
  0
EOF
