  0
SECTION
  2
HEADER
  9
$ACADVER
  1
AC1014
  9
$ACADMAINTVER
 70
     0
  9
$DWGCODEPAGE
  3
ANSI_1252
  9
$INSBASE
 10
0.0
 20
0.0
 30
0.0
  9
$EXTMIN
 10
0.0
 20
0.0
 30
0.0
  9
$EXTMAX
 10
1792.38827
 20
1719.541419
 30
0.0
  9
$LIMMIN
 10
0.0
 20
0.0
  9
$LIMMAX
 10
198.0
 20
285.0
  9
$ORTHOMODE
 70
     1
  9
$REGENMODE
 70
     0
  9
$FILLMODE
 70
     1
  9
$QTEXTMODE
 70
     0
  9
$MIRRTEXT
 70
     0
  9
$DRAGMODE
 70
     2
  9
$LTSCALE
 40
80.0
  9
$OSMODE
 70
     0
  9
$ATTMODE
 70
     1
  9
$TEXTSIZE
 40
25.0
  9
$TRACEWID
 40
0.05
  9
$TEXTSTYLE
  7
STANDARD
  9
$CLAYER
  8
SCALE
  9
$CELTYPE
  6
BYLAYER
  9
$CECOLOR
 62
   256
  9
$CELTSCALE
 40
1.0
  9
$DELOBJ
 70
     1
  9
$DISPSILH
 70
     0
  9
$DIMSCALE
 40
10.0
  9
$DIMASZ
 40
1.5
  9
$DIMEXO
 40
2.0
  9
$DIMDLI
 40
10.0
  9
$DIMRND
 40
0.0
  9
$DIMDLE
 40
0.0
  9
$DIMEXE
 40
1.5
  9
$DIMTP
 40
0.0
  9
$DIMTM
 40
0.0
  9
$DIMTXT
 40
2.2
  9
$DIMCEN
 40
0.09
  9
$DIMTSZ
 40
0.0
  9
$DIMTOL
 70
     0
  9
$DIMLIM
 70
     0
  9
$DIMTIH
 70
     0
  9
$DIMTOH
 70
     0
  9
$DIMSE1
 70
     0
  9
$DIMSE2
 70
     0
  9
$DIMTAD
 70
     0
  9
$DIMZIN
 70
     0
  9
$DIMBLK
  1
YAZ3
  9
$DIMASO
 70
     1
  9
$DIMSHO
 70
     0
  9
$DIMPOST
  1

  9
$DIMAPOST
  1

  9
$DIMALT
 70
     0
  9
$DIMALTD
 70
     2
  9
$DIMALTF
 40
25.4
  9
$DIMLFAC
 40
1.0
  9
$DIMTOFL
 70
     1
  9
$DIMTVP
 40
1.0
  9
$DIMTIX
 70
     0
  9
$DIMSOXD
 70
     0
  9
$DIMSAH
 70
     0
  9
$DIMBLK1
  1

  9
$DIMBLK2
  1

  9
$DIMSTYLE
  2
STANDARD
  9
$DIMCLRD
 70
     0
  9
$DIMCLRE
 70
     0
  9
$DIMCLRT
 70
     0
  9
$DIMTFAC
 40
1.0
  9
$DIMGAP
 40
0.09
  9
$DIMJUST
 70
     0
  9
$DIMSD1
 70
     0
  9
$DIMSD2
 70
     0
  9
$DIMTOLJ
 70
     1
  9
$DIMTZIN
 70
     0
  9
$DIMALTZ
 70
     0
  9
$DIMALTTZ
 70
     0
  9
$DIMFIT
 70
     3
  9
$DIMUPT
 70
     0
  9
$DIMUNIT
 70
     2
  9
$DIMDEC
 70
     4
  9
$DIMTDEC
 70
     4
  9
$DIMALTU
 70
     2
  9
$DIMALTTD
 70
     2
  9
$DIMTXSTY
  7
STANDARD
  9
$DIMAUNIT
 70
     0
  9
$LUNITS
 70
     2
  9
$LUPREC
 70
     3
  9
$SKETCHINC
 40
0.1
  9
$FILLETRAD
 40
0.0
  9
$AUNITS
 70
     0
  9
$AUPREC
 70
     0
  9
$MENU
  1
AMECEX
  9
$ELEVATION
 40
0.0
  9
$PELEVATION
 40
0.0
  9
$THICKNESS
 40
0.0
  9
$LIMCHECK
 70
     0
  9
$BLIPMODE
 70
     0
  9
$CHAMFERA
 40
0.0
  9
$CHAMFERB
 40
0.0
  9
$CHAMFERC
 40
0.0
  9
$CHAMFERD
 40
0.0
  9
$SKPOLY
 70
     0
  9
$TDCREATE
 40
2451716.418995602
  9
$TDUPDATE
 40
2452076.646168982
  9
$TDINDWG
 40
0.0034606366
  9
$TDUSRTIMER
 40
0.0034606366
  9
$USRTIMER
 70
     1
  9
$ANGBASE
 50
0.0
  9
$ANGDIR
 70
     0
  9
$PDMODE
 70
     0
  9
$PDSIZE
 40
0.0
  9
$PLINEWID
 40
0.0
  9
$COORDS
 70
     2
  9
$SPLFRAME
 70
     0
  9
$SPLINETYPE
 70
     6
  9
$SPLINESEGS
 70
     8
  9
$ATTDIA
 70
     0
  9
$ATTREQ
 70
     1
  9
$HANDLING
 70
     1
  9
$HANDSEED
  5
A4C
  9
$SURFTAB1
 70
     6
  9
$SURFTAB2
 70
     6
  9
$SURFTYPE
 70
     6
  9
$SURFU
 70
     6
  9
$SURFV
 70
     6
  9
$UCSNAME
  2

  9
$UCSORG
 10
0.0
 20
0.0
 30
0.0
  9
$UCSXDIR
 10
1.0
 20
0.0
 30
0.0
  9
$UCSYDIR
 10
0.0
 20
1.0
 30
0.0
  9
$PUCSNAME
  2

  9
$PUCSORG
 10
0.0
 20
0.0
 30
0.0
  9
$PUCSXDIR
 10
1.0
 20
0.0
 30
0.0
  9
$PUCSYDIR
 10
0.0
 20
1.0
 30
0.0
  9
$USERI1
 70
     0
  9
$USERI2
 70
     0
  9
$USERI3
 70
     0
  9
$USERI4
 70
     0
  9
$USERI5
 70
     0
  9
$USERR1
 40
30.0
  9
$USERR2
 40
0.0
  9
$USERR3
 40
0.0
  9
$USERR4
 40
0.0
  9
$USERR5
 40
0.0
  9
$WORLDVIEW
 70
     1
  9
$SHADEDGE
 70
     3
  9
$SHADEDIF
 70
    70
  9
$TILEMODE
 70
     1
  9
$MAXACTVP
 70
    16
  9
$PINSBASE
 10
0.0
 20
0.0
 30
0.0
  9
$PLIMCHECK
 70
     0
  9
$PEXTMIN
 10
1.000000E+20
 20
1.000000E+20
 30
1.000000E+20
  9
$PEXTMAX
 10
-1.000000E+20
 20
-1.000000E+20
 30
-1.000000E+20
  9
$PLIMMIN
 10
0.0
 20
0.0
  9
$PLIMMAX
 10
12.0
 20
9.0
  9
$UNITMODE
 70
     0
  9
$VISRETAIN
 70
     0
  9
$PLINEGEN
 70
     0
  9
$PSLTSCALE
 70
     0
  9
$TREEDEPTH
 70
  3020
  9
$PICKSTYLE
 70
     1
  9
$CMLSTYLE
  2
STANDARD
  9
$CMLJUST
 70
     0
  9
$CMLSCALE
 40
1.0
  9
$PROXYGRAPHICS
 70
     0
  9
$MEASUREMENT
 70
     0
  0
ENDSEC
  0
SECTION
  2
CLASSES
  0
CLASS
  1
LWPOLYLINE
  2
AcDbPolyline
  3
"AutoCAD"
 90
        0
280
     0
281
     1
  0
CLASS
  1
IMAGE
  2
AcDbRasterImage
  3
ISM
 90
      127
280
     0
281
     1
  0
CLASS
  1
OLE2FRAME
  2
AcDbOle2Frame
  3
""
 90
        0
280
     0
281
     1
  0
CLASS
  1
HATCH
  2
AcDbHatch
  3
"ACAD_SEDONA"
 90
        0
280
     0
281
     1
  0
CLASS
  1
DICTIONARYVAR
  2
AcDbDictionaryVar
  3
"AutoCAD"
 90
        0
280
     0
281
     0
  0
CLASS
  1
RASTERVARIABLES
  2
AcDbRasterVariables
  3
ISM
 90
        0
280
     0
281
     0
  0
CLASS
  1
IMAGEDEF
  2
AcDbRasterImageDef
  3
ISM
 90
        0
280
     0
281
     0
  0
CLASS
  1
IMAGEDEF_REACTOR
  2
AcDbRasterImageDefReactor
  3
ISM
 90
        1
280
     0
281
     0
  0
CLASS
  1
IDBUFFER
  2
AcDbIdBuffer
  3
"Acad"
 90
        0
280
     0
281
     0
  0
CLASS
  1
SPATIAL_FILTER
  2
AcDbSpatialFilter
  3
"Acad"
 90
        0
280
     0
281
     0
  0
CLASS
  1
XRECORD
  2
AcDbXrecord
  3
"<Built In>"
 90
        0
280
     0
281
     0
  0
CLASS
  1
SORTENTSTABLE
  2
AcDbSortentsTable
  3
"AutoCAD"
 90
        0
280
     0
281
     0
  0
CLASS
  1
LAYER_INDEX
  2
AcDbLayerIndex
  3
"Acad"
 90
        0
280
     0
281
     0
  0
CLASS
  1
SPATIAL_INDEX
  2
AcDbSpatialIndex
  3
"Acad"
 90
        0
280
     0
281
     0
  0
CLASS
  1
OBJECT_PTR
  2
CAseDLPNTableRecord
  3
"ASE-LPNTableRecord"
 90
        1
280
     0
281
     0
  0
CLASS
  1
LAYOUT
  2
AcDbLayout
  3
"AutoCAD 2000"
 90
        1
280
     0
281
     0
  0
CLASS
  1
PLOTSETTINGS
  2
AcDbPlotSettings
  3
"AutoCAD 2000"
 90
        1
280
     0
281
     0
  0
CLASS
  1
ACDBDICTIONARYWDFLT
  2
AcDbDictionaryWithDefault
  3
"AutoCAD 2000"
 90
        1
280
     0
281
     0
  0
CLASS
  1
ACDBPLACEHOLDER
  2
AcDbPlaceHolder
  3
"AutoCAD 2000"
 90
        1
280
     0
281
     0
  0
CLASS
  1
VBA_PROJECT
  2
AcDbVbaProject
  3
"acadvba"
 90
        1
280
     0
281
     0
  0
CLASS
  1
WIPEOUT
  2
AcDbWipeout
  3
WipeOut|AutoCAD Express Tool|expresstools@autodesk.com
 90
      127
280
     0
281
     1
  0
CLASS
  1
WIPEOUTVARIABLES
  2
AcDbWipeoutVariables
  3
WipeOut|AutoCAD Express Tool|expresstools@autodesk.com
 90
        0
280
     0
281
     0
  0
CLASS
  1
RTEXT
  2
RText
  3
RText|AutoCAD Express Tool|expresstools@autodesk.com
 90
        0
280
     0
281
     1
  0
CLASS
  1
ARCALIGNEDTEXT
  2
AcDbArcAlignedText
  3
ATEXT|AutoCAD Express Tool|expresstools@autodesk.com
 90
        0
280
     0
281
     1
  0
ENDSEC
  0
SECTION
  2
TABLES
  0
TABLE
  2
VPORT
  5
A06
100
AcDbSymbolTable
 70
     1
  0
VPORT
  5
A1A
100
AcDbSymbolTableRecord
100
AcDbViewportTableRecord
  2
*ACTIVE
 70
     0
 10
0.0
 20
0.0
 11
1.0
 21
1.0
 12
896.194135
 22
859.770709
 13
0.0
 23
0.0
 14
1.0
 24
1.0
 15
0.0
 25
0.0
 16
0.0
 26
0.0
 36
1.0
 17
0.0
 27
0.0
 37
0.0
 40
1753.932247
 41
1.608558
 42
50.0
 43
0.0
 44
0.0
 50
0.0
 51
0.0
 71
     0
 72
   100
 73
     1
 74
     0
 75
     0
 76
     0
 77
     0
 78
     0
  0
ENDTAB
  0
TABLE
  2
LTYPE
  5
A03
100
AcDbSymbolTable
 70
     6
  0
LTYPE
  5
A0C
100
AcDbSymbolTableRecord
100
AcDbLinetypeTableRecord
  2
BYBLOCK
 70
    64
  3

 72
    65
 73
     0
 40
0.0
  0
LTYPE
  5
A0D
100
AcDbSymbolTableRecord
100
AcDbLinetypeTableRecord
  2
BYLAYER
 70
    64
  3

 72
    65
 73
     0
 40
0.0
  0
LTYPE
  5
A0E
100
AcDbSymbolTableRecord
100
AcDbLinetypeTableRecord
  2
CONTINUOUS
 70
    64
  3
Solid line
 72
    65
 73
     0
 40
0.0
  0
LTYPE
  5
A0F
100
AcDbSymbolTableRecord
100
AcDbLinetypeTableRecord
  2
CENTER
 70
    64
  3
____ _ ____ _ ____ _ ____ _ ____ _ ____ _ ____
 72
    65
 73
     4
 40
2.0
 49
1.25
 74
     0
 49
-0.25
 74
     0
 49
0.25
 74
     0
 49
-0.25
 74
     0
  0
LTYPE
  5
A10
100
AcDbSymbolTableRecord
100
AcDbLinetypeTableRecord
  2
HIDDEN
 70
    64
  3
_ _ _ _ _ _ _ _ _ _ _ _ _ _ _ _ _ _ _ _ _ _ _
 72
    65
 73
     2
 40
0.375
 49
0.25
 74
     0
 49
-0.125
 74
     0
  0
LTYPE
  5
A11
100
AcDbSymbolTableRecord
100
AcDbLinetypeTableRecord
  2
PHANTOM
 70
    64
  3
_____ _ _ _____ _ _ _____ _ _ _____ _ _ ____
 72
    65
 73
     6
 40
2.5
 49
1.25
 74
     0
 49
-0.25
 74
     0
 49
0.25
 74
     0
 49
-0.25
 74
     0
 49
0.25
 74
     0
 49
-0.25
 74
     0
  0
ENDTAB
  0
TABLE
  2
LAYER
  5
A01
100
AcDbSymbolTable
 70
     8
  0
LAYER
  5
A12
100
AcDbSymbolTableRecord
100
AcDbLayerTableRecord
  2
0
 70
    64
 62
     7
  6
CONTINUOUS
  0
LAYER
  5
A13
100
AcDbSymbolTableRecord
100
AcDbLayerTableRecord
  2
GAWA
 70
    64
 62
     2
  6
CONTINUOUS
  0
LAYER
  5
A14
100
AcDbSymbolTableRecord
100
AcDbLayerTableRecord
  2
1
 70
    64
 62
     3
  6
CONTINUOUS
  0
LAYER
  5
A15
100
AcDbSymbolTableRecord
100
AcDbLayerTableRecord
  2
SCALE
 70
    64
 62
     4
  6
CONTINUOUS
  0
LAYER
  5
A16
100
AcDbSymbolTableRecord
100
AcDbLayerTableRecord
  2
CENTER
 70
    64
 62
     1
  6
CENTER
  0
LAYER
  5
A17
100
AcDbSymbolTableRecord
100
AcDbLayerTableRecord
  2
PEN1
 70
    64
 62
     5
  6
CONTINUOUS
  0
LAYER
  5
A18
100
AcDbSymbolTableRecord
100
AcDbLayerTableRecord
  2
DEFPOINTS
 70
    64
 62
    -7
  6
CONTINUOUS
  0
LAYER
  5
A19
100
AcDbSymbolTableRecord
100
AcDbLayerTableRecord
  2
SILK
 70
    64
 62
     5
  6
CONTINUOUS
  0
ENDTAB
  0
TABLE
  2
STYLE
  5
A02
100
AcDbSymbolTable
 70
     4
  0
STYLE
  5
A1C
100
AcDbSymbolTableRecord
100
AcDbTextStyleTableRecord
  2
STANDARD
 70
    64
 40
0.0
 41
1.0
 50
0.0
 71
     0
 42
22.0
  3
SIMPLEX
  4

  0
STYLE
  5
A1D
100
AcDbSymbolTableRecord
100
AcDbTextStyleTableRecord
  2
CMP-SET
 70
    64
 40
0.0
 41
1.0
 50
0.0
 71
     0
 42
20.0
  3
COMPLEX
  4

  0
STYLE
  5
A1E
100
AcDbSymbolTableRecord
100
AcDbTextStyleTableRecord
  2
TOALOGO
 70
    64
 40
3.0
 41
1.0
 50
0.0
 71
     0
 42
3.0
  3
SIMPLEX
  4
SLFONT
  0
STYLE
  5
A1F
100
AcDbSymbolTableRecord
100
AcDbTextStyleTableRecord
  2
UT7
 70
    64
 40
0.0
 41
0.8
 50
0.0
 71
     0
 42
25.0
  3
TOAFONT
  4

  0
ENDTAB
  0
TABLE
  2
VIEW
  5
A04
100
AcDbSymbolTable
 70
     0
  0
ENDTAB
  0
TABLE
  2
UCS
  5
A05
100
AcDbSymbolTable
 70
     0
  0
ENDTAB
  0
TABLE
  2
APPID
  5
A07
100
AcDbSymbolTable
 70
     1
  0
APPID
  5
A1B
100
AcDbSymbolTableRecord
100
AcDbRegAppTableRecord
  2
ACAD
 70
    64
  0
ENDTAB
  0
TABLE
  2
DIMSTYLE
  5
A08
100
AcDbSymbolTable
 70
     1
  0
DIMSTYLE
105
A40
100
AcDbSymbolTableRecord
100
AcDbDimStyleTableRecord
  2
STANDARD
 70
    64
  3

  4

  5

  6

  7

 40
1.0
 41
0.18
 42
0.0625
 43
0.38
 44
0.18
 45
0.0
 46
0.0
 47
0.0
 48
0.0
 71
     0
 72
     0
 73
     1
 74
     1
 75
     0
 76
     0
 77
     0
 78
     0
140
0.18
141
0.09
142
0.0
143
25.4
144
1.0
145
0.0
146
1.0
147
0.09
170
     0
171
     2
172
     0
173
     0
174
     0
175
     0
176
     0
177
     0
178
     0
270
     2
271
     4
272
     4
273
     2
274
     2
275
     0
280
     0
281
     0
282
     0
283
     1
284
     0
285
     0
286
     0
287
     0
288
     0
340
A1C
  0
ENDTAB
  0
TABLE
  2
BLOCK_RECORD
  5
A3B
100
AcDbSymbolTable
 70
    25
  0
BLOCK_RECORD
  5
A39
100
AcDbSymbolTableRecord
100
AcDbBlockTableRecord
  2
*MODEL_SPACE
  0
BLOCK_RECORD
  5
A3A
100
AcDbSymbolTableRecord
100
AcDbBlockTableRecord
  2
*PAPER_SPACE
  0
BLOCK_RECORD
  5
A20
100
AcDbSymbolTableRecord
100
AcDbBlockTableRecord
  2
LOGO8911
  0
BLOCK_RECORD
  5
A21
100
AcDbSymbolTableRecord
100
AcDbBlockTableRecord
  2
TOA8911
  0
BLOCK_RECORD
  5
A22
100
AcDbSymbolTableRecord
100
AcDbBlockTableRecord
  2
YAZ3
  0
BLOCK_RECORD
  5
A23
100
AcDbSymbolTableRecord
100
AcDbBlockTableRecord
  2
YAZ1
  0
BLOCK_RECORD
  5
A24
100
AcDbSymbolTableRecord
100
AcDbBlockTableRecord
  2
*D4
  0
BLOCK_RECORD
  5
A25
100
AcDbSymbolTableRecord
100
AcDbBlockTableRecord
  2
*D5
  0
BLOCK_RECORD
  5
A26
100
AcDbSymbolTableRecord
100
AcDbBlockTableRecord
  2
*D6
  0
BLOCK_RECORD
  5
A27
100
AcDbSymbolTableRecord
100
AcDbBlockTableRecord
  2
*D7
  0
BLOCK_RECORD
  5
A28
100
AcDbSymbolTableRecord
100
AcDbBlockTableRecord
  2
*D8
  0
BLOCK_RECORD
  5
A29
100
AcDbSymbolTableRecord
100
AcDbBlockTableRecord
  2
*D9
  0
BLOCK_RECORD
  5
A2A
100
AcDbSymbolTableRecord
100
AcDbBlockTableRecord
  2
*D10
  0
BLOCK_RECORD
  5
A2B
100
AcDbSymbolTableRecord
100
AcDbBlockTableRecord
  2
*D11
  0
BLOCK_RECORD
  5
A2C
100
AcDbSymbolTableRecord
100
AcDbBlockTableRecord
  2
*D12
  0
BLOCK_RECORD
  5
A2D
100
AcDbSymbolTableRecord
100
AcDbBlockTableRecord
  2
*D13
  0
BLOCK_RECORD
  5
A2E
100
AcDbSymbolTableRecord
100
AcDbBlockTableRecord
  2
*D14
  0
BLOCK_RECORD
  5
A2F
100
AcDbSymbolTableRecord
100
AcDbBlockTableRecord
  2
*D15
  0
BLOCK_RECORD
  5
A30
100
AcDbSymbolTableRecord
100
AcDbBlockTableRecord
  2
*D16
  0
BLOCK_RECORD
  5
A31
100
AcDbSymbolTableRecord
100
AcDbBlockTableRecord
  2
*D17
  0
BLOCK_RECORD
  5
A32
100
AcDbSymbolTableRecord
100
AcDbBlockTableRecord
  2
*D18
  0
BLOCK_RECORD
  5
A33
100
AcDbSymbolTableRecord
100
AcDbBlockTableRecord
  2
*D19
  0
BLOCK_RECORD
  5
A34
100
AcDbSymbolTableRecord
100
AcDbBlockTableRecord
  2
*D20
  0
BLOCK_RECORD
  5
A35
100
AcDbSymbolTableRecord
100
AcDbBlockTableRecord
  2
*D21
  0
BLOCK_RECORD
  5
A36
100
AcDbSymbolTableRecord
100
AcDbBlockTableRecord
  2
*D22
  0
BLOCK_RECORD
  5
A37
100
AcDbSymbolTableRecord
100
AcDbBlockTableRecord
  2
HHH
  0
BLOCK_RECORD
  5
A38
100
AcDbSymbolTableRecord
100
AcDbBlockTableRecord
  2
*D24
  0
ENDTAB
  0
ENDSEC
  0
SECTION
  2
BLOCKS
  0
BLOCK
  5
A3C
100
AcDbEntity
  8
0
100
AcDbBlockBegin
  2
*MODEL_SPACE
 70
     0
 10
0.0
 20
0.0
 30
0.0
  3
*MODEL_SPACE
  1

  0
ENDBLK
  5
A3D
100
AcDbEntity
  8
0
100
AcDbBlockEnd
  0
BLOCK
  5
A3E
100
AcDbEntity
 67
     1
  8
0
100
AcDbBlockBegin
  2
*PAPER_SPACE
 70
     0
 10
0.0
 20
0.0
 30
0.0
  3
*PAPER_SPACE
  1

  0
ENDBLK
  5
A3F
100
AcDbEntity
 67
     1
  8
0
100
AcDbBlockEnd
  0
BLOCK
  5
2EC
100
AcDbEntity
  8
0
100
AcDbBlockBegin
  2
LOGO8911
 70
    64
 10
0.0
 20
0.0
 30
0.0
  3
LOGO8911
  1

  0
TEXT
  5
2EA
100
AcDbEntity
  8
0
100
AcDbText
 10
0.008136
 20
0.013361
 30
0.0
 40
11.4
  1
‡z
  7
TOALOGO
100
AcDbText
  0
TEXT
  5
2EB
100
AcDbEntity
  8
1
100
AcDbText
 10
0.008136
 20
0.013361
 30
0.0
 40
11.4
  1
‡y
  7
TOALOGO
100
AcDbText
  0
ENDBLK
  5
2ED
100
AcDbEntity
  8
0
100
AcDbBlockEnd
  0
BLOCK
  5
83
100
AcDbEntity
  8
0
100
AcDbBlockBegin
  2
TOA8911
 70
    64
 10
0.0
 20
0.0
 30
0.0
  3
TOA8911
  1

  0
TEXT
  5
81
100
AcDbEntity
  8
1
100
AcDbText
 10
0.051707
 20
0.1026
 30
0.0
 40
3.8475
  1
‡{
  7
TOALOGO
100
AcDbText
  0
ENDBLK
  5
84
100
AcDbEntity
  8
0
100
AcDbBlockEnd
  0
BLOCK
  5
3F
100
AcDbEntity
  8
0
100
AcDbBlockBegin
  2
YAZ3
 70
    64
 10
0.0
 20
0.0
 30
0.0
  3
YAZ3
  1

  0
INSERT
  5
2D
100
AcDbEntity
  8
0
100
AcDbBlockReference
  2
YAZ1
 10
0.0
 20
0.0
 30
0.0
  0
LINE
  5
34
100
AcDbEntity
  8
0
100
AcDbLine
 10
-0.999365
 20
0.04706
 30
0.0
 11
-0.175629
 21
0.04706
 31
0.0
  0
LINE
  5
35
100
AcDbEntity
  8
0
100
AcDbLine
 10
-0.999365
 20
0.09706
 30
0.0
 11
-0.362232
 21
0.09706
 31
0.0
  0
LINE
  5
36
100
AcDbEntity
  8
0
100
AcDbLine
 10
-0.999365
 20
0.14706
 30
0.0
 11
-0.548834
 21
0.14706
 31
0.0
  0
LINE
  5
37
100
AcDbEntity
  8
0
100
AcDbLine
 10
-0.999365
 20
0.19706
 30
0.0
 11
-0.735437
 21
0.19706
 31
0.0
  0
LINE
  5
38
100
AcDbEntity
  8
0
100
AcDbLine
 10
-0.999365
 20
0.24706
 30
0.0
 11
-0.922039
 21
0.24706
 31
0.0
  0
LINE
  5
39
100
AcDbEntity
  8
0
100
AcDbLine
 10
-0.999365
 20
-0.05294
 30
0.0
 11
-0.197576
 21
-0.05294
 31
0.0
  0
LINE
  5
3A
100
AcDbEntity
  8
0
100
AcDbLine
 10
-0.999365
 20
-0.10294
 30
0.0
 11
-0.384179
 21
-0.10294
 31
0.0
  0
LINE
  5
3B
100
AcDbEntity
  8
0
100
AcDbLine
 10
-0.999365
 20
-0.15294
 30
0.0
 11
-0.570781
 21
-0.15294
 31
0.0
  0
LINE
  5
3C
100
AcDbEntity
  8
0
100
AcDbLine
 10
-0.999365
 20
-0.20294
 30
0.0
 11
-0.757384
 21
-0.20294
 31
0.0
  0
LINE
  5
3D
100
AcDbEntity
  8
0
100
AcDbLine
 10
-0.999365
 20
-0.25294
 30
0.0
 11
-0.943986
 21
-0.25294
 31
0.0
  0
SOLID
  5
3E
100
AcDbEntity
  8
0
100
AcDbTrace
 10
0.0
 20
0.0
 30
0.0
 11
-1.0
 21
0.267949
 31
0.0
 12
-1.0
 22
-0.267949
 32
0.0
 13
-1.0
 23
-0.267949
 33
0.0
  0
ENDBLK
  5
40
100
AcDbEntity
  8
0
100
AcDbBlockEnd
  0
BLOCK
  5
32
100
AcDbEntity
  8
0
100
AcDbBlockBegin
  2
YAZ1
 70
    64
 10
184.0
 20
133.0
 30
0.0
  3
YAZ1
  1

  0
LINE
  5
2F
100
AcDbEntity
  8
0
100
AcDbLine
 10
184.0
 20
133.0
 30
0.0
 11
183.0
 21
132.732051
 31
0.0
  0
LINE
  5
30
100
AcDbEntity
  8
0
100
AcDbLine
 10
184.0
 20
133.0
 30
0.0
 11
183.0
 21
133.267949
 31
0.0
  0
LINE
  5
31
100
AcDbEntity
  8
0
100
AcDbLine
 10
183.0
 20
133.0
 30
0.0
 11
184.0
 21
133.0
 31
0.0
  0
ENDBLK
  5
33
100
AcDbEntity
  8
0
100
AcDbBlockEnd
  0
BLOCK
  5
CD
100
AcDbEntity
  8
0
100
AcDbBlockBegin
  2
*D4
 70
    65
 10
0.0
 20
0.0
 30
0.0
  3
*D4
  1

  0
LINE
  5
C4
100
AcDbEntity
  8
0
  6
BYBLOCK
 62
     0
100
AcDbLine
 10
83.449636
 20
1222.717939
 30
0.0
 11
83.449636
 21
1111.034367
 31
0.0
  0
LINE
  5
C5
100
AcDbEntity
  8
0
  6
BYBLOCK
 62
     0
100
AcDbLine
 10
513.449636
 20
1222.717939
 30
0.0
 11
513.449636
 21
1111.034367
 31
0.0
  0
LINE
  5
C6
100
AcDbEntity
  8
0
  6
BYBLOCK
 62
     0
100
AcDbLine
 10
98.449636
 20
1126.034367
 30
0.0
 11
498.449636
 21
1126.034367
 31
0.0
  0
INSERT
  5
C7
100
AcDbEntity
  8
0
  6
BYBLOCK
 62
     0
100
AcDbBlockReference
  2
YAZ3
 10
83.449636
 20
1126.034367
 30
0.0
 41
15.0
 42
15.0
 43
15.0
 50
180.0
  0
INSERT
  5
C8
100
AcDbEntity
  8
0
  6
BYBLOCK
 62
     0
100
AcDbBlockReference
  2
YAZ3
 10
513.449636
 20
1126.034367
 30
0.0
 41
15.0
 42
15.0
 43
15.0
  0
TEXT
  5
C9
100
AcDbEntity
  8
0
  6
CONTINUOUS
 62
     0
100
AcDbText
 10
270.163922
 20
1137.034367
 30
0.0
 40
22.0
  1
430
100
AcDbText
  0
POINT
  5
CA
100
AcDbEntity
  8
DEFPOINTS
  6
BYBLOCK
 62
     0
100
AcDbPoint
 10
83.449636
 20
1242.717939
 30
0.0
  0
POINT
  5
CB
100
AcDbEntity
  8
DEFPOINTS
  6
BYBLOCK
 62
     0
100
AcDbPoint
 10
513.449636
 20
1242.717939
 30
0.0
  0
POINT
  5
CC
100
AcDbEntity
  8
DEFPOINTS
  6
BYBLOCK
 62
     0
100
AcDbPoint
 10
513.449636
 20
1126.034367
 30
0.0
  0
ENDBLK
  5
CE
100
AcDbEntity
  8
0
100
AcDbBlockEnd
  0
BLOCK
  5
DE
100
AcDbEntity
  8
0
100
AcDbBlockBegin
  2
*D5
 70
    65
 10
0.0
 20
0.0
 30
0.0
  3
*D5
  1

  0
LINE
  5
D5
100
AcDbEntity
  8
0
  6
BYBLOCK
 62
     0
100
AcDbLine
 10
128.449636
 20
934.058817
 30
0.0
 11
128.449636
 21
895.636115
 31
0.0
  0
LINE
  5
D6
100
AcDbEntity
  8
0
  6
BYBLOCK
 62
     0
100
AcDbLine
 10
468.449636
 20
934.058817
 30
0.0
 11
468.449636
 21
895.636115
 31
0.0
  0
LINE
  5
D7
100
AcDbEntity
  8
0
  6
BYBLOCK
 62
     0
100
AcDbLine
 10
143.449636
 20
910.636115
 30
0.0
 11
453.449636
 21
910.636115
 31
0.0
  0
INSERT
  5
D8
100
AcDbEntity
  8
0
  6
BYBLOCK
 62
     0
100
AcDbBlockReference
  2
YAZ3
 10
128.449636
 20
910.636115
 30
0.0
 41
15.0
 42
15.0
 43
15.0
 50
180.0
  0
INSERT
  5
D9
100
AcDbEntity
  8
0
  6
BYBLOCK
 62
     0
100
AcDbBlockReference
  2
YAZ3
 10
468.449636
 20
910.636115
 30
0.0
 41
15.0
 42
15.0
 43
15.0
  0
TEXT
  5
DA
100
AcDbEntity
  8
0
  6
CONTINUOUS
 62
     0
100
AcDbText
 10
270.163922
 20
921.636115
 30
0.0
 40
22.0
  1
340
100
AcDbText
  0
POINT
  5
DB
100
AcDbEntity
  8
DEFPOINTS
  6
BYBLOCK
 62
     0
100
AcDbPoint
 10
128.449636
 20
954.058817
 30
0.0
  0
POINT
  5
DC
100
AcDbEntity
  8
DEFPOINTS
  6
BYBLOCK
 62
     0
100
AcDbPoint
 10
468.449636
 20
954.058817
 30
0.0
  0
POINT
  5
DD
100
AcDbEntity
  8
DEFPOINTS
  6
BYBLOCK
 62
     0
100
AcDbPoint
 10
468.449636
 20
910.636115
 30
0.0
  0
ENDBLK
  5
DF
100
AcDbEntity
  8
0
100
AcDbBlockEnd
  0
BLOCK
  5
24A
100
AcDbEntity
  8
0
100
AcDbBlockBegin
  2
*D6
 70
    65
 10
0.0
 20
0.0
 30
0.0
  3
*D6
  1

  0
LINE
  5
241
100
AcDbEntity
  8
0
  6
BYBLOCK
 62
     0
100
AcDbLine
 10
602.822029
 20
1147.717939
 30
0.0
 11
602.822029
 21
1111.034367
 31
0.0
  0
LINE
  5
242
100
AcDbEntity
  8
0
  6
BYBLOCK
 62
     0
100
AcDbLine
 10
705.822029
 20
1199.717939
 30
0.0
 11
705.822029
 21
1111.034367
 31
0.0
  0
LINE
  5
243
100
AcDbEntity
  8
0
  6
BYBLOCK
 62
     0
100
AcDbLine
 10
617.822029
 20
1126.034367
 30
0.0
 11
690.822029
 21
1126.034367
 31
0.0
  0
INSERT
  5
244
100
AcDbEntity
  8
0
  6
BYBLOCK
 62
     0
100
AcDbBlockReference
  2
YAZ3
 10
602.822029
 20
1126.034367
 30
0.0
 41
15.0
 42
15.0
 43
15.0
 50
180.0
  0
INSERT
  5
245
100
AcDbEntity
  8
0
  6
BYBLOCK
 62
     0
100
AcDbBlockReference
  2
YAZ3
 10
705.822029
 20
1126.034367
 30
0.0
 41
15.0
 42
15.0
 43
15.0
  0
TEXT
  5
246
100
AcDbEntity
  8
0
  6
CONTINUOUS
 62
     0
100
AcDbText
 10
628.131553
 20
1137.034367
 30
0.0
 40
22.0
  1
103
100
AcDbText
  0
POINT
  5
247
100
AcDbEntity
  8
DEFPOINTS
  6
BYBLOCK
 62
     0
100
AcDbPoint
 10
602.822029
 20
1167.717939
 30
0.0
  0
POINT
  5
248
100
AcDbEntity
  8
DEFPOINTS
  6
BYBLOCK
 62
     0
100
AcDbPoint
 10
705.822029
 20
1219.717939
 30
0.0
  0
POINT
  5
249
100
AcDbEntity
  8
DEFPOINTS
  6
BYBLOCK
 62
     0
100
AcDbPoint
 10
705.822029
 20
1126.034367
 30
0.0
  0
ENDBLK
  5
24B
100
AcDbEntity
  8
0
100
AcDbBlockEnd
  0
BLOCK
  5
9D
100
AcDbEntity
  8
0
100
AcDbBlockBegin
  2
*D7
 70
    65
 10
0.0
 20
0.0
 30
0.0
  3
*D7
  1

  0
LINE
  5
94
100
AcDbEntity
  8
0
  6
BYBLOCK
 62
     0
100
AcDbLine
 10
725.822029
 20
1659.717939
 30
0.0
 11
763.275571
 21
1659.717939
 31
0.0
  0
LINE
  5
95
100
AcDbEntity
  8
0
  6
BYBLOCK
 62
     0
100
AcDbLine
 10
725.822029
 20
1219.717939
 30
0.0
 11
763.275571
 21
1219.717939
 31
0.0
  0
LINE
  5
96
100
AcDbEntity
  8
0
  6
BYBLOCK
 62
     0
100
AcDbLine
 10
748.275571
 20
1644.717939
 30
0.0
 11
748.275571
 21
1234.717939
 31
0.0
  0
INSERT
  5
97
100
AcDbEntity
  8
0
  6
BYBLOCK
 62
     0
100
AcDbBlockReference
  2
YAZ3
 10
748.275571
 20
1659.717939
 30
0.0
 41
15.0
 42
15.0
 43
15.0
 50
90.0
  0
INSERT
  5
98
100
AcDbEntity
  8
0
  6
BYBLOCK
 62
     0
100
AcDbBlockReference
  2
YAZ3
 10
748.275571
 20
1219.717939
 30
0.0
 41
15.0
 42
15.0
 43
15.0
 50
270.0
  0
TEXT
  5
99
100
AcDbEntity
  8
0
  6
CONTINUOUS
 62
     0
100
AcDbText
 10
737.275571
 20
1411.432224
 30
0.0
 40
22.0
  1
440
 50
90.0
100
AcDbText
  0
POINT
  5
9A
100
AcDbEntity
  8
DEFPOINTS
  6
BYBLOCK
 62
     0
100
AcDbPoint
 10
705.822029
 20
1659.717939
 30
0.0
  0
POINT
  5
9B
100
AcDbEntity
  8
DEFPOINTS
  6
BYBLOCK
 62
     0
100
AcDbPoint
 10
705.822029
 20
1219.717939
 30
0.0
  0
POINT
  5
9C
100
AcDbEntity
  8
DEFPOINTS
  6
BYBLOCK
 62
     0
100
AcDbPoint
 10
748.275571
 20
1219.717939
 30
0.0
  0
ENDBLK
  5
9E
100
AcDbEntity
  8
0
100
AcDbBlockEnd
  0
BLOCK
  5
BD
100
AcDbEntity
  8
0
100
AcDbBlockBegin
  2
*D8
 70
    65
 10
0.0
 20
0.0
 30
0.0
  3
*D8
  1

  0
LINE
  5
B4
100
AcDbEntity
  8
0
  6
BYBLOCK
 62
     0
100
AcDbLine
 10
122.449636
 20
708.970306
 30
0.0
 11
122.449636
 21
741.031635
 31
0.0
  0
LINE
  5
B5
100
AcDbEntity
  8
0
  6
BYBLOCK
 62
     0
100
AcDbLine
 10
474.449636
 20
708.970306
 30
0.0
 11
474.449636
 21
741.031635
 31
0.0
  0
LINE
  5
B6
100
AcDbEntity
  8
0
  6
BYBLOCK
 62
     0
100
AcDbLine
 10
137.449636
 20
726.031635
 30
0.0
 11
459.449636
 21
726.031635
 31
0.0
  0
INSERT
  5
B7
100
AcDbEntity
  8
0
  6
BYBLOCK
 62
     0
100
AcDbBlockReference
  2
YAZ3
 10
122.449636
 20
726.031635
 30
0.0
 41
15.0
 42
15.0
 43
15.0
 50
180.0
  0
INSERT
  5
B8
100
AcDbEntity
  8
0
  6
BYBLOCK
 62
     0
100
AcDbBlockReference
  2
YAZ3
 10
474.449636
 20
726.031635
 30
0.0
 41
15.0
 42
15.0
 43
15.0
  0
TEXT
  5
B9
100
AcDbEntity
  8
0
  6
CONTINUOUS
 62
     0
100
AcDbText
 10
270.163922
 20
737.031635
 30
0.0
 40
22.0
  1
352
100
AcDbText
  0
POINT
  5
BA
100
AcDbEntity
  8
DEFPOINTS
  6
BYBLOCK
 62
     0
100
AcDbPoint
 10
122.449636
 20
688.970306
 30
0.0
  0
POINT
  5
BB
100
AcDbEntity
  8
DEFPOINTS
  6
BYBLOCK
 62
     0
100
AcDbPoint
 10
474.449636
 20
688.970306
 30
0.0
  0
POINT
  5
BC
100
AcDbEntity
  8
DEFPOINTS
  6
BYBLOCK
 62
     0
100
AcDbPoint
 10
474.449636
 20
726.031635
 30
0.0
  0
ENDBLK
  5
BE
100
AcDbEntity
  8
0
100
AcDbBlockEnd
  0
BLOCK
  5
F9
100
AcDbEntity
  8
0
100
AcDbBlockBegin
  2
*D9
 70
    65
 10
0.0
 20
0.0
 30
0.0
  3
*D9
  1

  0
LINE
  5
F0
100
AcDbEntity
  8
0
  6
BYBLOCK
 62
     0
100
AcDbLine
 10
106.449636
 20
714.370306
 30
0.0
 11
68.128861
 21
714.370306
 31
0.0
  0
LINE
  5
F1
100
AcDbEntity
  8
0
  6
BYBLOCK
 62
     0
100
AcDbLine
 10
106.449636
 20
194.370306
 30
0.0
 11
68.128861
 21
194.370306
 31
0.0
  0
LINE
  5
F2
100
AcDbEntity
  8
0
  6
BYBLOCK
 62
     0
100
AcDbLine
 10
83.128861
 20
699.370306
 30
0.0
 11
83.128861
 21
209.370306
 31
0.0
  0
INSERT
  5
F3
100
AcDbEntity
  8
0
  6
BYBLOCK
 62
     0
100
AcDbBlockReference
  2
YAZ3
 10
83.128861
 20
714.370306
 30
0.0
 41
15.0
 42
15.0
 43
15.0
 50
90.0
  0
INSERT
  5
F4
100
AcDbEntity
  8
0
  6
BYBLOCK
 62
     0
100
AcDbBlockReference
  2
YAZ3
 10
83.128861
 20
194.370306
 30
0.0
 41
15.0
 42
15.0
 43
15.0
 50
270.0
  0
TEXT
  5
F5
100
AcDbEntity
  8
0
  6
CONTINUOUS
 62
     0
100
AcDbText
 10
72.128861
 20
426.084592
 30
0.0
 40
22.0
  1
520
 50
90.0
100
AcDbText
  0
POINT
  5
F6
100
AcDbEntity
  8
DEFPOINTS
  6
BYBLOCK
 62
     0
100
AcDbPoint
 10
126.449636
 20
714.370306
 30
0.0
  0
POINT
  5
F7
100
AcDbEntity
  8
DEFPOINTS
  6
BYBLOCK
 62
     0
100
AcDbPoint
 10
126.449636
 20
194.370306
 30
0.0
  0
POINT
  5
F8
100
AcDbEntity
  8
DEFPOINTS
  6
BYBLOCK
 62
     0
100
AcDbPoint
 10
83.128861
 20
194.370306
 30
0.0
  0
ENDBLK
  5
FA
100
AcDbEntity
  8
0
100
AcDbBlockEnd
  0
BLOCK
  5
90
100
AcDbEntity
  8
0
100
AcDbBlockBegin
  2
*D10
 70
    65
 10
0.0
 20
0.0
 30
0.0
  3
*D10
  1

  0
LINE
  5
87
100
AcDbEntity
  8
0
  6
BYBLOCK
 62
     0
100
AcDbLine
 10
138.449636
 20
1711.717939
 30
0.0
 11
40.190176
 21
1711.717939
 31
0.0
  0
LINE
  5
88
100
AcDbEntity
  8
0
  6
BYBLOCK
 62
     0
100
AcDbLine
 10
138.449636
 20
1167.717939
 30
0.0
 11
40.190176
 21
1167.717939
 31
0.0
  0
LINE
  5
89
100
AcDbEntity
  8
0
  6
BYBLOCK
 62
     0
100
AcDbLine
 10
55.190176
 20
1696.717939
 30
0.0
 11
55.190176
 21
1182.717939
 31
0.0
  0
INSERT
  5
8A
100
AcDbEntity
  8
0
  6
BYBLOCK
 62
     0
100
AcDbBlockReference
  2
YAZ3
 10
55.190176
 20
1711.717939
 30
0.0
 41
15.0
 42
15.0
 43
15.0
 50
90.0
  0
INSERT
  5
8B
100
AcDbEntity
  8
0
  6
BYBLOCK
 62
     0
100
AcDbBlockReference
  2
YAZ3
 10
55.190176
 20
1167.717939
 30
0.0
 41
15.0
 42
15.0
 43
15.0
 50
270.0
  0
TEXT
  5
8C
100
AcDbEntity
  8
0
  6
CONTINUOUS
 62
     0
100
AcDbText
 10
44.190176
 20
1410.908415
 30
0.0
 40
22.0
  1
544
 50
90.0
100
AcDbText
  0
POINT
  5
8D
100
AcDbEntity
  8
DEFPOINTS
  6
BYBLOCK
 62
     0
100
AcDbPoint
 10
158.449636
 20
1711.717939
 30
0.0
  0
POINT
  5
8E
100
AcDbEntity
  8
DEFPOINTS
  6
BYBLOCK
 62
     0
100
AcDbPoint
 10
158.449636
 20
1167.717939
 30
0.0
  0
POINT
  5
8F
100
AcDbEntity
  8
DEFPOINTS
  6
BYBLOCK
 62
     0
100
AcDbPoint
 10
55.190176
 20
1167.717939
 30
0.0
  0
ENDBLK
  5
91
100
AcDbEntity
  8
0
100
AcDbBlockEnd
  0
BLOCK
  5
1C5
100
AcDbEntity
  8
0
100
AcDbBlockBegin
  2
*D11
 70
    65
 10
0.0
 20
0.0
 30
0.0
  3
*D11
  1

  0
LINE
  5
1BC
100
AcDbEntity
  8
0
  6
BYBLOCK
 62
     0
100
AcDbLine
 10
550.322029
 20
691.370306
 30
0.0
 11
522.374506
 21
691.370306
 31
0.0
  0
LINE
  5
1BD
100
AcDbEntity
  8
0
  6
BYBLOCK
 62
     0
100
AcDbLine
 10
550.322029
 20
217.370306
 30
0.0
 11
522.374506
 21
217.370306
 31
0.0
  0
LINE
  5
1BE
100
AcDbEntity
  8
0
  6
BYBLOCK
 62
     0
100
AcDbLine
 10
537.374506
 20
676.370306
 30
0.0
 11
537.374506
 21
232.370306
 31
0.0
  0
INSERT
  5
1BF
100
AcDbEntity
  8
0
  6
BYBLOCK
 62
     0
100
AcDbBlockReference
  2
YAZ3
 10
537.374506
 20
691.370306
 30
0.0
 41
15.0
 42
15.0
 43
15.0
 50
90.0
  0
INSERT
  5
1C0
100
AcDbEntity
  8
0
  6
BYBLOCK
 62
     0
100
AcDbBlockReference
  2
YAZ3
 10
537.374506
 20
217.370306
 30
0.0
 41
15.0
 42
15.0
 43
15.0
 50
270.0
  0
TEXT
  5
1C1
100
AcDbEntity
  8
0
  6
CONTINUOUS
 62
     0
100
AcDbText
 10
526.374506
 20
425.560782
 30
0.0
 40
22.0
  1
474
 50
90.0
100
AcDbText
  0
POINT
  5
1C2
100
AcDbEntity
  8
DEFPOINTS
  6
BYBLOCK
 62
     0
100
AcDbPoint
 10
570.322029
 20
691.370306
 30
0.0
  0
POINT
  5
1C3
100
AcDbEntity
  8
DEFPOINTS
  6
BYBLOCK
 62
     0
100
AcDbPoint
 10
570.322029
 20
217.370306
 30
0.0
  0
POINT
  5
1C4
100
AcDbEntity
  8
DEFPOINTS
  6
BYBLOCK
 62
     0
100
AcDbPoint
 10
537.374506
 20
217.370306
 30
0.0
  0
ENDBLK
  5
1C6
100
AcDbEntity
  8
0
100
AcDbBlockEnd
  0
BLOCK
  5
1B8
100
AcDbEntity
  8
0
100
AcDbBlockBegin
  2
*D12
 70
    65
 10
0.0
 20
0.0
 30
0.0
  3
*D12
  1

  0
LINE
  5
1AF
100
AcDbEntity
  8
0
  6
BYBLOCK
 62
     0
100
AcDbLine
 10
618.822029
 20
654.370306
 30
0.0
 11
659.778523
 21
654.370306
 31
0.0
  0
LINE
  5
1B0
100
AcDbEntity
  8
0
  6
BYBLOCK
 62
     0
100
AcDbLine
 10
618.822029
 20
454.370306
 30
0.0
 11
659.778523
 21
454.370306
 31
0.0
  0
LINE
  5
1B1
100
AcDbEntity
  8
0
  6
BYBLOCK
 62
     0
100
AcDbLine
 10
644.778523
 20
639.370306
 30
0.0
 11
644.778523
 21
469.370306
 31
0.0
  0
INSERT
  5
1B2
100
AcDbEntity
  8
0
  6
BYBLOCK
 62
     0
100
AcDbBlockReference
  2
YAZ3
 10
644.778523
 20
654.370306
 30
0.0
 41
15.0
 42
15.0
 43
15.0
 50
90.0
  0
INSERT
  5
1B3
100
AcDbEntity
  8
0
  6
BYBLOCK
 62
     0
100
AcDbBlockReference
  2
YAZ3
 10
644.778523
 20
454.370306
 30
0.0
 41
15.0
 42
15.0
 43
15.0
 50
270.0
  0
TEXT
  5
1B4
100
AcDbEntity
  8
0
  6
CONTINUOUS
 62
     0
100
AcDbText
 10
633.778523
 20
526.084592
 30
0.0
 40
22.0
  1
200
 50
90.0
100
AcDbText
  0
POINT
  5
1B5
100
AcDbEntity
  8
DEFPOINTS
  6
BYBLOCK
 62
     0
100
AcDbPoint
 10
598.822029
 20
654.370306
 30
0.0
  0
POINT
  5
1B6
100
AcDbEntity
  8
DEFPOINTS
  6
BYBLOCK
 62
     0
100
AcDbPoint
 10
598.822029
 20
454.370306
 30
0.0
  0
POINT
  5
1B7
100
AcDbEntity
  8
DEFPOINTS
  6
BYBLOCK
 62
     0
100
AcDbPoint
 10
644.778523
 20
454.370306
 30
0.0
  0
ENDBLK
  5
1B9
100
AcDbEntity
  8
0
100
AcDbBlockEnd
  0
BLOCK
  5
1D7
100
AcDbEntity
  8
0
100
AcDbBlockBegin
  2
*D13
 70
    65
 10
0.0
 20
0.0
 30
0.0
  3
*D13
  1

  0
LINE
  5
1CE
100
AcDbEntity
  8
0
  6
BYBLOCK
 62
     0
100
AcDbLine
 10
618.822029
 20
454.370306
 30
0.0
 11
659.778523
 21
454.370306
 31
0.0
  0
LINE
  5
1CF
100
AcDbEntity
  8
0
  6
BYBLOCK
 62
     0
100
AcDbLine
 10
618.822029
 20
254.370306
 30
0.0
 11
659.778523
 21
254.370306
 31
0.0
  0
LINE
  5
1D0
100
AcDbEntity
  8
0
  6
BYBLOCK
 62
     0
100
AcDbLine
 10
644.778523
 20
439.370306
 30
0.0
 11
644.778523
 21
269.370306
 31
0.0
  0
INSERT
  5
1D1
100
AcDbEntity
  8
0
  6
BYBLOCK
 62
     0
100
AcDbBlockReference
  2
YAZ3
 10
644.778523
 20
454.370306
 30
0.0
 41
15.0
 42
15.0
 43
15.0
 50
90.0
  0
INSERT
  5
1D2
100
AcDbEntity
  8
0
  6
BYBLOCK
 62
     0
100
AcDbBlockReference
  2
YAZ3
 10
644.778523
 20
254.370306
 30
0.0
 41
15.0
 42
15.0
 43
15.0
 50
270.0
  0
TEXT
  5
1D3
100
AcDbEntity
  8
0
  6
CONTINUOUS
 62
     0
100
AcDbText
 10
633.778523
 20
326.084592
 30
0.0
 40
22.0
  1
200
 50
90.0
100
AcDbText
  0
POINT
  5
1D4
100
AcDbEntity
  8
DEFPOINTS
  6
BYBLOCK
 62
     0
100
AcDbPoint
 10
598.822029
 20
454.370306
 30
0.0
  0
POINT
  5
1D5
100
AcDbEntity
  8
DEFPOINTS
  6
BYBLOCK
 62
     0
100
AcDbPoint
 10
598.822029
 20
254.370306
 30
0.0
  0
POINT
  5
1D6
100
AcDbEntity
  8
DEFPOINTS
  6
BYBLOCK
 62
     0
100
AcDbPoint
 10
644.778523
 20
254.370306
 30
0.0
  0
ENDBLK
  5
1D8
100
AcDbEntity
  8
0
100
AcDbBlockEnd
  0
BLOCK
  5
1AB
100
AcDbEntity
  8
0
100
AcDbBlockBegin
  2
*D14
 70
    65
 10
0.0
 20
0.0
 30
0.0
  3
*D14
  1

  0
LINE
  5
1A2
100
AcDbEntity
  8
0
  6
BYBLOCK
 62
     0
100
AcDbLine
 10
679.322029
 20
697.370306
 30
0.0
 11
716.489437
 21
697.370306
 31
0.0
  0
LINE
  5
1A3
100
AcDbEntity
  8
0
  6
BYBLOCK
 62
     0
100
AcDbLine
 10
679.322029
 20
211.370306
 30
0.0
 11
716.489437
 21
211.370306
 31
0.0
  0
LINE
  5
1A4
100
AcDbEntity
  8
0
  6
BYBLOCK
 62
     0
100
AcDbLine
 10
701.489437
 20
682.370306
 30
0.0
 11
701.489437
 21
226.370306
 31
0.0
  0
INSERT
  5
1A5
100
AcDbEntity
  8
0
  6
BYBLOCK
 62
     0
100
AcDbBlockReference
  2
YAZ3
 10
701.489437
 20
697.370306
 30
0.0
 41
15.0
 42
15.0
 43
15.0
 50
90.0
  0
INSERT
  5
1A6
100
AcDbEntity
  8
0
  6
BYBLOCK
 62
     0
100
AcDbBlockReference
  2
YAZ3
 10
701.489437
 20
211.370306
 30
0.0
 41
15.0
 42
15.0
 43
15.0
 50
270.0
  0
TEXT
  5
1A7
100
AcDbEntity
  8
0
  6
CONTINUOUS
 62
     0
100
AcDbText
 10
690.489437
 20
426.608401
 30
0.0
 40
22.0
  1
486
 50
90.0
100
AcDbText
  0
POINT
  5
1A8
100
AcDbEntity
  8
DEFPOINTS
  6
BYBLOCK
 62
     0
100
AcDbPoint
 10
659.322029
 20
697.370306
 30
0.0
  0
POINT
  5
1A9
100
AcDbEntity
  8
DEFPOINTS
  6
BYBLOCK
 62
     0
100
AcDbPoint
 10
659.322029
 20
211.370306
 30
0.0
  0
POINT
  5
1AA
100
AcDbEntity
  8
DEFPOINTS
  6
BYBLOCK
 62
     0
100
AcDbPoint
 10
701.489437
 20
211.370306
 30
0.0
  0
ENDBLK
  5
1AC
100
AcDbEntity
  8
0
100
AcDbBlockEnd
  0
BLOCK
  5
239
100
AcDbEntity
  8
0
100
AcDbBlockBegin
  2
*D15
 70
    65
 10
0.0
 20
0.0
 30
0.0
  3
*D15
  1

  0
LINE
  5
22E
100
AcDbEntity
  8
0
  6
BYBLOCK
 62
     0
100
AcDbLine
 10
600.322029
 20
734.370306
 30
0.0
 11
600.322029
 21
758.645248
 31
0.0
  0
LINE
  5
22F
100
AcDbEntity
  8
0
  6
BYBLOCK
 62
     0
100
AcDbLine
 10
570.322029
 20
711.370306
 30
0.0
 11
570.322029
 21
758.645248
 31
0.0
  0
LINE
  5
230
100
AcDbEntity
  8
0
  6
BYBLOCK
 62
     0
100
AcDbLine
 10
615.322029
 20
743.645248
 30
0.0
 11
630.322029
 21
743.645248
 31
0.0
  0
LINE
  5
231
100
AcDbEntity
  8
0
  6
BYBLOCK
 62
     0
100
AcDbLine
 10
555.322029
 20
743.645248
 30
0.0
 11
502.902982
 21
743.645248
 31
0.0
  0
LINE
  5
232
100
AcDbEntity
  8
0
  6
BYBLOCK
 62
     0
100
AcDbLine
 10
600.322029
 20
743.645248
 30
0.0
 11
570.322029
 21
743.645248
 31
0.0
  0
INSERT
  5
233
100
AcDbEntity
  8
0
  6
BYBLOCK
 62
     0
100
AcDbBlockReference
  2
YAZ3
 10
600.322029
 20
743.645248
 30
0.0
 41
15.0
 42
15.0
 43
15.0
 50
180.0
  0
INSERT
  5
234
100
AcDbEntity
  8
0
  6
BYBLOCK
 62
     0
100
AcDbBlockReference
  2
YAZ3
 10
570.322029
 20
743.645248
 30
0.0
 41
15.0
 42
15.0
 43
15.0
  0
TEXT
  5
235
100
AcDbEntity
  8
0
  6
CONTINUOUS
 62
     0
100
AcDbText
 10
503.802982
 20
754.645248
 30
0.0
 40
22.0
  1
30
100
AcDbText
  0
POINT
  5
236
100
AcDbEntity
  8
DEFPOINTS
  6
BYBLOCK
 62
     0
100
AcDbPoint
 10
600.322029
 20
714.370306
 30
0.0
  0
POINT
  5
237
100
AcDbEntity
  8
DEFPOINTS
  6
BYBLOCK
 62
     0
100
AcDbPoint
 10
570.322029
 20
691.370306
 30
0.0
  0
POINT
  5
238
100
AcDbEntity
  8
DEFPOINTS
  6
BYBLOCK
 62
     0
100
AcDbPoint
 10
570.322029
 20
743.645248
 30
0.0
  0
ENDBLK
  5
23A
100
AcDbEntity
  8
0
100
AcDbBlockEnd
  0
BLOCK
  5
22A
100
AcDbEntity
  8
0
100
AcDbBlockBegin
  2
*D16
 70
    65
 10
0.0
 20
0.0
 30
0.0
  3
*D16
  1

  0
LINE
  5
221
100
AcDbEntity
  8
0
  6
BYBLOCK
 62
     0
100
AcDbLine
 10
570.322029
 20
711.370306
 30
0.0
 11
570.322029
 21
799.452525
 31
0.0
  0
LINE
  5
222
100
AcDbEntity
  8
0
  6
BYBLOCK
 62
     0
100
AcDbLine
 10
654.322029
 20
732.370306
 30
0.0
 11
654.322029
 21
799.452525
 31
0.0
  0
LINE
  5
223
100
AcDbEntity
  8
0
  6
BYBLOCK
 62
     0
100
AcDbLine
 10
585.322029
 20
784.452525
 30
0.0
 11
639.322029
 21
784.452525
 31
0.0
  0
INSERT
  5
224
100
AcDbEntity
  8
0
  6
BYBLOCK
 62
     0
100
AcDbBlockReference
  2
YAZ3
 10
570.322029
 20
784.452525
 30
0.0
 41
15.0
 42
15.0
 43
15.0
 50
180.0
  0
INSERT
  5
225
100
AcDbEntity
  8
0
  6
BYBLOCK
 62
     0
100
AcDbBlockReference
  2
YAZ3
 10
654.322029
 20
784.452525
 30
0.0
 41
15.0
 42
15.0
 43
15.0
  0
TEXT
  5
226
100
AcDbEntity
  8
0
  6
CONTINUOUS
 62
     0
100
AcDbText
 10
593.988696
 20
795.452525
 30
0.0
 40
22.0
  1
84
100
AcDbText
  0
POINT
  5
227
100
AcDbEntity
  8
DEFPOINTS
  6
BYBLOCK
 62
     0
100
AcDbPoint
 10
570.322029
 20
691.370306
 30
0.0
  0
POINT
  5
228
100
AcDbEntity
  8
DEFPOINTS
  6
BYBLOCK
 62
     0
100
AcDbPoint
 10
654.322029
 20
712.370306
 30
0.0
  0
POINT
  5
229
100
AcDbEntity
  8
DEFPOINTS
  6
BYBLOCK
 62
     0
100
AcDbPoint
 10
654.322029
 20
784.452525
 30
0.0
  0
ENDBLK
  5
22B
100
AcDbEntity
  8
0
100
AcDbBlockEnd
  0
BLOCK
  5
36E
100
AcDbEntity
  8
0
100
AcDbBlockBegin
  2
*D17
 70
    65
 10
0.0
 20
0.0
 30
0.0
  3
*D17
  1

  0
LINE
  5
365
100
AcDbEntity
  8
0
  6
BYBLOCK
 62
     0
100
AcDbLine
 10
1188.222029
 20
694.370306
 30
0.0
 11
1230.226167
 21
694.370306
 31
0.0
  0
LINE
  5
366
100
AcDbEntity
  8
0
  6
BYBLOCK
 62
     0
100
AcDbLine
 10
1188.222029
 20
214.370306
 30
0.0
 11
1230.226167
 21
214.370306
 31
0.0
  0
LINE
  5
367
100
AcDbEntity
  8
0
  6
BYBLOCK
 62
     0
100
AcDbLine
 10
1215.226167
 20
679.370306
 30
0.0
 11
1215.226167
 21
229.370306
 31
0.0
  0
INSERT
  5
368
100
AcDbEntity
  8
0
  6
BYBLOCK
 62
     0
100
AcDbBlockReference
  2
YAZ3
 10
1215.226167
 20
694.370306
 30
0.0
 41
15.0
 42
15.0
 43
15.0
 50
90.0
  0
INSERT
  5
369
100
AcDbEntity
  8
0
  6
BYBLOCK
 62
     0
100
AcDbBlockReference
  2
YAZ3
 10
1215.226167
 20
214.370306
 30
0.0
 41
15.0
 42
15.0
 43
15.0
 50
270.0
  0
TEXT
  5
36A
100
AcDbEntity
  8
0
  6
CONTINUOUS
 62
     0
100
AcDbText
 10
1204.226167
 20
426.084592
 30
0.0
 40
22.0
  1
480
 50
90.0
100
AcDbText
  0
POINT
  5
36B
100
AcDbEntity
  8
DEFPOINTS
  6
BYBLOCK
 62
     0
100
AcDbPoint
 10
1168.222029
 20
694.370306
 30
0.0
  0
POINT
  5
36C
100
AcDbEntity
  8
DEFPOINTS
  6
BYBLOCK
 62
     0
100
AcDbPoint
 10
1168.222029
 20
214.370306
 30
0.0
  0
POINT
  5
36D
100
AcDbEntity
  8
DEFPOINTS
  6
BYBLOCK
 62
     0
100
AcDbPoint
 10
1215.226167
 20
214.370306
 30
0.0
  0
ENDBLK
  5
36F
100
AcDbEntity
  8
0
100
AcDbBlockEnd
  0
BLOCK
  5
3BE
100
AcDbEntity
  8
0
100
AcDbBlockBegin
  2
*D18
 70
    65
 10
0.0
 20
0.0
 30
0.0
  3
*D18
  1

  0
LINE
  5
3B4
100
AcDbEntity
  8
0
  6
BYBLOCK
 62
     0
100
AcDbLine
 10
1293.2808
 20
652.460175
 30
0.0
 11
1262.699074
 21
652.460175
 31
0.0
  0
LINE
  5
3B5
100
AcDbEntity
  8
0
  6
BYBLOCK
 62
     0
100
AcDbLine
 10
1293.2808
 20
705.800175
 30
0.0
 11
1262.699074
 21
705.800175
 31
0.0
  0
LINE
  5
3B6
100
AcDbEntity
  8
0
  6
BYBLOCK
 62
     0
100
AcDbLine
 10
1277.699074
 20
667.460175
 30
0.0
 11
1277.699074
 21
690.800175
 31
0.0
  0
LINE
  5
3B7
100
AcDbEntity
  8
0
  6
BYBLOCK
 62
     0
100
AcDbLine
 10
1277.699074
 20
705.800175
 30
0.0
 11
1277.699074
 21
788.600175
 31
0.0
  0
INSERT
  5
3B8
100
AcDbEntity
  8
0
  6
BYBLOCK
 62
     0
100
AcDbBlockReference
  2
YAZ3
 10
1277.699074
 20
652.460175
 30
0.0
 41
15.0
 42
15.0
 43
15.0
 50
270.0
  0
INSERT
  5
3B9
100
AcDbEntity
  8
0
  6
BYBLOCK
 62
     0
100
AcDbBlockReference
  2
YAZ3
 10
1277.699074
 20
705.800175
 30
0.0
 41
15.0
 42
15.0
 43
15.0
 50
90.0
  0
TEXT
  5
3BA
100
AcDbEntity
  8
0
  6
CONTINUOUS
 62
     0
100
AcDbText
 10
1266.699074
 20
721.700175
 30
0.0
 40
22.0
  1
88.9
 50
90.0
100
AcDbText
  0
POINT
  5
3BB
100
AcDbEntity
  8
DEFPOINTS
  6
BYBLOCK
 62
     0
100
AcDbPoint
 10
1313.2808
 20
652.460175
 30
0.0
  0
POINT
  5
3BC
100
AcDbEntity
  8
DEFPOINTS
  6
BYBLOCK
 62
     0
100
AcDbPoint
 10
1313.2808
 20
705.800175
 30
0.0
  0
POINT
  5
3BD
100
AcDbEntity
  8
DEFPOINTS
  6
BYBLOCK
 62
     0
100
AcDbPoint
 10
1277.699074
 20
705.800175
 30
0.0
  0
ENDBLK
  5
3BF
100
AcDbEntity
  8
0
100
AcDbBlockEnd
  0
BLOCK
  5
3CD
100
AcDbEntity
  8
0
100
AcDbBlockBegin
  2
*D19
 70
    65
 10
0.0
 20
0.0
 30
0.0
  3
*D19
  1

  0
LINE
  5
3C2
100
AcDbEntity
  8
0
  6
BYBLOCK
 62
     0
100
AcDbLine
 10
1293.2808
 20
652.460175
 30
0.0
 11
1262.699074
 21
652.460175
 31
0.0
  0
LINE
  5
3C3
100
AcDbEntity
  8
0
  6
BYBLOCK
 62
     0
100
AcDbLine
 10
1293.2808
 20
642.935175
 30
0.0
 11
1262.699074
 21
642.935175
 31
0.0
  0
LINE
  5
3C4
100
AcDbEntity
  8
0
  6
BYBLOCK
 62
     0
100
AcDbLine
 10
1277.699074
 20
667.460175
 30
0.0
 11
1277.699074
 21
682.460175
 31
0.0
  0
LINE
  5
3C5
100
AcDbEntity
  8
0
  6
BYBLOCK
 62
     0
100
AcDbLine
 10
1277.699074
 20
627.935175
 30
0.0
 11
1277.699074
 21
549.325651
 31
0.0
  0
LINE
  5
3C6
100
AcDbEntity
  8
0
  6
BYBLOCK
 62
     0
100
AcDbLine
 10
1277.699074
 20
652.460175
 30
0.0
 11
1277.699074
 21
642.935175
 31
0.0
  0
INSERT
  5
3C7
100
AcDbEntity
  8
0
  6
BYBLOCK
 62
     0
100
AcDbBlockReference
  2
YAZ3
 10
1277.699074
 20
652.460175
 30
0.0
 41
15.0
 42
15.0
 43
15.0
 50
270.0
  0
INSERT
  5
3C8
100
AcDbEntity
  8
0
  6
BYBLOCK
 62
     0
100
AcDbBlockReference
  2
YAZ3
 10
1277.699074
 20
642.935175
 30
0.0
 41
15.0
 42
15.0
 43
15.0
 50
90.0
  0
TEXT
  5
3C9
100
AcDbEntity
  8
0
  6
CONTINUOUS
 62
     0
100
AcDbText
 10
1266.699074
 20
550.225651
 30
0.0
 40
22.0
  1
15.9
 50
90.0
100
AcDbText
  0
POINT
  5
3CA
100
AcDbEntity
  8
DEFPOINTS
  6
BYBLOCK
 62
     0
100
AcDbPoint
 10
1313.2808
 20
652.460175
 30
0.0
  0
POINT
  5
3CB
100
AcDbEntity
  8
DEFPOINTS
  6
BYBLOCK
 62
     0
100
AcDbPoint
 10
1313.2808
 20
642.935175
 30
0.0
  0
POINT
  5
3CC
100
AcDbEntity
  8
DEFPOINTS
  6
BYBLOCK
 62
     0
100
AcDbPoint
 10
1277.699074
 20
642.935175
 30
0.0
  0
ENDBLK
  5
3CE
100
AcDbEntity
  8
0
100
AcDbBlockEnd
  0
BLOCK
  5
342
100
AcDbEntity
  8
0
100
AcDbBlockBegin
  2
*D20
 70
    65
 10
0.0
 20
0.0
 30
0.0
  3
*D20
  1

  0
LINE
  5
339
100
AcDbEntity
  8
0
  6
BYBLOCK
 62
     0
100
AcDbLine
 10
1358.3608
 20
740.325175
 30
0.0
 11
1358.3608
 21
767.701363
 31
0.0
  0
LINE
  5
33A
100
AcDbEntity
  8
0
  6
BYBLOCK
 62
     0
100
AcDbLine
 10
1602.2008
 20
740.325175
 30
0.0
 11
1602.2008
 21
767.701363
 31
0.0
  0
LINE
  5
33B
100
AcDbEntity
  8
0
  6
BYBLOCK
 62
     0
100
AcDbLine
 10
1373.3608
 20
752.701363
 30
0.0
 11
1587.2008
 21
752.701363
 31
0.0
  0
INSERT
  5
33C
100
AcDbEntity
  8
0
  6
BYBLOCK
 62
     0
100
AcDbBlockReference
  2
YAZ3
 10
1358.3608
 20
752.701363
 30
0.0
 41
15.0
 42
15.0
 43
15.0
 50
180.0
  0
INSERT
  5
33D
100
AcDbEntity
  8
0
  6
BYBLOCK
 62
     0
100
AcDbBlockReference
  2
YAZ3
 10
1602.2008
 20
752.701363
 30
0.0
 41
15.0
 42
15.0
 43
15.0
  0
TEXT
  5
33E
100
AcDbEntity
  8
0
  6
CONTINUOUS
 62
     0
100
AcDbText
 10
1435.75699
 20
763.701363
 30
0.0
 40
22.0
  1
406.4
100
AcDbText
  0
POINT
  5
33F
100
AcDbEntity
  8
DEFPOINTS
  6
BYBLOCK
 62
     0
100
AcDbPoint
 10
1358.3608
 20
720.325175
 30
0.0
  0
POINT
  5
340
100
AcDbEntity
  8
DEFPOINTS
  6
BYBLOCK
 62
     0
100
AcDbPoint
 10
1602.2008
 20
720.325175
 30
0.0
  0
POINT
  5
341
100
AcDbEntity
  8
DEFPOINTS
  6
BYBLOCK
 62
     0
100
AcDbPoint
 10
1602.2008
 20
752.701363
 30
0.0
  0
ENDBLK
  5
343
100
AcDbEntity
  8
0
100
AcDbBlockEnd
  0
BLOCK
  5
6C4
100
AcDbEntity
  8
0
100
AcDbBlockBegin
  2
*D21
 70
    65
 10
0.0
 20
0.0
 30
0.0
  3
*D21
  1

  0
LINE
  5
6B9
100
AcDbEntity
  8
0
  6
BYBLOCK
 62
     0
100
AcDbLine
 10
1308.793201
 20
1539.783085
 30
0.0
 11
1281.031499
 21
1539.783085
 31
0.0
  0
LINE
  5
6BA
100
AcDbEntity
  8
0
  6
BYBLOCK
 62
     0
100
AcDbLine
 10
1308.793201
 20
1549.308085
 30
0.0
 11
1281.031499
 21
1549.308085
 31
0.0
  0
LINE
  5
6BB
100
AcDbEntity
  8
0
  6
BYBLOCK
 62
     0
100
AcDbLine
 10
1296.031499
 20
1524.783085
 30
0.0
 11
1296.031499
 21
1509.783085
 31
0.0
  0
LINE
  5
6BC
100
AcDbEntity
  8
0
  6
BYBLOCK
 62
     0
100
AcDbLine
 10
1296.031499
 20
1564.308085
 30
0.0
 11
1296.031499
 21
1699.279514
 31
0.0
  0
LINE
  5
6BD
100
AcDbEntity
  8
0
  6
BYBLOCK
 62
     0
100
AcDbLine
 10
1296.031499
 20
1539.783085
 30
0.0
 11
1296.031499
 21
1549.308085
 31
0.0
  0
INSERT
  5
6BE
100
AcDbEntity
  8
0
  6
BYBLOCK
 62
     0
100
AcDbBlockReference
  2
YAZ3
 10
1296.031499
 20
1539.783085
 30
0.0
 41
15.0
 42
15.0
 43
15.0
 50
90.0
  0
INSERT
  5
6BF
100
AcDbEntity
  8
0
  6
BYBLOCK
 62
     0
100
AcDbBlockReference
  2
YAZ3
 10
1296.031499
 20
1549.308085
 30
0.0
 41
15.0
 42
15.0
 43
15.0
 50
270.0
  0
TEXT
  5
6C0
100
AcDbEntity
  8
0
  6
CONTINUOUS
 62
     0
100
AcDbText
 10
1285.031499
 20
1580.208085
 30
0.0
 40
22.0
  1
12 - 33
 50
90.0
100
AcDbText
  0
POINT
  5
6C1
100
AcDbEntity
  8
DEFPOINTS
  6
BYBLOCK
 62
     0
100
AcDbPoint
 10
1328.793201
 20
1539.783085
 30
0.0
  0
POINT
  5
6C2
100
AcDbEntity
  8
DEFPOINTS
  6
BYBLOCK
 62
     0
100
AcDbPoint
 10
1328.793201
 20
1549.308085
 30
0.0
  0
POINT
  5
6C3
100
AcDbEntity
  8
DEFPOINTS
  6
BYBLOCK
 62
     0
100
AcDbPoint
 10
1296.031499
 20
1549.308085
 30
0.0
  0
ENDBLK
  5
6C5
100
AcDbEntity
  8
0
100
AcDbBlockEnd
  0
BLOCK
  5
878
100
AcDbEntity
  8
0
100
AcDbBlockBegin
  2
*D22
 70
    65
 10
0.0
 20
0.0
 30
0.0
  3
*D22
  1

  0
LINE
  5
879
100
AcDbEntity
  8
0
  6
BYBLOCK
 62
     0
100
AcDbLine
 10
637.594696
 20
1122.287006
 30
0.0
 11
637.594696
 21
1085.603434
 31
0.0
  0
LINE
  5
87A
100
AcDbEntity
  8
0
  6
BYBLOCK
 62
     0
100
AcDbLine
 10
605.594696
 20
1394.287006
 30
0.0
 11
605.594696
 21
1085.603434
 31
0.0
  0
LINE
  5
87B
100
AcDbEntity
  8
0
  6
BYBLOCK
 62
     0
100
AcDbLine
 10
622.594696
 20
1100.603434
 30
0.0
 11
620.594696
 21
1100.603434
 31
0.0
  0
LINE
  5
87C
100
AcDbEntity
  8
0
  6
BYBLOCK
 62
     0
100
AcDbLine
 10
605.594696
 20
1100.603434
 30
0.0
 11
553.175648
 21
1100.603434
 31
0.0
  0
INSERT
  5
87D
100
AcDbEntity
  8
0
  6
BYBLOCK
 62
     0
100
AcDbBlockReference
  2
YAZ3
 10
637.594696
 20
1100.603434
 30
0.0
 41
15.0
 42
15.0
 43
15.0
  0
INSERT
  5
87E
100
AcDbEntity
  8
0
  6
BYBLOCK
 62
     0
100
AcDbBlockReference
  2
YAZ3
 10
605.594696
 20
1100.603434
 30
0.0
 41
15.0
 42
15.0
 43
15.0
 50
180.0
  0
TEXT
  5
87F
100
AcDbEntity
  8
0
  6
CONTINUOUS
 62
     0
100
AcDbText
 10
554.075648
 20
1111.603434
 30
0.0
 40
22.0
  1
32
100
AcDbText
  0
POINT
  5
880
100
AcDbEntity
  8
DEFPOINTS
  6
BYBLOCK
 62
     0
100
AcDbPoint
 10
637.594696
 20
1142.287006
 30
0.0
  0
POINT
  5
881
100
AcDbEntity
  8
DEFPOINTS
  6
BYBLOCK
 62
     0
100
AcDbPoint
 10
605.594696
 20
1414.287006
 30
0.0
  0
POINT
  5
882
100
AcDbEntity
  8
DEFPOINTS
  6
BYBLOCK
 62
     0
100
AcDbPoint
 10
605.594696
 20
1100.603434
 30
0.0
  0
ENDBLK
  5
883
100
AcDbEntity
  8
0
100
AcDbBlockEnd
  0
BLOCK
  5
88E
100
AcDbEntity
  8
0
100
AcDbBlockBegin
  2
HHH
 70
     0
 10
0.0
 20
0.0
 30
0.0
  3
HHH
  1

  0
TEXT
  5
888
100
AcDbEntity
  8
1
100
AcDbText
 10
246.0
 20
0.0
 30
0.0
 40
15.0
  1
89 dB (1 W, 1 m) installation in free sound field
 41
0.8
  7
UT7
100
AcDbText
  0
TEXT
  5
889
100
AcDbEntity
  8
1
100
AcDbText
 10
246.0
 20
-24.0
 30
0.0
 40
15.0
  1
                 (Measured by installing the unit in the center of 
 41
0.8
  7
UT7
100
AcDbText
  0
TEXT
  5
88A
100
AcDbEntity
  8
1
100
AcDbText
 10
246.0
 20
-48.0
 30
0.0
 40
15.0
  1
                  a ceiling or wall.)
 41
0.8
  7
UT7
100
AcDbText
  0
TEXT
  5
88B
100
AcDbEntity
  8
1
100
AcDbText
 10
246.0
 20
-72.0
 30
0.0
 40
15.0
  1
100 - 20,000 Hz (-10 dB) installation in free sound field
 41
0.8
  7
UT7
100
AcDbText
  0
TEXT
  5
88C
100
AcDbEntity
  8
1
100
AcDbText
 10
246.0
 20
-96.0
 30
0.0
 40
15.0
  1
                        (Measured by installing the unit in the center of 
 41
0.8
  7
UT7
100
AcDbText
  0
TEXT
  5
88D
100
AcDbEntity
  8
1
100
AcDbText
 10
246.0
 20
-120.0
 30
0.0
 40
15.0
  1
                         a ceiling or wall.)
 41
0.8
  7
UT7
100
AcDbText
  0
ENDBLK
  5
88F
100
AcDbEntity
  8
0
100
AcDbBlockEnd
  0
BLOCK
  5
9A4
100
AcDbEntity
  8
0
100
AcDbBlockBegin
  2
*D24
 70
    65
 10
0.0
 20
0.0
 30
0.0
  3
*D24
  1

  0
LINE
  5
9A5
100
AcDbEntity
  8
0
  6
BYBLOCK
 62
     0
100
AcDbLine
 10
794.842385
 20
706.05407
 30
0.0
 11
794.842385
 21
750.329012
 31
0.0
  0
LINE
  5
9A6
100
AcDbEntity
  8
0
  6
BYBLOCK
 62
     0
100
AcDbLine
 10
1154.842385
 20
706.05407
 30
0.0
 11
1154.842385
 21
750.329012
 31
0.0
  0
LINE
  5
9A7
100
AcDbEntity
  8
0
  6
BYBLOCK
 62
     0
100
AcDbLine
 10
809.842385
 20
735.329012
 30
0.0
 11
1139.842385
 21
735.329012
 31
0.0
  0
INSERT
  5
9A8
100
AcDbEntity
  8
0
  6
BYBLOCK
 62
     0
100
AcDbBlockReference
  2
YAZ3
 10
794.842385
 20
735.329012
 30
0.0
 41
15.0
 42
15.0
 43
15.0
 50
180.0
  0
INSERT
  5
9A9
100
AcDbEntity
  8
0
  6
BYBLOCK
 62
     0
100
AcDbBlockReference
  2
YAZ3
 10
1154.842385
 20
735.329012
 30
0.0
 41
15.0
 42
15.0
 43
15.0
  0
TEXT
  5
9AA
100
AcDbEntity
  8
0
  6
CONTINUOUS
 62
     0
100
AcDbText
 10
946.55667
 20
746.329012
 30
0.0
 40
22.0
  1
360
100
AcDbText
  0
POINT
  5
9AB
100
AcDbEntity
  8
DEFPOINTS
  6
BYBLOCK
 62
     0
100
AcDbPoint
 10
794.842385
 20
686.05407
 30
0.0
  0
POINT
  5
9AC
100
AcDbEntity
  8
DEFPOINTS
  6
BYBLOCK
 62
     0
100
AcDbPoint
 10
1154.842385
 20
686.05407
 30
0.0
  0
POINT
  5
9AD
100
AcDbEntity
  8
DEFPOINTS
  6
BYBLOCK
 62
     0
100
AcDbPoint
 10
1154.842385
 20
735.329012
 30
0.0
  0
ENDBLK
  5
9AE
100
AcDbEntity
  8
0
100
AcDbBlockEnd
  0
ENDSEC
  0
SECTION
  2
ENTITIES
  0
LINE
  5
20
100
AcDbEntity
  8
SCALE
100
AcDbLine
 10
1130.380666
 20
787.119263
 30
0.0
 11
751.773082
 21
787.119107
 31
0.0
  0
TEXT
  5
21
100
AcDbEntity
  8
SCALE
100
AcDbText
 10
757.509197
 20
797.119192
 30
0.0
 40
22.0
  1
(2x4 construction) 6-5x8
 41
0.8
  7
UT7
100
AcDbText
  0
TEXT
  5
22
100
AcDbEntity
  8
SCALE
100
AcDbText
 10
757.509197
 20
822.119192
 30
0.0
 40
22.0
  1
Wall mounting hole
 41
0.8
  7
UT7
100
AcDbText
  0
LINE
  5
23
100
AcDbEntity
  8
1
100
AcDbLine
 10
1134.842385
 20
102.85565
 30
0.0
 11
814.842385
 21
102.85565
 31
0.0
  0
TEXT
  5
24
100
AcDbEntity
  8
1
100
AcDbText
 10
821.509051
 20
114.85565
 30
0.0
 40
25.0
  1
dimensional diagram
 41
0.8
  7
UT7
 72
     1
 11
974.842385
 21
114.85565
 31
0.0
100
AcDbText
  0
TEXT
  5
25
100
AcDbEntity
  8
1
100
AcDbText
 10
871.032861
 20
154.85565
 30
0.0
 40
25.0
  1
Mounting hole
 41
0.8
  7
UT7
 72
     1
 11
974.842385
 21
154.85565
 31
0.0
100
AcDbText
  0
DIMENSION
  5
26
100
AcDbEntity
  8
SCALE
100
AcDbDimension
  2
*D24
 10
1154.842385
 20
735.329012
 30
0.0
 11
974.842385
 21
757.329012
 31
0.0
  1
360
  3
STANDARD
100
AcDbAlignedDimension
 13
794.842385
 23
686.05407
 33
0.0
 14
1154.842385
 24
686.05407
 34
0.0
100
AcDbRotatedDimension
1001
ACAD
1000
DSTYLE
1002
{
1070
   140
1040
2.2
1070
   340
1005
945
1070
   145
1040
1.0
1070
    74
1070
     0
1070
   172
1070
     1
1070
    73
1070
     0
1070
   272
1070
     4
1070
    40
1040
10.0
1070
   287
1070
     3
1070
    42
1040
2.0
1070
    44
1040
1.5
1070
    43
1040
10.0
1070
   271
1070
     4
1070
     5
1000
YAZ3
1070
    41
1040
1.5
1002
}
  0
LINE
  5
69
100
AcDbEntity
  8
0
100
AcDbLine
 10
1168.755055
 20
1675.723731
 30
0.0
 11
888.755055
 21
1675.723731
 31
0.0
  0
LINE
  5
6A
100
AcDbEntity
  8
0
100
AcDbLine
 10
1168.755055
 20
1678.723731
 30
0.0
 11
888.755055
 21
1678.723731
 31
0.0
  0
LINE
  5
6B
100
AcDbEntity
  8
0
100
AcDbLine
 10
858.755055
 20
1186.723731
 30
0.0
 11
1198.755055
 21
1186.723731
 31
0.0
  0
LINE
  5
6C
100
AcDbEntity
  8
0
100
AcDbLine
 10
1198.755055
 20
1626.723731
 30
0.0
 11
858.755055
 21
1626.723731
 31
0.0
  0
LINE
  5
6D
100
AcDbEntity
  8
0
100
AcDbLine
 10
856.755055
 20
1660.723731
 30
0.0
 11
1200.755055
 21
1660.723731
 31
0.0
  0
LINE
  5
6E
100
AcDbEntity
  8
0
100
AcDbLine
 10
888.755055
 20
1137.723731
 30
0.0
 11
1168.755055
 21
1137.723731
 31
0.0
  0
LINE
  5
6F
100
AcDbEntity
  8
0
100
AcDbLine
 10
888.755055
 20
1134.723731
 30
0.0
 11
1168.755055
 21
1134.723731
 31
0.0
  0
LINE
  5
70
100
AcDbEntity
  8
0
100
AcDbLine
 10
1200.755055
 20
1152.723731
 30
0.0
 11
856.755055
 21
1152.723731
 31
0.0
  0
LINE
  5
71
100
AcDbEntity
  8
1
  6
PHANTOM
100
AcDbLine
 10
794.842385
 20
206.05407
 30
0.0
 11
1154.842385
 21
206.05407
 31
0.0
  0
LINE
  5
73
100
AcDbEntity
  8
1
  6
PHANTOM
100
AcDbLine
 10
1154.842385
 20
686.05407
 30
0.0
 11
794.842385
 21
686.05407
 31
0.0
  0
DIMENSION
  5
85
100
AcDbEntity
  8
SCALE
100
AcDbDimension
  2
*D10
 10
55.190176
 20
1134.723731
 30
0.0
 11
33.190176
 21
1406.723731
 31
0.0
 12
0.0
 22
-32.994207
 32
0.0
  1
544
  3
STANDARD
100
AcDbAlignedDimension
 13
158.449636
 23
1678.723731
 33
0.0
 14
158.449636
 24
1134.723731
 34
0.0
 50
90.0
100
AcDbRotatedDimension
1001
ACAD
1000
DSTYLE
1002
{
1070
   140
1040
2.2
1070
   340
1005
E
1070
   145
1040
1.0
1070
    74
1070
     0
1070
   172
1070
     1
1070
    73
1070
     0
1070
   272
1070
     4
1070
    40
1040
10.0
1070
   287
1070
     3
1070
    42
1040
2.0
1070
    44
1040
1.5
1070
    43
1040
10.0
1070
   271
1070
     4
1070
     5
1000
YAZ3
1070
    41
1040
1.5
1002
}
  0
DIMENSION
  5
92
100
AcDbEntity
  8
SCALE
100
AcDbDimension
  2
*D7
 10
766.576973
 20
1186.723731
 30
0.0
 11
744.576973
 21
1406.723731
 31
0.0
 12
18.301402
 22
-32.994207
 32
0.0
  1
440
  3
STANDARD
100
AcDbAlignedDimension
 13
724.123431
 23
1626.723731
 33
0.0
 14
724.123431
 24
1186.723731
 34
0.0
 50
90.0
100
AcDbRotatedDimension
1001
ACAD
1000
DSTYLE
1002
{
1070
   140
1040
2.2
1070
   340
1005
E
1070
   145
1040
1.0
1070
    74
1070
     0
1070
   172
1070
     1
1070
    73
1070
     0
1070
   272
1070
     4
1070
    40
1040
10.0
1070
   287
1070
     3
1070
    42
1040
2.0
1070
    44
1040
1.5
1070
    43
1040
10.0
1070
   271
1070
     4
1070
     5
1000
YAZ3
1070
    41
1040
1.5
1002
}
  0
LINE
  5
9F
100
AcDbEntity
  8
0
100
AcDbLine
 10
724.123431
 20
1186.723731
 30
0.0
 11
724.123431
 21
1626.723731
 31
0.0
  0
LINE
  5
A0
100
AcDbEntity
  8
0
100
AcDbLine
 10
858.755055
 20
1626.723731
 30
0.0
 11
858.755055
 21
1186.723731
 31
0.0
  0
LINE
  5
A1
100
AcDbEntity
  8
0
100
AcDbLine
 10
816.755055
 20
1603.723731
 30
0.0
 11
816.755055
 21
1209.723731
 31
0.0
  0
LINE
  5
A2
100
AcDbEntity
  8
0
100
AcDbLine
 10
813.755055
 20
1603.723731
 30
0.0
 11
813.755055
 21
1209.723731
 31
0.0
  0
LINE
  5
A3
100
AcDbEntity
  8
0
100
AcDbLine
 10
831.755055
 20
1177.723731
 30
0.0
 11
831.755055
 21
1635.723731
 31
0.0
  0
ARC
  5
A4
100
AcDbEntity
  8
0
100
AcDbCircle
 10
8246.373431
 20
1406.723731
 30
0.0
 40
7657.25
100
AcDbArc
 50
178.791625
 51
181.208375
  0
LINE
  5
A5
100
AcDbEntity
  8
0
100
AcDbLine
 10
621.123431
 20
1134.723731
 30
0.0
 11
621.123431
 21
1678.723731
 31
0.0
  0
LINE
  5
A6
100
AcDbEntity
  8
0
100
AcDbLine
 10
606.123431
 20
1149.723731
 30
0.0
 11
606.123431
 21
1663.723731
 31
0.0
  0
LINE
  5
A7
100
AcDbEntity
  8
0
100
AcDbLine
 10
513.449636
 20
1209.723731
 30
0.0
 11
513.449636
 21
1603.723731
 31
0.0
  0
LINE
  5
A8
100
AcDbEntity
  8
0
100
AcDbLine
 10
496.449636
 20
1209.723731
 30
0.0
 11
496.449636
 21
1603.723731
 31
0.0
  0
LINE
  5
A9
100
AcDbEntity
  8
0
  6
HIDDEN
100
AcDbLine
 10
423.449636
 20
1281.723731
 30
0.0
 11
423.449636
 21
1531.723731
 31
0.0
  0
LINE
  5
AB
100
AcDbEntity
  8
0
  6
HIDDEN
100
AcDbLine
 10
453.449636
 20
1281.723731
 30
0.0
 11
453.449636
 21
1531.723731
 31
0.0
  0
LINE
  5
AC
100
AcDbEntity
  8
0
  6
HIDDEN
100
AcDbLine
 10
173.449636
 20
1531.723731
 30
0.0
 11
173.449636
 21
1281.723731
 31
0.0
  0
LINE
  5
AD
100
AcDbEntity
  8
0
  6
HIDDEN
100
AcDbLine
 10
143.449636
 20
1531.723731
 30
0.0
 11
143.449636
 21
1281.723731
 31
0.0
  0
LINE
  5
AE
100
AcDbEntity
  8
0
100
AcDbLine
 10
83.449636
 20
1603.723731
 30
0.0
 11
83.449636
 21
1209.723731
 31
0.0
  0
LINE
  5
AF
100
AcDbEntity
  8
0
100
AcDbLine
 10
100.449636
 20
1603.723731
 30
0.0
 11
100.449636
 21
1209.723731
 31
0.0
  0
LINE
  5
B0
100
AcDbEntity
  8
1
100
AcDbLine
 10
430.449636
 20
142.85565
 30
0.0
 11
166.449636
 21
142.85565
 31
0.0
  0
TEXT
  5
B1
100
AcDbEntity
  8
1
100
AcDbText
 10
167.973446
 20
154.85565
 30
0.0
 40
25.0
  1
Mounting Bracket
 41
0.8
  7
UT7
 72
     1
 11
298.449636
 21
154.85565
 31
0.0
100
AcDbText
  0
DIMENSION
  5
B2
100
AcDbEntity
  8
SCALE
100
AcDbDimension
  2
*D8
 10
474.449636
 20
717.715399
 30
0.0
 11
298.449636
 21
739.715399
 31
0.0
 12
0.0
 22
-8.316236
 32
0.0
  1
352
  3
STANDARD
100
AcDbAlignedDimension
 13
122.449636
 23
680.65407
 33
0.0
 14
474.449636
 24
680.65407
 34
0.0
100
AcDbRotatedDimension
1001
ACAD
1000
DSTYLE
1002
{
1070
   140
1040
2.2
1070
   340
1005
E
1070
   145
1040
1.0
1070
    74
1070
     0
1070
   172
1070
     1
1070
    73
1070
     0
1070
   272
1070
     4
1070
    40
1040
10.0
1070
   287
1070
     3
1070
    42
1040
2.0
1070
    44
1040
1.5
1070
    43
1040
10.0
1070
   271
1070
     4
1070
     5
1000
YAZ3
1070
    41
1040
1.5
1002
}
  0
LINE
  5
BF
100
AcDbEntity
  8
SCALE
100
AcDbLine
 10
308.609636
 20
950.645236
 30
0.0
 11
504.308871
 21
888.617532
 31
0.0
  0
TEXT
  5
C0
100
AcDbEntity
  8
1
100
AcDbText
 10
220.354398
 20
1045.827535
 30
0.0
 40
25.0
  1
Front View
 41
0.8
  7
UT7
 72
     1
 11
298.449636
 21
1045.827535
 31
0.0
100
AcDbText
  0
LINE
  5
C1
100
AcDbEntity
  8
1
100
AcDbLine
 10
378.449636
 20
1035.827535
 30
0.0
 11
218.449636
 21
1035.827535
 31
0.0
  0
DIMENSION
  5
C2
100
AcDbEntity
  8
SCALE
100
AcDbDimension
  2
*D4
 10
513.449636
 20
1093.04016
 30
0.0
 11
298.449636
 21
1115.04016
 31
0.0
 12
0.0
 22
-32.994207
 32
0.0
  1
430
  3
STANDARD
100
AcDbAlignedDimension
 13
83.449636
 23
1209.723731
 33
0.0
 14
513.449636
 24
1209.723731
 34
0.0
100
AcDbRotatedDimension
1001
ACAD
1000
DSTYLE
1002
{
1070
   140
1040
2.2
1070
   340
1005
E
1070
   145
1040
1.0
1070
    74
1070
     0
1070
   172
1070
     1
1070
    73
1070
     0
1070
   272
1070
     4
1070
    40
1040
10.0
1070
   287
1070
     3
1070
    42
1040
2.0
1070
    44
1040
1.5
1070
    43
1040
10.0
1070
   271
1070
     4
1070
     5
1000
YAZ3
1070
    41
1040
1.5
1002
}
  0
LINE
  5
CF
100
AcDbEntity
  8
0
100
AcDbLine
 10
158.449636
 20
1151.723731
 30
0.0
 11
438.449636
 21
1151.723731
 31
0.0
  0
LINE
  5
D0
100
AcDbEntity
  8
0
100
AcDbLine
 10
158.449636
 20
1134.723731
 30
0.0
 11
438.449636
 21
1134.723731
 31
0.0
  0
LINE
  5
D1
100
AcDbEntity
  8
0
  6
HIDDEN
100
AcDbLine
 10
223.449636
 20
1231.723731
 30
0.0
 11
373.449636
 21
1231.723731
 31
0.0
  0
LINE
  5
D2
100
AcDbEntity
  8
0
  6
HIDDEN
100
AcDbLine
 10
223.449636
 20
1201.723731
 30
0.0
 11
373.449636
 21
1201.723731
 31
0.0
  0
DIMENSION
  5
D3
100
AcDbEntity
  8
SCALE
100
AcDbDimension
  2
*D5
 10
468.449636
 20
847.997558
 30
0.0
 11
298.449636
 21
869.997558
 31
0.0
 12
0.0
 22
-62.638558
 32
0.0
  1
340
  3
STANDARD
100
AcDbAlignedDimension
 13
128.449636
 23
891.420259
 33
0.0
 14
468.449636
 24
891.420259
 34
0.0
100
AcDbRotatedDimension
1001
ACAD
1000
DSTYLE
1002
{
1070
   140
1040
2.2
1070
   340
1005
E
1070
   145
1040
1.0
1070
    74
1070
     0
1070
   172
1070
     1
1070
    73
1070
     0
1070
   272
1070
     4
1070
    40
1040
10.0
1070
   287
1070
     3
1070
    42
1040
2.0
1070
    44
1040
1.5
1070
    43
1040
10.0
1070
   271
1070
     4
1070
     5
1000
YAZ3
1070
    41
1040
1.5
1002
}
  0
LINE
  5
E0
100
AcDbEntity
  8
0
100
AcDbLine
 10
128.449636
 20
891.420259
 30
0.0
 11
468.449636
 21
891.420259
 31
0.0
  0
LINE
  5
E1
100
AcDbEntity
  8
0
100
AcDbLine
 10
83.449636
 20
994.420259
 30
0.0
 11
513.449636
 21
994.420259
 31
0.0
  0
LINE
  5
E2
100
AcDbEntity
  8
0
100
AcDbLine
 10
98.449636
 20
1009.420259
 30
0.0
 11
498.449636
 21
1009.420259
 31
0.0
  0
ARC
  5
E3
100
AcDbEntity
  8
0
100
AcDbCircle
 10
298.449636
 20
-2880.829741
 30
0.0
 40
3907.25
100
AcDbArc
 50
88.361874
 51
91.638126
  0
LINE
  5
E4
100
AcDbEntity
  8
0
100
AcDbLine
 10
357.449636
 20
756.669736
 30
0.0
 11
239.449636
 21
756.669736
 31
0.0
  0
LINE
  5
E5
100
AcDbEntity
  8
0
100
AcDbLine
 10
365.221209
 20
680.65407
 30
0.0
 11
231.678063
 21
680.65407
 31
0.0
  0
LINE
  5
E6
100
AcDbEntity
  8
0
100
AcDbLine
 10
244.449636
 20
667.05407
 30
0.0
 11
352.449636
 21
667.05407
 31
0.0
  0
LINE
  5
E7
100
AcDbEntity
  8
0
100
AcDbLine
 10
231.678063
 20
211.45407
 30
0.0
 11
365.221209
 21
211.45407
 31
0.0
  0
LINE
  5
E8
100
AcDbEntity
  8
0
100
AcDbLine
 10
352.449636
 20
225.05407
 30
0.0
 11
244.449636
 21
225.05407
 31
0.0
  0
LINE
  5
E9
100
AcDbEntity
  8
0
100
AcDbLine
 10
474.449636
 20
768.169736
 30
0.0
 11
122.449636
 21
768.169736
 31
0.0
  0
LINE
  5
EA
100
AcDbEntity
  8
0
100
AcDbLine
 10
470.449636
 20
186.05407
 30
0.0
 11
126.449636
 21
186.05407
 31
0.0
  0
LINE
  5
EB
100
AcDbEntity
  8
0
100
AcDbLine
 10
126.449636
 20
706.05407
 30
0.0
 11
470.449636
 21
706.05407
 31
0.0
  0
LINE
  5
EC
100
AcDbEntity
  8
0
100
AcDbLine
 10
128.449636
 20
786.669736
 30
0.0
 11
468.449636
 21
786.669736
 31
0.0
  0
TEXT
  5
ED
100
AcDbEntity
  8
1
100
AcDbText
 10
268.27842
 20
105.85774
 30
0.0
 40
25.0
  1
SCALE:1/10
 41
0.8
  7
UT7
100
AcDbText
  0
DIMENSION
  5
EE
100
AcDbEntity
  8
SCALE
100
AcDbDimension
  2
*D9
 10
83.128861
 20
186.05407
 30
0.0
 11
61.128861
 21
446.05407
 31
0.0
 12
0.0
 22
-8.316236
 32
0.0
  1
520
  3
STANDARD
100
AcDbAlignedDimension
 13
126.449636
 23
706.05407
 33
0.0
 14
126.449636
 24
186.05407
 34
0.0
 50
90.0
100
AcDbRotatedDimension
1001
ACAD
1000
DSTYLE
1002
{
1070
   140
1040
2.2
1070
   340
1005
E
1070
   145
1040
1.0
1070
    74
1070
     0
1070
   172
1070
     1
1070
    73
1070
     0
1070
   272
1070
     4
1070
    40
1040
10.0
1070
   287
1070
     3
1070
    42
1040
2.0
1070
    44
1040
1.5
1070
    43
1040
10.0
1070
   271
1070
     4
1070
     5
1000
YAZ3
1070
    41
1040
1.5
1002
}
  0
LINE
  5
FB
100
AcDbEntity
  8
0
100
AcDbLine
 10
122.449636
 20
680.65407
 30
0.0
 11
122.449636
 21
211.45407
 31
0.0
  0
LINE
  5
FC
100
AcDbEntity
  8
0
100
AcDbLine
 10
124.449636
 20
680.65407
 30
0.0
 11
124.449636
 21
211.45407
 31
0.0
  0
POINT
  5
FE
100
AcDbEntity
  8
0
100
AcDbPoint
 10
0.0
 20
0.0
 30
0.0
  0
LINE
  5
FF
100
AcDbEntity
  8
0
100
AcDbLine
 10
200.449636
 20
225.05407
 30
0.0
 11
159.449636
 21
225.05407
 31
0.0
  0
LINE
  5
100
100
AcDbEntity
  8
0
100
AcDbLine
 10
122.449636
 20
211.45407
 30
0.0
 11
219.221209
 21
211.45407
 31
0.0
  0
TEXT
  5
101
100
AcDbEntity
  8
1
100
AcDbText
 10
68.36901
 20
104.33774
 30
0.0
 40
25.0
  1
UNIT:mm
 41
0.8
  7
UT7
100
AcDbText
  0
LINE
  5
102
100
AcDbEntity
  8
0
100
AcDbLine
 10
126.449636
 20
213.45407
 30
0.0
 11
154.449636
 21
213.45407
 31
0.0
  0
LINE
  5
103
100
AcDbEntity
  8
0
100
AcDbLine
 10
126.449636
 20
213.45407
 30
0.0
 11
126.449636
 21
223.55407
 31
0.0
  0
LINE
  5
104
100
AcDbEntity
  8
0
100
AcDbLine
 10
126.449636
 20
186.05407
 30
0.0
 11
126.449636
 21
211.45407
 31
0.0
  0
LINE
  5
105
100
AcDbEntity
  8
0
100
AcDbLine
 10
126.449636
 20
223.55407
 30
0.0
 11
124.449636
 21
223.55407
 31
0.0
  0
LINE
  5
106
100
AcDbEntity
  8
0
100
AcDbLine
 10
154.449636
 20
220.05407
 30
0.0
 11
154.449636
 21
211.45407
 31
0.0
  0
LINE
  5
107
100
AcDbEntity
  8
0
100
AcDbLine
 10
152.449636
 20
211.45407
 30
0.0
 11
152.449636
 21
213.45407
 31
0.0
  0
ARC
  5
108
100
AcDbEntity
  8
0
100
AcDbCircle
 10
159.449636
 20
220.05407
 30
0.0
 40
5.0
100
AcDbArc
 50
90.0
 51
180.0
  0
CIRCLE
  5
109
100
AcDbEntity
  8
SILK
100
AcDbCircle
 10
169.449636
 20
220.05407
 30
0.0
 40
1.7
  0
CIRCLE
  5
10B
100
AcDbEntity
  8
SILK
100
AcDbCircle
 10
169.449636
 20
220.05407
 30
0.0
 40
2.0
  0
LINE
  5
10C
100
AcDbEntity
  8
SILK
100
AcDbLine
 10
172.449636
 20
188.05407
 30
0.0
 11
166.449636
 21
188.05407
 31
0.0
  0
LINE
  5
10D
100
AcDbEntity
  8
SILK
100
AcDbLine
 10
166.449636
 20
190.05407
 30
0.0
 11
166.449636
 21
186.05407
 31
0.0
  0
LINE
  5
10E
100
AcDbEntity
  8
SILK
100
AcDbLine
 10
172.449636
 20
190.05407
 30
0.0
 11
166.449636
 21
190.05407
 31
0.0
  0
LINE
  5
10F
100
AcDbEntity
  8
SILK
100
AcDbLine
 10
172.449636
 20
186.05407
 30
0.0
 11
172.449636
 21
190.05407
 31
0.0
  0
LINE
  5
110
100
AcDbEntity
  8
0
100
AcDbLine
 10
205.449636
 20
213.45407
 30
0.0
 11
239.449636
 21
213.45407
 31
0.0
  0
LINE
  5
111
100
AcDbEntity
  8
0
100
AcDbLine
 10
205.449636
 20
220.05407
 30
0.0
 11
205.449636
 21
211.45407
 31
0.0
  0
LINE
  5
112
100
AcDbEntity
  8
0
100
AcDbLine
 10
207.449636
 20
213.45407
 30
0.0
 11
207.449636
 21
211.45407
 31
0.0
  0
ARC
  5
113
100
AcDbEntity
  8
0
100
AcDbCircle
 10
200.449636
 20
220.05407
 30
0.0
 40
5.0
100
AcDbArc
 50
0.0
 51
90.0
  0
LINE
  5
114
100
AcDbEntity
  8
0
100
AcDbLine
 10
229.278063
 20
209.05407
 30
0.0
 11
221.621209
 21
209.05407
 31
0.0
  0
LINE
  5
115
100
AcDbEntity
  8
0
100
AcDbLine
 10
228.449636
 20
211.05407
 30
0.0
 11
222.449636
 21
211.05407
 31
0.0
  0
LINE
  5
116
100
AcDbEntity
  8
0
100
AcDbLine
 10
222.449636
 20
211.05407
 30
0.0
 11
220.049636
 21
213.45407
 31
0.0
  0
LINE
  5
117
100
AcDbEntity
  8
0
100
AcDbLine
 10
219.221209
 20
211.45407
 30
0.0
 11
221.621209
 21
209.05407
 31
0.0
  0
LINE
  5
118
100
AcDbEntity
  8
0
100
AcDbLine
 10
222.049636
 20
211.45407
 30
0.0
 11
228.849636
 21
211.45407
 31
0.0
  0
LINE
  5
119
100
AcDbEntity
  8
0
100
AcDbLine
 10
231.678063
 20
211.45407
 30
0.0
 11
229.278063
 21
209.05407
 31
0.0
  0
LINE
  5
11A
100
AcDbEntity
  8
0
100
AcDbLine
 10
228.449636
 20
211.05407
 30
0.0
 11
230.849636
 21
213.45407
 31
0.0
  0
LINE
  5
11B
100
AcDbEntity
  8
0
100
AcDbLine
 10
239.449636
 20
211.45407
 30
0.0
 11
239.449636
 21
220.05407
 31
0.0
  0
LINE
  5
11C
100
AcDbEntity
  8
0
100
AcDbLine
 10
237.449636
 20
213.45407
 30
0.0
 11
237.449636
 21
211.45407
 31
0.0
  0
ARC
  5
11D
100
AcDbEntity
  8
0
100
AcDbCircle
 10
244.449636
 20
220.05407
 30
0.0
 40
5.0
100
AcDbArc
 50
90.0
 51
180.0
  0
LINE
  5
11E
100
AcDbEntity
  8
SILK
100
AcDbLine
 10
320.149636
 20
186.05407
 30
0.0
 11
320.149636
 21
184.05407
 31
0.0
  0
LINE
  5
11F
100
AcDbEntity
  8
SILK
100
AcDbLine
 10
312.749636
 20
184.05407
 30
0.0
 11
312.749636
 21
186.05407
 31
0.0
  0
LINE
  5
120
100
AcDbEntity
  8
SILK
100
AcDbLine
 10
284.149636
 20
186.05407
 30
0.0
 11
284.149636
 21
184.05407
 31
0.0
  0
LINE
  5
121
100
AcDbEntity
  8
SILK
100
AcDbLine
 10
276.749636
 20
184.05407
 30
0.0
 11
276.749636
 21
186.05407
 31
0.0
  0
LINE
  5
122
100
AcDbEntity
  8
SILK
100
AcDbLine
 10
284.149636
 20
184.05407
 30
0.0
 11
276.749636
 21
184.05407
 31
0.0
  0
LINE
  5
123
100
AcDbEntity
  8
SILK
100
AcDbLine
 10
320.149636
 20
184.05407
 30
0.0
 11
312.749636
 21
184.05407
 31
0.0
  0
CIRCLE
  5
124
100
AcDbEntity
  8
SILK
100
AcDbCircle
 10
298.449636
 20
220.05407
 30
0.0
 40
1.7
  0
CIRCLE
  5
125
100
AcDbEntity
  8
SILK
100
AcDbCircle
 10
298.449636
 20
220.05407
 30
0.0
 40
2.0
  0
LINE
  5
126
100
AcDbEntity
  8
0
100
AcDbLine
 10
128.449636
 20
891.420259
 30
0.0
 11
128.449636
 21
994.420259
 31
0.0
  0
LINE
  5
127
100
AcDbEntity
  8
0
100
AcDbLine
 10
159.449636
 20
667.05407
 30
0.0
 11
200.449636
 21
667.05407
 31
0.0
  0
LINE
  5
128
100
AcDbEntity
  8
0
100
AcDbLine
 10
205.449636
 20
756.669736
 30
0.0
 11
154.449636
 21
756.669736
 31
0.0
  0
LINE
  5
129
100
AcDbEntity
  8
0
100
AcDbLine
 10
219.221209
 20
680.65407
 30
0.0
 11
122.449636
 21
680.65407
 31
0.0
  0
LINE
  5
12A
100
AcDbEntity
  8
0
100
AcDbLine
 10
154.449636
 20
678.65407
 30
0.0
 11
126.449636
 21
678.65407
 31
0.0
  0
LINE
  5
12B
100
AcDbEntity
  8
0
100
AcDbLine
 10
126.449636
 20
680.65407
 30
0.0
 11
126.449636
 21
706.05407
 31
0.0
  0
LINE
  5
12C
100
AcDbEntity
  8
0
100
AcDbLine
 10
126.449636
 20
668.55407
 30
0.0
 11
126.449636
 21
678.65407
 31
0.0
  0
LINE
  5
12D
100
AcDbEntity
  8
0
100
AcDbLine
 10
124.449636
 20
668.55407
 30
0.0
 11
126.449636
 21
668.55407
 31
0.0
  0
ARC
  5
12E
100
AcDbEntity
  8
0
100
AcDbCircle
 10
159.449636
 20
672.05407
 30
0.0
 40
5.0
100
AcDbArc
 50
180.0
 51
270.0
  0
LINE
  5
12F
100
AcDbEntity
  8
0
100
AcDbLine
 10
152.449636
 20
678.65407
 30
0.0
 11
152.449636
 21
680.65407
 31
0.0
  0
LINE
  5
130
100
AcDbEntity
  8
0
100
AcDbLine
 10
154.449636
 20
680.65407
 30
0.0
 11
154.449636
 21
672.05407
 31
0.0
  0
CIRCLE
  5
131
100
AcDbEntity
  8
SILK
100
AcDbCircle
 10
169.449636
 20
672.05407
 30
0.0
 40
1.7
  0
CIRCLE
  5
132
100
AcDbEntity
  8
SILK
100
AcDbCircle
 10
169.449636
 20
672.05407
 30
0.0
 40
2.0
  0
LINE
  5
133
100
AcDbEntity
  8
SILK
100
AcDbLine
 10
166.449636
 20
704.05407
 30
0.0
 11
172.449636
 21
704.05407
 31
0.0
  0
LINE
  5
134
100
AcDbEntity
  8
SILK
100
AcDbLine
 10
166.449636
 20
706.05407
 30
0.0
 11
166.449636
 21
702.05407
 31
0.0
  0
LINE
  5
135
100
AcDbEntity
  8
SILK
100
AcDbLine
 10
166.449636
 20
702.05407
 30
0.0
 11
172.449636
 21
702.05407
 31
0.0
  0
LINE
  5
136
100
AcDbEntity
  8
SILK
100
AcDbLine
 10
172.449636
 20
702.05407
 30
0.0
 11
172.449636
 21
706.05407
 31
0.0
  0
ARC
  5
137
100
AcDbEntity
  8
0
100
AcDbCircle
 10
128.449636
 20
784.669736
 30
0.0
 40
2.0
100
AcDbArc
 50
90.0
 51
180.0
  0
LINE
  5
138
100
AcDbEntity
  8
0
100
AcDbLine
 10
152.449636
 20
756.669736
 30
0.0
 11
124.449636
 21
756.669736
 31
0.0
  0
LINE
  5
139
100
AcDbEntity
  8
0
100
AcDbLine
 10
126.449636
 20
784.669736
 30
0.0
 11
126.449636
 21
768.169736
 31
0.0
  0
LINE
  5
13A
100
AcDbEntity
  8
0
100
AcDbLine
 10
124.449636
 20
756.669736
 30
0.0
 11
124.449636
 21
786.669736
 31
0.0
  0
LINE
  5
13B
100
AcDbEntity
  8
0
100
AcDbLine
 10
122.449636
 20
786.669736
 30
0.0
 11
122.449636
 21
756.669736
 31
0.0
  0
LINE
  5
13C
100
AcDbEntity
  8
0
100
AcDbLine
 10
122.449636
 20
756.669736
 30
0.0
 11
124.449636
 21
756.669736
 31
0.0
  0
LINE
  5
13D
100
AcDbEntity
  8
0
100
AcDbLine
 10
124.449636
 20
786.669736
 30
0.0
 11
122.449636
 21
786.669736
 31
0.0
  0
CIRCLE
  5
13E
100
AcDbEntity
  8
SILK
100
AcDbCircle
 10
142.449636
 20
762.669736
 30
0.0
 40
1.3
  0
LINE
  5
13F
100
AcDbEntity
  8
0
100
AcDbLine
 10
154.449636
 20
758.669736
 30
0.0
 11
154.449636
 21
756.669736
 31
0.0
  0
LINE
  5
140
100
AcDbEntity
  8
0
100
AcDbLine
 10
152.449636
 20
758.669736
 30
0.0
 11
154.449636
 21
758.669736
 31
0.0
  0
LINE
  5
141
100
AcDbEntity
  8
0
100
AcDbLine
 10
152.449636
 20
756.669736
 30
0.0
 11
152.449636
 21
758.669736
 31
0.0
  0
LINE
  5
142
100
AcDbEntity
  8
0
100
AcDbLine
 10
172.449636
 20
775.669736
 30
0.0
 11
172.449636
 21
768.169736
 31
0.0
  0
LINE
  5
143
100
AcDbEntity
  8
0
100
AcDbLine
 10
166.449636
 20
768.169736
 30
0.0
 11
166.449636
 21
775.669736
 31
0.0
  0
LINE
  5
144
100
AcDbEntity
  8
0
100
AcDbLine
 10
166.449636
 20
770.169736
 30
0.0
 11
172.449636
 21
770.169736
 31
0.0
  0
ARC
  5
145
100
AcDbEntity
  8
0
100
AcDbCircle
 10
169.449636
 20
775.669736
 30
0.0
 40
3.0
100
AcDbArc
 50
90.0
 51
180.0
  0
ARC
  5
146
100
AcDbEntity
  8
0
100
AcDbCircle
 10
169.449636
 20
775.669736
 30
0.0
 40
3.0
100
AcDbArc
 50
0.0
 51
90.0
  0
LINE
  5
147
100
AcDbEntity
  8
0
100
AcDbLine
 10
239.449636
 20
678.65407
 30
0.0
 11
205.449636
 21
678.65407
 31
0.0
  0
ARC
  5
148
100
AcDbEntity
  8
0
100
AcDbCircle
 10
200.449636
 20
672.05407
 30
0.0
 40
5.0
100
AcDbArc
 50
270.0
 51
360.0
  0
LINE
  5
149
100
AcDbEntity
  8
0
100
AcDbLine
 10
205.449636
 20
680.65407
 30
0.0
 11
205.449636
 21
672.05407
 31
0.0
  0
LINE
  5
14A
100
AcDbEntity
  8
0
100
AcDbLine
 10
207.449636
 20
680.65407
 30
0.0
 11
207.449636
 21
678.65407
 31
0.0
  0
LINE
  5
14B
100
AcDbEntity
  8
0
100
AcDbLine
 10
221.621209
 20
683.05407
 30
0.0
 11
229.278063
 21
683.05407
 31
0.0
  0
LINE
  5
14C
100
AcDbEntity
  8
0
100
AcDbLine
 10
222.449636
 20
681.05407
 30
0.0
 11
228.449636
 21
681.05407
 31
0.0
  0
LINE
  5
14D
100
AcDbEntity
  8
0
100
AcDbLine
 10
220.049636
 20
678.65407
 30
0.0
 11
222.449636
 21
681.05407
 31
0.0
  0
LINE
  5
14E
100
AcDbEntity
  8
0
100
AcDbLine
 10
221.621209
 20
683.05407
 30
0.0
 11
219.221209
 21
680.65407
 31
0.0
  0
LINE
  5
14F
100
AcDbEntity
  8
0
100
AcDbLine
 10
228.849636
 20
680.65407
 30
0.0
 11
222.049636
 21
680.65407
 31
0.0
  0
LINE
  5
150
100
AcDbEntity
  8
0
100
AcDbLine
 10
229.278063
 20
683.05407
 30
0.0
 11
231.678063
 21
680.65407
 31
0.0
  0
LINE
  5
151
100
AcDbEntity
  8
0
100
AcDbLine
 10
230.849636
 20
678.65407
 30
0.0
 11
228.449636
 21
681.05407
 31
0.0
  0
ARC
  5
152
100
AcDbEntity
  8
0
100
AcDbCircle
 10
244.449636
 20
672.05407
 30
0.0
 40
5.0
100
AcDbArc
 50
180.0
 51
270.0
  0
LINE
  5
153
100
AcDbEntity
  8
0
100
AcDbLine
 10
239.449636
 20
672.05407
 30
0.0
 11
239.449636
 21
680.65407
 31
0.0
  0
LINE
  5
154
100
AcDbEntity
  8
0
100
AcDbLine
 10
237.449636
 20
680.65407
 30
0.0
 11
237.449636
 21
678.65407
 31
0.0
  0
LINE
  5
155
100
AcDbEntity
  8
SILK
100
AcDbLine
 10
284.149636
 20
708.05407
 30
0.0
 11
284.149636
 21
706.05407
 31
0.0
  0
LINE
  5
156
100
AcDbEntity
  8
SILK
100
AcDbLine
 10
276.749636
 20
706.05407
 30
0.0
 11
276.749636
 21
708.05407
 31
0.0
  0
LINE
  5
157
100
AcDbEntity
  8
SILK
100
AcDbLine
 10
276.749636
 20
708.05407
 30
0.0
 11
284.149636
 21
708.05407
 31
0.0
  0
CIRCLE
  5
158
100
AcDbEntity
  8
SILK
100
AcDbCircle
 10
298.449636
 20
672.05407
 30
0.0
 40
1.7
  0
CIRCLE
  5
159
100
AcDbEntity
  8
SILK
100
AcDbCircle
 10
298.449636
 20
672.05407
 30
0.0
 40
2.0
  0
LINE
  5
15A
100
AcDbEntity
  8
SILK
100
AcDbLine
 10
312.749636
 20
708.05407
 30
0.0
 11
320.149636
 21
708.05407
 31
0.0
  0
LINE
  5
15B
100
AcDbEntity
  8
SILK
100
AcDbLine
 10
312.749636
 20
706.05407
 30
0.0
 11
312.749636
 21
708.05407
 31
0.0
  0
LINE
  5
15C
100
AcDbEntity
  8
SILK
100
AcDbLine
 10
320.149636
 20
708.05407
 30
0.0
 11
320.149636
 21
706.05407
 31
0.0
  0
LINE
  5
15D
100
AcDbEntity
  8
0
100
AcDbLine
 10
237.449636
 20
756.669736
 30
0.0
 11
207.449636
 21
756.669736
 31
0.0
  0
CIRCLE
  5
15E
100
AcDbEntity
  8
SILK
100
AcDbCircle
 10
213.449636
 20
761.669736
 30
0.0
 40
1.5
  0
LINE
  5
15F
100
AcDbEntity
  8
0
100
AcDbLine
 10
205.449636
 20
758.669736
 30
0.0
 11
207.449636
 21
758.669736
 31
0.0
  0
LINE
  5
160
100
AcDbEntity
  8
0
100
AcDbLine
 10
207.449636
 20
758.669736
 30
0.0
 11
207.449636
 21
756.669736
 31
0.0
  0
LINE
  5
161
100
AcDbEntity
  8
0
100
AcDbLine
 10
205.449636
 20
756.669736
 30
0.0
 11
205.449636
 21
758.669736
 31
0.0
  0
CIRCLE
  5
162
100
AcDbEntity
  8
SILK
100
AcDbCircle
 10
213.449636
 20
761.669736
 30
0.0
 40
1.0
  0
LINE
  5
163
100
AcDbEntity
  8
SILK
100
AcDbLine
 10
231.970957
 20
760.669736
 30
0.0
 11
231.970957
 21
762.669736
 31
0.0
  0
LINE
  5
164
100
AcDbEntity
  8
SILK
100
AcDbLine
 10
231.970957
 20
756.669736
 30
0.0
 11
231.970957
 21
760.669736
 31
0.0
  0
LINE
  5
165
100
AcDbEntity
  8
SILK
100
AcDbLine
 10
229.070957
 20
760.669736
 30
0.0
 11
221.828316
 21
760.669736
 31
0.0
  0
LINE
  5
166
100
AcDbEntity
  8
SILK
100
AcDbLine
 10
221.828316
 20
760.669736
 30
0.0
 11
218.928316
 21
760.669736
 31
0.0
  0
LINE
  5
167
100
AcDbEntity
  8
SILK
100
AcDbLine
 10
218.928316
 20
760.669736
 30
0.0
 11
218.928316
 21
756.669736
 31
0.0
  0
LINE
  5
168
100
AcDbEntity
  8
SILK
100
AcDbLine
 10
218.928316
 20
762.669736
 30
0.0
 11
218.928316
 21
760.669736
 31
0.0
  0
LINE
  5
169
100
AcDbEntity
  8
SILK
100
AcDbLine
 10
221.828316
 20
760.669736
 30
0.0
 11
221.828316
 21
756.669736
 31
0.0
  0
LINE
  5
16A
100
AcDbEntity
  8
SILK
100
AcDbLine
 10
229.070957
 20
756.669736
 30
0.0
 11
229.070957
 21
760.669736
 31
0.0
  0
LINE
  5
16B
100
AcDbEntity
  8
SILK
100
AcDbLine
 10
218.928316
 20
762.669736
 30
0.0
 11
231.970957
 21
762.669736
 31
0.0
  0
LINE
  5
16C
100
AcDbEntity
  8
SILK
100
AcDbLine
 10
231.970957
 20
760.669736
 30
0.0
 11
229.070957
 21
760.669736
 31
0.0
  0
LINE
  5
16D
100
AcDbEntity
  8
0
100
AcDbLine
 10
239.449636
 20
758.669736
 30
0.0
 11
239.449636
 21
756.669736
 31
0.0
  0
LINE
  5
16E
100
AcDbEntity
  8
0
100
AcDbLine
 10
237.449636
 20
758.669736
 30
0.0
 11
239.449636
 21
758.669736
 31
0.0
  0
LINE
  5
16F
100
AcDbEntity
  8
0
100
AcDbLine
 10
237.449636
 20
756.669736
 30
0.0
 11
237.449636
 21
758.669736
 31
0.0
  0
LINE
  5
170
100
AcDbEntity
  8
0
100
AcDbLine
 10
323.449636
 20
840.669736
 30
0.0
 11
323.449636
 21
786.669736
 31
0.0
  0
LINE
  5
171
100
AcDbEntity
  8
0
100
AcDbLine
 10
273.449636
 20
840.669736
 30
0.0
 11
273.449636
 21
786.669736
 31
0.0
  0
CIRCLE
  5
172
100
AcDbEntity
  8
SILK
100
AcDbCircle
 10
280.449636
 20
778.169736
 30
0.0
 40
2.0
  0
CIRCLE
  5
173
100
AcDbEntity
  8
SILK
100
AcDbCircle
 10
316.449636
 20
778.169736
 30
0.0
 40
2.0
  0
LINE
  5
174
100
AcDbEntity
  8
0
100
AcDbLine
 10
273.449636
 20
840.669736
 30
0.0
 11
323.449636
 21
840.669736
 31
0.0
  0
ARC
  5
175
100
AcDbEntity
  8
0
  6
HIDDEN
100
AcDbCircle
 10
223.449636
 20
1281.723731
 30
0.0
 40
50.0
100
AcDbArc
 50
180.0
 51
270.0
  0
ARC
  5
176
100
AcDbEntity
  8
0
  6
HIDDEN
100
AcDbCircle
 10
223.449636
 20
1281.723731
 30
0.0
 40
80.0
100
AcDbArc
 50
180.0
 51
270.0
  0
ARC
  5
177
100
AcDbEntity
  8
0
100
AcDbCircle
 10
158.449636
 20
1209.723731
 30
0.0
 40
75.0
100
AcDbArc
 50
180.0
 51
270.0
  0
ARC
  5
178
100
AcDbEntity
  8
0
100
AcDbCircle
 10
98.449636
 20
994.420259
 30
0.0
 40
15.0
100
AcDbArc
 50
90.0
 51
180.0
  0
ARC
  5
179
100
AcDbEntity
  8
0
100
AcDbCircle
 10
98.449636
 20
994.420259
 30
0.0
 40
15.0
100
AcDbArc
 50
90.0
 51
180.0
  0
LINE
  5
17A
100
AcDbEntity
  8
0
100
AcDbLine
 10
83.449636
 20
994.420259
 30
0.0
 11
86.449636
 21
994.420259
 31
0.0
  0
LINE
  5
17B
100
AcDbEntity
  8
0
100
AcDbLine
 10
161.636265
 20
1018.513573
 30
0.0
 11
156.118373
 21
1015.754627
 31
0.0
  0
ARC
  5
17C
100
AcDbEntity
  8
0
100
AcDbCircle
 10
129.285558
 20
1069.420259
 30
0.0
 40
60.0
100
AcDbArc
 50
270.0
 51
296.565051
  0
ARC
  5
17D
100
AcDbEntity
  8
0
100
AcDbCircle
 10
188.46908
 20
964.847942
 30
0.0
 40
60.0
100
AcDbArc
 50
91.638126
 51
116.565051
  0
ARC
  5
17E
100
AcDbEntity
  8
0
100
AcDbCircle
 10
158.449636
 20
1209.723731
 30
0.0
 40
58.0
100
AcDbArc
 50
180.0
 51
270.0
  0
CIRCLE
  5
17F
100
AcDbEntity
  8
1
  6
HIDDEN
100
AcDbCircle
 10
159.449636
 20
1249.923731
 30
0.0
 40
13.3
  0
LINE
  5
180
100
AcDbEntity
  8
0
100
AcDbLine
 10
328.449636
 20
970.420259
 30
0.0
 11
268.449636
 21
970.420259
 31
0.0
  0
LINE
  5
181
100
AcDbEntity
  8
0
100
AcDbLine
 10
268.449636
 20
938.420259
 30
0.0
 11
328.449636
 21
938.420259
 31
0.0
  0
LINE
  5
182
100
AcDbEntity
  8
1
100
AcDbLine
 10
309.449636
 20
964.420259
 30
0.0
 11
287.449636
 21
964.420259
 31
0.0
  0
LINE
  5
183
100
AcDbEntity
  8
1
100
AcDbLine
 10
288.289636
 20
962.220259
 30
0.0
 11
308.609636
 21
962.220259
 31
0.0
  0
LINE
  5
184
100
AcDbEntity
  8
1
100
AcDbLine
 10
288.289636
 20
947.020259
 30
0.0
 11
308.609636
 21
947.020259
 31
0.0
  0
LINE
  5
185
100
AcDbEntity
  8
1
100
AcDbLine
 10
302.989636
 20
960.420259
 30
0.0
 11
298.989636
 21
960.420259
 31
0.0
  0
LINE
  5
186
100
AcDbEntity
  8
1
100
AcDbLine
 10
298.989636
 20
956.420259
 30
0.0
 11
302.989636
 21
956.420259
 31
0.0
  0
LINE
  5
187
100
AcDbEntity
  8
0
100
AcDbLine
 10
268.449636
 20
970.420259
 30
0.0
 11
268.449636
 21
938.420259
 31
0.0
  0
CIRCLE
  5
188
100
AcDbEntity
  8
1
100
AcDbCircle
 10
280.449636
 20
958.420259
 30
0.0
 40
2.25
  0
LINE
  5
189
100
AcDbEntity
  8
1
100
AcDbLine
 10
297.909636
 20
960.420259
 30
0.0
 11
293.909636
 21
960.420259
 31
0.0
  0
LINE
  5
18A
100
AcDbEntity
  8
1
100
AcDbLine
 10
293.909636
 20
956.420259
 30
0.0
 11
297.909636
 21
956.420259
 31
0.0
  0
LINE
  5
18B
100
AcDbEntity
  8
1
100
AcDbLine
 10
288.829636
 20
956.420259
 30
0.0
 11
292.829636
 21
956.420259
 31
0.0
  0
LINE
  5
18C
100
AcDbEntity
  8
1
100
AcDbLine
 10
292.829636
 20
960.420259
 30
0.0
 11
288.829636
 21
960.420259
 31
0.0
  0
LINE
  5
18D
100
AcDbEntity
  8
1
100
AcDbLine
 10
292.829636
 20
956.420259
 30
0.0
 11
292.829636
 21
960.420259
 31
0.0
  0
LINE
  5
18E
100
AcDbEntity
  8
1
100
AcDbLine
 10
288.829636
 20
960.420259
 30
0.0
 11
288.829636
 21
956.420259
 31
0.0
  0
LINE
  5
18F
100
AcDbEntity
  8
1
100
AcDbLine
 10
293.909636
 20
960.420259
 30
0.0
 11
293.909636
 21
956.420259
 31
0.0
  0
LINE
  5
190
100
AcDbEntity
  8
1
100
AcDbLine
 10
297.909636
 20
956.420259
 30
0.0
 11
297.909636
 21
960.420259
 31
0.0
  0
LINE
  5
191
100
AcDbEntity
  8
1
100
AcDbLine
 10
298.989636
 20
960.420259
 30
0.0
 11
298.989636
 21
956.420259
 31
0.0
  0
LINE
  5
192
100
AcDbEntity
  8
1
100
AcDbLine
 10
287.449636
 20
952.420259
 30
0.0
 11
288.289636
 21
952.420259
 31
0.0
  0
LINE
  5
193
100
AcDbEntity
  8
1
100
AcDbLine
 10
287.449636
 20
964.420259
 30
0.0
 11
287.449636
 21
952.420259
 31
0.0
  0
LINE
  5
194
100
AcDbEntity
  8
1
100
AcDbLine
 10
288.289636
 20
962.220259
 30
0.0
 11
288.289636
 21
947.020259
 31
0.0
  0
LINE
  5
195
100
AcDbEntity
  8
0
100
AcDbLine
 10
328.449636
 20
938.420259
 30
0.0
 11
328.449636
 21
970.420259
 31
0.0
  0
INSERT
  5
196
100
AcDbEntity
  8
SCALE
100
AcDbBlockReference
  2
YAZ3
 10
308.609636
 20
950.645236
 30
0.0
 41
15.0
 42
15.0
 43
15.0
 50
162.413767
  0
LINE
  5
197
100
AcDbEntity
  8
1
100
AcDbLine
 10
304.069636
 20
956.420259
 30
0.0
 11
308.069636
 21
956.420259
 31
0.0
  0
LINE
  5
198
100
AcDbEntity
  8
1
100
AcDbLine
 10
308.069636
 20
960.420259
 30
0.0
 11
304.069636
 21
960.420259
 31
0.0
  0
LINE
  5
199
100
AcDbEntity
  8
1
100
AcDbLine
 10
302.989636
 20
956.420259
 30
0.0
 11
302.989636
 21
960.420259
 31
0.0
  0
LINE
  5
19A
100
AcDbEntity
  8
1
100
AcDbLine
 10
304.069636
 20
960.420259
 30
0.0
 11
304.069636
 21
956.420259
 31
0.0
  0
LINE
  5
19B
100
AcDbEntity
  8
1
100
AcDbLine
 10
308.069636
 20
956.420259
 30
0.0
 11
308.069636
 21
960.420259
 31
0.0
  0
LINE
  5
19C
100
AcDbEntity
  8
1
100
AcDbLine
 10
308.609636
 20
952.420259
 30
0.0
 11
309.449636
 21
952.420259
 31
0.0
  0
LINE
  5
19D
100
AcDbEntity
  8
1
100
AcDbLine
 10
309.449636
 20
952.420259
 30
0.0
 11
309.449636
 21
964.420259
 31
0.0
  0
LINE
  5
19E
100
AcDbEntity
  8
1
100
AcDbLine
 10
308.609636
 20
947.020259
 30
0.0
 11
308.609636
 21
962.220259
 31
0.0
  0
CIRCLE
  5
19F
100
AcDbEntity
  8
1
100
AcDbCircle
 10
316.449636
 20
958.420259
 30
0.0
 40
2.25
  0
DIMENSION
  5
1A0
100
AcDbEntity
  8
SCALE
100
AcDbDimension
  2
*D14
 10
701.489437
 20
203.05407
 30
0.0
 11
679.489437
 21
446.05407
 31
0.0
 12
0.0
 22
-8.316236
 32
0.0
  1
486
  3
STANDARD
100
AcDbAlignedDimension
 13
659.322029
 23
689.05407
 33
0.0
 14
659.322029
 24
203.05407
 34
0.0
 50
90.0
100
AcDbRotatedDimension
1001
ACAD
1000
DSTYLE
1002
{
1070
   140
1040
2.2
1070
   340
1005
E
1070
   145
1040
1.0
1070
    74
1070
     0
1070
   172
1070
     1
1070
    73
1070
     0
1070
   272
1070
     4
1070
    40
1040
10.0
1070
   287
1070
     3
1070
    42
1040
2.0
1070
    44
1040
1.5
1070
    43
1040
10.0
1070
   271
1070
     4
1070
     5
1000
YAZ3
1070
    41
1040
1.5
1002
}
  0
DIMENSION
  5
1AD
100
AcDbEntity
  8
SCALE
100
AcDbDimension
  2
*D12
 10
644.778523
 20
446.05407
 30
0.0
 11
622.778523
 21
546.05407
 31
0.0
 12
0.0
 22
-8.316236
 32
0.0
  1
200
  3
STANDARD
100
AcDbAlignedDimension
 13
598.822029
 23
646.05407
 33
0.0
 14
598.822029
 24
446.05407
 34
0.0
 50
90.0
100
AcDbRotatedDimension
1001
ACAD
1000
DSTYLE
1002
{
1070
   140
1040
2.2
1070
   340
1005
E
1070
   145
1040
1.0
1070
    74
1070
     0
1070
   172
1070
     1
1070
    73
1070
     0
1070
   272
1070
     4
1070
    40
1040
10.0
1070
   287
1070
     3
1070
    42
1040
2.0
1070
    44
1040
1.5
1070
    43
1040
10.0
1070
   271
1070
     4
1070
     5
1000
YAZ3
1070
    41
1040
1.5
1002
}
  0
DIMENSION
  5
1BA
100
AcDbEntity
  8
SCALE
100
AcDbDimension
  2
*D11
 10
537.374506
 20
209.05407
 30
0.0
 11
515.374506
 21
446.05407
 31
0.0
 12
0.0
 22
-8.316236
 32
0.0
  1
474
  3
STANDARD
100
AcDbAlignedDimension
 13
570.322029
 23
683.05407
 33
0.0
 14
570.322029
 24
209.05407
 34
0.0
 50
90.0
100
AcDbRotatedDimension
1001
ACAD
1000
DSTYLE
1002
{
1070
   140
1040
2.2
1070
   340
1005
E
1070
   145
1040
1.0
1070
    74
1070
     0
1070
   172
1070
     1
1070
    73
1070
     0
1070
   272
1070
     4
1070
    40
1040
10.0
1070
   287
1070
     3
1070
    42
1040
2.0
1070
    44
1040
1.5
1070
    43
1040
10.0
1070
   271
1070
     4
1070
     5
1000
YAZ3
1070
    41
1040
1.5
1002
}
  0
LINE
  5
1C7
100
AcDbEntity
  8
1
  6
PHANTOM
100
AcDbLine
 10
794.842385
 20
686.05407
 30
0.0
 11
794.842385
 21
206.05407
 31
0.0
  0
LINE
  5
1C8
100
AcDbEntity
  8
0
100
AcDbLine
 10
600.322029
 20
678.65407
 30
0.0
 11
600.322029
 21
213.45407
 31
0.0
  0
LINE
  5
1C9
100
AcDbEntity
  8
0
100
AcDbLine
 10
570.322029
 20
209.05407
 30
0.0
 11
570.322029
 21
683.05407
 31
0.0
  0
LINE
  5
1CA
100
AcDbEntity
  8
0
100
AcDbLine
 10
472.449636
 20
211.45407
 30
0.0
 11
472.449636
 21
680.65407
 31
0.0
  0
LINE
  5
1CB
100
AcDbEntity
  8
0
100
AcDbLine
 10
474.449636
 20
211.45407
 30
0.0
 11
474.449636
 21
680.65407
 31
0.0
  0
DIMENSION
  5
1CC
100
AcDbEntity
  8
SCALE
100
AcDbDimension
  2
*D13
 10
644.778523
 20
246.05407
 30
0.0
 11
622.778523
 21
346.05407
 31
0.0
 12
0.0
 22
-8.316236
 32
0.0
  1
200
  3
STANDARD
100
AcDbAlignedDimension
 13
598.822029
 23
446.05407
 33
0.0
 14
598.822029
 24
246.05407
 34
0.0
 50
90.0
100
AcDbRotatedDimension
1001
ACAD
1000
DSTYLE
1002
{
1070
   140
1040
2.2
1070
   340
1005
E
1070
   145
1040
1.0
1070
    74
1070
     0
1070
   172
1070
     1
1070
    73
1070
     0
1070
   272
1070
     4
1070
    40
1040
10.0
1070
   287
1070
     3
1070
    42
1040
2.0
1070
    44
1040
1.5
1070
    43
1040
10.0
1070
   271
1070
     4
1070
     5
1000
YAZ3
1070
    41
1040
1.5
1002
}
  0
LINE
  5
1D9
100
AcDbEntity
  8
0
100
AcDbLine
 10
654.322029
 20
188.05407
 30
0.0
 11
584.322029
 21
188.05407
 31
0.0
  0
LINE
  5
1DA
100
AcDbEntity
  8
0
100
AcDbLine
 10
652.322029
 20
190.05407
 30
0.0
 11
584.322029
 21
190.05407
 31
0.0
  0
LINE
  5
1DB
100
AcDbEntity
  8
0
100
AcDbLine
 10
437.449636
 20
225.05407
 30
0.0
 11
396.449636
 21
225.05407
 31
0.0
  0
LINE
  5
1DC
100
AcDbEntity
  8
0
100
AcDbLine
 10
377.678063
 20
211.45407
 30
0.0
 11
474.449636
 21
211.45407
 31
0.0
  0
LINE
  5
1DD
100
AcDbEntity
  8
0
100
AcDbLine
 10
375.278063
 20
209.05407
 30
0.0
 11
367.621209
 21
209.05407
 31
0.0
  0
LINE
  5
1DE
100
AcDbEntity
  8
0
100
AcDbLine
 10
374.449636
 20
211.05407
 30
0.0
 11
368.449636
 21
211.05407
 31
0.0
  0
LINE
  5
1DF
100
AcDbEntity
  8
0
100
AcDbLine
 10
368.049636
 20
211.45407
 30
0.0
 11
374.849636
 21
211.45407
 31
0.0
  0
LINE
  5
1E0
100
AcDbEntity
  8
0
100
AcDbLine
 10
357.449636
 20
213.45407
 30
0.0
 11
391.449636
 21
213.45407
 31
0.0
  0
ARC
  5
1E1
100
AcDbEntity
  8
0
100
AcDbCircle
 10
352.449636
 20
220.05407
 30
0.0
 40
5.0
100
AcDbArc
 50
0.0
 51
90.0
  0
LINE
  5
1E2
100
AcDbEntity
  8
0
100
AcDbLine
 10
357.449636
 20
220.05407
 30
0.0
 11
357.449636
 21
211.45407
 31
0.0
  0
LINE
  5
1E3
100
AcDbEntity
  8
0
100
AcDbLine
 10
367.621209
 20
209.05407
 30
0.0
 11
365.221209
 21
211.45407
 31
0.0
  0
LINE
  5
1E4
100
AcDbEntity
  8
0
100
AcDbLine
 10
366.049636
 20
213.45407
 30
0.0
 11
368.449636
 21
211.05407
 31
0.0
  0
LINE
  5
1E5
100
AcDbEntity
  8
0
100
AcDbLine
 10
359.449636
 20
211.45407
 30
0.0
 11
359.449636
 21
213.45407
 31
0.0
  0
LINE
  5
1E6
100
AcDbEntity
  8
0
100
AcDbLine
 10
389.449636
 20
211.45407
 30
0.0
 11
389.449636
 21
213.45407
 31
0.0
  0
LINE
  5
1E7
100
AcDbEntity
  8
0
100
AcDbLine
 10
376.849636
 20
213.45407
 30
0.0
 11
374.449636
 21
211.05407
 31
0.0
  0
LINE
  5
1E8
100
AcDbEntity
  8
0
100
AcDbLine
 10
375.278063
 20
209.05407
 30
0.0
 11
377.678063
 21
211.45407
 31
0.0
  0
LINE
  5
1E9
100
AcDbEntity
  8
0
100
AcDbLine
 10
391.449636
 20
211.45407
 30
0.0
 11
391.449636
 21
220.05407
 31
0.0
  0
ARC
  5
1EA
100
AcDbEntity
  8
0
100
AcDbCircle
 10
396.449636
 20
220.05407
 30
0.0
 40
5.0
100
AcDbArc
 50
90.0
 51
180.0
  0
LINE
  5
1EB
100
AcDbEntity
  8
0
100
AcDbLine
 10
442.449636
 20
213.45407
 30
0.0
 11
470.449636
 21
213.45407
 31
0.0
  0
ARC
  5
1EC
100
AcDbEntity
  8
0
100
AcDbCircle
 10
437.449636
 20
220.05407
 30
0.0
 40
5.0
100
AcDbArc
 50
0.0
 51
90.0
  0
LINE
  5
1ED
100
AcDbEntity
  8
SILK
100
AcDbLine
 10
430.449636
 20
188.05407
 30
0.0
 11
424.449636
 21
188.05407
 31
0.0
  0
LINE
  5
1EE
100
AcDbEntity
  8
SILK
100
AcDbLine
 10
430.449636
 20
190.05407
 30
0.0
 11
424.449636
 21
190.05407
 31
0.0
  0
LINE
  5
1EF
100
AcDbEntity
  8
SILK
100
AcDbLine
 10
424.449636
 20
190.05407
 30
0.0
 11
424.449636
 21
186.05407
 31
0.0
  0
LINE
  5
1F0
100
AcDbEntity
  8
0
100
AcDbLine
 10
442.449636
 20
211.45407
 30
0.0
 11
442.449636
 21
220.05407
 31
0.0
  0
CIRCLE
  5
1F1
100
AcDbEntity
  8
SILK
100
AcDbCircle
 10
427.449636
 20
220.05407
 30
0.0
 40
1.7
  0
CIRCLE
  5
1F2
100
AcDbEntity
  8
SILK
100
AcDbCircle
 10
427.449636
 20
220.05407
 30
0.0
 40
2.0
  0
LINE
  5
1F3
100
AcDbEntity
  8
SILK
100
AcDbLine
 10
430.449636
 20
186.05407
 30
0.0
 11
430.449636
 21
190.05407
 31
0.0
  0
LINE
  5
1F4
100
AcDbEntity
  8
0
100
AcDbLine
 10
444.449636
 20
213.45407
 30
0.0
 11
444.449636
 21
211.45407
 31
0.0
  0
LINE
  5
1F5
100
AcDbEntity
  8
0
100
AcDbLine
 10
470.449636
 20
223.55407
 30
0.0
 11
470.449636
 21
213.45407
 31
0.0
  0
LINE
  5
1F6
100
AcDbEntity
  8
0
100
AcDbLine
 10
470.449636
 20
211.45407
 30
0.0
 11
470.449636
 21
186.05407
 31
0.0
  0
LINE
  5
1F7
100
AcDbEntity
  8
0
100
AcDbLine
 10
472.449636
 20
223.55407
 30
0.0
 11
470.449636
 21
223.55407
 31
0.0
  0
LINE
  5
1F8
100
AcDbEntity
  8
0
100
AcDbLine
 10
595.522029
 20
186.05407
 30
0.0
 11
595.522029
 21
184.05407
 31
0.0
  0
LINE
  5
1F9
100
AcDbEntity
  8
0
100
AcDbLine
 10
588.122029
 20
184.05407
 30
0.0
 11
588.122029
 21
186.05407
 31
0.0
  0
LINE
  5
1FA
100
AcDbEntity
  8
0
100
AcDbLine
 10
595.522029
 20
184.05407
 30
0.0
 11
588.122029
 21
184.05407
 31
0.0
  0
LINE
  5
1FB
100
AcDbEntity
  8
0
100
AcDbLine
 10
593.822029
 20
184.05407
 30
0.0
 11
593.822029
 21
180.05407
 31
0.0
  0
LINE
  5
1FC
100
AcDbEntity
  8
0
100
AcDbLine
 10
593.822029
 20
180.05407
 30
0.0
 11
589.822029
 21
180.05407
 31
0.0
  0
LINE
  5
1FD
100
AcDbEntity
  8
0
100
AcDbLine
 10
589.822029
 20
180.05407
 30
0.0
 11
589.822029
 21
184.05407
 31
0.0
  0
LINE
  5
1FE
100
AcDbEntity
  8
0
100
AcDbLine
 10
598.322029
 20
211.45407
 30
0.0
 11
570.322029
 21
211.45407
 31
0.0
  0
LINE
  5
1FF
100
AcDbEntity
  8
0
100
AcDbLine
 10
600.322029
 20
186.05407
 30
0.0
 11
581.822029
 21
186.05407
 31
0.0
  0
LINE
  5
200
100
AcDbEntity
  8
0
100
AcDbLine
 10
574.322029
 20
211.45407
 30
0.0
 11
574.322029
 21
209.05407
 31
0.0
  0
LINE
  5
201
100
AcDbEntity
  8
0
100
AcDbLine
 10
581.822029
 20
186.05407
 30
0.0
 11
581.822029
 21
211.45407
 31
0.0
  0
LINE
  5
202
100
AcDbEntity
  8
0
100
AcDbLine
 10
574.322029
 20
209.05407
 30
0.0
 11
570.322029
 21
209.05407
 31
0.0
  0
LINE
  5
203
100
AcDbEntity
  8
0
100
AcDbLine
 10
600.322029
 20
188.05407
 30
0.0
 11
600.322029
 21
186.05407
 31
0.0
  0
LINE
  5
204
100
AcDbEntity
  8
0
100
AcDbLine
 10
583.822029
 20
188.05407
 30
0.0
 11
600.322029
 21
188.05407
 31
0.0
  0
LINE
  5
205
100
AcDbEntity
  8
0
100
AcDbLine
 10
583.822029
 20
211.45407
 30
0.0
 11
583.822029
 21
188.05407
 31
0.0
  0
LINE
  5
206
100
AcDbEntity
  8
0
100
AcDbLine
 10
584.322029
 20
190.05407
 30
0.0
 11
584.322029
 21
188.05407
 31
0.0
  0
LINE
  5
207
100
AcDbEntity
  8
0
100
AcDbLine
 10
587.622029
 20
190.05407
 30
0.0
 11
587.622029
 21
191.629311
 31
0.0
  0
LINE
  5
208
100
AcDbEntity
  8
0
100
AcDbLine
 10
596.022029
 20
191.629311
 30
0.0
 11
596.022029
 21
190.05407
 31
0.0
  0
ARC
  5
209
100
AcDbEntity
  8
0
100
AcDbCircle
 10
591.822029
 20
182.55407
 30
0.0
 40
10.0
100
AcDbArc
 50
65.165413
 51
90.0
  0
ARC
  5
20A
100
AcDbEntity
  8
0
100
AcDbCircle
 10
591.822029
 20
182.55407
 30
0.0
 40
10.0
100
AcDbArc
 50
90.0
 51
114.834587
  0
ARC
  5
20B
100
AcDbEntity
  8
0
100
AcDbCircle
 10
598.322029
 20
213.45407
 30
0.0
 40
2.0
100
AcDbArc
 50
270.0
 51
360.0
  0
LINE
  5
20C
100
AcDbEntity
  8
0
100
AcDbLine
 10
594.822029
 20
248.55407
 30
0.0
 11
591.822029
 21
248.55407
 31
0.0
  0
LINE
  5
20D
100
AcDbEntity
  8
0
100
AcDbLine
 10
591.822029
 20
243.55407
 30
0.0
 11
594.822029
 21
243.55407
 31
0.0
  0
ARC
  5
20E
100
AcDbEntity
  8
0
100
AcDbCircle
 10
594.822029
 20
246.05407
 30
0.0
 40
2.5
100
AcDbArc
 50
270.0
 51
450.0
  0
ARC
  5
20F
100
AcDbEntity
  8
0
100
AcDbCircle
 10
591.822029
 20
246.05407
 30
0.0
 40
2.5
100
AcDbArc
 50
90.0
 51
270.0
  0
LINE
  5
210
100
AcDbEntity
  8
CENTER
100
AcDbLine
 10
587.822029
 20
246.05407
 30
0.0
 11
598.822029
 21
246.05407
 31
0.0
  0
LINE
  5
213
100
AcDbEntity
  8
CENTER
100
AcDbLine
 10
593.322029
 20
250.05407
 30
0.0
 11
593.322029
 21
242.05407
 31
0.0
  0
LINE
  5
214
100
AcDbEntity
  8
0
100
AcDbLine
 10
591.822029
 20
443.55407
 30
0.0
 11
594.822029
 21
443.55407
 31
0.0
  0
LINE
  5
215
100
AcDbEntity
  8
0
100
AcDbLine
 10
594.822029
 20
448.55407
 30
0.0
 11
591.822029
 21
448.55407
 31
0.0
  0
ARC
  5
216
100
AcDbEntity
  8
0
100
AcDbCircle
 10
591.822029
 20
446.05407
 30
0.0
 40
2.5
100
AcDbArc
 50
90.0
 51
270.0
  0
ARC
  5
217
100
AcDbEntity
  8
0
100
AcDbCircle
 10
594.822029
 20
446.05407
 30
0.0
 40
2.5
100
AcDbArc
 50
270.0
 51
450.0
  0
LINE
  5
218
100
AcDbEntity
  8
CENTER
100
AcDbLine
 10
593.322029
 20
450.05407
 30
0.0
 11
593.322029
 21
442.05407
 31
0.0
  0
LINE
  5
219
100
AcDbEntity
  8
CENTER
100
AcDbLine
 10
587.822029
 20
446.05407
 30
0.0
 11
598.822029
 21
446.05407
 31
0.0
  0
LINE
  5
21A
100
AcDbEntity
  8
0
100
AcDbLine
 10
652.322029
 20
217.05407
 30
0.0
 11
654.322029
 21
217.05407
 31
0.0
  0
LINE
  5
21B
100
AcDbEntity
  8
CENTER
100
AcDbLine
 10
647.322029
 20
203.05407
 30
0.0
 11
659.322029
 21
203.05407
 31
0.0
  0
LINE
  5
21C
100
AcDbEntity
  8
0
100
AcDbLine
 10
652.322029
 20
190.05407
 30
0.0
 11
652.322029
 21
217.05407
 31
0.0
  0
LINE
  5
21D
100
AcDbEntity
  8
0
100
AcDbLine
 10
654.322029
 20
217.05407
 30
0.0
 11
654.322029
 21
188.05407
 31
0.0
  0
LINE
  5
21E
100
AcDbEntity
  8
SCALE
100
AcDbLine
 10
596.643962
 20
647.765958
 30
0.0
 11
751.773082
 21
787.119107
 31
0.0
  0
DIMENSION
  5
21F
100
AcDbEntity
  8
SCALE
100
AcDbDimension
  2
*D16
 10
654.322029
 20
776.136289
 30
0.0
 11
612.322029
 21
798.136289
 31
0.0
 12
0.0
 22
-8.316236
 32
0.0
  1
84
  3
STANDARD
100
AcDbAlignedDimension
 13
570.322029
 23
683.05407
 33
0.0
 14
654.322029
 24
704.05407
 34
0.0
100
AcDbRotatedDimension
1001
ACAD
1000
DSTYLE
1002
{
1070
   140
1040
2.2
1070
   340
1005
E
1070
   145
1040
1.0
1070
    74
1070
     0
1070
   172
1070
     1
1070
    73
1070
     0
1070
   272
1070
     4
1070
    40
1040
10.0
1070
   287
1070
     3
1070
    42
1040
2.0
1070
    44
1040
1.5
1070
    43
1040
10.0
1070
   271
1070
     4
1070
     5
1000
YAZ3
1070
    41
1040
1.5
1002
}
  0
DIMENSION
  5
22C
100
AcDbEntity
  8
SCALE
100
AcDbDimension
  2
*D15
 10
570.322029
 20
735.329012
 30
0.0
 11
521.612506
 21
757.329012
 31
0.0
 12
0.0
 22
-8.316236
 32
0.0
  1
30
  3
STANDARD
100
AcDbAlignedDimension
 13
600.322029
 23
706.05407
 33
0.0
 14
570.322029
 24
683.05407
 34
0.0
100
AcDbRotatedDimension
1001
ACAD
1000
DSTYLE
1002
{
1070
   140
1040
2.2
1070
   340
1005
E
1070
   145
1040
1.0
1070
    74
1070
     0
1070
   172
1070
     1
1070
    73
1070
     0
1070
   272
1070
     4
1070
    40
1040
10.0
1070
   287
1070
     3
1070
    42
1040
2.0
1070
    44
1040
1.5
1070
    43
1040
10.0
1070
   271
1070
     4
1070
     5
1000
YAZ3
1070
    41
1040
1.5
1002
}
  0
TEXT
  5
23B
100
AcDbEntity
  8
SCALE
100
AcDbText
 10
499.156278
 20
898.617717
 30
0.0
 40
22.0
  1
Input terminal
 72
     2
 11
728.58485
 21
898.617717
 31
0.0
100
AcDbText
  0
LINE
  5
23C
100
AcDbEntity
  8
SCALE
100
AcDbLine
 10
738.977824
 20
888.617721
 30
0.0
 11
504.308579
 21
888.617624
 31
0.0
  0
LINE
  5
23D
100
AcDbEntity
  8
1
100
AcDbLine
 10
744.623431
 20
1035.827535
 30
0.0
 11
600.623431
 21
1035.827535
 31
0.0
  0
TEXT
  5
23E
100
AcDbEntity
  8
1
100
AcDbText
 10
603.099622
 20
1045.827535
 30
0.0
 40
25.0
  1
Side View
 41
0.8
  7
UT7
 72
     1
 11
672.623431
 21
1045.827535
 31
0.0
100
AcDbText
  0
DIMENSION
  5
23F
100
AcDbEntity
  8
SCALE
100
AcDbDimension
  2
*D6
 10
724.123431
 20
1093.04016
 30
0.0
 11
672.623431
 21
1115.04016
 31
0.0
 12
18.301402
 22
-32.994207
 32
0.0
  1
103
  3
STANDARD
100
AcDbAlignedDimension
 13
621.123431
 23
1134.723731
 33
0.0
 14
724.123431
 24
1186.723731
 34
0.0
100
AcDbRotatedDimension
1001
ACAD
1000
DSTYLE
1002
{
1070
   140
1040
2.2
1070
   340
1005
E
1070
   145
1040
1.0
1070
    74
1070
     0
1070
   172
1070
     1
1070
    73
1070
     0
1070
   272
1070
     4
1070
    40
1040
10.0
1070
   287
1070
     3
1070
    42
1040
2.0
1070
    44
1040
1.5
1070
    43
1040
10.0
1070
   271
1070
     4
1070
     5
1000
YAZ3
1070
    41
1040
1.5
1002
}
  0
LINE
  5
24C
100
AcDbEntity
  8
0
100
AcDbLine
 10
724.123431
 20
1186.723731
 30
0.0
 11
621.123431
 21
1186.723731
 31
0.0
  0
LINE
  5
24D
100
AcDbEntity
  8
1
100
AcDbLine
 10
701.857672
 20
943.920259
 30
0.0
 11
511.857672
 21
943.920259
 31
0.0
  0
TEXT
  5
24E
100
AcDbEntity
  8
1
100
AcDbText
 10
512.571958
 20
953.920259
 30
0.0
 40
25.0
  1
Bottom View
 41
0.8
  7
UT7
 72
     1
 11
606.857672
 21
953.920259
 31
0.0
100
AcDbText
  0
LINE
  5
24F
100
AcDbEntity
  8
0
100
AcDbLine
 10
583.822029
 20
704.05407
 30
0.0
 11
654.322029
 21
704.05407
 31
0.0
  0
LINE
  5
250
100
AcDbEntity
  8
0
100
AcDbLine
 10
584.322029
 20
702.05407
 30
0.0
 11
652.322029
 21
702.05407
 31
0.0
  0
LINE
  5
251
100
AcDbEntity
  8
0
100
AcDbLine
 10
468.449636
 20
994.420259
 30
0.0
 11
468.449636
 21
891.420259
 31
0.0
  0
LINE
  5
252
100
AcDbEntity
  8
0
100
AcDbLine
 10
396.449636
 20
667.05407
 30
0.0
 11
437.449636
 21
667.05407
 31
0.0
  0
LINE
  5
253
100
AcDbEntity
  8
0
100
AcDbLine
 10
474.449636
 20
680.65407
 30
0.0
 11
377.678063
 21
680.65407
 31
0.0
  0
LINE
  5
254
100
AcDbEntity
  8
0
100
AcDbLine
 10
367.621209
 20
683.05407
 30
0.0
 11
375.278063
 21
683.05407
 31
0.0
  0
LINE
  5
255
100
AcDbEntity
  8
0
100
AcDbLine
 10
368.449636
 20
681.05407
 30
0.0
 11
374.449636
 21
681.05407
 31
0.0
  0
LINE
  5
256
100
AcDbEntity
  8
0
100
AcDbLine
 10
374.849636
 20
680.65407
 30
0.0
 11
368.049636
 21
680.65407
 31
0.0
  0
LINE
  5
257
100
AcDbEntity
  8
0
100
AcDbLine
 10
391.449636
 20
678.65407
 30
0.0
 11
357.449636
 21
678.65407
 31
0.0
  0
ARC
  5
258
100
AcDbEntity
  8
0
100
AcDbCircle
 10
352.449636
 20
672.05407
 30
0.0
 40
5.0
100
AcDbArc
 50
270.0
 51
360.0
  0
LINE
  5
259
100
AcDbEntity
  8
0
100
AcDbLine
 10
365.221209
 20
680.65407
 30
0.0
 11
367.621209
 21
683.05407
 31
0.0
  0
LINE
  5
25A
100
AcDbEntity
  8
0
100
AcDbLine
 10
368.449636
 20
681.05407
 30
0.0
 11
366.049636
 21
678.65407
 31
0.0
  0
LINE
  5
25B
100
AcDbEntity
  8
0
100
AcDbLine
 10
357.449636
 20
680.65407
 30
0.0
 11
357.449636
 21
672.05407
 31
0.0
  0
LINE
  5
25C
100
AcDbEntity
  8
0
100
AcDbLine
 10
359.449636
 20
678.65407
 30
0.0
 11
359.449636
 21
680.65407
 31
0.0
  0
ARC
  5
25D
100
AcDbEntity
  8
0
100
AcDbCircle
 10
396.449636
 20
672.05407
 30
0.0
 40
5.0
100
AcDbArc
 50
180.0
 51
270.0
  0
LINE
  5
25E
100
AcDbEntity
  8
0
100
AcDbLine
 10
389.449636
 20
678.65407
 30
0.0
 11
389.449636
 21
680.65407
 31
0.0
  0
LINE
  5
25F
100
AcDbEntity
  8
0
100
AcDbLine
 10
374.449636
 20
681.05407
 30
0.0
 11
376.849636
 21
678.65407
 31
0.0
  0
LINE
  5
260
100
AcDbEntity
  8
0
100
AcDbLine
 10
377.678063
 20
680.65407
 30
0.0
 11
375.278063
 21
683.05407
 31
0.0
  0
LINE
  5
261
100
AcDbEntity
  8
0
100
AcDbLine
 10
391.449636
 20
672.05407
 30
0.0
 11
391.449636
 21
680.65407
 31
0.0
  0
LINE
  5
262
100
AcDbEntity
  8
0
100
AcDbLine
 10
470.449636
 20
678.65407
 30
0.0
 11
442.449636
 21
678.65407
 31
0.0
  0
ARC
  5
263
100
AcDbEntity
  8
0
100
AcDbCircle
 10
437.449636
 20
672.05407
 30
0.0
 40
5.0
100
AcDbArc
 50
270.0
 51
360.0
  0
LINE
  5
264
100
AcDbEntity
  8
SILK
100
AcDbLine
 10
424.449636
 20
704.05407
 30
0.0
 11
430.449636
 21
704.05407
 31
0.0
  0
LINE
  5
265
100
AcDbEntity
  8
SILK
100
AcDbLine
 10
424.449636
 20
702.05407
 30
0.0
 11
430.449636
 21
702.05407
 31
0.0
  0
LINE
  5
266
100
AcDbEntity
  8
SILK
100
AcDbLine
 10
424.449636
 20
706.05407
 30
0.0
 11
424.449636
 21
702.05407
 31
0.0
  0
LINE
  5
267
100
AcDbEntity
  8
0
100
AcDbLine
 10
442.449636
 20
672.05407
 30
0.0
 11
442.449636
 21
680.65407
 31
0.0
  0
CIRCLE
  5
268
100
AcDbEntity
  8
SILK
100
AcDbCircle
 10
427.449636
 20
672.05407
 30
0.0
 40
1.7
  0
CIRCLE
  5
269
100
AcDbEntity
  8
SILK
100
AcDbCircle
 10
427.449636
 20
672.05407
 30
0.0
 40
2.0
  0
LINE
  5
26A
100
AcDbEntity
  8
SILK
100
AcDbLine
 10
430.449636
 20
702.05407
 30
0.0
 11
430.449636
 21
706.05407
 31
0.0
  0
LINE
  5
26B
100
AcDbEntity
  8
0
100
AcDbLine
 10
444.449636
 20
680.65407
 30
0.0
 11
444.449636
 21
678.65407
 31
0.0
  0
LINE
  5
26C
100
AcDbEntity
  8
0
100
AcDbLine
 10
470.449636
 20
706.05407
 30
0.0
 11
470.449636
 21
680.65407
 31
0.0
  0
LINE
  5
26D
100
AcDbEntity
  8
0
100
AcDbLine
 10
470.449636
 20
668.55407
 30
0.0
 11
472.449636
 21
668.55407
 31
0.0
  0
LINE
  5
26E
100
AcDbEntity
  8
0
100
AcDbLine
 10
470.449636
 20
678.65407
 30
0.0
 11
470.449636
 21
668.55407
 31
0.0
  0
LINE
  5
26F
100
AcDbEntity
  8
0
100
AcDbLine
 10
442.449636
 20
756.669736
 30
0.0
 11
391.449636
 21
756.669736
 31
0.0
  0
LINE
  5
270
100
AcDbEntity
  8
SILK
100
AcDbLine
 10
375.070957
 20
760.669736
 30
0.0
 11
367.828316
 21
760.669736
 31
0.0
  0
LINE
  5
271
100
AcDbEntity
  8
SILK
100
AcDbLine
 10
364.928316
 20
762.669736
 30
0.0
 11
377.970957
 21
762.669736
 31
0.0
  0
LINE
  5
272
100
AcDbEntity
  8
0
100
AcDbLine
 10
389.449636
 20
756.669736
 30
0.0
 11
359.449636
 21
756.669736
 31
0.0
  0
LINE
  5
273
100
AcDbEntity
  8
0
100
AcDbLine
 10
357.449636
 20
756.669736
 30
0.0
 11
357.449636
 21
758.669736
 31
0.0
  0
LINE
  5
274
100
AcDbEntity
  8
0
100
AcDbLine
 10
357.449636
 20
758.669736
 30
0.0
 11
359.449636
 21
758.669736
 31
0.0
  0
LINE
  5
275
100
AcDbEntity
  8
0
100
AcDbLine
 10
359.449636
 20
758.669736
 30
0.0
 11
359.449636
 21
756.669736
 31
0.0
  0
LINE
  5
276
100
AcDbEntity
  8
SILK
100
AcDbLine
 10
364.928316
 20
762.669736
 30
0.0
 11
364.928316
 21
760.669736
 31
0.0
  0
LINE
  5
277
100
AcDbEntity
  8
SILK
100
AcDbLine
 10
364.928316
 20
760.669736
 30
0.0
 11
364.928316
 21
756.669736
 31
0.0
  0
LINE
  5
278
100
AcDbEntity
  8
SILK
100
AcDbLine
 10
367.828316
 20
760.669736
 30
0.0
 11
364.928316
 21
760.669736
 31
0.0
  0
LINE
  5
279
100
AcDbEntity
  8
SILK
100
AcDbLine
 10
367.828316
 20
760.669736
 30
0.0
 11
367.828316
 21
756.669736
 31
0.0
  0
LINE
  5
27A
100
AcDbEntity
  8
0
100
AcDbLine
 10
389.449636
 20
758.669736
 30
0.0
 11
391.449636
 21
758.669736
 31
0.0
  0
LINE
  5
27B
100
AcDbEntity
  8
0
100
AcDbLine
 10
389.449636
 20
756.669736
 30
0.0
 11
389.449636
 21
758.669736
 31
0.0
  0
LINE
  5
27C
100
AcDbEntity
  8
SILK
100
AcDbLine
 10
377.970957
 20
760.669736
 30
0.0
 11
375.070957
 21
760.669736
 31
0.0
  0
LINE
  5
27D
100
AcDbEntity
  8
SILK
100
AcDbLine
 10
377.970957
 20
756.669736
 30
0.0
 11
377.970957
 21
760.669736
 31
0.0
  0
LINE
  5
27E
100
AcDbEntity
  8
SILK
100
AcDbLine
 10
377.970957
 20
760.669736
 30
0.0
 11
377.970957
 21
762.669736
 31
0.0
  0
LINE
  5
27F
100
AcDbEntity
  8
SILK
100
AcDbLine
 10
375.070957
 20
756.669736
 30
0.0
 11
375.070957
 21
760.669736
 31
0.0
  0
CIRCLE
  5
280
100
AcDbEntity
  8
SILK
100
AcDbCircle
 10
383.449636
 20
761.669736
 30
0.0
 40
1.0
  0
CIRCLE
  5
281
100
AcDbEntity
  8
SILK
100
AcDbCircle
 10
383.449636
 20
761.669736
 30
0.0
 40
1.5
  0
LINE
  5
282
100
AcDbEntity
  8
0
100
AcDbLine
 10
391.449636
 20
758.669736
 30
0.0
 11
391.449636
 21
756.669736
 31
0.0
  0
LINE
  5
283
100
AcDbEntity
  8
0
100
AcDbLine
 10
442.449636
 20
758.669736
 30
0.0
 11
444.449636
 21
758.669736
 31
0.0
  0
LINE
  5
284
100
AcDbEntity
  8
0
100
AcDbLine
 10
430.449636
 20
775.669736
 30
0.0
 11
430.449636
 21
768.169736
 31
0.0
  0
LINE
  5
285
100
AcDbEntity
  8
0
100
AcDbLine
 10
424.449636
 20
768.169736
 30
0.0
 11
424.449636
 21
775.669736
 31
0.0
  0
LINE
  5
286
100
AcDbEntity
  8
0
100
AcDbLine
 10
424.449636
 20
770.169736
 30
0.0
 11
430.449636
 21
770.169736
 31
0.0
  0
LINE
  5
287
100
AcDbEntity
  8
0
100
AcDbLine
 10
442.449636
 20
756.669736
 30
0.0
 11
442.449636
 21
758.669736
 31
0.0
  0
ARC
  5
288
100
AcDbEntity
  8
0
100
AcDbCircle
 10
427.449636
 20
775.669736
 30
0.0
 40
3.0
100
AcDbArc
 50
90.0
 51
180.0
  0
ARC
  5
289
100
AcDbEntity
  8
0
100
AcDbCircle
 10
427.449636
 20
775.669736
 30
0.0
 40
3.0
100
AcDbArc
 50
0.0
 51
90.0
  0
LINE
  5
28A
100
AcDbEntity
  8
0
100
AcDbLine
 10
472.449636
 20
786.669736
 30
0.0
 11
472.449636
 21
756.669736
 31
0.0
  0
LINE
  5
28B
100
AcDbEntity
  8
0
100
AcDbLine
 10
474.449636
 20
756.669736
 30
0.0
 11
474.449636
 21
786.669736
 31
0.0
  0
LINE
  5
28C
100
AcDbEntity
  8
0
100
AcDbLine
 10
470.449636
 20
784.669736
 30
0.0
 11
470.449636
 21
768.169736
 31
0.0
  0
LINE
  5
28D
100
AcDbEntity
  8
0
100
AcDbLine
 10
472.449636
 20
756.669736
 30
0.0
 11
444.449636
 21
756.669736
 31
0.0
  0
CIRCLE
  5
28E
100
AcDbEntity
  8
SILK
100
AcDbCircle
 10
454.449636
 20
762.669736
 30
0.0
 40
1.3
  0
LINE
  5
28F
100
AcDbEntity
  8
0
100
AcDbLine
 10
444.449636
 20
758.669736
 30
0.0
 11
444.449636
 21
756.669736
 31
0.0
  0
LINE
  5
290
100
AcDbEntity
  8
0
100
AcDbLine
 10
472.449636
 20
756.669736
 30
0.0
 11
474.449636
 21
756.669736
 31
0.0
  0
LINE
  5
291
100
AcDbEntity
  8
0
100
AcDbLine
 10
474.449636
 20
786.669736
 30
0.0
 11
472.449636
 21
786.669736
 31
0.0
  0
ARC
  5
292
100
AcDbEntity
  8
0
100
AcDbCircle
 10
468.449636
 20
784.669736
 30
0.0
 40
2.0
100
AcDbArc
 50
0.0
 51
90.0
  0
LINE
  5
293
100
AcDbEntity
  8
0
100
AcDbLine
 10
581.822029
 20
706.05407
 30
0.0
 11
600.322029
 21
706.05407
 31
0.0
  0
LINE
  5
294
100
AcDbEntity
  8
0
100
AcDbLine
 10
570.322029
 20
680.65407
 30
0.0
 11
598.322029
 21
680.65407
 31
0.0
  0
LINE
  5
295
100
AcDbEntity
  8
0
100
AcDbLine
 10
574.322029
 20
683.05407
 30
0.0
 11
574.322029
 21
680.65407
 31
0.0
  0
LINE
  5
296
100
AcDbEntity
  8
0
100
AcDbLine
 10
570.322029
 20
683.05407
 30
0.0
 11
574.322029
 21
683.05407
 31
0.0
  0
LINE
  5
297
100
AcDbEntity
  8
0
100
AcDbLine
 10
581.822029
 20
680.65407
 30
0.0
 11
581.822029
 21
706.05407
 31
0.0
  0
INSERT
  5
298
100
AcDbEntity
  8
SCALE
100
AcDbBlockReference
  2
YAZ3
 10
596.643962
 20
647.765958
 30
0.0
 41
15.0
 42
15.0
 43
15.0
 50
221.933488
  0
LINE
  5
299
100
AcDbEntity
  8
0
100
AcDbLine
 10
591.822029
 20
643.55407
 30
0.0
 11
594.822029
 21
643.55407
 31
0.0
  0
LINE
  5
29A
100
AcDbEntity
  8
0
100
AcDbLine
 10
594.822029
 20
648.55407
 30
0.0
 11
591.822029
 21
648.55407
 31
0.0
  0
ARC
  5
29B
100
AcDbEntity
  8
0
100
AcDbCircle
 10
594.822029
 20
646.05407
 30
0.0
 40
2.5
100
AcDbArc
 50
270.0
 51
450.0
  0
ARC
  5
29C
100
AcDbEntity
  8
0
100
AcDbCircle
 10
591.822029
 20
646.05407
 30
0.0
 40
2.5
100
AcDbArc
 50
90.0
 51
270.0
  0
LINE
  5
29D
100
AcDbEntity
  8
CENTER
100
AcDbLine
 10
587.822029
 20
646.05407
 30
0.0
 11
598.822029
 21
646.05407
 31
0.0
  0
LINE
  5
29E
100
AcDbEntity
  8
CENTER
100
AcDbLine
 10
593.322029
 20
650.05407
 30
0.0
 11
593.322029
 21
642.05407
 31
0.0
  0
LINE
  5
29F
100
AcDbEntity
  8
0
100
AcDbLine
 10
584.322029
 20
704.05407
 30
0.0
 11
584.322029
 21
702.05407
 31
0.0
  0
LINE
  5
2A0
100
AcDbEntity
  8
0
100
AcDbLine
 10
595.522029
 20
708.05407
 30
0.0
 11
595.522029
 21
706.05407
 31
0.0
  0
LINE
  5
2A1
100
AcDbEntity
  8
0
100
AcDbLine
 10
588.122029
 20
708.05407
 30
0.0
 11
595.522029
 21
708.05407
 31
0.0
  0
LINE
  5
2A2
100
AcDbEntity
  8
0
100
AcDbLine
 10
588.122029
 20
706.05407
 30
0.0
 11
588.122029
 21
708.05407
 31
0.0
  0
LINE
  5
2A3
100
AcDbEntity
  8
0
100
AcDbLine
 10
600.322029
 20
706.05407
 30
0.0
 11
600.322029
 21
704.05407
 31
0.0
  0
LINE
  5
2A4
100
AcDbEntity
  8
0
100
AcDbLine
 10
583.822029
 20
704.05407
 30
0.0
 11
583.822029
 21
680.65407
 31
0.0
  0
LINE
  5
2A5
100
AcDbEntity
  8
0
100
AcDbLine
 10
589.822029
 20
708.05407
 30
0.0
 11
589.822029
 21
712.05407
 31
0.0
  0
LINE
  5
2A6
100
AcDbEntity
  8
0
100
AcDbLine
 10
589.822029
 20
712.05407
 30
0.0
 11
593.822029
 21
712.05407
 31
0.0
  0
LINE
  5
2A7
100
AcDbEntity
  8
0
100
AcDbLine
 10
593.822029
 20
712.05407
 30
0.0
 11
593.822029
 21
708.05407
 31
0.0
  0
LINE
  5
2A8
100
AcDbEntity
  8
0
100
AcDbLine
 10
596.022029
 20
702.05407
 30
0.0
 11
596.022029
 21
700.478829
 31
0.0
  0
LINE
  5
2A9
100
AcDbEntity
  8
0
100
AcDbLine
 10
587.622029
 20
700.478829
 30
0.0
 11
587.622029
 21
702.05407
 31
0.0
  0
ARC
  5
2AA
100
AcDbEntity
  8
0
100
AcDbCircle
 10
591.822029
 20
709.55407
 30
0.0
 40
10.0
100
AcDbArc
 50
245.165413
 51
270.0
  0
ARC
  5
2AB
100
AcDbEntity
  8
0
100
AcDbCircle
 10
591.822029
 20
709.55407
 30
0.0
 40
10.0
100
AcDbArc
 50
270.0
 51
294.834587
  0
ARC
  5
2AC
100
AcDbEntity
  8
0
100
AcDbCircle
 10
598.322029
 20
678.65407
 30
0.0
 40
2.0
100
AcDbArc
 50
0.0
 51
90.0
  0
ARC
  5
2AD
100
AcDbEntity
  8
0
100
AcDbCircle
 10
438.449636
 20
1209.723731
 30
0.0
 40
58.0
100
AcDbArc
 50
270.0
 51
360.0
  0
ARC
  5
2AE
100
AcDbEntity
  8
0
100
AcDbCircle
 10
438.449636
 20
1209.723731
 30
0.0
 40
75.0
100
AcDbArc
 50
270.0
 51
360.0
  0
LINE
  5
2AF
100
AcDbEntity
  8
0
100
AcDbLine
 10
440.780899
 20
1015.754627
 30
0.0
 11
435.263008
 21
1018.513573
 31
0.0
  0
ARC
  5
2B0
100
AcDbEntity
  8
0
100
AcDbCircle
 10
467.613715
 20
1069.420259
 30
0.0
 40
60.0
100
AcDbArc
 50
243.434949
 51
270.0
  0
ARC
  5
2B1
100
AcDbEntity
  8
0
100
AcDbCircle
 10
408.430192
 20
964.847942
 30
0.0
 40
60.0
100
AcDbArc
 50
63.434949
 51
88.361874
  0
ARC
  5
2B2
100
AcDbEntity
  8
0
  6
HIDDEN
100
AcDbCircle
 10
373.449636
 20
1281.723731
 30
0.0
 40
50.0
100
AcDbArc
 50
270.0
 51
360.0
  0
ARC
  5
2B3
100
AcDbEntity
  8
0
  6
HIDDEN
100
AcDbCircle
 10
373.449636
 20
1281.723731
 30
0.0
 40
80.0
100
AcDbArc
 50
270.0
 51
360.0
  0
CIRCLE
  5
2B4
100
AcDbEntity
  8
1
  6
HIDDEN
100
AcDbCircle
 10
437.449636
 20
1249.923731
 30
0.0
 40
13.3
  0
LINE
  5
2B5
100
AcDbEntity
  8
0
100
AcDbLine
 10
510.449636
 20
994.420259
 30
0.0
 11
513.449636
 21
994.420259
 31
0.0
  0
ARC
  5
2B6
100
AcDbEntity
  8
0
100
AcDbCircle
 10
498.449636
 20
994.420259
 30
0.0
 40
15.0
100
AcDbArc
 50
0.0
 51
90.0
  0
ARC
  5
2B7
100
AcDbEntity
  8
0
100
AcDbCircle
 10
498.449636
 20
994.420259
 30
0.0
 40
15.0
100
AcDbArc
 50
0.0
 51
90.0
  0
LINE
  5
2B8
100
AcDbEntity
  8
0
100
AcDbLine
 10
496.449636
 20
1009.420259
 30
0.0
 11
498.449636
 21
1009.420259
 31
0.0
  0
ARC
  5
2B9
100
AcDbEntity
  8
0
100
AcDbCircle
 10
650.81297
 20
1246.508732
 30
0.0
 40
60.0
100
AcDbArc
 50
181.208375
 51
206.565051
  0
ARC
  5
2BA
100
AcDbEntity
  8
0
100
AcDbCircle
 10
546.123431
 20
1187.559653
 30
0.0
 40
60.0
100
AcDbArc
 50
0.0
 51
26.565051
  0
LINE
  5
2BB
100
AcDbEntity
  8
0
100
AcDbLine
 10
597.147339
 20
1219.675916
 30
0.0
 11
599.789063
 21
1214.392469
 31
0.0
  0
ARC
  5
2BC
100
AcDbEntity
  8
0
100
AcDbCircle
 10
621.123431
 20
1149.723731
 30
0.0
 40
15.0
100
AcDbArc
 50
180.0
 51
270.0
  0
LINE
  5
2BD
100
AcDbEntity
  8
0
100
AcDbLine
 10
654.322029
 20
675.05407
 30
0.0
 11
652.322029
 21
675.05407
 31
0.0
  0
LINE
  5
2BE
100
AcDbEntity
  8
CENTER
100
AcDbLine
 10
647.322029
 20
689.05407
 30
0.0
 11
659.322029
 21
689.05407
 31
0.0
  0
LINE
  5
2BF
100
AcDbEntity
  8
0
100
AcDbLine
 10
652.322029
 20
675.05407
 30
0.0
 11
652.322029
 21
702.05407
 31
0.0
  0
LINE
  5
2C0
100
AcDbEntity
  8
0
100
AcDbLine
 10
654.322029
 20
704.05407
 30
0.0
 11
654.322029
 21
675.05407
 31
0.0
  0
ARC
  5
2C1
100
AcDbEntity
  8
0
100
AcDbCircle
 10
888.755055
 20
1209.723731
 30
0.0
 40
75.0
100
AcDbArc
 50
180.0
 51
270.0
  0
ARC
  5
2C2
100
AcDbEntity
  8
0
100
AcDbCircle
 10
888.755055
 20
1209.723731
 30
0.0
 40
72.0
100
AcDbArc
 50
180.0
 51
270.0
  0
LINE
  5
2C3
100
AcDbEntity
  8
1
100
AcDbLine
 10
868.200843
 20
1183.223731
 30
0.0
 11
877.309267
 21
1183.223731
 31
0.0
  0
LINE
  5
2C4
100
AcDbEntity
  8
1
100
AcDbLine
 10
877.309267
 20
1178.223731
 30
0.0
 11
868.200843
 21
1178.223731
 31
0.0
  0
LINE
  5
2C5
100
AcDbEntity
  8
1
100
AcDbLine
 10
878.055055
 20
1185.923731
 30
0.0
 11
867.455055
 21
1185.923731
 31
0.0
  0
LINE
  5
2C6
100
AcDbEntity
  8
1
100
AcDbLine
 10
867.455055
 20
1175.523731
 30
0.0
 11
878.055055
 21
1175.523731
 31
0.0
  0
ARC
  5
2C7
100
AcDbEntity
  8
0
100
AcDbCircle
 10
856.755055
 20
1177.723731
 30
0.0
 40
25.0
100
AcDbArc
 50
180.0
 51
270.0
  0
LINE
  5
2C8
100
AcDbEntity
  8
1
100
AcDbLine
 10
867.455055
 20
1185.923731
 30
0.0
 11
867.455055
 21
1175.523731
 31
0.0
  0
CIRCLE
  5
2C9
100
AcDbEntity
  8
1
100
AcDbCircle
 10
863.755055
 20
1180.723731
 30
0.0
 40
1.2
  0
CIRCLE
  5
2CA
100
AcDbEntity
  8
1
100
AcDbCircle
 10
899.755055
 20
1180.723731
 30
0.0
 40
6.0
  0
LINE
  5
2CB
100
AcDbEntity
  8
1
100
AcDbLine
 10
874.505055
 20
1183.223731
 30
0.0
 11
874.505055
 21
1178.223731
 31
0.0
  0
LINE
  5
2CC
100
AcDbEntity
  8
1
100
AcDbLine
 10
871.005055
 20
1178.223731
 30
0.0
 11
871.005055
 21
1183.223731
 31
0.0
  0
LINE
  5
2CD
100
AcDbEntity
  8
1
100
AcDbLine
 10
878.055055
 20
1175.523731
 30
0.0
 11
878.055055
 21
1185.923731
 31
0.0
  0
CIRCLE
  5
2CE
100
AcDbEntity
  8
1
100
AcDbCircle
 10
881.755055
 20
1180.723731
 30
0.0
 40
1.2
  0
LINE
  5
2D7
100
AcDbEntity
  8
0
  6
HIDDEN
100
AcDbLine
 10
373.449636
 20
1581.723731
 30
0.0
 11
223.449636
 21
1581.723731
 31
0.0
  0
LINE
  5
2D8
100
AcDbEntity
  8
0
  6
HIDDEN
100
AcDbLine
 10
373.449636
 20
1611.723731
 30
0.0
 11
223.449636
 21
1611.723731
 31
0.0
  0
LINE
  5
2D9
100
AcDbEntity
  8
0
100
AcDbLine
 10
438.449636
 20
1678.723731
 30
0.0
 11
158.449636
 21
1678.723731
 31
0.0
  0
LINE
  5
2DA
100
AcDbEntity
  8
0
100
AcDbLine
 10
438.449636
 20
1661.723731
 30
0.0
 11
158.449636
 21
1661.723731
 31
0.0
  0
ARC
  5
2DD
100
AcDbEntity
  8
0
  6
HIDDEN
100
AcDbCircle
 10
223.449636
 20
1531.723731
 30
0.0
 40
50.0
100
AcDbArc
 50
90.0
 51
180.0
  0
ARC
  5
2DE
100
AcDbEntity
  8
0
  6
HIDDEN
100
AcDbCircle
 10
223.449636
 20
1531.723731
 30
0.0
 40
80.0
100
AcDbArc
 50
90.0
 51
180.0
  0
CIRCLE
  5
2DF
100
AcDbEntity
  8
1
  6
HIDDEN
100
AcDbCircle
 10
159.449636
 20
1563.523731
 30
0.0
 40
13.3
  0
ARC
  5
2E0
100
AcDbEntity
  8
0
100
AcDbCircle
 10
158.449636
 20
1603.723731
 30
0.0
 40
75.0
100
AcDbArc
 50
90.0
 51
180.0
  0
ARC
  5
2E1
100
AcDbEntity
  8
0
100
AcDbCircle
 10
158.449636
 20
1603.723731
 30
0.0
 40
58.0
100
AcDbArc
 50
90.0
 51
180.0
  0
LINE
  5
2FF
100
AcDbEntity
  8
0
100
AcDbLine
 10
621.123431
 20
1626.723731
 30
0.0
 11
724.123431
 21
1626.723731
 31
0.0
  0
ARC
  5
300
100
AcDbEntity
  8
0
100
AcDbCircle
 10
438.449636
 20
1603.723731
 30
0.0
 40
58.0
100
AcDbArc
 50
0.0
 51
90.0
  0
ARC
  5
301
100
AcDbEntity
  8
0
100
AcDbCircle
 10
438.449636
 20
1603.723731
 30
0.0
 40
75.0
100
AcDbArc
 50
0.0
 51
90.0
  0
CIRCLE
  5
302
100
AcDbEntity
  8
1
  6
HIDDEN
100
AcDbCircle
 10
437.449636
 20
1563.523731
 30
0.0
 40
13.3
  0
ARC
  5
303
100
AcDbEntity
  8
0
  6
HIDDEN
100
AcDbCircle
 10
373.449636
 20
1531.723731
 30
0.0
 40
80.0
100
AcDbArc
 50
0.0
 51
90.0
  0
ARC
  5
304
100
AcDbEntity
  8
0
  6
HIDDEN
100
AcDbCircle
 10
373.449636
 20
1531.723731
 30
0.0
 40
50.0
100
AcDbArc
 50
0.0
 51
90.0
  0
CIRCLE
  5
305
100
AcDbEntity
  8
PEN1
100
AcDbCircle
 10
370.85367
 20
1528.651879
 30
0.0
 40
3.0
  0
CIRCLE
  5
306
100
AcDbEntity
  8
PEN1
100
AcDbCircle
 10
370.85367
 20
1536.651879
 30
0.0
 40
3.0
  0
CIRCLE
  5
307
100
AcDbEntity
  8
PEN1
100
AcDbCircle
 10
370.85367
 20
1520.651879
 30
0.0
 40
3.0
  0
CIRCLE
  5
308
100
AcDbEntity
  8
PEN1
100
AcDbCircle
 10
370.85367
 20
1512.651879
 30
0.0
 40
3.0
  0
CIRCLE
  5
309
100
AcDbEntity
  8
PEN1
100
AcDbCircle
 10
370.85367
 20
1496.651879
 30
0.0
 40
3.0
  0
CIRCLE
  5
30A
100
AcDbEntity
  8
PEN1
100
AcDbCircle
 10
370.85367
 20
1504.651879
 30
0.0
 40
3.0
  0
CIRCLE
  5
30B
100
AcDbEntity
  8
PEN1
100
AcDbCircle
 10
363.925467
 20
1500.651879
 30
0.0
 40
3.0
  0
CIRCLE
  5
30C
100
AcDbEntity
  8
PEN1
100
AcDbCircle
 10
363.925467
 20
1492.651879
 30
0.0
 40
3.0
  0
CIRCLE
  5
30D
100
AcDbEntity
  8
PEN1
100
AcDbCircle
 10
363.925467
 20
1532.651879
 30
0.0
 40
3.0
  0
CIRCLE
  5
30E
100
AcDbEntity
  8
PEN1
100
AcDbCircle
 10
363.925467
 20
1508.651879
 30
0.0
 40
3.0
  0
CIRCLE
  5
30F
100
AcDbEntity
  8
PEN1
100
AcDbCircle
 10
363.925467
 20
1516.651879
 30
0.0
 40
3.0
  0
CIRCLE
  5
310
100
AcDbEntity
  8
PEN1
100
AcDbCircle
 10
363.925467
 20
1524.651879
 30
0.0
 40
3.0
  0
CIRCLE
  5
311
100
AcDbEntity
  8
PEN1
100
AcDbCircle
 10
377.781873
 20
1500.651879
 30
0.0
 40
3.0
  0
CIRCLE
  5
312
100
AcDbEntity
  8
PEN1
100
AcDbCircle
 10
384.710076
 20
1504.651879
 30
0.0
 40
3.0
  0
CIRCLE
  5
313
100
AcDbEntity
  8
PEN1
100
AcDbCircle
 10
384.710076
 20
1544.651879
 30
0.0
 40
3.0
  0
CIRCLE
  5
314
100
AcDbEntity
  8
PEN1
100
AcDbCircle
 10
377.781873
 20
1532.651879
 30
0.0
 40
3.0
  0
CIRCLE
  5
315
100
AcDbEntity
  8
PEN1
100
AcDbCircle
 10
377.781873
 20
1540.651879
 30
0.0
 40
3.0
  0
CIRCLE
  5
316
100
AcDbEntity
  8
PEN1
100
AcDbCircle
 10
384.710076
 20
1528.651879
 30
0.0
 40
3.0
  0
CIRCLE
  5
317
100
AcDbEntity
  8
PEN1
100
AcDbCircle
 10
384.710076
 20
1536.651879
 30
0.0
 40
3.0
  0
CIRCLE
  5
318
100
AcDbEntity
  8
PEN1
100
AcDbCircle
 10
384.710076
 20
1520.651879
 30
0.0
 40
3.0
  0
CIRCLE
  5
319
100
AcDbEntity
  8
PEN1
100
AcDbCircle
 10
377.781873
 20
1508.651879
 30
0.0
 40
3.0
  0
CIRCLE
  5
31A
100
AcDbEntity
  8
PEN1
100
AcDbCircle
 10
384.710076
 20
1512.651879
 30
0.0
 40
3.0
  0
CIRCLE
  5
31B
100
AcDbEntity
  8
PEN1
100
AcDbCircle
 10
377.781873
 20
1516.651879
 30
0.0
 40
3.0
  0
CIRCLE
  5
31C
100
AcDbEntity
  8
PEN1
100
AcDbCircle
 10
377.781873
 20
1524.651879
 30
0.0
 40
3.0
  0
ARC
  5
31D
100
AcDbEntity
  8
0
100
AcDbCircle
 10
621.123431
 20
1663.723731
 30
0.0
 40
15.0
100
AcDbArc
 50
90.0
 51
180.0
  0
ARC
  5
31E
100
AcDbEntity
  8
0
100
AcDbCircle
 10
546.123431
 20
1625.88781
 30
0.0
 40
60.0
100
AcDbArc
 50
333.434949
 51
360.0
  0
LINE
  5
31F
100
AcDbEntity
  8
0
100
AcDbLine
 10
599.789063
 20
1599.054994
 30
0.0
 11
597.147339
 21
1593.771547
 31
0.0
  0
ARC
  5
320
100
AcDbEntity
  8
0
100
AcDbCircle
 10
650.81297
 20
1566.938731
 30
0.0
 40
60.0
100
AcDbArc
 50
153.434949
 51
178.791625
  0
LINE
  5
321
100
AcDbEntity
  8
1
100
AcDbLine
 10
868.200843
 20
1635.223731
 30
0.0
 11
877.309267
 21
1635.223731
 31
0.0
  0
LINE
  5
322
100
AcDbEntity
  8
1
100
AcDbLine
 10
877.309267
 20
1630.223731
 30
0.0
 11
868.200843
 21
1630.223731
 31
0.0
  0
LINE
  5
323
100
AcDbEntity
  8
1
100
AcDbLine
 10
867.455055
 20
1627.523731
 30
0.0
 11
878.055055
 21
1627.523731
 31
0.0
  0
LINE
  5
324
100
AcDbEntity
  8
1
100
AcDbLine
 10
878.055055
 20
1637.923731
 30
0.0
 11
867.455055
 21
1637.923731
 31
0.0
  0
ARC
  5
325
100
AcDbEntity
  8
0
100
AcDbCircle
 10
888.755055
 20
1603.723731
 30
0.0
 40
75.0
100
AcDbArc
 50
90.0
 51
180.0
  0
ARC
  5
326
100
AcDbEntity
  8
0
100
AcDbCircle
 10
888.755055
 20
1603.723731
 30
0.0
 40
72.0
100
AcDbArc
 50
90.0
 51
180.0
  0
ARC
  5
327
100
AcDbEntity
  8
0
100
AcDbCircle
 10
856.755055
 20
1635.723731
 30
0.0
 40
25.0
100
AcDbArc
 50
90.0
 51
180.0
  0
CIRCLE
  5
328
100
AcDbEntity
  8
1
100
AcDbCircle
 10
863.755055
 20
1632.723731
 30
0.0
 40
1.2
  0
LINE
  5
329
100
AcDbEntity
  8
1
100
AcDbLine
 10
867.455055
 20
1637.923731
 30
0.0
 11
867.455055
 21
1627.523731
 31
0.0
  0
CIRCLE
  5
32A
100
AcDbEntity
  8
1
100
AcDbCircle
 10
899.755055
 20
1632.723731
 30
0.0
 40
6.0
  0
CIRCLE
  5
32B
100
AcDbEntity
  8
1
100
AcDbCircle
 10
881.755055
 20
1632.723731
 30
0.0
 40
1.2
  0
LINE
  5
32C
100
AcDbEntity
  8
1
100
AcDbLine
 10
878.055055
 20
1627.523731
 30
0.0
 11
878.055055
 21
1637.923731
 31
0.0
  0
LINE
  5
32D
100
AcDbEntity
  8
1
100
AcDbLine
 10
874.505055
 20
1635.223731
 30
0.0
 11
874.505055
 21
1630.223731
 31
0.0
  0
LINE
  5
32E
100
AcDbEntity
  8
1
100
AcDbLine
 10
871.005055
 20
1630.223731
 30
0.0
 11
871.005055
 21
1635.223731
 31
0.0
  0
CIRCLE
  5
331
100
AcDbEntity
  8
0
100
AcDbCircle
 10
1028.755055
 20
1406.723731
 30
0.0
 40
80.0
  0
LINE
  5
332
100
AcDbEntity
  8
0
100
AcDbLine
 10
1240.755055
 20
1209.723731
 30
0.0
 11
1240.755055
 21
1603.723731
 31
0.0
  0
LINE
  5
333
100
AcDbEntity
  8
0
100
AcDbLine
 10
1243.755055
 20
1209.723731
 30
0.0
 11
1243.755055
 21
1603.723731
 31
0.0
  0
LINE
  5
334
100
AcDbEntity
  8
0
100
AcDbLine
 10
1198.755055
 20
1186.723731
 30
0.0
 11
1198.755055
 21
1625.523731
 31
0.0
  0
LINE
  5
335
100
AcDbEntity
  8
0
100
AcDbLine
 10
1225.755055
 20
1635.723731
 30
0.0
 11
1225.755055
 21
1177.723731
 31
0.0
  0
LINE
  5
336
100
AcDbEntity
  8
0
100
AcDbLine
 10
1225.755055
 20
1635.723731
 30
0.0
 11
1225.755055
 21
1177.723731
 31
0.0
  0
DIMENSION
  5
337
100
AcDbEntity
  8
SCALE
100
AcDbDimension
  2
*D20
 10
1602.2008
 20
739.531451
 30
0.0
 11
1480.2808
 21
761.531451
 31
0.0
 12
0.0
 22
-13.169911
 32
0.0
  1
406.4
  3
STANDARD
100
AcDbAlignedDimension
 13
1358.3608
 23
707.155264
 33
0.0
 14
1602.2008
 24
707.155264
 34
0.0
100
AcDbRotatedDimension
1001
ACAD
1000
DSTYLE
1002
{
1070
   140
1040
2.2
1070
   340
1005
E
1070
   145
1040
1.0
1070
    74
1070
     0
1070
   172
1070
     1
1070
    73
1070
     0
1070
   272
1070
     4
1070
    40
1040
10.0
1070
   287
1070
     3
1070
    42
1040
2.0
1070
    44
1040
1.5
1070
    43
1040
10.0
1070
   271
1070
     4
1070
     5
1000
YAZ3
1070
    41
1040
1.5
1002
}
  0
LINE
  5
344
100
AcDbEntity
  8
SILK
100
AcDbLine
 10
1443.006728
 20
560.135175
 30
0.0
 11
1463.006728
 21
580.135175
 31
0.0
  0
ARC
  5
345
100
AcDbEntity
  8
1
100
AcDbCircle
 10
1541.673201
 20
5845.510983
 30
0.0
 40
4594.35
100
AcDbArc
 50
268.791625
 51
271.208375
  0
ARC
  5
346
100
AcDbEntity
  8
1
100
AcDbCircle
 10
1541.673201
 20
5845.510983
 30
0.0
 40
4593.99
100
AcDbArc
 50
268.791625
 51
271.208375
  0
LINE
  5
347
100
AcDbEntity
  8
1
100
AcDbLine
 10
1451.073201
 20
1254.160983
 30
0.0
 11
1632.273201
 21
1254.160983
 31
0.0
  0
ARC
  5
348
100
AcDbEntity
  8
1
100
AcDbCircle
 10
1541.673201
 20
5541.205026
 30
0.0
 40
4594.35
100
AcDbArc
 50
268.791625
 51
271.208375
  0
ARC
  5
349
100
AcDbEntity
  8
1
100
AcDbCircle
 10
1541.673201
 20
5541.205026
 30
0.0
 40
4593.99
100
AcDbArc
 50
268.791625
 51
271.208375
  0
LINE
  5
34A
100
AcDbEntity
  8
1
100
AcDbLine
 10
1451.073201
 20
988.675026
 30
0.0
 11
1632.273201
 21
988.675026
 31
0.0
  0
LINE
  5
34B
100
AcDbEntity
  8
1
100
AcDbLine
 10
1673.673201
 20
1332.160983
 30
0.0
 11
1409.673201
 21
1332.160983
 31
0.0
  0
LINE
  5
34C
100
AcDbEntity
  8
1
  6
HIDDEN
100
AcDbLine
 10
1402.113201
 20
1290.985983
 30
0.0
 11
1681.233201
 21
1290.985983
 31
0.0
  0
LINE
  5
34D
100
AcDbEntity
  8
1
  6
HIDDEN
100
AcDbLine
 10
1683.873201
 20
1272.985983
 30
0.0
 11
1399.473201
 21
1272.985983
 31
0.0
  0
LINE
  5
34E
100
AcDbEntity
  8
1
  6
HIDDEN
100
AcDbLine
 10
1380.273201
 20
1270.360983
 30
0.0
 11
1703.073201
 21
1270.360983
 31
0.0
  0
LINE
  5
34F
100
AcDbEntity
  8
1
  6
HIDDEN
100
AcDbLine
 10
1380.273201
 20
966.055026
 30
0.0
 11
1703.073201
 21
966.055026
 31
0.0
  0
LINE
  5
350
100
AcDbEntity
  8
1
  6
HIDDEN
100
AcDbLine
 10
1683.873201
 20
968.680026
 30
0.0
 11
1399.473201
 21
968.680026
 31
0.0
  0
LINE
  5
351
100
AcDbEntity
  8
1
  6
HIDDEN
100
AcDbLine
 10
1402.113201
 20
986.680026
 30
0.0
 11
1681.233201
 21
986.680026
 31
0.0
  0
LINE
  5
352
100
AcDbEntity
  8
1
100
AcDbLine
 10
1673.673201
 20
1066.675026
 30
0.0
 11
1409.673201
 21
1066.675026
 31
0.0
  0
LINE
  5
353
100
AcDbEntity
  8
1
  6
HIDDEN
100
AcDbLine
 10
1378.2808
 20
650.390264
 30
0.0
 11
1582.2808
 21
650.390264
 31
0.0
  0
LINE
  5
354
100
AcDbEntity
  8
1
  6
HIDDEN
100
AcDbLine
 10
1585.8808
 20
639.290264
 30
0.0
 11
1374.6808
 21
639.290264
 31
0.0
  0
LINE
  5
355
100
AcDbEntity
  8
1
  6
HIDDEN
100
AcDbLine
 10
1584.6808
 20
632.390264
 30
0.0
 11
1375.8808
 21
632.390264
 31
0.0
  0
LINE
  5
356
100
AcDbEntity
  8
SILK
100
AcDbLine
 10
1459.97729
 20
560.135175
 30
0.0
 11
1479.97729
 21
580.135175
 31
0.0
  0
LINE
  5
357
100
AcDbEntity
  8
1
100
AcDbLine
 10
1582.2808
 20
691.565264
 30
0.0
 11
1378.2808
 21
691.565264
 31
0.0
  0
LINE
  5
358
100
AcDbEntity
  8
1
100
AcDbLine
 10
1564.2808
 20
549.935175
 30
0.0
 11
1396.2808
 21
549.935175
 31
0.0
  0
LINE
  5
359
100
AcDbEntity
  8
1
100
AcDbLine
 10
1564.2808
 20
560.135175
 30
0.0
 11
1396.2808
 21
560.135175
 31
0.0
  0
LINE
  5
35A
100
AcDbEntity
  8
1
100
AcDbLine
 10
1414.2808
 20
613.565264
 30
0.0
 11
1546.2808
 21
613.565264
 31
0.0
  0
ARC
  5
35B
100
AcDbEntity
  8
1
100
AcDbCircle
 10
1480.2808
 20
2954.915264
 30
0.0
 40
2344.35
100
AcDbArc
 50
268.361874
 51
271.638126
  0
ARC
  5
35C
100
AcDbEntity
  8
1
100
AcDbCircle
 10
1480.2808
 20
2954.915264
 30
0.0
 40
2343.99
100
AcDbArc
 50
268.361874
 51
271.638126
  0
LINE
  5
35D
100
AcDbEntity
  8
SILK
100
AcDbLine
 10
1452.988545
 20
213.735175
 30
0.0
 11
1472.988545
 21
233.735175
 31
0.0
  0
LINE
  5
35E
100
AcDbEntity
  8
1
100
AcDbLine
 10
1396.2808
 20
233.735175
 30
0.0
 11
1564.2808
 21
233.735175
 31
0.0
  0
LINE
  5
35F
100
AcDbEntity
  8
1
100
AcDbLine
 10
1396.2808
 20
243.935175
 30
0.0
 11
1564.2808
 21
243.935175
 31
0.0
  0
LINE
  5
360
100
AcDbEntity
  8
SILK
100
AcDbLine
 10
1647.2808
 20
692.630264
 30
0.0
 11
1313.2808
 21
692.630264
 31
0.0
  0
LINE
  5
361
100
AcDbEntity
  8
SILK
100
AcDbLine
 10
1313.2808
 20
702.155264
 30
0.0
 11
1647.2808
 21
702.155264
 31
0.0
  0
DIMENSION
  5
363
100
AcDbEntity
  8
SCALE
100
AcDbDimension
  2
*D17
 10
1201.846522
 20
206.05407
 30
0.0
 11
1177.846522
 21
446.05407
 31
0.0
 12
-13.379645
 22
-8.316236
 32
0.0
  1
480
  3
STANDARD
100
AcDbAlignedDimension
 13
1154.842385
 23
686.05407
 33
0.0
 14
1154.842385
 24
206.05407
 34
0.0
 50
90.0
100
AcDbRotatedDimension
1001
ACAD
1000
DSTYLE
1002
{
1070
   140
1040
2.2
1070
   340
1005
E
1070
   145
1040
1.0
1070
    74
1070
     0
1070
   172
1070
     1
1070
    73
1070
     0
1070
   272
1070
     4
1070
    40
1040
10.0
1070
   287
1070
     3
1070
    42
1040
2.0
1070
    44
1040
1.5
1070
    43
1040
10.0
1070
   271
1070
     4
1070
     5
1000
YAZ3
1070
    41
1040
1.5
1002
}
  0
LINE
  5
370
100
AcDbEntity
  8
SILK
100
AcDbLine
 10
1313.2808
 20
481.320936
 30
0.0
 11
1351.498386
 21
519.538522
 31
0.0
  0
LINE
  5
371
100
AcDbEntity
  8
SILK
100
AcDbLine
 10
1313.2808
 20
498.291498
 30
0.0
 11
1395.124477
 21
580.135175
 31
0.0
  0
LINE
  5
372
100
AcDbEntity
  8
SILK
100
AcDbLine
 10
1313.2808
 20
515.262061
 30
0.0
 11
1378.153914
 21
580.135175
 31
0.0
  0
ARC
  5
373
100
AcDbEntity
  8
1
100
AcDbCircle
 10
1396.2808
 20
515.135175
 30
0.0
 40
45.0
100
AcDbArc
 50
90.0
 51
180.0
  0
ARC
  5
374
100
AcDbEntity
  8
1
100
AcDbCircle
 10
1396.2808
 20
515.135175
 30
0.0
 40
34.8
100
AcDbArc
 50
90.0
 51
180.0
  0
LINE
  5
375
100
AcDbEntity
  8
1
  6
PHANTOM
100
AcDbLine
 10
1154.842385
 20
206.05407
 30
0.0
 11
1154.842385
 21
686.05407
 31
0.0
  0
LINE
  5
376
100
AcDbEntity
  8
SILK
100
AcDbLine
 10
1313.2808
 20
464.350373
 30
0.0
 11
1351.2808
 21
502.350373
 31
0.0
  0
LINE
  5
377
100
AcDbEntity
  8
SILK
100
AcDbLine
 10
1313.2808
 20
396.468122
 30
0.0
 11
1351.2808
 21
434.468122
 31
0.0
  0
LINE
  5
378
100
AcDbEntity
  8
SILK
100
AcDbLine
 10
1313.2808
 20
413.438685
 30
0.0
 11
1351.2808
 21
451.438685
 31
0.0
  0
LINE
  5
379
100
AcDbEntity
  8
SILK
100
AcDbLine
 10
1313.2808
 20
226.762494
 30
0.0
 11
1352.986197
 21
266.467892
 31
0.0
  0
LINE
  5
37A
100
AcDbEntity
  8
SILK
100
AcDbLine
 10
1313.2808
 20
243.733057
 30
0.0
 11
1351.2808
 21
281.733057
 31
0.0
  0
LINE
  5
37B
100
AcDbEntity
  8
SILK
100
AcDbLine
 10
1313.2808
 20
260.70362
 30
0.0
 11
1351.2808
 21
298.70362
 31
0.0
  0
LINE
  5
37C
100
AcDbEntity
  8
SILK
100
AcDbLine
 10
1313.2808
 20
277.674183
 30
0.0
 11
1351.2808
 21
315.674183
 31
0.0
  0
LINE
  5
37D
100
AcDbEntity
  8
SILK
100
AcDbLine
 10
1313.2808
 20
294.644745
 30
0.0
 11
1351.2808
 21
332.644745
 31
0.0
  0
LINE
  5
37E
100
AcDbEntity
  8
SILK
100
AcDbLine
 10
1313.2808
 20
311.615308
 30
0.0
 11
1351.2808
 21
349.615308
 31
0.0
  0
LINE
  5
37F
100
AcDbEntity
  8
SILK
100
AcDbLine
 10
1313.2808
 20
328.585871
 30
0.0
 11
1351.2808
 21
366.585871
 31
0.0
  0
LINE
  5
380
100
AcDbEntity
  8
SILK
100
AcDbLine
 10
1313.2808
 20
345.556434
 30
0.0
 11
1351.2808
 21
383.556434
 31
0.0
  0
LINE
  5
381
100
AcDbEntity
  8
SILK
100
AcDbLine
 10
1313.2808
 20
362.526996
 30
0.0
 11
1351.2808
 21
400.526996
 31
0.0
  0
LINE
  5
382
100
AcDbEntity
  8
SILK
100
AcDbLine
 10
1313.2808
 20
379.497559
 30
0.0
 11
1351.2808
 21
417.497559
 31
0.0
  0
LINE
  5
383
100
AcDbEntity
  8
SILK
100
AcDbLine
 10
1317.224043
 20
213.735175
 30
0.0
 11
1358.219442
 21
254.730574
 31
0.0
  0
LINE
  5
384
100
AcDbEntity
  8
SILK
100
AcDbLine
 10
1313.2808
 20
430.409247
 30
0.0
 11
1351.2808
 21
468.409247
 31
0.0
  0
LINE
  5
385
100
AcDbEntity
  8
SILK
100
AcDbLine
 10
1313.2808
 20
447.37981
 30
0.0
 11
1351.2808
 21
485.37981
 31
0.0
  0
LINE
  5
386
100
AcDbEntity
  8
1
100
AcDbLine
 10
1361.4808
 20
515.135175
 30
0.0
 11
1361.4808
 21
278.735175
 31
0.0
  0
LINE
  5
387
100
AcDbEntity
  8
1
100
AcDbLine
 10
1351.2808
 20
515.135175
 30
0.0
 11
1351.2808
 21
278.735175
 31
0.0
  0
LINE
  5
388
100
AcDbEntity
  8
SILK
100
AcDbLine
 10
1385.106294
 20
213.735175
 30
0.0
 11
1405.106294
 21
233.735175
 31
0.0
  0
ARC
  5
389
100
AcDbEntity
  8
1
100
AcDbCircle
 10
1396.2808
 20
278.735175
 30
0.0
 40
45.0
100
AcDbArc
 50
180.0
 51
270.0
  0
ARC
  5
38A
100
AcDbEntity
  8
1
100
AcDbCircle
 10
1396.2808
 20
278.735175
 30
0.0
 40
34.8
100
AcDbArc
 50
180.0
 51
270.0
  0
LINE
  5
38B
100
AcDbEntity
  8
SILK
100
AcDbLine
 10
1351.165169
 20
213.735175
 30
0.0
 11
1375.997131
 21
238.567137
 31
0.0
  0
LINE
  5
38C
100
AcDbEntity
  8
SILK
100
AcDbLine
 10
1334.194606
 20
213.735175
 30
0.0
 11
1365.952406
 21
245.492975
 31
0.0
  0
LINE
  5
38D
100
AcDbEntity
  8
SILK
100
AcDbLine
 10
1368.135732
 20
213.735175
 30
0.0
 11
1388.768815
 21
234.368258
 31
0.0
  0
LINE
  5
38E
100
AcDbEntity
  8
SILK
100
AcDbLine
 10
1419.04742
 20
213.735175
 30
0.0
 11
1439.04742
 21
233.735175
 31
0.0
  0
LINE
  5
38F
100
AcDbEntity
  8
SILK
100
AcDbLine
 10
1402.076857
 20
213.735175
 30
0.0
 11
1422.076857
 21
233.735175
 31
0.0
  0
LINE
  5
390
100
AcDbEntity
  8
SILK
100
AcDbLine
 10
1436.017983
 20
213.735175
 30
0.0
 11
1456.017983
 21
233.735175
 31
0.0
  0
ARC
  5
391
100
AcDbEntity
  8
0
100
AcDbCircle
 10
1200.755055
 20
1177.723731
 30
0.0
 40
25.0
100
AcDbArc
 50
270.0
 51
360.0
  0
ARC
  5
392
100
AcDbEntity
  8
0
100
AcDbCircle
 10
1168.755055
 20
1209.723731
 30
0.0
 40
75.0
100
AcDbArc
 50
270.0
 51
360.0
  0
ARC
  5
393
100
AcDbEntity
  8
0
100
AcDbCircle
 10
1168.755055
 20
1209.723731
 30
0.0
 40
72.0
100
AcDbArc
 50
270.0
 51
360.0
  0
TEXT
  5
394
100
AcDbEntity
  8
1
100
AcDbText
 10
956.374103
 20
1045.827535
 30
0.0
 40
25.0
  1
Rear View
 41
0.8
  7
UT7
 72
     1
 11
1028.755055
 21
1045.827535
 31
0.0
100
AcDbText
  0
LINE
  5
395
100
AcDbEntity
  8
1
100
AcDbLine
 10
1100.755055
 20
1035.827535
 30
0.0
 11
956.755055
 21
1035.827535
 31
0.0
  0
ARC
  5
396
100
AcDbEntity
  8
0
100
AcDbCircle
 10
941.255055
 20
1178.923731
 30
0.0
 40
2.0
100
AcDbArc
 50
90.0
 51
180.0
  0
ARC
  5
397
100
AcDbEntity
  8
0
100
AcDbCircle
 10
946.255055
 20
1178.923731
 30
0.0
 40
2.0
100
AcDbArc
 50
0.0
 51
90.0
  0
LINE
  5
398
100
AcDbEntity
  8
0
100
AcDbLine
 10
939.255055
 20
1152.723731
 30
0.0
 11
939.255055
 21
1178.923731
 31
0.0
  0
LINE
  5
399
100
AcDbEntity
  8
0
100
AcDbLine
 10
948.255055
 20
1152.723731
 30
0.0
 11
948.255055
 21
1178.923731
 31
0.0
  0
LINE
  5
39A
100
AcDbEntity
  8
0
100
AcDbLine
 10
941.255055
 20
1180.923731
 30
0.0
 11
946.255055
 21
1180.923731
 31
0.0
  0
CIRCLE
  5
39B
100
AcDbEntity
  8
1
100
AcDbCircle
 10
1028.755055
 20
1180.723731
 30
0.0
 40
2.5
  0
LINE
  5
39C
100
AcDbEntity
  8
0
100
AcDbLine
 10
1111.255055
 20
1180.923731
 30
0.0
 11
1116.255055
 21
1180.923731
 31
0.0
  0
ARC
  5
39D
100
AcDbEntity
  8
0
100
AcDbCircle
 10
1111.255055
 20
1178.923731
 30
0.0
 40
2.0
100
AcDbArc
 50
90.0
 51
180.0
  0
LINE
  5
39E
100
AcDbEntity
  8
0
100
AcDbLine
 10
1109.255055
 20
1178.923731
 30
0.0
 11
1109.255055
 21
1152.723731
 31
0.0
  0
ARC
  5
39F
100
AcDbEntity
  8
0
100
AcDbCircle
 10
1116.255055
 20
1178.923731
 30
0.0
 40
2.0
100
AcDbArc
 50
0.0
 51
90.0
  0
LINE
  5
3A0
100
AcDbEntity
  8
0
100
AcDbLine
 10
1118.255055
 20
1178.923731
 30
0.0
 11
1118.255055
 21
1152.723731
 31
0.0
  0
LINE
  5
3A1
100
AcDbEntity
  8
1
100
AcDbLine
 10
1180.200843
 20
1183.223731
 30
0.0
 11
1189.309267
 21
1183.223731
 31
0.0
  0
LINE
  5
3A2
100
AcDbEntity
  8
1
100
AcDbLine
 10
1189.309267
 20
1178.223731
 30
0.0
 11
1180.200843
 21
1178.223731
 31
0.0
  0
LINE
  5
3A3
100
AcDbEntity
  8
1
100
AcDbLine
 10
1190.055055
 20
1185.923731
 30
0.0
 11
1179.455055
 21
1185.923731
 31
0.0
  0
LINE
  5
3A4
100
AcDbEntity
  8
1
100
AcDbLine
 10
1179.455055
 20
1175.523731
 30
0.0
 11
1190.055055
 21
1175.523731
 31
0.0
  0
LINE
  5
3A5
100
AcDbEntity
  8
1
100
AcDbLine
 10
1183.005055
 20
1178.223731
 30
0.0
 11
1183.005055
 21
1183.223731
 31
0.0
  0
LINE
  5
3A6
100
AcDbEntity
  8
1
100
AcDbLine
 10
1179.455055
 20
1185.923731
 30
0.0
 11
1179.455055
 21
1175.523731
 31
0.0
  0
CIRCLE
  5
3A7
100
AcDbEntity
  8
1
100
AcDbCircle
 10
1175.755055
 20
1180.723731
 30
0.0
 40
1.2
  0
CIRCLE
  5
3A8
100
AcDbEntity
  8
1
100
AcDbCircle
 10
1157.755055
 20
1180.723731
 30
0.0
 40
6.0
  0
LINE
  5
3A9
100
AcDbEntity
  8
1
100
AcDbLine
 10
1186.505055
 20
1183.223731
 30
0.0
 11
1186.505055
 21
1178.223731
 31
0.0
  0
LINE
  5
3AA
100
AcDbEntity
  8
1
100
AcDbLine
 10
1190.055055
 20
1175.523731
 30
0.0
 11
1190.055055
 21
1185.923731
 31
0.0
  0
CIRCLE
  5
3AB
100
AcDbEntity
  8
1
100
AcDbCircle
 10
1193.755055
 20
1180.723731
 30
0.0
 40
1.2
  0
LINE
  5
3AC
100
AcDbEntity
  8
SILK
100
AcDbLine
 10
1313.2808
 20
549.203187
 30
0.0
 11
1344.212788
 21
580.135175
 31
0.0
  0
LINE
  5
3AD
100
AcDbEntity
  8
SILK
100
AcDbLine
 10
1317.142724
 20
692.630264
 30
0.0
 11
1326.667724
 21
702.155264
 31
0.0
  0
LINE
  5
3AE
100
AcDbEntity
  8
SILK
100
AcDbLine
 10
1313.2808
 20
566.173749
 30
0.0
 11
1327.242226
 21
580.135175
 31
0.0
  0
LINE
  5
3AF
100
AcDbEntity
  8
SILK
100
AcDbLine
 10
1313.2808
 20
532.232624
 30
0.0
 11
1361.183351
 21
580.135175
 31
0.0
  0
LINE
  5
3B0
100
AcDbEntity
  8
SILK
100
AcDbLine
 10
1373.4808
 20
629.765264
 30
0.0
 11
1313.2808
 21
629.765264
 31
0.0
  0
LINE
  5
3B1
100
AcDbEntity
  8
SILK
100
AcDbLine
 10
1313.2808
 20
639.290264
 30
0.0
 11
1373.4808
 21
639.290264
 31
0.0
  0
DIMENSION
  5
3B2
100
AcDbEntity
  8
SCALE
100
AcDbDimension
  2
*D18
 10
1277.699074
 20
692.630264
 30
0.0
 11
1255.699074
 21
741.530264
 31
0.0
 12
0.0
 22
-13.169911
 32
0.0
  1
88.9
  3
STANDARD
100
AcDbAlignedDimension
 13
1313.2808
 23
639.290264
 33
0.0
 14
1313.2808
 24
692.630264
 34
0.0
 50
90.0
100
AcDbRotatedDimension
1001
ACAD
1000
DSTYLE
1002
{
1070
   140
1040
2.2
1070
   340
1005
E
1070
   145
1040
1.0
1070
    74
1070
     0
1070
   172
1070
     1
1070
    73
1070
     0
1070
   272
1070
     4
1070
    40
1040
10.0
1070
   287
1070
     3
1070
    42
1040
2.0
1070
    44
1040
1.5
1070
    43
1040
10.0
1070
   271
1070
     4
1070
     5
1000
YAZ3
1070
    41
1040
1.5
1002
}
  0
DIMENSION
  5
3C0
100
AcDbEntity
  8
SCALE
100
AcDbDimension
  2
*D19
 10
1277.699074
 20
629.765264
 30
0.0
 11
1255.699074
 21
567.960502
 31
0.0
 12
0.0
 22
-13.169911
 32
0.0
  1
15.9
  3
STANDARD
100
AcDbAlignedDimension
 13
1313.2808
 23
639.290264
 33
0.0
 14
1313.2808
 24
629.765264
 34
0.0
 50
90.0
100
AcDbRotatedDimension
1001
ACAD
1000
DSTYLE
1002
{
1070
   140
1040
2.2
1070
   340
1005
E
1070
   145
1040
1.0
1070
    74
1070
     0
1070
   172
1070
     1
1070
    73
1070
     0
1070
   272
1070
     4
1070
    40
1040
10.0
1070
   287
1070
     3
1070
    42
1040
2.0
1070
    44
1040
1.5
1070
    43
1040
10.0
1070
   271
1070
     4
1070
     5
1000
YAZ3
1070
    41
1040
1.5
1002
}
  0
LINE
  5
3CF
100
AcDbEntity
  8
SILK
100
AcDbLine
 10
1385.024975
 20
692.630264
 30
0.0
 11
1394.549975
 21
702.155264
 31
0.0
  0
LINE
  5
3D0
100
AcDbEntity
  8
SILK
100
AcDbLine
 10
1391.877453
 20
559.917589
 30
0.0
 11
1412.095039
 21
580.135175
 31
0.0
  0
ARC
  5
3D1
100
AcDbEntity
  8
1
100
AcDbCircle
 10
1378.782353
 20
584.765264
 30
0.0
 40
36.0
100
AcDbArc
 50
63.434949
 51
90.0
  0
ARC
  5
3D2
100
AcDbEntity
  8
1
100
AcDbCircle
 10
1378.782353
 20
584.765264
 30
0.0
 40
36.36
100
AcDbArc
 50
63.434949
 51
90.0
  0
LINE
  5
3D3
100
AcDbEntity
  8
1
100
AcDbLine
 10
1362.0808
 20
629.045264
 30
0.0
 11
1407.8008
 21
629.045264
 31
0.0
  0
LINE
  5
3D4
100
AcDbEntity
  8
SILK
100
AcDbLine
 10
1346.9308
 20
639.290264
 30
0.0
 11
1369.7908
 21
639.290264
 31
0.0
  0
LINE
  5
3D5
100
AcDbEntity
  8
SILK
100
AcDbLine
 10
1346.9308
 20
654.536089
 30
0.0
 11
1369.7908
 21
677.396089
 31
0.0
  0
LINE
  5
3D6
100
AcDbEntity
  8
SILK
100
AcDbLine
 10
1346.9308
 20
671.506652
 30
0.0
 11
1368.054412
 21
692.630264
 31
0.0
  0
LINE
  5
3D7
100
AcDbEntity
  8
SILK
100
AcDbLine
 10
1369.7908
 20
668.767436
 30
0.0
 11
1346.9308
 21
691.627436
 31
0.0
  0
LINE
  5
3D8
100
AcDbEntity
  8
SILK
100
AcDbLine
 10
1369.7908
 20
651.796873
 30
0.0
 11
1346.9308
 21
674.656873
 31
0.0
  0
LINE
  5
3D9
100
AcDbEntity
  8
SILK
100
AcDbLine
 10
1365.326846
 20
639.290264
 30
0.0
 11
1346.9308
 21
657.68631
 31
0.0
  0
LINE
  5
3DA
100
AcDbEntity
  8
SILK
100
AcDbLine
 10
1369.7908
 20
692.630264
 30
0.0
 11
1346.9308
 21
692.630264
 31
0.0
  0
LINE
  5
3DB
100
AcDbEntity
  8
SILK
100
AcDbLine
 10
1351.083849
 20
692.630264
 30
0.0
 11
1360.608849
 21
702.155264
 31
0.0
  0
LINE
  5
3DC
100
AcDbEntity
  8
SILK
100
AcDbLine
 10
1356.1011
 20
629.765264
 30
0.0
 11
1365.6261
 21
639.290264
 31
0.0
  0
LINE
  5
3DD
100
AcDbEntity
  8
SILK
100
AcDbLine
 10
1348.655537
 20
639.290264
 30
0.0
 11
1369.7908
 21
660.425526
 31
0.0
  0
ARC
  5
3DE
100
AcDbEntity
  8
1
100
AcDbCircle
 10
1360.2808
 20
629.765264
 30
0.0
 40
9.0
100
AcDbArc
 50
180.0
 51
270.0
  0
ARC
  5
3DF
100
AcDbEntity
  8
1
100
AcDbCircle
 10
1360.2808
 20
629.765264
 30
0.0
 40
7.2
100
AcDbArc
 50
180.0
 51
270.0
  0
LINE
  5
3E0
100
AcDbEntity
  8
SILK
100
AcDbLine
 10
1346.9308
 20
692.630264
 30
0.0
 11
1346.9308
 21
639.290264
 31
0.0
  0
LINE
  5
3E1
100
AcDbEntity
  8
SILK
100
AcDbLine
 10
1339.130537
 20
629.765264
 30
0.0
 11
1348.655537
 21
639.290264
 31
0.0
  0
LINE
  5
3E2
100
AcDbEntity
  8
SILK
100
AcDbLine
 10
1322.159975
 20
629.765264
 30
0.0
 11
1331.684975
 21
639.290264
 31
0.0
  0
LINE
  5
3E3
100
AcDbEntity
  8
SILK
100
AcDbLine
 10
1348.356284
 20
639.290264
 30
0.0
 11
1346.9308
 21
640.715747
 31
0.0
  0
LINE
  5
3E4
100
AcDbEntity
  8
1
100
AcDbLine
 10
1351.2808
 20
629.765264
 30
0.0
 11
1353.0808
 21
629.765264
 31
0.0
  0
LINE
  5
3E5
100
AcDbEntity
  8
SILK
100
AcDbLine
 10
1334.113286
 20
692.630264
 30
0.0
 11
1343.638286
 21
702.155264
 31
0.0
  0
LINE
  5
3E6
100
AcDbEntity
  8
SILK
100
AcDbLine
 10
1346.9308
 20
688.477215
 30
0.0
 11
1351.083849
 21
692.630264
 31
0.0
  0
LINE
  5
3E7
100
AcDbEntity
  8
CENTER
  6
CENTER
100
AcDbLine
 10
1358.3608
 20
639.290264
 30
0.0
 11
1358.3608
 21
707.155264
 31
0.0
  0
LINE
  5
3E8
100
AcDbEntity
  8
1
100
AcDbLine
 10
1378.2808
 20
629.765264
 30
0.0
 11
1378.2808
 21
691.565264
 31
0.0
  0
LINE
  5
3E9
100
AcDbEntity
  8
SILK
100
AcDbLine
 10
1369.7908
 20
639.290264
 30
0.0
 11
1369.7908
 21
692.630264
 31
0.0
  0
LINE
  5
3EA
100
AcDbEntity
  8
1
100
AcDbLine
 10
1378.2808
 20
629.765264
 30
0.0
 11
1362.0808
 21
629.765264
 31
0.0
  0
LINE
  5
3EB
100
AcDbEntity
  8
1
100
AcDbLine
 10
1378.782353
 20
620.765264
 30
0.0
 11
1361.6608
 21
620.765264
 31
0.0
  0
LINE
  5
3EC
100
AcDbEntity
  8
1
100
AcDbLine
 10
1378.782353
 20
621.125264
 30
0.0
 11
1362.0208
 21
621.125264
 31
0.0
  0
LINE
  5
3ED
100
AcDbEntity
  8
1
100
AcDbLine
 10
1375.8808
 20
644.990264
 30
0.0
 11
1359.959261
 21
644.990264
 31
0.0
  0
LINE
  5
3EE
100
AcDbEntity
  8
1
100
AcDbLine
 10
1359.959261
 20
647.390264
 30
0.0
 11
1375.8808
 21
647.390264
 31
0.0
  0
LINE
  5
3EF
100
AcDbEntity
  8
SILK
100
AcDbLine
 10
1373.071663
 20
629.765264
 30
0.0
 11
1373.4808
 21
630.174401
 31
0.0
  0
LINE
  5
3F0
100
AcDbEntity
  8
SILK
100
AcDbLine
 10
1365.6261
 20
639.290264
 30
0.0
 11
1369.7908
 21
643.454964
 31
0.0
  0
LINE
  5
3F1
100
AcDbEntity
  8
1
100
AcDbLine
 10
1362.0808
 20
629.765264
 30
0.0
 11
1362.0808
 21
629.045264
 31
0.0
  0
LINE
  5
3F2
100
AcDbEntity
  8
SILK
100
AcDbLine
 10
1373.4808
 20
639.290264
 30
0.0
 11
1373.4808
 21
629.765264
 31
0.0
  0
LINE
  5
3F3
100
AcDbEntity
  8
1
100
AcDbLine
 10
1361.6608
 20
620.765264
 30
0.0
 11
1361.6608
 21
623.765264
 31
0.0
  0
LINE
  5
3F4
100
AcDbEntity
  8
1
100
AcDbLine
 10
1361.6608
 20
623.765264
 30
0.0
 11
1362.0208
 21
623.765264
 31
0.0
  0
LINE
  5
3F5
100
AcDbEntity
  8
1
100
AcDbLine
 10
1362.0208
 20
623.765264
 30
0.0
 11
1362.0208
 21
621.125264
 31
0.0
  0
LINE
  5
3F6
100
AcDbEntity
  8
1
100
AcDbLine
 10
1363.4008
 20
624.365264
 30
0.0
 11
1363.4008
 21
626.165264
 31
0.0
  0
LINE
  5
3F7
100
AcDbEntity
  8
1
100
AcDbLine
 10
1361.4808
 20
624.365264
 30
0.0
 11
1363.4008
 21
624.365264
 31
0.0
  0
LINE
  5
3F8
100
AcDbEntity
  8
1
100
AcDbLine
 10
1361.4808
 20
620.765264
 30
0.0
 11
1361.4808
 21
624.365264
 31
0.0
  0
LINE
  5
3F9
100
AcDbEntity
  8
1
100
AcDbLine
 10
1361.4808
 20
626.165264
 30
0.0
 11
1360.2808
 21
626.165264
 31
0.0
  0
LINE
  5
3FA
100
AcDbEntity
  8
1
100
AcDbLine
 10
1360.2808
 20
626.165264
 30
0.0
 11
1360.2808
 21
622.565264
 31
0.0
  0
LINE
  5
3FB
100
AcDbEntity
  8
1
100
AcDbLine
 10
1361.4808
 20
620.765264
 30
0.0
 11
1360.2808
 21
620.765264
 31
0.0
  0
LINE
  5
3FC
100
AcDbEntity
  8
1
100
AcDbLine
 10
1363.4008
 20
626.165264
 30
0.0
 11
1361.4808
 21
626.165264
 31
0.0
  0
LINE
  5
3FD
100
AcDbEntity
  8
1
100
AcDbLine
 10
1357.8808
 20
646.190264
 30
0.0
 11
1359.959261
 21
647.390264
 31
0.0
  0
LINE
  5
3FE
100
AcDbEntity
  8
1
100
AcDbLine
 10
1359.959261
 20
644.990264
 30
0.0
 11
1357.8808
 21
646.190264
 31
0.0
  0
LINE
  5
3FF
100
AcDbEntity
  8
1
  6
HIDDEN
100
AcDbLine
 10
1377.0808
 20
649.190264
 30
0.0
 11
1377.0808
 21
639.290264
 31
0.0
  0
ARC
  5
400
100
AcDbEntity
  8
1
  6
HIDDEN
100
AcDbCircle
 10
1378.2808
 20
649.190264
 30
0.0
 40
1.2
100
AcDbArc
 50
90.0
 51
180.0
  0
ARC
  5
401
100
AcDbEntity
  8
1
100
AcDbCircle
 10
1371.3808
 20
646.190264
 30
0.0
 40
6.0
100
AcDbArc
 50
0.0
 51
24.834587
  0
ARC
  5
402
100
AcDbEntity
  8
1
100
AcDbCircle
 10
1371.3808
 20
646.190264
 30
0.0
 40
6.0
100
AcDbArc
 50
335.165413
 51
360.0
  0
LINE
  5
403
100
AcDbEntity
  8
1
100
AcDbLine
 10
1375.8808
 20
632.390264
 30
0.0
 11
1375.8808
 21
644.990264
 31
0.0
  0
LINE
  5
404
100
AcDbEntity
  8
1
100
AcDbLine
 10
1376.825945
 20
643.670264
 30
0.0
 11
1375.8808
 21
643.670264
 31
0.0
  0
LINE
  5
405
100
AcDbEntity
  8
1
100
AcDbLine
 10
1375.8808
 20
648.710264
 30
0.0
 11
1376.825945
 21
648.710264
 31
0.0
  0
LINE
  5
406
100
AcDbEntity
  8
1
100
AcDbLine
 10
1375.8808
 20
647.390264
 30
0.0
 11
1375.8808
 21
650.390264
 31
0.0
  0
LINE
  5
407
100
AcDbEntity
  8
1
100
AcDbLine
 10
1374.6808
 20
650.390264
 30
0.0
 11
1374.6808
 21
647.390264
 31
0.0
  0
LINE
  5
408
100
AcDbEntity
  8
1
100
AcDbLine
 10
1374.6808
 20
644.990264
 30
0.0
 11
1374.6808
 21
632.390264
 31
0.0
  0
LINE
  5
409
100
AcDbEntity
  8
1
100
AcDbLine
 10
1374.6808
 20
632.390264
 30
0.0
 11
1375.8808
 21
632.390264
 31
0.0
  0
LINE
  5
40A
100
AcDbEntity
  8
1
100
AcDbLine
 10
1375.8808
 20
650.390264
 30
0.0
 11
1374.6808
 21
650.390264
 31
0.0
  0
LINE
  5
40B
100
AcDbEntity
  8
SILK
100
AcDbLine
 10
1368.054412
 20
692.630264
 30
0.0
 11
1377.579412
 21
702.155264
 31
0.0
  0
LINE
  5
40C
100
AcDbEntity
  8
SILK
100
AcDbLine
 10
1369.7908
 20
685.737998
 30
0.0
 11
1362.898535
 21
692.630264
 31
0.0
  0
LINE
  5
40D
100
AcDbEntity
  8
SILK
100
AcDbLine
 10
1426.036165
 20
560.135175
 30
0.0
 11
1446.036165
 21
580.135175
 31
0.0
  0
LINE
  5
40E
100
AcDbEntity
  8
SILK
100
AcDbLine
 10
1409.065602
 20
560.135175
 30
0.0
 11
1429.065602
 21
580.135175
 31
0.0
  0
LINE
  5
40F
100
AcDbEntity
  8
SILK
100
AcDbLine
 10
1418.9661
 20
692.630264
 30
0.0
 11
1428.4911
 21
702.155264
 31
0.0
  0
ARC
  5
410
100
AcDbEntity
  8
1
100
AcDbCircle
 10
1414.292467
 20
647.508654
 30
0.0
 40
36.0
100
AcDbArc
 50
243.434949
 51
268.361874
  0
ARC
  5
411
100
AcDbEntity
  8
1
100
AcDbCircle
 10
1414.292467
 20
647.508654
 30
0.0
 40
35.64
100
AcDbArc
 50
243.434949
 51
268.361874
  0
LINE
  5
412
100
AcDbEntity
  8
1
100
AcDbLine
 10
1407.8008
 20
628.325264
 30
0.0
 11
1414.2808
 21
628.325264
 31
0.0
  0
LINE
  5
413
100
AcDbEntity
  8
1
  6
HIDDEN
100
AcDbLine
 10
1401.0808
 20
640.490264
 30
0.0
 11
1404.6808
 21
640.490264
 31
0.0
  0
LINE
  5
414
100
AcDbEntity
  8
1
  6
HIDDEN
100
AcDbLine
 10
1401.0808
 20
639.290264
 30
0.0
 11
1401.0808
 21
643.790264
 31
0.0
  0
LINE
  5
415
100
AcDbEntity
  8
1
  6
HIDDEN
100
AcDbLine
 10
1404.6808
 20
643.790264
 30
0.0
 11
1404.6808
 21
639.290264
 31
0.0
  0
ARC
  5
416
100
AcDbEntity
  8
1
  6
HIDDEN
100
AcDbCircle
 10
1402.8808
 20
643.790264
 30
0.0
 40
1.8
100
AcDbArc
 50
0.0
 51
90.0
  0
ARC
  5
417
100
AcDbEntity
  8
1
  6
HIDDEN
100
AcDbCircle
 10
1402.8808
 20
643.790264
 30
0.0
 40
1.8
100
AcDbArc
 50
90.0
 51
180.0
  0
LINE
  5
418
100
AcDbEntity
  8
1
100
AcDbLine
 10
1407.8008
 20
629.045264
 30
0.0
 11
1407.8008
 21
628.325264
 31
0.0
  0
LINE
  5
419
100
AcDbEntity
  8
1
100
AcDbLine
 10
1394.882042
 20
616.964643
 30
0.0
 11
1398.192777
 21
615.309275
 31
0.0
  0
LINE
  5
41A
100
AcDbEntity
  8
1
100
AcDbLine
 10
1395.043039
 20
617.286636
 30
0.0
 11
1398.353774
 21
615.631269
 31
0.0
  0
LINE
  5
41B
100
AcDbEntity
  8
1
100
AcDbLine
 10
1414.2808
 20
628.325264
 30
0.0
 11
1414.2808
 21
613.565264
 31
0.0
  0
LINE
  5
41C
100
AcDbEntity
  8
SILK
100
AcDbLine
 10
1401.995537
 20
692.630264
 30
0.0
 11
1411.520537
 21
702.155264
 31
0.0
  0
LINE
  5
41D
100
AcDbEntity
  8
SILK
100
AcDbLine
 10
1435.936663
 20
692.630264
 30
0.0
 11
1445.461663
 21
702.155264
 31
0.0
  0
LINE
  5
41E
100
AcDbEntity
  8
SILK
100
AcDbLine
 10
1452.907226
 20
692.630264
 30
0.0
 11
1462.432226
 21
702.155264
 31
0.0
  0
LINE
  5
41F
100
AcDbEntity
  8
SILK
100
AcDbLine
 10
1328.793201
 20
975.580026
 30
0.0
 11
1397.673201
 21
975.580026
 31
0.0
  0
LINE
  5
420
100
AcDbEntity
  8
SILK
100
AcDbLine
 10
1397.673201
 20
966.055026
 30
0.0
 11
1328.793201
 21
966.055026
 31
0.0
  0
LINE
  5
421
100
AcDbEntity
  8
1
100
AcDbLine
 10
1400.913201
 20
975.580026
 30
0.0
 11
1385.673201
 21
975.580026
 31
0.0
  0
LINE
  5
422
100
AcDbEntity
  8
1
100
AcDbLine
 10
1386.873201
 20
976.780026
 30
0.0
 11
1402.113201
 21
976.780026
 31
0.0
  0
LINE
  5
423
100
AcDbEntity
  8
SILK
100
AcDbLine
 10
1390.581813
 20
966.055026
 30
0.0
 11
1397.673201
 21
973.146414
 31
0.0
  0
LINE
  5
424
100
AcDbEntity
  8
1
100
AcDbLine
 10
1410.174754
 20
957.415026
 30
0.0
 11
1389.213201
 21
957.415026
 31
0.0
  0
LINE
  5
425
100
AcDbEntity
  8
1
100
AcDbLine
 10
1410.174754
 20
957.055026
 30
0.0
 11
1388.853201
 21
957.055026
 31
0.0
  0
LINE
  5
426
100
AcDbEntity
  8
1
100
AcDbLine
 10
1389.273201
 20
1004.155026
 30
0.0
 11
1444.593201
 21
1004.155026
 31
0.0
  0
ARC
  5
427
100
AcDbEntity
  8
1
100
AcDbCircle
 10
1390.473201
 20
1005.355026
 30
0.0
 40
4.8
100
AcDbArc
 50
150.0
 51
390.0
  0
LINE
  5
428
100
AcDbEntity
  8
1
100
AcDbLine
 10
1389.273201
 20
1004.875026
 30
0.0
 11
1409.673201
 21
1004.875026
 31
0.0
  0
LINE
  5
429
100
AcDbEntity
  8
1
100
AcDbLine
 10
1387.473201
 20
1025.758873
 30
0.0
 11
1393.473201
 21
1025.758873
 31
0.0
  0
LINE
  5
42A
100
AcDbEntity
  8
1
100
AcDbLine
 10
1387.473201
 20
1015.758873
 30
0.0
 11
1393.473201
 21
1015.758873
 31
0.0
  0
LINE
  5
42B
100
AcDbEntity
  8
1
100
AcDbLine
 10
1390.588164
 20
1015.758873
 30
0.0
 11
1394.630123
 21
1007.755026
 31
0.0
  0
LINE
  5
42C
100
AcDbEntity
  8
1
100
AcDbLine
 10
1390.473201
 20
1095.514292
 30
0.0
 11
1390.473201
 21
1025.758873
 31
0.0
  0
LINE
  5
42D
100
AcDbEntity
  8
SILK
100
AcDbLine
 10
1356.640688
 20
966.055026
 30
0.0
 11
1366.165688
 21
975.580026
 31
0.0
  0
LINE
  5
42E
100
AcDbEntity
  8
SILK
100
AcDbLine
 10
1328.793201
 20
972.148665
 30
0.0
 11
1332.224562
 21
975.580026
 31
0.0
  0
LINE
  5
42F
100
AcDbEntity
  8
SILK
100
AcDbLine
 10
1339.670125
 20
966.055026
 30
0.0
 11
1349.195125
 21
975.580026
 31
0.0
  0
LINE
  5
430
100
AcDbEntity
  8
SILK
100
AcDbLine
 10
1373.61125
 20
966.055026
 30
0.0
 11
1383.13625
 21
975.580026
 31
0.0
  0
LINE
  5
431
100
AcDbEntity
  8
1
100
AcDbLine
 10
1385.673201
 20
975.580026
 30
0.0
 11
1385.673201
 21
986.680026
 31
0.0
  0
LINE
  5
432
100
AcDbEntity
  8
1
100
AcDbLine
 10
1386.873201
 20
986.680026
 30
0.0
 11
1386.873201
 21
976.780026
 31
0.0
  0
LINE
  5
433
100
AcDbEntity
  8
1
100
AcDbLine
 10
1378.473201
 20
966.055026
 30
0.0
 11
1380.273201
 21
966.055026
 31
0.0
  0
LINE
  5
434
100
AcDbEntity
  8
1
100
AcDbLine
 10
1390.593201
 20
962.455026
 30
0.0
 11
1388.673201
 21
962.455026
 31
0.0
  0
LINE
  5
435
100
AcDbEntity
  8
1
100
AcDbLine
 10
1388.673201
 20
957.055026
 30
0.0
 11
1387.473201
 21
957.055026
 31
0.0
  0
LINE
  5
436
100
AcDbEntity
  8
1
100
AcDbLine
 10
1387.473201
 20
962.455026
 30
0.0
 11
1387.473201
 21
958.855026
 31
0.0
  0
LINE
  5
437
100
AcDbEntity
  8
1
100
AcDbLine
 10
1388.673201
 20
962.455026
 30
0.0
 11
1387.473201
 21
962.455026
 31
0.0
  0
LINE
  5
438
100
AcDbEntity
  8
1
100
AcDbLine
 10
1388.673201
 20
957.055026
 30
0.0
 11
1388.673201
 21
960.655026
 31
0.0
  0
LINE
  5
439
100
AcDbEntity
  8
1
100
AcDbLine
 10
1388.673201
 20
960.655026
 30
0.0
 11
1390.593201
 21
960.655026
 31
0.0
  0
LINE
  5
43A
100
AcDbEntity
  8
1
100
AcDbLine
 10
1390.593201
 20
960.655026
 30
0.0
 11
1390.593201
 21
962.455026
 31
0.0
  0
LINE
  5
43B
100
AcDbEntity
  8
1
100
AcDbLine
 10
1389.213201
 20
960.055026
 30
0.0
 11
1389.213201
 21
957.415026
 31
0.0
  0
LINE
  5
43C
100
AcDbEntity
  8
1
100
AcDbLine
 10
1388.853201
 20
960.055026
 30
0.0
 11
1389.213201
 21
960.055026
 31
0.0
  0
LINE
  5
43D
100
AcDbEntity
  8
1
100
AcDbLine
 10
1388.853201
 20
957.055026
 30
0.0
 11
1388.853201
 21
960.055026
 31
0.0
  0
ARC
  5
43E
100
AcDbEntity
  8
1
100
AcDbCircle
 10
1387.473201
 20
966.055026
 30
0.0
 40
7.2
100
AcDbArc
 50
180.0
 51
270.0
  0
ARC
  5
43F
100
AcDbEntity
  8
1
100
AcDbCircle
 10
1387.473201
 20
966.055026
 30
0.0
 40
9.0
100
AcDbArc
 50
180.0
 51
270.0
  0
LINE
  5
440
100
AcDbEntity
  8
1
100
AcDbLine
 10
1385.673201
 20
986.680026
 30
0.0
 11
1386.873201
 21
986.680026
 31
0.0
  0
LINE
  5
441
100
AcDbEntity
  8
1
100
AcDbLine
 10
1389.273201
 20
1004.875026
 30
0.0
 11
1389.273201
 21
1004.155026
 31
0.0
  0
LINE
  5
442
100
AcDbEntity
  8
1
100
AcDbLine
 10
1387.473201
 20
1025.758873
 30
0.0
 11
1387.473201
 21
1015.758873
 31
0.0
  0
LINE
  5
443
100
AcDbEntity
  8
1
100
AcDbLine
 10
1390.358238
 20
1015.758873
 30
0.0
 11
1386.316279
 21
1007.755026
 31
0.0
  0
LINE
  5
444
100
AcDbEntity
  8
1
100
AcDbLine
 10
1409.673201
 20
1004.875026
 30
0.0
 11
1409.673201
 21
1066.675026
 31
0.0
  0
LINE
  5
445
100
AcDbEntity
  8
1
100
AcDbLine
 10
1426.43544
 20
953.576399
 30
0.0
 11
1429.605509
 21
951.991364
 31
0.0
  0
LINE
  5
446
100
AcDbEntity
  8
1
100
AcDbLine
 10
1426.274443
 20
953.254405
 30
0.0
 11
1429.444512
 21
951.66937
 31
0.0
  0
LINE
  5
447
100
AcDbEntity
  8
1
  6
HIDDEN
100
AcDbLine
 10
1399.473201
 20
968.680026
 30
0.0
 11
1399.473201
 21
971.080026
 31
0.0
  0
LINE
  5
448
100
AcDbEntity
  8
1
  6
HIDDEN
100
AcDbLine
 10
1399.473201
 20
971.080026
 30
0.0
 11
1400.913201
 21
971.080026
 31
0.0
  0
LINE
  5
449
100
AcDbEntity
  8
1
  6
HIDDEN
100
AcDbLine
 10
1400.913201
 20
968.680026
 30
0.0
 11
1400.913201
 21
985.480026
 31
0.0
  0
ARC
  5
44A
100
AcDbEntity
  8
1
  6
HIDDEN
100
AcDbCircle
 10
1402.113201
 20
985.480026
 30
0.0
 40
1.2
100
AcDbArc
 50
90.0
 51
180.0
  0
LINE
  5
44B
100
AcDbEntity
  8
1
100
AcDbLine
 10
1409.073201
 20
969.880026
 30
0.0
 11
1409.073201
 21
968.680026
 31
0.0
  0
LINE
  5
44C
100
AcDbEntity
  8
SILK
100
AcDbLine
 10
1397.673201
 20
975.580026
 30
0.0
 11
1397.673201
 21
966.055026
 31
0.0
  0
LINE
  5
44D
100
AcDbEntity
  8
1
100
AcDbLine
 10
1400.913201
 20
968.680026
 30
0.0
 11
1400.913201
 21
975.580026
 31
0.0
  0
LINE
  5
44E
100
AcDbEntity
  8
1
100
AcDbLine
 10
1402.113201
 20
976.780026
 30
0.0
 11
1402.113201
 21
969.880026
 31
0.0
  0
LINE
  5
44F
100
AcDbEntity
  8
1
100
AcDbLine
 10
1409.073201
 20
968.680026
 30
0.0
 11
1400.913201
 21
968.680026
 31
0.0
  0
LINE
  5
450
100
AcDbEntity
  8
1
100
AcDbLine
 10
1402.113201
 20
969.880026
 30
0.0
 11
1409.073201
 21
969.880026
 31
0.0
  0
ARC
  5
451
100
AcDbEntity
  8
1
  6
HIDDEN
100
AcDbCircle
 10
1421.673201
 20
981.580026
 30
0.0
 40
1.5
100
AcDbArc
 50
180.0
 51
360.0
  0
ARC
  5
452
100
AcDbEntity
  8
1
  6
HIDDEN
100
AcDbCircle
 10
1421.673201
 20
983.380026
 30
0.0
 40
1.5
100
AcDbArc
 50
0.0
 51
180.0
  0
LINE
  5
453
100
AcDbEntity
  8
1
  6
HIDDEN
100
AcDbLine
 10
1420.173201
 20
983.380026
 30
0.0
 11
1420.173201
 21
981.580026
 31
0.0
  0
LINE
  5
454
100
AcDbEntity
  8
1
  6
HIDDEN
100
AcDbLine
 10
1423.173201
 20
981.580026
 30
0.0
 11
1423.173201
 21
983.380026
 31
0.0
  0
ARC
  5
455
100
AcDbEntity
  8
1
100
AcDbCircle
 10
1410.174754
 20
921.055026
 30
0.0
 40
36.36
100
AcDbArc
 50
63.434949
 51
90.0
  0
ARC
  5
456
100
AcDbEntity
  8
1
100
AcDbCircle
 10
1410.174754
 20
921.055026
 30
0.0
 40
36.0
100
AcDbArc
 50
63.434949
 51
90.0
  0
LINE
  5
457
100
AcDbEntity
  8
1
100
AcDbLine
 10
1393.473201
 20
1025.758873
 30
0.0
 11
1393.473201
 21
1015.758873
 31
0.0
  0
LINE
  5
458
100
AcDbEntity
  8
1
100
AcDbLine
 10
1451.073201
 20
1003.435026
 30
0.0
 11
1451.073201
 21
988.675026
 31
0.0
  0
ARC
  5
459
100
AcDbEntity
  8
1
100
AcDbCircle
 10
1445.544202
 20
983.868749
 30
0.0
 40
35.64
100
AcDbArc
 50
243.434949
 51
268.791625
  0
ARC
  5
45A
100
AcDbEntity
  8
1
100
AcDbCircle
 10
1445.544202
 20
983.868749
 30
0.0
 40
36.0
100
AcDbArc
 50
243.434949
 51
268.791625
  0
LINE
  5
45B
100
AcDbEntity
  8
1
100
AcDbLine
 10
1444.593201
 20
1003.435026
 30
0.0
 11
1451.073201
 21
1003.435026
 31
0.0
  0
LINE
  5
45C
100
AcDbEntity
  8
1
100
AcDbLine
 10
1444.593201
 20
1004.155026
 30
0.0
 11
1444.593201
 21
1003.435026
 31
0.0
  0
LINE
  5
45D
100
AcDbEntity
  8
1
100
AcDbLine
 10
1389.273201
 20
1270.360983
 30
0.0
 11
1409.673201
 21
1270.360983
 31
0.0
  0
LINE
  5
45E
100
AcDbEntity
  8
1
100
AcDbLine
 10
1410.174754
 20
1261.720983
 30
0.0
 11
1389.213201
 21
1261.720983
 31
0.0
  0
LINE
  5
45F
100
AcDbEntity
  8
1
100
AcDbLine
 10
1410.174754
 20
1261.360983
 30
0.0
 11
1388.853201
 21
1261.360983
 31
0.0
  0
LINE
  5
460
100
AcDbEntity
  8
SILK
100
AcDbLine
 10
1388.023372
 20
1270.360983
 30
0.0
 11
1397.548372
 21
1279.885983
 31
0.0
  0
LINE
  5
461
100
AcDbEntity
  8
1
100
AcDbLine
 10
1400.913201
 20
1279.885983
 30
0.0
 11
1385.673201
 21
1279.885983
 31
0.0
  0
LINE
  5
462
100
AcDbEntity
  8
SILK
100
AcDbLine
 10
1397.673201
 20
1270.360983
 30
0.0
 11
1328.793201
 21
1270.360983
 31
0.0
  0
LINE
  5
463
100
AcDbEntity
  8
SILK
100
AcDbLine
 10
1328.793201
 20
1279.885983
 30
0.0
 11
1397.673201
 21
1279.885983
 31
0.0
  0
LINE
  5
464
100
AcDbEntity
  8
1
100
AcDbLine
 10
1386.873201
 20
1281.085983
 30
0.0
 11
1402.113201
 21
1281.085983
 31
0.0
  0
LINE
  5
465
100
AcDbEntity
  8
1
100
AcDbLine
 10
1389.273201
 20
1269.640983
 30
0.0
 11
1444.593201
 21
1269.640983
 31
0.0
  0
ARC
  5
466
100
AcDbEntity
  8
1
100
AcDbCircle
 10
1387.473201
 20
1270.360983
 30
0.0
 40
9.0
100
AcDbArc
 50
180.0
 51
270.0
  0
ARC
  5
467
100
AcDbEntity
  8
1
100
AcDbCircle
 10
1387.473201
 20
1270.360983
 30
0.0
 40
7.2
100
AcDbArc
 50
180.0
 51
270.0
  0
LINE
  5
468
100
AcDbEntity
  8
1
100
AcDbLine
 10
1389.213201
 20
1264.360983
 30
0.0
 11
1389.213201
 21
1261.720983
 31
0.0
  0
LINE
  5
469
100
AcDbEntity
  8
1
100
AcDbLine
 10
1388.853201
 20
1264.360983
 30
0.0
 11
1389.213201
 21
1264.360983
 31
0.0
  0
LINE
  5
46A
100
AcDbEntity
  8
1
100
AcDbLine
 10
1388.853201
 20
1261.360983
 30
0.0
 11
1388.853201
 21
1264.360983
 31
0.0
  0
LINE
  5
46B
100
AcDbEntity
  8
1
100
AcDbLine
 10
1390.593201
 20
1266.760983
 30
0.0
 11
1388.673201
 21
1266.760983
 31
0.0
  0
LINE
  5
46C
100
AcDbEntity
  8
1
100
AcDbLine
 10
1388.673201
 20
1261.360983
 30
0.0
 11
1387.473201
 21
1261.360983
 31
0.0
  0
LINE
  5
46D
100
AcDbEntity
  8
1
100
AcDbLine
 10
1387.473201
 20
1266.760983
 30
0.0
 11
1387.473201
 21
1263.160983
 31
0.0
  0
LINE
  5
46E
100
AcDbEntity
  8
1
100
AcDbLine
 10
1388.673201
 20
1266.760983
 30
0.0
 11
1387.473201
 21
1266.760983
 31
0.0
  0
LINE
  5
46F
100
AcDbEntity
  8
1
100
AcDbLine
 10
1388.673201
 20
1261.360983
 30
0.0
 11
1388.673201
 21
1264.960983
 31
0.0
  0
LINE
  5
470
100
AcDbEntity
  8
1
100
AcDbLine
 10
1388.673201
 20
1264.960983
 30
0.0
 11
1390.593201
 21
1264.960983
 31
0.0
  0
LINE
  5
471
100
AcDbEntity
  8
1
100
AcDbLine
 10
1390.593201
 20
1264.960983
 30
0.0
 11
1390.593201
 21
1266.760983
 31
0.0
  0
LINE
  5
472
100
AcDbEntity
  8
SILK
100
AcDbLine
 10
1354.082246
 20
1270.360983
 30
0.0
 11
1363.607246
 21
1279.885983
 31
0.0
  0
LINE
  5
473
100
AcDbEntity
  8
SILK
100
AcDbLine
 10
1337.111684
 20
1270.360983
 30
0.0
 11
1346.636684
 21
1279.885983
 31
0.0
  0
LINE
  5
474
100
AcDbEntity
  8
SILK
100
AcDbLine
 10
1328.793201
 20
1279.013064
 30
0.0
 11
1329.666121
 21
1279.885983
 31
0.0
  0
LINE
  5
475
100
AcDbEntity
  8
1
100
AcDbLine
 10
1386.273201
 20
1370.345249
 30
0.0
 11
1386.273201
 21
1311.389831
 31
0.0
  0
LINE
  5
476
100
AcDbEntity
  8
SILK
100
AcDbLine
 10
1371.052809
 20
1270.360983
 30
0.0
 11
1380.577809
 21
1279.885983
 31
0.0
  0
LINE
  5
477
100
AcDbEntity
  8
1
100
AcDbLine
 10
1385.673201
 20
1279.885983
 30
0.0
 11
1385.673201
 21
1290.985983
 31
0.0
  0
LINE
  5
478
100
AcDbEntity
  8
1
100
AcDbLine
 10
1389.273201
 20
1270.360983
 30
0.0
 11
1389.273201
 21
1269.640983
 31
0.0
  0
LINE
  5
479
100
AcDbEntity
  8
1
100
AcDbLine
 10
1378.473201
 20
1270.360983
 30
0.0
 11
1380.273201
 21
1270.360983
 31
0.0
  0
ARC
  5
47A
100
AcDbEntity
  8
1
100
AcDbCircle
 10
1386.273201
 20
1290.985983
 30
0.0
 40
4.8
100
AcDbArc
 50
150.0
 51
390.0
  0
LINE
  5
47B
100
AcDbEntity
  8
1
100
AcDbLine
 10
1386.873201
 20
1290.985983
 30
0.0
 11
1386.873201
 21
1281.085983
 31
0.0
  0
LINE
  5
47C
100
AcDbEntity
  8
1
100
AcDbLine
 10
1385.673201
 20
1290.985983
 30
0.0
 11
1386.873201
 21
1290.985983
 31
0.0
  0
LINE
  5
47D
100
AcDbEntity
  8
1
100
AcDbLine
 10
1386.158238
 20
1301.389831
 30
0.0
 11
1382.116279
 21
1293.385983
 31
0.0
  0
LINE
  5
47E
100
AcDbEntity
  8
1
100
AcDbLine
 10
1383.273201
 20
1301.389831
 30
0.0
 11
1389.273201
 21
1301.389831
 31
0.0
  0
LINE
  5
47F
100
AcDbEntity
  8
1
100
AcDbLine
 10
1383.273201
 20
1311.389831
 30
0.0
 11
1389.273201
 21
1311.389831
 31
0.0
  0
LINE
  5
480
100
AcDbEntity
  8
1
100
AcDbLine
 10
1389.273201
 20
1311.389831
 30
0.0
 11
1389.273201
 21
1301.389831
 31
0.0
  0
LINE
  5
481
100
AcDbEntity
  8
1
100
AcDbLine
 10
1383.273201
 20
1311.389831
 30
0.0
 11
1383.273201
 21
1301.389831
 31
0.0
  0
LINE
  5
482
100
AcDbEntity
  8
1
100
AcDbLine
 10
1386.388164
 20
1301.389831
 30
0.0
 11
1390.430123
 21
1293.385983
 31
0.0
  0
LINE
  5
483
100
AcDbEntity
  8
1
100
AcDbLine
 10
1451.073201
 20
1268.920983
 30
0.0
 11
1451.073201
 21
1254.160983
 31
0.0
  0
LINE
  5
484
100
AcDbEntity
  8
1
100
AcDbLine
 10
1426.43544
 20
1257.882356
 30
0.0
 11
1429.605509
 21
1256.297321
 31
0.0
  0
LINE
  5
485
100
AcDbEntity
  8
1
100
AcDbLine
 10
1426.274443
 20
1257.560362
 30
0.0
 11
1429.444512
 21
1255.975328
 31
0.0
  0
ARC
  5
486
100
AcDbEntity
  8
1
100
AcDbCircle
 10
1410.174754
 20
1225.360983
 30
0.0
 40
36.36
100
AcDbArc
 50
63.434949
 51
90.0
  0
ARC
  5
487
100
AcDbEntity
  8
1
100
AcDbCircle
 10
1410.174754
 20
1225.360983
 30
0.0
 40
36.0
100
AcDbArc
 50
63.434949
 51
90.0
  0
ARC
  5
488
100
AcDbEntity
  8
1
100
AcDbCircle
 10
1445.544202
 20
1288.174707
 30
0.0
 40
35.64
100
AcDbArc
 50
243.434949
 51
268.791625
  0
ARC
  5
489
100
AcDbEntity
  8
1
100
AcDbCircle
 10
1445.544202
 20
1288.174707
 30
0.0
 40
36.0
100
AcDbArc
 50
243.434949
 51
268.791625
  0
LINE
  5
48A
100
AcDbEntity
  8
1
100
AcDbLine
 10
1409.673201
 20
1270.360983
 30
0.0
 11
1409.673201
 21
1332.160983
 31
0.0
  0
LINE
  5
48B
100
AcDbEntity
  8
1
100
AcDbLine
 10
1402.113201
 20
1281.085983
 30
0.0
 11
1402.113201
 21
1274.185983
 31
0.0
  0
LINE
  5
48C
100
AcDbEntity
  8
1
100
AcDbLine
 10
1404.873201
 20
1274.185983
 30
0.0
 11
1404.873201
 21
1281.640983
 31
0.0
  0
LINE
  5
48D
100
AcDbEntity
  8
1
100
AcDbLine
 10
1407.273201
 20
1281.640983
 30
0.0
 11
1407.273201
 21
1274.185983
 31
0.0
  0
LINE
  5
48E
100
AcDbEntity
  8
1
100
AcDbLine
 10
1402.113201
 20
1274.185983
 30
0.0
 11
1409.073201
 21
1274.185983
 31
0.0
  0
LINE
  5
48F
100
AcDbEntity
  8
1
100
AcDbLine
 10
1409.073201
 20
1272.985983
 30
0.0
 11
1400.913201
 21
1272.985983
 31
0.0
  0
LINE
  5
490
100
AcDbEntity
  8
1
100
AcDbLine
 10
1400.913201
 20
1272.985983
 30
0.0
 11
1400.913201
 21
1279.885983
 31
0.0
  0
LINE
  5
491
100
AcDbEntity
  8
SILK
100
AcDbLine
 10
1397.673201
 20
1279.885983
 30
0.0
 11
1397.673201
 21
1270.360983
 31
0.0
  0
LINE
  5
492
100
AcDbEntity
  8
1
100
AcDbLine
 10
1404.873201
 20
1270.360983
 30
0.0
 11
1404.873201
 21
1272.985983
 31
0.0
  0
LINE
  5
493
100
AcDbEntity
  8
1
100
AcDbLine
 10
1403.553201
 20
1268.695838
 30
0.0
 11
1403.553201
 21
1269.640983
 31
0.0
  0
LINE
  5
494
100
AcDbEntity
  8
1
100
AcDbLine
 10
1409.073201
 20
1274.185983
 30
0.0
 11
1409.073201
 21
1272.985983
 31
0.0
  0
LINE
  5
495
100
AcDbEntity
  8
1
100
AcDbLine
 10
1407.273201
 20
1272.985983
 30
0.0
 11
1407.273201
 21
1270.360983
 31
0.0
  0
LINE
  5
496
100
AcDbEntity
  8
1
100
AcDbLine
 10
1408.593201
 20
1269.640983
 30
0.0
 11
1408.593201
 21
1268.695838
 31
0.0
  0
LINE
  5
497
100
AcDbEntity
  8
1
100
AcDbLine
 10
1404.873201
 20
1281.640983
 30
0.0
 11
1407.273201
 21
1281.640983
 31
0.0
  0
ARC
  5
498
100
AcDbEntity
  8
1
  6
HIDDEN
100
AcDbCircle
 10
1402.113201
 20
1289.785983
 30
0.0
 40
1.2
100
AcDbArc
 50
90.0
 51
180.0
  0
LINE
  5
499
100
AcDbEntity
  8
1
  6
HIDDEN
100
AcDbLine
 10
1400.913201
 20
1272.985983
 30
0.0
 11
1400.913201
 21
1289.785983
 31
0.0
  0
LINE
  5
49A
100
AcDbEntity
  8
1
  6
HIDDEN
100
AcDbLine
 10
1399.473201
 20
1275.385983
 30
0.0
 11
1400.913201
 21
1275.385983
 31
0.0
  0
LINE
  5
49B
100
AcDbEntity
  8
1
  6
HIDDEN
100
AcDbLine
 10
1399.473201
 20
1272.985983
 30
0.0
 11
1399.473201
 21
1275.385983
 31
0.0
  0
ARC
  5
49C
100
AcDbEntity
  8
1
100
AcDbCircle
 10
1406.073201
 20
1274.140983
 30
0.0
 40
6.0
100
AcDbArc
 50
270.0
 51
294.834587
  0
ARC
  5
49D
100
AcDbEntity
  8
1
100
AcDbCircle
 10
1406.073201
 20
1274.140983
 30
0.0
 40
6.0
100
AcDbArc
 50
245.165413
 51
270.0
  0
LINE
  5
49E
100
AcDbEntity
  8
1
  6
HIDDEN
100
AcDbLine
 10
1423.173201
 20
1285.885983
 30
0.0
 11
1423.173201
 21
1287.685983
 31
0.0
  0
LINE
  5
49F
100
AcDbEntity
  8
1
  6
HIDDEN
100
AcDbLine
 10
1420.173201
 20
1287.685983
 30
0.0
 11
1420.173201
 21
1285.885983
 31
0.0
  0
ARC
  5
4A0
100
AcDbEntity
  8
1
  6
HIDDEN
100
AcDbCircle
 10
1421.673201
 20
1287.685983
 30
0.0
 40
1.5
100
AcDbArc
 50
0.0
 51
180.0
  0
ARC
  5
4A1
100
AcDbEntity
  8
1
  6
HIDDEN
100
AcDbCircle
 10
1421.673201
 20
1285.885983
 30
0.0
 40
1.5
100
AcDbArc
 50
180.0
 51
360.0
  0
LINE
  5
4A2
100
AcDbEntity
  8
1
100
AcDbLine
 10
1444.593201
 20
1268.920983
 30
0.0
 11
1451.073201
 21
1268.920983
 31
0.0
  0
LINE
  5
4A3
100
AcDbEntity
  8
1
100
AcDbLine
 10
1444.593201
 20
1269.640983
 30
0.0
 11
1444.593201
 21
1268.920983
 31
0.0
  0
LINE
  5
4A4
100
AcDbEntity
  8
1
100
AcDbLine
 10
1692.211109
 20
549.335175
 30
0.0
 11
1692.211109
 21
494.015175
 31
0.0
  0
ARC
  5
4A5
100
AcDbEntity
  8
1
100
AcDbCircle
 10
1647.931109
 20
528.433622
 30
0.0
 40
36.0
100
AcDbArc
 50
333.434949
 51
360.0
  0
ARC
  5
4A6
100
AcDbEntity
  8
1
100
AcDbCircle
 10
1647.931109
 20
528.433622
 30
0.0
 40
36.36
100
AcDbArc
 50
333.434949
 51
360.0
  0
LINE
  5
4A7
100
AcDbEntity
  8
1
  6
HIDDEN
100
AcDbLine
 10
1695.556109
 20
254.735175
 30
0.0
 11
1695.556109
 21
539.135175
 31
0.0
  0
LINE
  5
4A8
100
AcDbEntity
  8
1
  6
HIDDEN
100
AcDbLine
 10
1713.556109
 20
536.495175
 30
0.0
 11
1713.556109
 21
257.375175
 31
0.0
  0
LINE
  5
4A9
100
AcDbEntity
  8
SILK
100
AcDbLine
 10
1765.321109
 20
580.135175
 30
0.0
 11
1765.321109
 21
213.735175
 31
0.0
  0
LINE
  5
4AA
100
AcDbEntity
  8
SILK
100
AcDbLine
 10
1755.796109
 20
213.735175
 30
0.0
 11
1755.796109
 21
580.135175
 31
0.0
  0
LINE
  5
4AB
100
AcDbEntity
  8
1
100
AcDbLine
 10
1754.731109
 20
264.935175
 30
0.0
 11
1754.731109
 21
528.935175
 31
0.0
  0
ARC
  5
4AC
100
AcDbEntity
  8
1
100
AcDbCircle
 10
1564.2808
 20
515.135175
 30
0.0
 40
45.0
100
AcDbArc
 50
0.0
 51
90.0
  0
ARC
  5
4AD
100
AcDbEntity
  8
1
100
AcDbCircle
 10
1564.2808
 20
515.135175
 30
0.0
 40
34.8
100
AcDbArc
 50
0.0
 51
90.0
  0
LINE
  5
4AE
100
AcDbEntity
  8
SILK
100
AcDbLine
 10
1609.2808
 20
505.791932
 30
0.0
 11
1647.2808
 21
543.791932
 31
0.0
  0
LINE
  5
4AF
100
AcDbEntity
  8
SILK
100
AcDbLine
 10
1609.2808
 20
488.821369
 30
0.0
 11
1647.2808
 21
526.821369
 31
0.0
  0
ARC
  5
4B0
100
AcDbEntity
  8
1
  6
HIDDEN
100
AcDbCircle
 10
1708.456109
 20
516.935175
 30
0.0
 40
1.5
100
AcDbArc
 50
90.0
 51
270.0
  0
ARC
  5
4B1
100
AcDbEntity
  8
1
  6
HIDDEN
100
AcDbCircle
 10
1710.256109
 20
516.935175
 30
0.0
 40
1.5
100
AcDbArc
 50
270.0
 51
450.0
  0
LINE
  5
4B2
100
AcDbEntity
  8
1
100
AcDbLine
 10
1754.731109
 20
264.935175
 30
0.0
 11
1692.931109
 21
264.935175
 31
0.0
  0
ARC
  5
4B4
100
AcDbEntity
  8
1
100
AcDbCircle
 10
1564.2808
 20
278.735175
 30
0.0
 40
45.0
100
AcDbArc
 50
270.0
 51
360.0
  0
ARC
  5
4B5
100
AcDbEntity
  8
1
100
AcDbCircle
 10
1564.2808
 20
278.735175
 30
0.0
 40
34.8
100
AcDbArc
 50
270.0
 51
360.0
  0
LINE
  5
4B6
100
AcDbEntity
  8
SILK
100
AcDbLine
 10
1588.753047
 20
213.735175
 30
0.0
 11
1647.2808
 21
272.262928
 31
0.0
  0
LINE
  5
4B7
100
AcDbEntity
  8
SILK
100
AcDbLine
 10
1571.782485
 20
213.735175
 30
0.0
 11
1647.2808
 21
289.23349
 31
0.0
  0
LINE
  5
4B8
100
AcDbEntity
  8
1
100
AcDbLine
 10
1599.0808
 20
278.735175
 30
0.0
 11
1599.0808
 21
515.135175
 31
0.0
  0
LINE
  5
4B9
100
AcDbEntity
  8
SILK
100
AcDbLine
 10
1520.870796
 20
213.735175
 30
0.0
 11
1540.870796
 21
233.735175
 31
0.0
  0
LINE
  5
4BA
100
AcDbEntity
  8
SILK
100
AcDbLine
 10
1486.929671
 20
213.735175
 30
0.0
 11
1506.929671
 21
233.735175
 31
0.0
  0
LINE
  5
4BB
100
AcDbEntity
  8
SILK
100
AcDbLine
 10
1469.959108
 20
213.735175
 30
0.0
 11
1489.959108
 21
233.735175
 31
0.0
  0
LINE
  5
4BC
100
AcDbEntity
  8
SILK
100
AcDbLine
 10
1503.900234
 20
213.735175
 30
0.0
 11
1523.900234
 21
233.735175
 31
0.0
  0
LINE
  5
4BD
100
AcDbEntity
  8
SILK
100
AcDbLine
 10
1554.811922
 20
213.735175
 30
0.0
 11
1576.505513
 21
235.428766
 31
0.0
  0
LINE
  5
4BE
100
AcDbEntity
  8
SILK
100
AcDbLine
 10
1537.841359
 20
213.735175
 30
0.0
 11
1557.841359
 21
233.735175
 31
0.0
  0
LINE
  5
4BF
100
AcDbEntity
  8
1
100
AcDbLine
 10
1691.491109
 20
306.335175
 30
0.0
 11
1691.491109
 21
299.855175
 31
0.0
  0
ARC
  5
4C0
100
AcDbEntity
  8
1
100
AcDbCircle
 10
6268.081109
 20
396.935175
 30
0.0
 40
4593.99
100
AcDbArc
 50
178.791625
 51
181.208375
  0
ARC
  5
4C1
100
AcDbEntity
  8
1
100
AcDbCircle
 10
6268.081109
 20
396.935175
 30
0.0
 40
4594.35
100
AcDbArc
 50
178.791625
 51
181.208375
  0
LINE
  5
4C2
100
AcDbEntity
  8
1
100
AcDbLine
 10
1609.2808
 20
278.735175
 30
0.0
 11
1609.2808
 21
515.135175
 31
0.0
  0
LINE
  5
4C3
100
AcDbEntity
  8
SILK
100
AcDbLine
 10
1607.587208
 20
266.510462
 30
0.0
 11
1647.2808
 21
306.204053
 31
0.0
  0
LINE
  5
4C4
100
AcDbEntity
  8
SILK
100
AcDbLine
 10
1609.2808
 20
285.174616
 30
0.0
 11
1647.2808
 21
323.174616
 31
0.0
  0
LINE
  5
4C5
100
AcDbEntity
  8
SILK
100
AcDbLine
 10
1622.694173
 20
213.735175
 30
0.0
 11
1647.2808
 21
238.321802
 31
0.0
  0
LINE
  5
4C6
100
AcDbEntity
  8
SILK
100
AcDbLine
 10
1605.72361
 20
213.735175
 30
0.0
 11
1647.2808
 21
255.292365
 31
0.0
  0
LINE
  5
4C7
100
AcDbEntity
  8
SILK
100
AcDbLine
 10
1639.664735
 20
213.735175
 30
0.0
 11
1647.2808
 21
221.351239
 31
0.0
  0
LINE
  5
4C8
100
AcDbEntity
  8
1
  6
HIDDEN
100
AcDbLine
 10
1710.256109
 20
278.435175
 30
0.0
 11
1708.456109
 21
278.435175
 31
0.0
  0
LINE
  5
4C9
100
AcDbEntity
  8
1
  6
HIDDEN
100
AcDbLine
 10
1708.456109
 20
275.435175
 30
0.0
 11
1710.256109
 21
275.435175
 31
0.0
  0
LINE
  5
4CA
100
AcDbEntity
  8
1
  6
HIDDEN
100
AcDbLine
 10
1712.356109
 20
256.175175
 30
0.0
 11
1695.556109
 21
256.175175
 31
0.0
  0
LINE
  5
4CB
100
AcDbEntity
  8
1
100
AcDbLine
 10
1703.656109
 20
242.135175
 30
0.0
 11
1713.556109
 21
242.135175
 31
0.0
  0
LINE
  5
4CC
100
AcDbEntity
  8
1
100
AcDbLine
 10
1713.556109
 20
240.935175
 30
0.0
 11
1702.456109
 21
240.935175
 31
0.0
  0
LINE
  5
4CD
100
AcDbEntity
  8
1
100
AcDbLine
 10
1703.656109
 20
257.375175
 30
0.0
 11
1703.656109
 21
242.135175
 31
0.0
  0
LINE
  5
4CE
100
AcDbEntity
  8
1
100
AcDbLine
 10
1702.456109
 20
240.935175
 30
0.0
 11
1702.456109
 21
256.175175
 31
0.0
  0
LINE
  5
4CF
100
AcDbEntity
  8
1
100
AcDbLine
 10
1692.211109
 20
299.855175
 30
0.0
 11
1692.211109
 21
244.535175
 31
0.0
  0
LINE
  5
4D0
100
AcDbEntity
  8
1
100
AcDbLine
 10
1692.931109
 20
264.935175
 30
0.0
 11
1692.931109
 21
244.535175
 31
0.0
  0
LINE
  5
4D1
100
AcDbEntity
  8
SILK
100
AcDbLine
 10
1692.931109
 20
213.735175
 30
0.0
 11
1692.931109
 21
252.935175
 31
0.0
  0
LINE
  5
4D2
100
AcDbEntity
  8
SILK
100
AcDbLine
 10
1702.456109
 20
252.935175
 30
0.0
 11
1702.456109
 21
213.735175
 31
0.0
  0
LINE
  5
4D3
100
AcDbEntity
  8
1
100
AcDbLine
 10
1683.931109
 20
244.115175
 30
0.0
 11
1683.931109
 21
265.436728
 31
0.0
  0
LINE
  5
4D4
100
AcDbEntity
  8
1
100
AcDbLine
 10
1684.291109
 20
244.475175
 30
0.0
 11
1684.291109
 21
265.436728
 31
0.0
  0
ARC
  5
4D5
100
AcDbEntity
  8
1
100
AcDbCircle
 10
1692.931109
 20
242.735175
 30
0.0
 40
9.0
100
AcDbArc
 50
180.0
 51
270.0
  0
ARC
  5
4D6
100
AcDbEntity
  8
1
100
AcDbCircle
 10
1692.931109
 20
242.735175
 30
0.0
 40
7.2
100
AcDbArc
 50
180.0
 51
270.0
  0
LINE
  5
4D7
100
AcDbEntity
  8
1
100
AcDbLine
 10
1689.331109
 20
242.735175
 30
0.0
 11
1689.331109
 21
243.935175
 31
0.0
  0
LINE
  5
4D8
100
AcDbEntity
  8
1
100
AcDbLine
 10
1689.331109
 20
243.935175
 30
0.0
 11
1689.331109
 21
245.855175
 31
0.0
  0
LINE
  5
4D9
100
AcDbEntity
  8
1
100
AcDbLine
 10
1686.931109
 20
244.115175
 30
0.0
 11
1683.931109
 21
244.115175
 31
0.0
  0
LINE
  5
4DA
100
AcDbEntity
  8
1
100
AcDbLine
 10
1686.931109
 20
244.475175
 30
0.0
 11
1686.931109
 21
244.115175
 31
0.0
  0
LINE
  5
4DB
100
AcDbEntity
  8
1
100
AcDbLine
 10
1684.291109
 20
244.475175
 30
0.0
 11
1686.931109
 21
244.475175
 31
0.0
  0
LINE
  5
4DC
100
AcDbEntity
  8
1
100
AcDbLine
 10
1687.531109
 20
245.855175
 30
0.0
 11
1687.531109
 21
243.935175
 31
0.0
  0
LINE
  5
4DD
100
AcDbEntity
  8
1
100
AcDbLine
 10
1687.531109
 20
243.935175
 30
0.0
 11
1683.931109
 21
243.935175
 31
0.0
  0
LINE
  5
4DE
100
AcDbEntity
  8
1
100
AcDbLine
 10
1683.931109
 20
242.735175
 30
0.0
 11
1683.931109
 21
243.935175
 31
0.0
  0
LINE
  5
4DF
100
AcDbEntity
  8
1
100
AcDbLine
 10
1689.331109
 20
245.855175
 30
0.0
 11
1687.531109
 21
245.855175
 31
0.0
  0
LINE
  5
4E0
100
AcDbEntity
  8
1
100
AcDbLine
 10
1685.731109
 20
242.735175
 30
0.0
 11
1689.331109
 21
242.735175
 31
0.0
  0
LINE
  5
4E1
100
AcDbEntity
  8
SILK
100
AcDbLine
 10
1692.931109
 20
215.498426
 30
0.0
 11
1702.456109
 21
225.023426
 31
0.0
  0
LINE
  5
4E2
100
AcDbEntity
  8
SILK
100
AcDbLine
 10
1692.931109
 20
232.468988
 30
0.0
 11
1702.456109
 21
241.993988
 31
0.0
  0
LINE
  5
4E3
100
AcDbEntity
  8
1
100
AcDbLine
 10
1692.931109
 20
233.735175
 30
0.0
 11
1692.931109
 21
235.535175
 31
0.0
  0
LINE
  5
4E4
100
AcDbEntity
  8
1
100
AcDbLine
 10
1692.211109
 20
244.535175
 30
0.0
 11
1692.931109
 21
244.535175
 31
0.0
  0
ARC
  5
4E5
100
AcDbEntity
  8
1
100
AcDbCircle
 10
1696.711109
 20
261.335175
 30
0.0
 40
6.0
100
AcDbArc
 50
155.165413
 51
180.0
  0
ARC
  5
4E6
100
AcDbEntity
  8
1
100
AcDbCircle
 10
1696.711109
 20
261.335175
 30
0.0
 40
6.0
100
AcDbArc
 50
180.0
 51
204.834587
  0
ARC
  5
4E7
100
AcDbEntity
  8
1
100
AcDbCircle
 10
1647.931109
 20
265.436728
 30
0.0
 40
36.0
100
AcDbArc
 50
0.0
 51
26.565051
  0
ARC
  5
4E8
100
AcDbEntity
  8
1
100
AcDbCircle
 10
1647.931109
 20
265.436728
 30
0.0
 40
36.36
100
AcDbArc
 50
0.0
 51
26.565051
  0
LINE
  5
4E9
100
AcDbEntity
  8
1
100
AcDbLine
 10
1678.545454
 20
284.706486
 30
0.0
 11
1680.130488
 21
281.536417
 31
0.0
  0
LINE
  5
4EA
100
AcDbEntity
  8
1
100
AcDbLine
 10
1678.867448
 20
284.867483
 30
0.0
 11
1680.452482
 21
281.697414
 31
0.0
  0
ARC
  5
4EB
100
AcDbEntity
  8
1
100
AcDbCircle
 10
1710.744833
 20
300.806175
 30
0.0
 40
36.0
100
AcDbArc
 50
181.208375
 51
206.565051
  0
ARC
  5
4EC
100
AcDbEntity
  8
1
100
AcDbCircle
 10
1710.744833
 20
300.806175
 30
0.0
 40
35.64
100
AcDbArc
 50
181.208375
 51
206.565051
  0
LINE
  5
4ED
100
AcDbEntity
  8
1
  6
HIDDEN
100
AcDbLine
 10
1697.956109
 20
254.735175
 30
0.0
 11
1695.556109
 21
254.735175
 31
0.0
  0
LINE
  5
4EE
100
AcDbEntity
  8
1
  6
HIDDEN
100
AcDbLine
 10
1697.956109
 20
256.175175
 30
0.0
 11
1697.956109
 21
254.735175
 31
0.0
  0
ARC
  5
4EF
100
AcDbEntity
  8
1
  6
HIDDEN
100
AcDbCircle
 10
1708.456109
 20
276.935175
 30
0.0
 40
1.5
100
AcDbArc
 50
90.0
 51
270.0
  0
LINE
  5
4F0
100
AcDbEntity
  8
SILK
100
AcDbLine
 10
1692.931109
 20
249.439551
 30
0.0
 11
1696.426733
 21
252.935175
 31
0.0
  0
LINE
  5
4F1
100
AcDbEntity
  8
1
100
AcDbLine
 10
1696.756109
 20
257.375175
 30
0.0
 11
1703.656109
 21
257.375175
 31
0.0
  0
LINE
  5
4F2
100
AcDbEntity
  8
1
100
AcDbLine
 10
1696.756109
 20
264.335175
 30
0.0
 11
1696.756109
 21
257.375175
 31
0.0
  0
LINE
  5
4F3
100
AcDbEntity
  8
1
100
AcDbLine
 10
1695.556109
 20
264.335175
 30
0.0
 11
1696.756109
 21
264.335175
 31
0.0
  0
LINE
  5
4F4
100
AcDbEntity
  8
1
100
AcDbLine
 10
1695.556109
 20
256.175175
 30
0.0
 11
1695.556109
 21
264.335175
 31
0.0
  0
LINE
  5
4F5
100
AcDbEntity
  8
1
100
AcDbLine
 10
1702.456109
 20
256.175175
 30
0.0
 11
1695.556109
 21
256.175175
 31
0.0
  0
LINE
  5
4F6
100
AcDbEntity
  8
SILK
100
AcDbLine
 10
1692.931109
 20
252.935175
 30
0.0
 11
1702.456109
 21
252.935175
 31
0.0
  0
LINE
  5
4F7
100
AcDbEntity
  8
1
100
AcDbLine
 10
1704.211109
 20
260.135175
 30
0.0
 11
1696.756109
 21
260.135175
 31
0.0
  0
LINE
  5
4F8
100
AcDbEntity
  8
1
100
AcDbLine
 10
1692.931109
 20
262.535175
 30
0.0
 11
1695.556109
 21
262.535175
 31
0.0
  0
LINE
  5
4F9
100
AcDbEntity
  8
1
100
AcDbLine
 10
1696.756109
 20
262.535175
 30
0.0
 11
1704.211109
 21
262.535175
 31
0.0
  0
LINE
  5
4FA
100
AcDbEntity
  8
1
100
AcDbLine
 10
1704.211109
 20
262.535175
 30
0.0
 11
1704.211109
 21
260.135175
 31
0.0
  0
LINE
  5
4FB
100
AcDbEntity
  8
1
100
AcDbLine
 10
1695.556109
 20
260.135175
 30
0.0
 11
1692.931109
 21
260.135175
 31
0.0
  0
LINE
  5
4FC
100
AcDbEntity
  8
1
100
AcDbLine
 10
1691.491109
 20
299.855175
 30
0.0
 11
1692.211109
 21
299.855175
 31
0.0
  0
LINE
  5
4FD
100
AcDbEntity
  8
1
100
AcDbLine
 10
1692.211109
 20
258.815175
 30
0.0
 11
1691.265965
 21
258.815175
 31
0.0
  0
LINE
  5
4FE
100
AcDbEntity
  8
1
100
AcDbLine
 10
1691.265965
 20
263.855175
 30
0.0
 11
1692.211109
 21
263.855175
 31
0.0
  0
LINE
  5
4FF
100
AcDbEntity
  8
1
100
AcDbLine
 10
1713.556109
 20
242.135175
 30
0.0
 11
1713.556109
 21
240.935175
 31
0.0
  0
ARC
  5
500
100
AcDbEntity
  8
1
  6
HIDDEN
100
AcDbCircle
 10
1712.356109
 20
257.375175
 30
0.0
 40
1.2
100
AcDbArc
 50
270.0
 51
360.0
  0
ARC
  5
501
100
AcDbEntity
  8
1
  6
HIDDEN
100
AcDbCircle
 10
1710.256109
 20
276.935175
 30
0.0
 40
1.5
100
AcDbArc
 50
270.0
 51
450.0
  0
LINE
  5
502
100
AcDbEntity
  8
SILK
100
AcDbLine
 10
1609.2808
 20
386.997992
 30
0.0
 11
1647.2808
 21
424.997992
 31
0.0
  0
LINE
  5
503
100
AcDbEntity
  8
SILK
100
AcDbLine
 10
1609.2808
 20
403.968555
 30
0.0
 11
1647.2808
 21
441.968555
 31
0.0
  0
LINE
  5
504
100
AcDbEntity
  8
SILK
100
AcDbLine
 10
1609.2808
 20
370.02743
 30
0.0
 11
1647.2808
 21
408.02743
 31
0.0
  0
LINE
  5
505
100
AcDbEntity
  8
SILK
100
AcDbLine
 10
1609.2808
 20
302.145179
 30
0.0
 11
1647.2808
 21
340.145179
 31
0.0
  0
LINE
  5
506
100
AcDbEntity
  8
SILK
100
AcDbLine
 10
1609.2808
 20
319.115741
 30
0.0
 11
1647.2808
 21
357.115741
 31
0.0
  0
LINE
  5
507
100
AcDbEntity
  8
SILK
100
AcDbLine
 10
1609.2808
 20
336.086304
 30
0.0
 11
1647.2808
 21
374.086304
 31
0.0
  0
LINE
  5
508
100
AcDbEntity
  8
SILK
100
AcDbLine
 10
1609.2808
 20
353.056867
 30
0.0
 11
1647.2808
 21
391.056867
 31
0.0
  0
LINE
  5
509
100
AcDbEntity
  8
SILK
100
AcDbLine
 10
1609.2808
 20
471.850806
 30
0.0
 11
1647.2808
 21
509.850806
 31
0.0
  0
LINE
  5
50A
100
AcDbEntity
  8
SILK
100
AcDbLine
 10
1609.2808
 20
420.939118
 30
0.0
 11
1647.2808
 21
458.939118
 31
0.0
  0
LINE
  5
50B
100
AcDbEntity
  8
SILK
100
AcDbLine
 10
1609.2808
 20
437.909681
 30
0.0
 11
1647.2808
 21
475.909681
 31
0.0
  0
LINE
  5
50C
100
AcDbEntity
  8
SILK
100
AcDbLine
 10
1609.2808
 20
454.880243
 30
0.0
 11
1647.2808
 21
492.880243
 31
0.0
  0
LINE
  5
50D
100
AcDbEntity
  8
1
100
AcDbLine
 10
1676.731109
 20
487.535175
 30
0.0
 11
1676.731109
 21
306.335175
 31
0.0
  0
LINE
  5
50E
100
AcDbEntity
  8
1
  6
HIDDEN
100
AcDbLine
 10
1710.256109
 20
398.435175
 30
0.0
 11
1708.456109
 21
398.435175
 31
0.0
  0
LINE
  5
50F
100
AcDbEntity
  8
1
  6
HIDDEN
100
AcDbLine
 10
1708.456109
 20
395.435175
 30
0.0
 11
1710.256109
 21
395.435175
 31
0.0
  0
LINE
  5
510
100
AcDbEntity
  8
1
100
AcDbLine
 10
1676.731109
 20
306.335175
 30
0.0
 11
1691.491109
 21
306.335175
 31
0.0
  0
ARC
  5
511
100
AcDbEntity
  8
1
  6
HIDDEN
100
AcDbCircle
 10
1708.456109
 20
396.935175
 30
0.0
 40
1.5
100
AcDbArc
 50
90.0
 51
270.0
  0
ARC
  5
512
100
AcDbEntity
  8
1
  6
HIDDEN
100
AcDbCircle
 10
1710.256109
 20
396.935175
 30
0.0
 40
1.5
100
AcDbArc
 50
270.0
 51
450.0
  0
LINE
  5
513
100
AcDbEntity
  8
1
  6
HIDDEN
100
AcDbLine
 10
1708.456109
 20
515.435175
 30
0.0
 11
1710.256109
 21
515.435175
 31
0.0
  0
LINE
  5
514
100
AcDbEntity
  8
1
100
AcDbLine
 10
1691.491109
 20
487.535175
 30
0.0
 11
1676.731109
 21
487.535175
 31
0.0
  0
LINE
  5
515
100
AcDbEntity
  8
1
100
AcDbLine
 10
1680.130488
 20
512.333933
 30
0.0
 11
1678.545454
 21
509.163864
 31
0.0
  0
LINE
  5
516
100
AcDbEntity
  8
1
100
AcDbLine
 10
1680.452482
 20
512.172936
 30
0.0
 11
1678.867448
 21
509.002867
 31
0.0
  0
ARC
  5
517
100
AcDbEntity
  8
1
100
AcDbCircle
 10
1710.744833
 20
493.064175
 30
0.0
 40
36.0
100
AcDbArc
 50
153.434949
 51
178.791625
  0
ARC
  5
518
100
AcDbEntity
  8
1
100
AcDbCircle
 10
1710.744833
 20
493.064175
 30
0.0
 40
35.64
100
AcDbArc
 50
153.434949
 51
178.791625
  0
LINE
  5
519
100
AcDbEntity
  8
1
100
AcDbLine
 10
1692.211109
 20
494.015175
 30
0.0
 11
1691.491109
 21
494.015175
 31
0.0
  0
LINE
  5
51A
100
AcDbEntity
  8
1
100
AcDbLine
 10
1691.491109
 20
494.015175
 30
0.0
 11
1691.491109
 21
487.535175
 31
0.0
  0
LINE
  5
51B
100
AcDbEntity
  8
SILK
100
AcDbLine
 10
1755.796109
 20
295.333988
 30
0.0
 11
1765.321109
 21
304.858988
 31
0.0
  0
LINE
  5
51C
100
AcDbEntity
  8
SILK
100
AcDbLine
 10
1755.796109
 20
244.4223
 30
0.0
 11
1765.321109
 21
253.9473
 31
0.0
  0
LINE
  5
51D
100
AcDbEntity
  8
SILK
100
AcDbLine
 10
1759.05011
 20
213.735175
 30
0.0
 11
1765.321109
 21
220.006175
 31
0.0
  0
LINE
  5
51E
100
AcDbEntity
  8
SILK
100
AcDbLine
 10
1755.796109
 20
227.451737
 30
0.0
 11
1765.321109
 21
236.976737
 31
0.0
  0
LINE
  5
51F
100
AcDbEntity
  8
SILK
100
AcDbLine
 10
1755.796109
 20
261.392863
 30
0.0
 11
1765.321109
 21
270.917863
 31
0.0
  0
LINE
  5
520
100
AcDbEntity
  8
SILK
100
AcDbLine
 10
1755.796109
 20
278.363426
 30
0.0
 11
1765.321109
 21
287.888426
 31
0.0
  0
LINE
  5
521
100
AcDbEntity
  8
SILK
100
AcDbLine
 10
1755.796109
 20
346.245677
 30
0.0
 11
1765.321109
 21
355.770677
 31
0.0
  0
LINE
  5
522
100
AcDbEntity
  8
SILK
100
AcDbLine
 10
1755.796109
 20
312.304551
 30
0.0
 11
1765.321109
 21
321.829551
 31
0.0
  0
LINE
  5
523
100
AcDbEntity
  8
SILK
100
AcDbLine
 10
1755.796109
 20
329.275114
 30
0.0
 11
1765.321109
 21
338.800114
 31
0.0
  0
LINE
  5
524
100
AcDbEntity
  8
SILK
100
AcDbLine
 10
1755.796109
 20
363.216239
 30
0.0
 11
1765.321109
 21
372.741239
 31
0.0
  0
LINE
  5
525
100
AcDbEntity
  8
SILK
100
AcDbLine
 10
1755.796109
 20
380.186802
 30
0.0
 11
1765.321109
 21
389.711802
 31
0.0
  0
LINE
  5
526
100
AcDbEntity
  8
SILK
100
AcDbLine
 10
1755.796109
 20
397.157365
 30
0.0
 11
1765.321109
 21
406.682365
 31
0.0
  0
LINE
  5
527
100
AcDbEntity
  8
SILK
100
AcDbLine
 10
1755.796109
 20
414.127928
 30
0.0
 11
1765.321109
 21
423.652928
 31
0.0
  0
LINE
  5
528
100
AcDbEntity
  8
SILK
100
AcDbLine
 10
1755.796109
 20
431.09849
 30
0.0
 11
1765.321109
 21
440.62349
 31
0.0
  0
LINE
  5
529
100
AcDbEntity
  8
SILK
100
AcDbLine
 10
1755.796109
 20
448.069053
 30
0.0
 11
1765.321109
 21
457.594053
 31
0.0
  0
LINE
  5
52A
100
AcDbEntity
  8
SILK
100
AcDbLine
 10
1755.796109
 20
465.039616
 30
0.0
 11
1765.321109
 21
474.564616
 31
0.0
  0
LINE
  5
52B
100
AcDbEntity
  8
SILK
100
AcDbLine
 10
1755.796109
 20
482.010179
 30
0.0
 11
1765.321109
 21
491.535179
 31
0.0
  0
LINE
  5
52C
100
AcDbEntity
  8
SILK
100
AcDbLine
 10
1755.796109
 20
498.980741
 30
0.0
 11
1765.321109
 21
508.505741
 31
0.0
  0
LINE
  5
52D
100
AcDbEntity
  8
SILK
100
AcDbLine
 10
1717.711109
 20
806.479113
 30
0.0
 11
1745.208458
 21
833.976461
 31
0.0
  0
LINE
  5
52E
100
AcDbEntity
  8
SILK
100
AcDbLine
 10
1754.553201
 20
1270.360983
 30
0.0
 11
1685.673201
 21
1270.360983
 31
0.0
  0
LINE
  5
52F
100
AcDbEntity
  8
SILK
100
AcDbLine
 10
1685.673201
 20
1279.885983
 30
0.0
 11
1754.553201
 21
1279.885983
 31
0.0
  0
LINE
  5
530
100
AcDbEntity
  8
SILK
100
AcDbLine
 10
1685.673201
 20
975.580026
 30
0.0
 11
1754.553201
 21
975.580026
 31
0.0
  0
LINE
  5
531
100
AcDbEntity
  8
SILK
100
AcDbLine
 10
1754.553201
 20
966.055026
 30
0.0
 11
1685.673201
 21
966.055026
 31
0.0
  0
LINE
  5
532
100
AcDbEntity
  8
1
100
AcDbLine
 10
1692.931109
 20
528.935175
 30
0.0
 11
1754.731109
 21
528.935175
 31
0.0
  0
LINE
  5
533
100
AcDbEntity
  8
SILK
100
AcDbLine
 10
1760.040567
 20
782.519562
 30
0.0
 11
1717.711109
 21
824.84902
 31
0.0
  0
LINE
  5
534
100
AcDbEntity
  8
SILK
100
AcDbLine
 10
1763.431109
 20
796.099583
 30
0.0
 11
1725.554231
 21
833.976461
 31
0.0
  0
LINE
  5
535
100
AcDbEntity
  8
SILK
100
AcDbLine
 10
1726.922122
 20
798.719562
 30
0.0
 11
1762.179021
 21
833.976461
 31
0.0
  0
LINE
  5
536
100
AcDbEntity
  8
SILK
100
AcDbLine
 10
1741.506749
 20
796.333627
 30
0.0
 11
1763.431109
 21
818.257987
 31
0.0
  0
LINE
  5
537
100
AcDbEntity
  8
SILK
100
AcDbLine
 10
1717.711109
 20
782.519562
 30
0.0
 11
1763.431109
 21
782.519562
 31
0.0
  0
LINE
  5
538
100
AcDbEntity
  8
SILK
100
AcDbLine
 10
1710.331109
 20
782.519562
 30
0.0
 11
1778.389931
 21
782.519562
 31
0.0
  0
LINE
  5
539
100
AcDbEntity
  8
SILK
100
AcDbLine
 10
1710.331109
 20
763.469562
 30
0.0
 11
1778.389931
 21
763.469562
 31
0.0
  0
ARC
  5
53A
100
AcDbEntity
  8
1
100
AcDbCircle
 10
1736.731109
 20
763.469562
 30
0.0
 40
14.4
100
AcDbArc
 50
270.0
 51
360.0
  0
ARC
  5
53B
100
AcDbEntity
  8
1
100
AcDbCircle
 10
1736.731109
 20
763.469562
 30
0.0
 40
18.0
100
AcDbArc
 50
270.0
 51
360.0
  0
LINE
  5
53C
100
AcDbEntity
  8
SILK
100
AcDbLine
 10
1731.37974
 20
763.469562
 30
0.0
 11
1750.42974
 21
782.519562
 31
0.0
  0
LINE
  5
53D
100
AcDbEntity
  8
SILK
100
AcDbLine
 10
1763.431109
 20
813.070146
 30
0.0
 11
1742.524793
 21
833.976461
 31
0.0
  0
LINE
  5
53E
100
AcDbEntity
  8
SILK
100
AcDbLine
 10
1593.688979
 20
629.765264
 30
0.0
 11
1603.213979
 21
639.290264
 31
0.0
  0
LINE
  5
53F
100
AcDbEntity
  8
SILK
100
AcDbLine
 10
1597.769689
 20
545.192508
 30
0.0
 11
1632.712355
 21
580.135175
 31
0.0
  0
LINE
  5
540
100
AcDbEntity
  8
SILK
100
AcDbLine
 10
1588.601667
 20
552.995049
 30
0.0
 11
1615.741792
 21
580.135175
 31
0.0
  0
LINE
  5
541
100
AcDbEntity
  8
SILK
100
AcDbLine
 10
1590.7708
 20
643.817648
 30
0.0
 11
1613.6308
 21
666.677648
 31
0.0
  0
LINE
  5
542
100
AcDbEntity
  8
SILK
100
AcDbLine
 10
1590.7708
 20
660.788211
 30
0.0
 11
1613.6308
 21
683.648211
 31
0.0
  0
LINE
  5
543
100
AcDbEntity
  8
SILK
100
AcDbLine
 10
1590.7708
 20
677.758773
 30
0.0
 11
1605.64229
 21
692.630264
 31
0.0
  0
LINE
  5
544
100
AcDbEntity
  8
SILK
100
AcDbLine
 10
1613.6308
 20
679.485877
 30
0.0
 11
1600.486413
 21
692.630264
 31
0.0
  0
LINE
  5
545
100
AcDbEntity
  8
SILK
100
AcDbLine
 10
1613.6308
 20
662.515314
 30
0.0
 11
1590.7708
 21
685.375314
 31
0.0
  0
LINE
  5
546
100
AcDbEntity
  8
SILK
100
AcDbLine
 10
1613.6308
 20
645.544751
 30
0.0
 11
1590.7708
 21
668.404751
 31
0.0
  0
ARC
  5
547
100
AcDbEntity
  8
1
100
AcDbCircle
 10
1600.2808
 20
629.765264
 30
0.0
 40
9.0
100
AcDbArc
 50
270.0
 51
360.0
  0
CIRCLE
  5
548
100
AcDbEntity
  8
1
 62
     2
100
AcDbCircle
 10
1590.7708
 20
639.290264
 30
0.0
 40
33.0
  0
ARC
  5
549
100
AcDbEntity
  8
1
100
AcDbCircle
 10
1600.2808
 20
629.765264
 30
0.0
 40
7.2
100
AcDbArc
 50
270.0
 51
360.0
  0
LINE
  5
54A
100
AcDbEntity
  8
SILK
100
AcDbLine
 10
1590.7708
 20
639.290264
 30
0.0
 11
1613.6308
 21
639.290264
 31
0.0
  0
LINE
  5
54B
100
AcDbEntity
  8
SILK
100
AcDbLine
 10
1613.6308
 20
692.630264
 30
0.0
 11
1590.7708
 21
692.630264
 31
0.0
  0
LINE
  5
54C
100
AcDbEntity
  8
SILK
100
AcDbLine
 10
1647.2808
 20
629.765264
 30
0.0
 11
1587.0808
 21
629.765264
 31
0.0
  0
LINE
  5
54D
100
AcDbEntity
  8
SILK
100
AcDbLine
 10
1587.0808
 20
639.290264
 30
0.0
 11
1647.2808
 21
639.290264
 31
0.0
  0
LINE
  5
54E
100
AcDbEntity
  8
SILK
100
AcDbLine
 10
1527.859541
 20
560.135175
 30
0.0
 11
1547.859541
 21
580.135175
 31
0.0
  0
LINE
  5
54F
100
AcDbEntity
  8
SILK
100
AcDbLine
 10
1493.918416
 20
560.135175
 30
0.0
 11
1513.918416
 21
580.135175
 31
0.0
  0
LINE
  5
550
100
AcDbEntity
  8
SILK
100
AcDbLine
 10
1476.947853
 20
560.135175
 30
0.0
 11
1496.947853
 21
580.135175
 31
0.0
  0
LINE
  5
551
100
AcDbEntity
  8
SILK
100
AcDbLine
 10
1510.888979
 20
560.135175
 30
0.0
 11
1530.888979
 21
580.135175
 31
0.0
  0
LINE
  5
552
100
AcDbEntity
  8
SILK
100
AcDbLine
 10
1469.877788
 20
692.630264
 30
0.0
 11
1479.402788
 21
702.155264
 31
0.0
  0
LINE
  5
553
100
AcDbEntity
  8
SILK
100
AcDbLine
 10
1486.848351
 20
692.630264
 30
0.0
 11
1496.373351
 21
702.155264
 31
0.0
  0
LINE
  5
554
100
AcDbEntity
  8
SILK
100
AcDbLine
 10
1503.818914
 20
692.630264
 30
0.0
 11
1513.343914
 21
702.155264
 31
0.0
  0
LINE
  5
555
100
AcDbEntity
  8
SILK
100
AcDbLine
 10
1520.789477
 20
692.630264
 30
0.0
 11
1530.314477
 21
702.155264
 31
0.0
  0
LINE
  5
556
100
AcDbEntity
  8
SILK
100
AcDbLine
 10
1561.800667
 20
560.135175
 30
0.0
 11
1581.800667
 21
580.135175
 31
0.0
  0
LINE
  5
557
100
AcDbEntity
  8
SILK
100
AcDbLine
 10
1544.830104
 20
560.135175
 30
0.0
 11
1564.830104
 21
580.135175
 31
0.0
  0
LINE
  5
558
100
AcDbEntity
  8
SILK
100
AcDbLine
 10
1576.949503
 20
558.313448
 30
0.0
 11
1598.77123
 21
580.135175
 31
0.0
  0
ARC
  5
559
100
AcDbEntity
  8
1
100
AcDbCircle
 10
1581.779247
 20
584.765264
 30
0.0
 40
36.0
100
AcDbArc
 50
90.0
 51
116.565051
  0
ARC
  5
55A
100
AcDbEntity
  8
1
100
AcDbCircle
 10
1581.779247
 20
584.765264
 30
0.0
 40
36.36
100
AcDbArc
 50
90.0
 51
116.565051
  0
LINE
  5
55B
100
AcDbEntity
  8
1
100
AcDbLine
 10
1552.7608
 20
629.045264
 30
0.0
 11
1598.4808
 21
629.045264
 31
0.0
  0
ARC
  5
55C
100
AcDbEntity
  8
1
100
AcDbCircle
 10
1546.269133
 20
647.508654
 30
0.0
 40
36.0
100
AcDbArc
 50
271.638126
 51
296.565051
  0
ARC
  5
55D
100
AcDbEntity
  8
1
100
AcDbCircle
 10
1546.269133
 20
647.508654
 30
0.0
 40
35.64
100
AcDbArc
 50
271.638126
 51
296.565051
  0
LINE
  5
55E
100
AcDbEntity
  8
1
100
AcDbLine
 10
1546.2808
 20
628.325264
 30
0.0
 11
1552.7608
 21
628.325264
 31
0.0
  0
LINE
  5
55F
100
AcDbEntity
  8
1
100
AcDbLine
 10
1546.2808
 20
613.565264
 30
0.0
 11
1546.2808
 21
628.325264
 31
0.0
  0
LINE
  5
560
100
AcDbEntity
  8
1
  6
HIDDEN
100
AcDbLine
 10
1555.8808
 20
640.490264
 30
0.0
 11
1559.4808
 21
640.490264
 31
0.0
  0
LINE
  5
561
100
AcDbEntity
  8
1
  6
HIDDEN
100
AcDbLine
 10
1559.4808
 20
643.790264
 30
0.0
 11
1559.4808
 21
639.290264
 31
0.0
  0
LINE
  5
562
100
AcDbEntity
  8
1
  6
HIDDEN
100
AcDbLine
 10
1555.8808
 20
639.290264
 30
0.0
 11
1555.8808
 21
643.790264
 31
0.0
  0
ARC
  5
563
100
AcDbEntity
  8
1
  6
HIDDEN
100
AcDbCircle
 10
1557.6808
 20
643.790264
 30
0.0
 40
1.8
100
AcDbArc
 50
90.0
 51
180.0
  0
ARC
  5
564
100
AcDbEntity
  8
1
  6
HIDDEN
100
AcDbCircle
 10
1557.6808
 20
643.790264
 30
0.0
 40
1.8
100
AcDbArc
 50
0.0
 51
90.0
  0
LINE
  5
565
100
AcDbEntity
  8
1
100
AcDbLine
 10
1552.7608
 20
628.325264
 30
0.0
 11
1552.7608
 21
629.045264
 31
0.0
  0
LINE
  5
566
100
AcDbEntity
  8
1
 62
     2
100
AcDbLine
 10
1562.368823
 20
615.309275
 30
0.0
 11
1565.679558
 21
616.964643
 31
0.0
  0
LINE
  5
567
100
AcDbEntity
  8
1
 62
     2
100
AcDbLine
 10
1562.207826
 20
615.631269
 30
0.0
 11
1565.518561
 21
617.286636
 31
0.0
  0
LINE
  5
568
100
AcDbEntity
  8
SILK
100
AcDbLine
 10
1537.760039
 20
692.630264
 30
0.0
 11
1547.285039
 21
702.155264
 31
0.0
  0
LINE
  5
569
100
AcDbEntity
  8
SILK
100
AcDbLine
 10
1554.730602
 20
692.630264
 30
0.0
 11
1564.255602
 21
702.155264
 31
0.0
  0
LINE
  5
56A
100
AcDbEntity
  8
CENTER
  6
CENTER
100
AcDbLine
 10
1602.2008
 20
707.155264
 30
0.0
 11
1602.2008
 21
639.290264
 31
0.0
  0
LINE
  5
56B
100
AcDbEntity
  8
1
100
AcDbLine
 10
1582.2808
 20
691.565264
 30
0.0
 11
1582.2808
 21
629.765264
 31
0.0
  0
LINE
  5
56C
100
AcDbEntity
  8
SILK
100
AcDbLine
 10
1590.7708
 20
692.630264
 30
0.0
 11
1590.7708
 21
639.290264
 31
0.0
  0
LINE
  5
56D
100
AcDbEntity
  8
1
100
AcDbLine
 10
1584.6808
 20
632.390264
 30
0.0
 11
1585.8808
 21
632.390264
 31
0.0
  0
LINE
  5
56E
100
AcDbEntity
  8
1
100
AcDbLine
 10
1585.8808
 20
650.390264
 30
0.0
 11
1584.6808
 21
650.390264
 31
0.0
  0
LINE
  5
56F
100
AcDbEntity
  8
1
100
AcDbLine
 10
1598.4808
 20
629.765264
 30
0.0
 11
1582.2808
 21
629.765264
 31
0.0
  0
LINE
  5
570
100
AcDbEntity
  8
1
100
AcDbLine
 10
1598.9008
 20
620.765264
 30
0.0
 11
1581.779247
 21
620.765264
 31
0.0
  0
LINE
  5
571
100
AcDbEntity
  8
1
100
AcDbLine
 10
1598.5408
 20
621.125264
 30
0.0
 11
1581.779247
 21
621.125264
 31
0.0
  0
LINE
  5
572
100
AcDbEntity
  8
1
100
AcDbLine
 10
1600.602339
 20
644.990264
 30
0.0
 11
1584.6808
 21
644.990264
 31
0.0
  0
LINE
  5
573
100
AcDbEntity
  8
1
100
AcDbLine
 10
1584.6808
 20
647.390264
 30
0.0
 11
1600.602339
 21
647.390264
 31
0.0
  0
LINE
  5
574
100
AcDbEntity
  8
1
  6
HIDDEN
100
AcDbLine
 10
1583.4808
 20
649.190264
 30
0.0
 11
1583.4808
 21
639.290264
 31
0.0
  0
ARC
  5
575
100
AcDbEntity
  8
1
  6
HIDDEN
100
AcDbCircle
 10
1582.2808
 20
649.190264
 30
0.0
 40
1.2
100
AcDbArc
 50
0.0
 51
90.0
  0
ARC
  5
576
100
AcDbEntity
  8
1
100
AcDbCircle
 10
1589.1808
 20
646.190264
 30
0.0
 40
6.0
100
AcDbArc
 50
155.165413
 51
180.0
  0
ARC
  5
577
100
AcDbEntity
  8
1
100
AcDbCircle
 10
1589.1808
 20
646.190264
 30
0.0
 40
6.0
100
AcDbArc
 50
180.0
 51
204.834587
  0
LINE
  5
578
100
AcDbEntity
  8
1
100
AcDbLine
 10
1584.6808
 20
650.390264
 30
0.0
 11
1584.6808
 21
647.390264
 31
0.0
  0
LINE
  5
579
100
AcDbEntity
  8
1
100
AcDbLine
 10
1584.6808
 20
643.670264
 30
0.0
 11
1583.735655
 21
643.670264
 31
0.0
  0
LINE
  5
57A
100
AcDbEntity
  8
1
100
AcDbLine
 10
1583.735655
 20
648.710264
 30
0.0
 11
1584.6808
 21
648.710264
 31
0.0
  0
LINE
  5
57B
100
AcDbEntity
  8
1
100
AcDbLine
 10
1584.6808
 20
644.990264
 30
0.0
 11
1584.6808
 21
632.390264
 31
0.0
  0
LINE
  5
57C
100
AcDbEntity
  8
SILK
100
AcDbLine
 10
1602.914725
 20
639.290264
 30
0.0
 11
1590.7708
 21
651.434189
 31
0.0
  0
LINE
  5
57D
100
AcDbEntity
  8
1
100
AcDbLine
 10
1598.4808
 20
629.045264
 30
0.0
 11
1598.4808
 21
629.765264
 31
0.0
  0
LINE
  5
57E
100
AcDbEntity
  8
1
100
AcDbLine
 10
1598.9008
 20
623.765264
 30
0.0
 11
1598.9008
 21
620.765264
 31
0.0
  0
LINE
  5
57F
100
AcDbEntity
  8
1
100
AcDbLine
 10
1598.5408
 20
623.765264
 30
0.0
 11
1598.9008
 21
623.765264
 31
0.0
  0
LINE
  5
580
100
AcDbEntity
  8
1
100
AcDbLine
 10
1598.5408
 20
621.125264
 30
0.0
 11
1598.5408
 21
623.765264
 31
0.0
  0
LINE
  5
581
100
AcDbEntity
  8
1
100
AcDbLine
 10
1597.1608
 20
626.165264
 30
0.0
 11
1597.1608
 21
624.365264
 31
0.0
  0
LINE
  5
582
100
AcDbEntity
  8
1
100
AcDbLine
 10
1597.1608
 20
624.365264
 30
0.0
 11
1599.0808
 21
624.365264
 31
0.0
  0
LINE
  5
583
100
AcDbEntity
  8
1
100
AcDbLine
 10
1599.0808
 20
624.365264
 30
0.0
 11
1599.0808
 21
620.765264
 31
0.0
  0
LINE
  5
584
100
AcDbEntity
  8
1
100
AcDbLine
 10
1600.2808
 20
626.165264
 30
0.0
 11
1599.0808
 21
626.165264
 31
0.0
  0
LINE
  5
585
100
AcDbEntity
  8
1
100
AcDbLine
 10
1600.2808
 20
622.565264
 30
0.0
 11
1600.2808
 21
626.165264
 31
0.0
  0
LINE
  5
586
100
AcDbEntity
  8
1
100
AcDbLine
 10
1600.2808
 20
620.765264
 30
0.0
 11
1599.0808
 21
620.765264
 31
0.0
  0
LINE
  5
587
100
AcDbEntity
  8
1
100
AcDbLine
 10
1599.0808
 20
626.165264
 30
0.0
 11
1597.1608
 21
626.165264
 31
0.0
  0
LINE
  5
588
100
AcDbEntity
  8
1
100
AcDbLine
 10
1600.602339
 20
647.390264
 30
0.0
 11
1602.6808
 21
646.190264
 31
0.0
  0
LINE
  5
589
100
AcDbEntity
  8
1
100
AcDbLine
 10
1602.6808
 20
646.190264
 30
0.0
 11
1600.602339
 21
644.990264
 31
0.0
  0
LINE
  5
58A
100
AcDbEntity
  8
SILK
100
AcDbLine
 10
1587.0808
 20
629.765264
 30
0.0
 11
1587.0808
 21
639.290264
 31
0.0
  0
LINE
  5
58B
100
AcDbEntity
  8
1
100
AcDbLine
 10
1585.8808
 20
632.390264
 30
0.0
 11
1585.8808
 21
644.990264
 31
0.0
  0
LINE
  5
58C
100
AcDbEntity
  8
1
100
AcDbLine
 10
1585.8808
 20
647.390264
 30
0.0
 11
1585.8808
 21
650.390264
 31
0.0
  0
LINE
  5
58D
100
AcDbEntity
  8
SILK
100
AcDbLine
 10
1571.701165
 20
692.630264
 30
0.0
 11
1581.226165
 21
702.155264
 31
0.0
  0
LINE
  5
58E
100
AcDbEntity
  8
SILK
100
AcDbLine
 10
1588.671728
 20
692.630264
 30
0.0
 11
1598.196728
 21
702.155264
 31
0.0
  0
LINE
  5
58F
100
AcDbEntity
  8
1
100
AcDbLine
 10
1736.731109
 20
749.069562
 30
0.0
 11
1736.731109
 21
756.269562
 31
0.0
  0
LINE
  5
590
100
AcDbEntity
  8
1
100
AcDbLine
 10
1734.331109
 20
752.669562
 30
0.0
 11
1734.331109
 21
745.469562
 31
0.0
  0
ARC
  5
591
100
AcDbEntity
  8
1
100
AcDbCircle
 10
1699.728004
 20
673.469562
 30
0.0
 40
72.72
100
AcDbArc
 50
90.0
 51
116.367479
  0
ARC
  5
592
100
AcDbEntity
  8
1
100
AcDbCircle
 10
1699.728004
 20
673.469562
 30
0.0
 40
72.0
100
AcDbArc
 50
90.0
 51
116.651844
  0
LINE
  5
593
100
AcDbEntity
  8
SILK
100
AcDbLine
 10
1608.721938
 20
522.203632
 30
0.0
 11
1647.2808
 21
560.762494
 31
0.0
  0
LINE
  5
594
100
AcDbEntity
  8
SILK
100
AcDbLine
 10
1604.621094
 20
535.073352
 30
0.0
 11
1647.2808
 21
577.733057
 31
0.0
  0
LINE
  5
595
100
AcDbEntity
  8
SILK
100
AcDbLine
 10
1613.6308
 20
639.290264
 30
0.0
 11
1613.6308
 21
692.630264
 31
0.0
  0
LINE
  5
596
100
AcDbEntity
  8
SILK
100
AcDbLine
 10
1610.659541
 20
629.765264
 30
0.0
 11
1620.184541
 21
639.290264
 31
0.0
  0
LINE
  5
597
100
AcDbEntity
  8
1
100
AcDbLine
 10
1607.4808
 20
629.765264
 30
0.0
 11
1609.2808
 21
629.765264
 31
0.0
  0
LINE
  5
598
100
AcDbEntity
  8
SILK
100
AcDbLine
 10
1603.213979
 20
639.290264
 30
0.0
 11
1613.6308
 21
649.707085
 31
0.0
  0
LINE
  5
599
100
AcDbEntity
  8
SILK
100
AcDbLine
 10
1627.630104
 20
629.765264
 30
0.0
 11
1637.155104
 21
639.290264
 31
0.0
  0
LINE
  5
59A
100
AcDbEntity
  8
SILK
100
AcDbLine
 10
1605.64229
 20
692.630264
 30
0.0
 11
1615.16729
 21
702.155264
 31
0.0
  0
LINE
  5
59B
100
AcDbEntity
  8
SILK
100
AcDbLine
 10
1622.612853
 20
692.630264
 30
0.0
 11
1632.137853
 21
702.155264
 31
0.0
  0
LINE
  5
59C
100
AcDbEntity
  8
SILK
100
AcDbLine
 10
1644.600667
 20
629.765264
 30
0.0
 11
1647.2808
 21
632.445397
 31
0.0
  0
LINE
  5
59D
100
AcDbEntity
  8
SILK
100
AcDbLine
 10
1639.583416
 20
692.630264
 30
0.0
 11
1647.2808
 21
700.327648
 31
0.0
  0
LINE
  5
59E
100
AcDbEntity
  8
1
  6
HIDDEN
100
AcDbLine
 10
1710.256109
 20
518.435175
 30
0.0
 11
1708.456109
 21
518.435175
 31
0.0
  0
LINE
  5
59F
100
AcDbEntity
  8
1
  6
HIDDEN
100
AcDbLine
 10
1695.556109
 20
537.695175
 30
0.0
 11
1712.356109
 21
537.695175
 31
0.0
  0
LINE
  5
5A0
100
AcDbEntity
  8
1
100
AcDbLine
 10
1713.556109
 20
551.735175
 30
0.0
 11
1703.656109
 21
551.735175
 31
0.0
  0
LINE
  5
5A1
100
AcDbEntity
  8
1
100
AcDbLine
 10
1702.456109
 20
552.935175
 30
0.0
 11
1713.556109
 21
552.935175
 31
0.0
  0
LINE
  5
5A2
100
AcDbEntity
  8
SILK
100
AcDbLine
 10
1692.931109
 20
540.935175
 30
0.0
 11
1692.931109
 21
580.135175
 31
0.0
  0
LINE
  5
5A3
100
AcDbEntity
  8
SILK
100
AcDbLine
 10
1702.456109
 20
580.135175
 30
0.0
 11
1702.456109
 21
540.935175
 31
0.0
  0
ARC
  5
5A4
100
AcDbEntity
  8
1
100
AcDbCircle
 10
1696.711109
 20
532.535175
 30
0.0
 40
6.0
100
AcDbArc
 50
155.165413
 51
180.0
  0
ARC
  5
5A5
100
AcDbEntity
  8
1
100
AcDbCircle
 10
1696.711109
 20
532.535175
 30
0.0
 40
6.0
100
AcDbArc
 50
180.0
 51
204.834587
  0
ARC
  5
5A6
100
AcDbEntity
  8
1
100
AcDbCircle
 10
1692.931109
 20
551.135175
 30
0.0
 40
9.0
100
AcDbArc
 50
90.0
 51
180.0
  0
ARC
  5
5A7
100
AcDbEntity
  8
1
100
AcDbCircle
 10
1692.931109
 20
551.135175
 30
0.0
 40
7.2
100
AcDbArc
 50
90.0
 51
180.0
  0
LINE
  5
5A8
100
AcDbEntity
  8
1
100
AcDbLine
 10
1689.331109
 20
549.935175
 30
0.0
 11
1689.331109
 21
551.135175
 31
0.0
  0
LINE
  5
5A9
100
AcDbEntity
  8
1
100
AcDbLine
 10
1689.331109
 20
548.015175
 30
0.0
 11
1689.331109
 21
549.935175
 31
0.0
  0
LINE
  5
5AA
100
AcDbEntity
  8
1
100
AcDbLine
 10
1683.931109
 20
528.433622
 30
0.0
 11
1683.931109
 21
549.755175
 31
0.0
  0
LINE
  5
5AB
100
AcDbEntity
  8
1
100
AcDbLine
 10
1684.291109
 20
528.433622
 30
0.0
 11
1684.291109
 21
549.395175
 31
0.0
  0
LINE
  5
5AC
100
AcDbEntity
  8
1
100
AcDbLine
 10
1683.931109
 20
549.755175
 30
0.0
 11
1686.931109
 21
549.755175
 31
0.0
  0
LINE
  5
5AD
100
AcDbEntity
  8
1
100
AcDbLine
 10
1686.931109
 20
549.755175
 30
0.0
 11
1686.931109
 21
549.395175
 31
0.0
  0
LINE
  5
5AE
100
AcDbEntity
  8
1
100
AcDbLine
 10
1686.931109
 20
549.395175
 30
0.0
 11
1684.291109
 21
549.395175
 31
0.0
  0
LINE
  5
5AF
100
AcDbEntity
  8
1
100
AcDbLine
 10
1687.531109
 20
549.935175
 30
0.0
 11
1687.531109
 21
548.015175
 31
0.0
  0
LINE
  5
5B0
100
AcDbEntity
  8
1
100
AcDbLine
 10
1683.931109
 20
549.935175
 30
0.0
 11
1687.531109
 21
549.935175
 31
0.0
  0
LINE
  5
5B1
100
AcDbEntity
  8
1
100
AcDbLine
 10
1683.931109
 20
549.935175
 30
0.0
 11
1683.931109
 21
551.135175
 31
0.0
  0
LINE
  5
5B2
100
AcDbEntity
  8
1
100
AcDbLine
 10
1687.531109
 20
548.015175
 30
0.0
 11
1689.331109
 21
548.015175
 31
0.0
  0
LINE
  5
5B3
100
AcDbEntity
  8
1
100
AcDbLine
 10
1689.331109
 20
551.135175
 30
0.0
 11
1685.731109
 21
551.135175
 31
0.0
  0
LINE
  5
5B4
100
AcDbEntity
  8
1
  6
HIDDEN
100
AcDbLine
 10
1695.556109
 20
539.135175
 30
0.0
 11
1697.956109
 21
539.135175
 31
0.0
  0
LINE
  5
5B5
100
AcDbEntity
  8
1
  6
HIDDEN
100
AcDbLine
 10
1697.956109
 20
539.135175
 30
0.0
 11
1697.956109
 21
537.695175
 31
0.0
  0
LINE
  5
5B6
100
AcDbEntity
  8
SILK
100
AcDbLine
 10
1695.927166
 20
540.935175
 30
0.0
 11
1702.456109
 21
547.464118
 31
0.0
  0
LINE
  5
5B7
100
AcDbEntity
  8
1
100
AcDbLine
 10
1703.656109
 20
551.735175
 30
0.0
 11
1703.656109
 21
536.495175
 31
0.0
  0
LINE
  5
5B8
100
AcDbEntity
  8
1
100
AcDbLine
 10
1702.456109
 20
537.695175
 30
0.0
 11
1702.456109
 21
552.935175
 31
0.0
  0
LINE
  5
5B9
100
AcDbEntity
  8
1
100
AcDbLine
 10
1692.931109
 20
549.335175
 30
0.0
 11
1692.931109
 21
528.935175
 31
0.0
  0
LINE
  5
5BA
100
AcDbEntity
  8
1
100
AcDbLine
 10
1703.656109
 20
536.495175
 30
0.0
 11
1696.756109
 21
536.495175
 31
0.0
  0
LINE
  5
5BB
100
AcDbEntity
  8
1
100
AcDbLine
 10
1696.756109
 20
536.495175
 30
0.0
 11
1696.756109
 21
529.535175
 31
0.0
  0
LINE
  5
5BC
100
AcDbEntity
  8
1
100
AcDbLine
 10
1696.756109
 20
529.535175
 30
0.0
 11
1695.556109
 21
529.535175
 31
0.0
  0
LINE
  5
5BD
100
AcDbEntity
  8
1
100
AcDbLine
 10
1695.556109
 20
529.535175
 30
0.0
 11
1695.556109
 21
537.695175
 31
0.0
  0
LINE
  5
5BE
100
AcDbEntity
  8
1
100
AcDbLine
 10
1695.556109
 20
537.695175
 30
0.0
 11
1702.456109
 21
537.695175
 31
0.0
  0
LINE
  5
5BF
100
AcDbEntity
  8
SILK
100
AcDbLine
 10
1702.456109
 20
540.935175
 30
0.0
 11
1692.931109
 21
540.935175
 31
0.0
  0
LINE
  5
5C0
100
AcDbEntity
  8
1
100
AcDbLine
 10
1692.931109
 20
533.735175
 30
0.0
 11
1695.556109
 21
533.735175
 31
0.0
  0
LINE
  5
5C1
100
AcDbEntity
  8
1
100
AcDbLine
 10
1704.211109
 20
533.735175
 30
0.0
 11
1704.211109
 21
531.335175
 31
0.0
  0
LINE
  5
5C2
100
AcDbEntity
  8
1
100
AcDbLine
 10
1704.211109
 20
531.335175
 30
0.0
 11
1696.756109
 21
531.335175
 31
0.0
  0
LINE
  5
5C3
100
AcDbEntity
  8
1
100
AcDbLine
 10
1695.556109
 20
531.335175
 30
0.0
 11
1692.931109
 21
531.335175
 31
0.0
  0
LINE
  5
5C4
100
AcDbEntity
  8
1
100
AcDbLine
 10
1696.756109
 20
533.735175
 30
0.0
 11
1704.211109
 21
533.735175
 31
0.0
  0
LINE
  5
5C5
100
AcDbEntity
  8
SILK
100
AcDbLine
 10
1692.931109
 20
554.909681
 30
0.0
 11
1702.456109
 21
564.434681
 31
0.0
  0
LINE
  5
5C6
100
AcDbEntity
  8
1
100
AcDbLine
 10
1692.931109
 20
560.135175
 30
0.0
 11
1692.931109
 21
558.335175
 31
0.0
  0
LINE
  5
5C7
100
AcDbEntity
  8
1
100
AcDbLine
 10
1692.211109
 20
530.015175
 30
0.0
 11
1691.265965
 21
530.015175
 31
0.0
  0
LINE
  5
5C8
100
AcDbEntity
  8
1
100
AcDbLine
 10
1691.265965
 20
535.055175
 30
0.0
 11
1692.211109
 21
535.055175
 31
0.0
  0
LINE
  5
5C9
100
AcDbEntity
  8
1
100
AcDbLine
 10
1692.931109
 20
549.335175
 30
0.0
 11
1692.211109
 21
549.335175
 31
0.0
  0
LINE
  5
5CA
100
AcDbEntity
  8
SILK
100
AcDbLine
 10
1692.931109
 20
571.880243
 30
0.0
 11
1701.186041
 21
580.135175
 31
0.0
  0
ARC
  5
5CB
100
AcDbEntity
  8
1
  6
HIDDEN
100
AcDbCircle
 10
1712.356109
 20
536.495175
 30
0.0
 40
1.2
100
AcDbArc
 50
0.0
 51
90.0
  0
LINE
  5
5CC
100
AcDbEntity
  8
1
100
AcDbLine
 10
1713.556109
 20
552.935175
 30
0.0
 11
1713.556109
 21
551.735175
 31
0.0
  0
LINE
  5
5CD
100
AcDbEntity
  8
1
100
AcDbLine
 10
1733.251109
 20
746.189562
 30
0.0
 11
1699.728004
 21
746.189562
 31
0.0
  0
LINE
  5
5CE
100
AcDbEntity
  8
1
100
AcDbLine
 10
1733.971109
 20
745.469562
 30
0.0
 11
1699.728004
 21
745.469562
 31
0.0
  0
LINE
  5
5CF
100
AcDbEntity
  8
1
100
AcDbLine
 10
1733.251109
 20
746.189562
 30
0.0
 11
1733.251109
 21
751.469562
 31
0.0
  0
LINE
  5
5D0
100
AcDbEntity
  8
1
100
AcDbLine
 10
1733.971109
 20
751.469562
 30
0.0
 11
1733.971109
 21
745.469562
 31
0.0
  0
LINE
  5
5D1
100
AcDbEntity
  8
1
100
AcDbLine
 10
1736.731109
 20
745.469562
 30
0.0
 11
1734.331109
 21
745.469562
 31
0.0
  0
LINE
  5
5D2
100
AcDbEntity
  8
1
100
AcDbLine
 10
1733.251109
 20
751.469562
 30
0.0
 11
1733.971109
 21
751.469562
 31
0.0
  0
LINE
  5
5D3
100
AcDbEntity
  8
1
  6
HIDDEN
100
AcDbLine
 10
1707.931109
 20
782.519562
 30
0.0
 11
1667.431109
 21
782.519562
 31
0.0
  0
LINE
  5
5D4
100
AcDbEntity
  8
1
  6
HIDDEN
100
AcDbLine
 10
1705.531109
 20
768.719562
 30
0.0
 11
1667.431109
 21
768.719562
 31
0.0
  0
LINE
  5
5D5
100
AcDbEntity
  8
1
100
AcDbLine
 10
1733.131109
 20
762.029562
 30
0.0
 11
1667.431109
 21
762.029562
 31
0.0
  0
LINE
  5
5D6
100
AcDbEntity
  8
1
  6
HIDDEN
100
AcDbLine
 10
1667.431109
 20
804.719562
 30
0.0
 11
1700.731109
 21
804.719562
 31
0.0
  0
LINE
  5
5D7
100
AcDbEntity
  8
1
100
AcDbLine
 10
1733.131109
 20
763.469562
 30
0.0
 11
1700.731109
 21
763.469562
 31
0.0
  0
LINE
  5
5D8
100
AcDbEntity
  8
1
100
AcDbLine
 10
1717.711109
 20
793.919562
 30
0.0
 11
1707.931109
 21
793.919562
 31
0.0
  0
LINE
  5
5D9
100
AcDbEntity
  8
1
100
AcDbLine
 10
1707.931109
 20
798.719562
 30
0.0
 11
1717.711109
 21
798.719562
 31
0.0
  0
LINE
  5
5DA
100
AcDbEntity
  8
1
100
AcDbLine
 10
1700.731109
 20
763.469562
 30
0.0
 11
1700.731109
 21
833.976461
 31
0.0
  0
ARC
  5
5DB
100
AcDbEntity
  8
1
  6
HIDDEN
100
AcDbCircle
 10
1700.731109
 20
802.319562
 30
0.0
 40
2.4
100
AcDbArc
 50
0.0
 51
90.0
  0
LINE
  5
5DC
100
AcDbEntity
  8
1
  6
HIDDEN
100
AcDbLine
 10
1703.131109
 20
802.319562
 30
0.0
 11
1703.131109
 21
782.519562
 31
0.0
  0
LINE
  5
5DD
100
AcDbEntity
  8
1
100
AcDbLine
 10
1705.531109
 20
791.279562
 30
0.0
 11
1705.531109
 21
768.719562
 31
0.0
  0
LINE
  5
5DE
100
AcDbEntity
  8
1
100
AcDbLine
 10
1707.931109
 20
768.719562
 30
0.0
 11
1707.931109
 21
793.919562
 31
0.0
  0
LINE
  5
5DF
100
AcDbEntity
  8
1
100
AcDbLine
 10
1705.531109
 20
768.719562
 30
0.0
 11
1707.931109
 21
768.719562
 31
0.0
  0
LINE
  5
5E0
100
AcDbEntity
  8
1
100
AcDbLine
 10
1707.931109
 20
793.919562
 30
0.0
 11
1705.531109
 21
793.919562
 31
0.0
  0
LINE
  5
5E1
100
AcDbEntity
  8
1
100
AcDbLine
 10
1705.531109
 20
801.359562
 30
0.0
 11
1705.531109
 21
798.719562
 31
0.0
  0
LINE
  5
5E2
100
AcDbEntity
  8
1
100
AcDbLine
 10
1707.931109
 20
798.719562
 30
0.0
 11
1707.931109
 21
804.719562
 31
0.0
  0
LINE
  5
5E3
100
AcDbEntity
  8
1
100
AcDbLine
 10
1705.531109
 20
793.919562
 30
0.0
 11
1705.531109
 21
791.279562
 31
0.0
  0
LINE
  5
5E4
100
AcDbEntity
  8
1
100
AcDbLine
 10
1705.531109
 20
798.719562
 30
0.0
 11
1707.931109
 21
798.719562
 31
0.0
  0
LINE
  5
5E5
100
AcDbEntity
  8
1
100
AcDbLine
 10
1703.64082
 20
801.359562
 30
0.0
 11
1705.531109
 21
801.359562
 31
0.0
  0
LINE
  5
5E6
100
AcDbEntity
  8
1
100
AcDbLine
 10
1705.531109
 20
791.279562
 30
0.0
 11
1703.64082
 21
791.279562
 31
0.0
  0
LINE
  5
5E7
100
AcDbEntity
  8
1
100
AcDbLine
 10
1707.931109
 20
804.719562
 30
0.0
 11
1705.531109
 21
804.719562
 31
0.0
  0
LINE
  5
5E8
100
AcDbEntity
  8
1
100
AcDbLine
 10
1705.531109
 20
804.719562
 30
0.0
 11
1705.531109
 21
801.359562
 31
0.0
  0
ARC
  5
5E9
100
AcDbEntity
  8
1
100
AcDbCircle
 10
1714.531109
 20
796.319562
 30
0.0
 40
12.0
100
AcDbArc
 50
180.0
 51
204.834587
  0
ARC
  5
5EA
100
AcDbEntity
  8
1
100
AcDbCircle
 10
1714.531109
 20
796.319562
 30
0.0
 40
12.0
100
AcDbArc
 50
155.165413
 51
180.0
  0
LINE
  5
5EB
100
AcDbEntity
  8
1
100
AcDbLine
 10
1705.656801
 20
798.719562
 30
0.0
 11
1705.531109
 21
798.845254
 31
0.0
  0
LINE
  5
5EC
100
AcDbEntity
  8
SILK
100
AcDbLine
 10
1717.711109
 20
798.719562
 30
0.0
 11
1717.711109
 21
833.976461
 31
0.0
  0
LINE
  5
5ED
100
AcDbEntity
  8
SILK
100
AcDbLine
 10
1726.870004
 20
798.719562
 30
0.0
 11
1717.711109
 21
807.878457
 31
0.0
  0
LINE
  5
5EE
100
AcDbEntity
  8
SILK
100
AcDbLine
 10
1714.409178
 20
763.469562
 30
0.0
 11
1733.459178
 21
782.519562
 31
0.0
  0
LINE
  5
5EF
100
AcDbEntity
  8
1
100
AcDbLine
 10
1717.711109
 20
798.719562
 30
0.0
 11
1737.374187
 21
798.719562
 31
0.0
  0
LINE
  5
5F0
100
AcDbEntity
  8
1
100
AcDbLine
 10
1737.374187
 20
793.919562
 30
0.0
 11
1717.711109
 21
793.919562
 31
0.0
  0
LINE
  5
5F1
100
AcDbEntity
  8
SILK
100
AcDbLine
 10
1717.711109
 20
782.519562
 30
0.0
 11
1717.711109
 21
793.919562
 31
0.0
  0
LINE
  5
5F2
100
AcDbEntity
  8
SILK
100
AcDbLine
 10
1726.099441
 20
782.519562
 30
0.0
 11
1717.711109
 21
790.907895
 31
0.0
  0
LINE
  5
5F3
100
AcDbEntity
  8
SILK
100
AcDbLine
 10
1717.711109
 20
789.50855
 30
0.0
 11
1722.122122
 21
793.919562
 31
0.0
  0
LINE
  5
5F4
100
AcDbEntity
  8
SILK
100
AcDbLine
 10
1710.331109
 20
763.469562
 30
0.0
 11
1710.331109
 21
782.519562
 31
0.0
  0
LINE
  5
5F5
100
AcDbEntity
  8
SILK
100
AcDbLine
 10
1710.331109
 20
776.362057
 30
0.0
 11
1716.488615
 21
782.519562
 31
0.0
  0
LINE
  5
5F6
100
AcDbEntity
  8
SILK
100
AcDbLine
 10
1743.070004
 20
782.519562
 30
0.0
 11
1731.670004
 21
793.919562
 31
0.0
  0
LINE
  5
5F7
100
AcDbEntity
  8
1
100
AcDbLine
 10
1734.331109
 20
756.269562
 30
0.0
 11
1730.491109
 21
756.269562
 31
0.0
  0
LINE
  5
5F8
100
AcDbEntity
  8
1
100
AcDbLine
 10
1736.731109
 20
756.269562
 30
0.0
 11
1734.331109
 21
756.269562
 31
0.0
  0
LINE
  5
5F9
100
AcDbEntity
  8
1
100
AcDbLine
 10
1730.491109
 20
752.669562
 30
0.0
 11
1734.331109
 21
752.669562
 31
0.0
  0
LINE
  5
5FA
100
AcDbEntity
  8
1
100
AcDbLine
 10
1730.491109
 20
756.269562
 30
0.0
 11
1730.491109
 21
752.669562
 31
0.0
  0
LINE
  5
5FB
100
AcDbEntity
  8
1
100
AcDbLine
 10
1733.131109
 20
762.029562
 30
0.0
 11
1733.131109
 21
763.469562
 31
0.0
  0
LINE
  5
5FC
100
AcDbEntity
  8
1
100
AcDbLine
 10
1741.531109
 20
796.319562
 30
0.0
 11
1737.374187
 21
793.919562
 31
0.0
  0
LINE
  5
5FD
100
AcDbEntity
  8
1
100
AcDbLine
 10
1737.374187
 20
798.719562
 30
0.0
 11
1741.531109
 21
796.319562
 31
0.0
  0
LINE
  5
5FE
100
AcDbEntity
  8
1
100
AcDbLine
 10
1741.440195
 20
796.267073
 30
0.0
 11
1741.506749
 21
796.333627
 31
0.0
  0
LINE
  5
5FF
100
AcDbEntity
  8
SILK
100
AcDbLine
 10
1727.692684
 20
782.519562
 30
0.0
 11
1741.440195
 21
796.267073
 31
0.0
  0
LINE
  5
600
100
AcDbEntity
  8
SILK
100
AcDbLine
 10
1717.711109
 20
823.449676
 30
0.0
 11
1728.237895
 21
833.976461
 31
0.0
  0
ARC
  5
601
100
AcDbEntity
  8
1
  6
HIDDEN
100
AcDbCircle
 10
1541.673201
 20
983.380026
 30
0.0
 40
1.5
100
AcDbArc
 50
0.0
 51
180.0
  0
ARC
  5
602
100
AcDbEntity
  8
1
  6
HIDDEN
100
AcDbCircle
 10
1541.673201
 20
981.580026
 30
0.0
 40
1.5
100
AcDbArc
 50
180.0
 51
360.0
  0
LINE
  5
603
100
AcDbEntity
  8
1
  6
HIDDEN
100
AcDbLine
 10
1540.173201
 20
983.380026
 30
0.0
 11
1540.173201
 21
981.580026
 31
0.0
  0
LINE
  5
604
100
AcDbEntity
  8
1
  6
HIDDEN
100
AcDbLine
 10
1543.173201
 20
981.580026
 30
0.0
 11
1543.173201
 21
983.380026
 31
0.0
  0
LINE
  5
605
100
AcDbEntity
  8
1
  6
HIDDEN
100
AcDbLine
 10
1543.173201
 20
1285.885983
 30
0.0
 11
1543.173201
 21
1287.685983
 31
0.0
  0
LINE
  5
606
100
AcDbEntity
  8
1
  6
HIDDEN
100
AcDbLine
 10
1540.173201
 20
1287.685983
 30
0.0
 11
1540.173201
 21
1285.885983
 31
0.0
  0
ARC
  5
607
100
AcDbEntity
  8
1
  6
HIDDEN
100
AcDbCircle
 10
1541.673201
 20
1285.885983
 30
0.0
 40
1.5
100
AcDbArc
 50
180.0
 51
360.0
  0
ARC
  5
608
100
AcDbEntity
  8
1
  6
HIDDEN
100
AcDbCircle
 10
1541.673201
 20
1287.685983
 30
0.0
 40
1.5
100
AcDbArc
 50
0.0
 51
180.0
  0
LINE
  5
609
100
AcDbEntity
  8
1
100
AcDbLine
 10
1694.133201
 20
957.415026
 30
0.0
 11
1673.171648
 21
957.415026
 31
0.0
  0
LINE
  5
60A
100
AcDbEntity
  8
1
100
AcDbLine
 10
1694.493201
 20
957.055026
 30
0.0
 11
1673.171648
 21
957.055026
 31
0.0
  0
LINE
  5
60B
100
AcDbEntity
  8
1
100
AcDbLine
 10
1638.753201
 20
1004.155026
 30
0.0
 11
1694.073201
 21
1004.155026
 31
0.0
  0
LINE
  5
60C
100
AcDbEntity
  8
1
100
AcDbLine
 10
1632.273201
 20
1003.435026
 30
0.0
 11
1638.753201
 21
1003.435026
 31
0.0
  0
LINE
  5
60D
100
AcDbEntity
  8
1
100
AcDbLine
 10
1632.273201
 20
988.675026
 30
0.0
 11
1632.273201
 21
1003.435026
 31
0.0
  0
LINE
  5
60E
100
AcDbEntity
  8
1
100
AcDbLine
 10
1653.740893
 20
951.991364
 30
0.0
 11
1656.910962
 21
953.576399
 31
0.0
  0
LINE
  5
60F
100
AcDbEntity
  8
1
100
AcDbLine
 10
1653.90189
 20
951.66937
 30
0.0
 11
1657.071959
 21
953.254405
 31
0.0
  0
ARC
  5
610
100
AcDbEntity
  8
1
100
AcDbCircle
 10
1637.802201
 20
983.868749
 30
0.0
 40
35.64
100
AcDbArc
 50
271.208375
 51
296.565051
  0
ARC
  5
611
100
AcDbEntity
  8
1
100
AcDbCircle
 10
1637.802201
 20
983.868749
 30
0.0
 40
36.0
100
AcDbArc
 50
271.208375
 51
296.565051
  0
ARC
  5
612
100
AcDbEntity
  8
1
  6
HIDDEN
100
AcDbCircle
 10
1661.673201
 20
981.580026
 30
0.0
 40
1.5
100
AcDbArc
 50
180.0
 51
360.0
  0
ARC
  5
613
100
AcDbEntity
  8
1
  6
HIDDEN
100
AcDbCircle
 10
1661.673201
 20
983.380026
 30
0.0
 40
1.5
100
AcDbArc
 50
0.0
 51
180.0
  0
LINE
  5
614
100
AcDbEntity
  8
1
  6
HIDDEN
100
AcDbLine
 10
1663.173201
 20
981.580026
 30
0.0
 11
1663.173201
 21
983.380026
 31
0.0
  0
LINE
  5
615
100
AcDbEntity
  8
1
  6
HIDDEN
100
AcDbLine
 10
1660.173201
 20
983.380026
 30
0.0
 11
1660.173201
 21
981.580026
 31
0.0
  0
ARC
  5
616
100
AcDbEntity
  8
1
100
AcDbCircle
 10
1673.171648
 20
921.055026
 30
0.0
 40
36.36
100
AcDbArc
 50
90.0
 51
116.565051
  0
ARC
  5
617
100
AcDbEntity
  8
1
100
AcDbCircle
 10
1673.171648
 20
921.055026
 30
0.0
 40
36.0
100
AcDbArc
 50
90.0
 51
116.565051
  0
LINE
  5
618
100
AcDbEntity
  8
1
100
AcDbLine
 10
1638.753201
 20
1003.435026
 30
0.0
 11
1638.753201
 21
1004.155026
 31
0.0
  0
LINE
  5
619
100
AcDbEntity
  8
1
100
AcDbLine
 10
1692.873201
 20
1025.758873
 30
0.0
 11
1692.873201
 21
1095.514292
 31
0.0
  0
LINE
  5
61A
100
AcDbEntity
  8
1
100
AcDbLine
 10
1673.673201
 20
1066.675026
 30
0.0
 11
1673.673201
 21
1004.875026
 31
0.0
  0
LINE
  5
61B
100
AcDbEntity
  8
1
100
AcDbLine
 10
1697.673201
 20
975.580026
 30
0.0
 11
1682.433201
 21
975.580026
 31
0.0
  0
LINE
  5
61C
100
AcDbEntity
  8
1
100
AcDbLine
 10
1681.233201
 20
976.780026
 30
0.0
 11
1696.473201
 21
976.780026
 31
0.0
  0
LINE
  5
61D
100
AcDbEntity
  8
1
  6
HIDDEN
100
AcDbLine
 10
1682.433201
 20
985.480026
 30
0.0
 11
1682.433201
 21
968.680026
 31
0.0
  0
ARC
  5
61E
100
AcDbEntity
  8
1
  6
HIDDEN
100
AcDbCircle
 10
1681.233201
 20
985.480026
 30
0.0
 40
1.2
100
AcDbArc
 50
0.0
 51
90.0
  0
LINE
  5
61F
100
AcDbEntity
  8
1
  6
HIDDEN
100
AcDbLine
 10
1683.873201
 20
971.080026
 30
0.0
 11
1683.873201
 21
968.680026
 31
0.0
  0
LINE
  5
620
100
AcDbEntity
  8
1
  6
HIDDEN
100
AcDbLine
 10
1682.433201
 20
971.080026
 30
0.0
 11
1683.873201
 21
971.080026
 31
0.0
  0
LINE
  5
621
100
AcDbEntity
  8
SILK
100
AcDbLine
 10
1685.673201
 20
966.055026
 30
0.0
 11
1685.673201
 21
975.580026
 31
0.0
  0
LINE
  5
622
100
AcDbEntity
  8
1
100
AcDbLine
 10
1682.433201
 20
975.580026
 30
0.0
 11
1682.433201
 21
968.680026
 31
0.0
  0
LINE
  5
623
100
AcDbEntity
  8
1
100
AcDbLine
 10
1681.233201
 20
969.880026
 30
0.0
 11
1681.233201
 21
976.780026
 31
0.0
  0
LINE
  5
624
100
AcDbEntity
  8
SILK
100
AcDbLine
 10
1685.673201
 20
972.646847
 30
0.0
 11
1688.60638
 21
975.580026
 31
0.0
  0
LINE
  5
625
100
AcDbEntity
  8
1
100
AcDbLine
 10
1674.273201
 20
968.680026
 30
0.0
 11
1674.273201
 21
969.880026
 31
0.0
  0
LINE
  5
626
100
AcDbEntity
  8
1
100
AcDbLine
 10
1682.433201
 20
968.680026
 30
0.0
 11
1674.273201
 21
968.680026
 31
0.0
  0
LINE
  5
627
100
AcDbEntity
  8
1
100
AcDbLine
 10
1674.273201
 20
969.880026
 30
0.0
 11
1681.233201
 21
969.880026
 31
0.0
  0
LINE
  5
628
100
AcDbEntity
  8
1
100
AcDbLine
 10
1697.673201
 20
986.680026
 30
0.0
 11
1697.673201
 21
975.580026
 31
0.0
  0
LINE
  5
629
100
AcDbEntity
  8
1
100
AcDbLine
 10
1696.473201
 20
976.780026
 30
0.0
 11
1696.473201
 21
986.680026
 31
0.0
  0
LINE
  5
62A
100
AcDbEntity
  8
1
100
AcDbLine
 10
1704.873201
 20
966.055026
 30
0.0
 11
1703.073201
 21
966.055026
 31
0.0
  0
LINE
  5
62B
100
AcDbEntity
  8
1
100
AcDbLine
 10
1695.873201
 20
957.055026
 30
0.0
 11
1694.673201
 21
957.055026
 31
0.0
  0
LINE
  5
62C
100
AcDbEntity
  8
1
100
AcDbLine
 10
1695.873201
 20
958.855026
 30
0.0
 11
1695.873201
 21
962.455026
 31
0.0
  0
LINE
  5
62D
100
AcDbEntity
  8
1
100
AcDbLine
 10
1695.873201
 20
962.455026
 30
0.0
 11
1694.673201
 21
962.455026
 31
0.0
  0
LINE
  5
62E
100
AcDbEntity
  8
1
100
AcDbLine
 10
1694.673201
 20
960.655026
 30
0.0
 11
1694.673201
 21
957.055026
 31
0.0
  0
LINE
  5
62F
100
AcDbEntity
  8
1
100
AcDbLine
 10
1694.133201
 20
957.415026
 30
0.0
 11
1694.133201
 21
960.055026
 31
0.0
  0
LINE
  5
630
100
AcDbEntity
  8
1
100
AcDbLine
 10
1694.133201
 20
960.055026
 30
0.0
 11
1694.493201
 21
960.055026
 31
0.0
  0
LINE
  5
631
100
AcDbEntity
  8
1
100
AcDbLine
 10
1694.493201
 20
960.055026
 30
0.0
 11
1694.493201
 21
957.055026
 31
0.0
  0
ARC
  5
632
100
AcDbEntity
  8
1
100
AcDbCircle
 10
1695.873201
 20
966.055026
 30
0.0
 40
7.2
100
AcDbArc
 50
270.0
 51
360.0
  0
ARC
  5
633
100
AcDbEntity
  8
1
100
AcDbCircle
 10
1695.873201
 20
966.055026
 30
0.0
 40
9.0
100
AcDbArc
 50
270.0
 51
360.0
  0
LINE
  5
634
100
AcDbEntity
  8
SILK
100
AcDbLine
 10
1696.051943
 20
966.055026
 30
0.0
 11
1705.576943
 21
975.580026
 31
0.0
  0
LINE
  5
635
100
AcDbEntity
  8
1
100
AcDbLine
 10
1696.473201
 20
986.680026
 30
0.0
 11
1697.673201
 21
986.680026
 31
0.0
  0
LINE
  5
636
100
AcDbEntity
  8
1
100
AcDbLine
 10
1692.753201
 20
962.455026
 30
0.0
 11
1692.753201
 21
960.655026
 31
0.0
  0
LINE
  5
637
100
AcDbEntity
  8
1
100
AcDbLine
 10
1694.673201
 20
962.455026
 30
0.0
 11
1692.753201
 21
962.455026
 31
0.0
  0
LINE
  5
638
100
AcDbEntity
  8
1
100
AcDbLine
 10
1692.753201
 20
960.655026
 30
0.0
 11
1694.673201
 21
960.655026
 31
0.0
  0
LINE
  5
639
100
AcDbEntity
  8
1
100
AcDbLine
 10
1692.758238
 20
1015.758873
 30
0.0
 11
1688.716279
 21
1007.755026
 31
0.0
  0
LINE
  5
63A
100
AcDbEntity
  8
1
100
AcDbLine
 10
1689.873201
 20
1015.758873
 30
0.0
 11
1695.873201
 21
1015.758873
 31
0.0
  0
LINE
  5
63B
100
AcDbEntity
  8
1
100
AcDbLine
 10
1689.873201
 20
1025.758873
 30
0.0
 11
1695.873201
 21
1025.758873
 31
0.0
  0
ARC
  5
63C
100
AcDbEntity
  8
1
100
AcDbCircle
 10
1692.873201
 20
1005.355026
 30
0.0
 40
4.8
100
AcDbArc
 50
150.0
 51
390.0
  0
LINE
  5
63D
100
AcDbEntity
  8
1
100
AcDbLine
 10
1673.673201
 20
1004.875026
 30
0.0
 11
1694.073201
 21
1004.875026
 31
0.0
  0
LINE
  5
63E
100
AcDbEntity
  8
1
100
AcDbLine
 10
1689.873201
 20
1025.758873
 30
0.0
 11
1689.873201
 21
1015.758873
 31
0.0
  0
LINE
  5
63F
100
AcDbEntity
  8
1
100
AcDbLine
 10
1694.073201
 20
1004.155026
 30
0.0
 11
1694.073201
 21
1004.875026
 31
0.0
  0
LINE
  5
640
100
AcDbEntity
  8
1
100
AcDbLine
 10
1695.873201
 20
1025.758873
 30
0.0
 11
1695.873201
 21
1015.758873
 31
0.0
  0
LINE
  5
641
100
AcDbEntity
  8
1
100
AcDbLine
 10
1692.988164
 20
1015.758873
 30
0.0
 11
1697.030123
 21
1007.755026
 31
0.0
  0
LINE
  5
642
100
AcDbEntity
  8
SILK
100
AcDbLine
 10
1713.022505
 20
966.055026
 30
0.0
 11
1722.547505
 21
975.580026
 31
0.0
  0
LINE
  5
643
100
AcDbEntity
  8
SILK
100
AcDbLine
 10
1729.993068
 20
966.055026
 30
0.0
 11
1739.518068
 21
975.580026
 31
0.0
  0
LINE
  5
644
100
AcDbEntity
  8
1
100
AcDbLine
 10
1694.133201
 20
1261.720983
 30
0.0
 11
1673.171648
 21
1261.720983
 31
0.0
  0
LINE
  5
645
100
AcDbEntity
  8
1
100
AcDbLine
 10
1694.493201
 20
1261.360983
 30
0.0
 11
1673.171648
 21
1261.360983
 31
0.0
  0
LINE
  5
646
100
AcDbEntity
  8
1
100
AcDbLine
 10
1638.753201
 20
1269.640983
 30
0.0
 11
1694.073201
 21
1269.640983
 31
0.0
  0
LINE
  5
647
100
AcDbEntity
  8
1
100
AcDbLine
 10
1632.273201
 20
1254.160983
 30
0.0
 11
1632.273201
 21
1268.920983
 31
0.0
  0
LINE
  5
648
100
AcDbEntity
  8
1
100
AcDbLine
 10
1653.740893
 20
1256.297321
 30
0.0
 11
1656.910962
 21
1257.882356
 31
0.0
  0
LINE
  5
649
100
AcDbEntity
  8
1
100
AcDbLine
 10
1653.90189
 20
1255.975328
 30
0.0
 11
1657.071959
 21
1257.560362
 31
0.0
  0
ARC
  5
64A
100
AcDbEntity
  8
1
100
AcDbCircle
 10
1637.802201
 20
1288.174707
 30
0.0
 40
35.64
100
AcDbArc
 50
271.208375
 51
296.565051
  0
ARC
  5
64B
100
AcDbEntity
  8
1
100
AcDbCircle
 10
1637.802201
 20
1288.174707
 30
0.0
 40
36.0
100
AcDbArc
 50
271.208375
 51
296.565051
  0
ARC
  5
64C
100
AcDbEntity
  8
1
100
AcDbCircle
 10
1673.171648
 20
1225.360983
 30
0.0
 40
36.36
100
AcDbArc
 50
90.0
 51
116.565051
  0
ARC
  5
64D
100
AcDbEntity
  8
1
100
AcDbCircle
 10
1673.171648
 20
1225.360983
 30
0.0
 40
36.0
100
AcDbArc
 50
90.0
 51
116.565051
  0
LINE
  5
64E
100
AcDbEntity
  8
1
100
AcDbLine
 10
1632.273201
 20
1268.920983
 30
0.0
 11
1638.753201
 21
1268.920983
 31
0.0
  0
LINE
  5
64F
100
AcDbEntity
  8
1
100
AcDbLine
 10
1638.753201
 20
1268.920983
 30
0.0
 11
1638.753201
 21
1269.640983
 31
0.0
  0
LINE
  5
650
100
AcDbEntity
  8
1
  6
HIDDEN
100
AcDbLine
 10
1660.173201
 20
1287.685983
 30
0.0
 11
1660.173201
 21
1285.885983
 31
0.0
  0
LINE
  5
651
100
AcDbEntity
  8
1
  6
HIDDEN
100
AcDbLine
 10
1663.173201
 20
1285.885983
 30
0.0
 11
1663.173201
 21
1287.685983
 31
0.0
  0
ARC
  5
652
100
AcDbEntity
  8
1
  6
HIDDEN
100
AcDbCircle
 10
1661.673201
 20
1287.685983
 30
0.0
 40
1.5
100
AcDbArc
 50
0.0
 51
180.0
  0
ARC
  5
653
100
AcDbEntity
  8
1
  6
HIDDEN
100
AcDbCircle
 10
1661.673201
 20
1285.885983
 30
0.0
 40
1.5
100
AcDbArc
 50
180.0
 51
360.0
  0
ARC
  5
654
100
AcDbEntity
  8
1
100
AcDbCircle
 10
1695.873201
 20
1270.360983
 30
0.0
 40
9.0
100
AcDbArc
 50
270.0
 51
360.0
  0
ARC
  5
655
100
AcDbEntity
  8
1
100
AcDbCircle
 10
1695.873201
 20
1270.360983
 30
0.0
 40
7.2
100
AcDbArc
 50
270.0
 51
360.0
  0
LINE
  5
656
100
AcDbEntity
  8
1
100
AcDbLine
 10
1694.133201
 20
1261.720983
 30
0.0
 11
1694.133201
 21
1264.360983
 31
0.0
  0
LINE
  5
657
100
AcDbEntity
  8
1
100
AcDbLine
 10
1694.133201
 20
1264.360983
 30
0.0
 11
1694.493201
 21
1264.360983
 31
0.0
  0
LINE
  5
658
100
AcDbEntity
  8
1
100
AcDbLine
 10
1694.493201
 20
1264.360983
 30
0.0
 11
1694.493201
 21
1261.360983
 31
0.0
  0
LINE
  5
659
100
AcDbEntity
  8
1
100
AcDbLine
 10
1695.873201
 20
1261.360983
 30
0.0
 11
1694.673201
 21
1261.360983
 31
0.0
  0
LINE
  5
65A
100
AcDbEntity
  8
1
100
AcDbLine
 10
1695.873201
 20
1263.160983
 30
0.0
 11
1695.873201
 21
1266.760983
 31
0.0
  0
LINE
  5
65B
100
AcDbEntity
  8
1
100
AcDbLine
 10
1695.873201
 20
1266.760983
 30
0.0
 11
1694.673201
 21
1266.760983
 31
0.0
  0
LINE
  5
65C
100
AcDbEntity
  8
1
100
AcDbLine
 10
1694.673201
 20
1264.960983
 30
0.0
 11
1694.673201
 21
1261.360983
 31
0.0
  0
LINE
  5
65D
100
AcDbEntity
  8
1
100
AcDbLine
 10
1692.753201
 20
1266.760983
 30
0.0
 11
1692.753201
 21
1264.960983
 31
0.0
  0
LINE
  5
65E
100
AcDbEntity
  8
1
100
AcDbLine
 10
1694.673201
 20
1266.760983
 30
0.0
 11
1692.753201
 21
1266.760983
 31
0.0
  0
LINE
  5
65F
100
AcDbEntity
  8
1
100
AcDbLine
 10
1692.753201
 20
1264.960983
 30
0.0
 11
1694.673201
 21
1264.960983
 31
0.0
  0
LINE
  5
660
100
AcDbEntity
  8
1
100
AcDbLine
 10
1697.073201
 20
1311.389831
 30
0.0
 11
1697.073201
 21
1370.345249
 31
0.0
  0
LINE
  5
661
100
AcDbEntity
  8
1
100
AcDbLine
 10
1673.673201
 20
1332.160983
 30
0.0
 11
1673.673201
 21
1270.360983
 31
0.0
  0
LINE
  5
662
100
AcDbEntity
  8
1
100
AcDbLine
 10
1697.673201
 20
1279.885983
 30
0.0
 11
1682.433201
 21
1279.885983
 31
0.0
  0
LINE
  5
663
100
AcDbEntity
  8
1
100
AcDbLine
 10
1681.233201
 20
1281.085983
 30
0.0
 11
1696.473201
 21
1281.085983
 31
0.0
  0
LINE
  5
664
100
AcDbEntity
  8
1
100
AcDbLine
 10
1673.673201
 20
1270.360983
 30
0.0
 11
1694.073201
 21
1270.360983
 31
0.0
  0
LINE
  5
665
100
AcDbEntity
  8
1
100
AcDbLine
 10
1681.233201
 20
1274.185983
 30
0.0
 11
1681.233201
 21
1281.085983
 31
0.0
  0
LINE
  5
666
100
AcDbEntity
  8
1
100
AcDbLine
 10
1676.073201
 20
1274.185983
 30
0.0
 11
1676.073201
 21
1281.640983
 31
0.0
  0
LINE
  5
667
100
AcDbEntity
  8
1
100
AcDbLine
 10
1678.473201
 20
1281.640983
 30
0.0
 11
1678.473201
 21
1274.185983
 31
0.0
  0
LINE
  5
668
100
AcDbEntity
  8
SILK
100
AcDbLine
 10
1685.673201
 20
1279.511246
 30
0.0
 11
1686.047939
 21
1279.885983
 31
0.0
  0
LINE
  5
669
100
AcDbEntity
  8
1
100
AcDbLine
 10
1682.433201
 20
1279.885983
 30
0.0
 11
1682.433201
 21
1272.985983
 31
0.0
  0
LINE
  5
66A
100
AcDbEntity
  8
SILK
100
AcDbLine
 10
1685.673201
 20
1270.360983
 30
0.0
 11
1685.673201
 21
1279.885983
 31
0.0
  0
LINE
  5
66B
100
AcDbEntity
  8
1
100
AcDbLine
 10
1679.793201
 20
1269.640983
 30
0.0
 11
1679.793201
 21
1268.695838
 31
0.0
  0
LINE
  5
66C
100
AcDbEntity
  8
1
100
AcDbLine
 10
1678.473201
 20
1272.985983
 30
0.0
 11
1678.473201
 21
1270.360983
 31
0.0
  0
LINE
  5
66D
100
AcDbEntity
  8
1
100
AcDbLine
 10
1676.073201
 20
1270.360983
 30
0.0
 11
1676.073201
 21
1272.985983
 31
0.0
  0
LINE
  5
66E
100
AcDbEntity
  8
1
100
AcDbLine
 10
1676.073201
 20
1281.640983
 30
0.0
 11
1678.473201
 21
1281.640983
 31
0.0
  0
LINE
  5
66F
100
AcDbEntity
  8
1
  6
HIDDEN
100
AcDbLine
 10
1682.433201
 20
1275.385983
 30
0.0
 11
1683.873201
 21
1275.385983
 31
0.0
  0
LINE
  5
670
100
AcDbEntity
  8
1
  6
HIDDEN
100
AcDbLine
 10
1683.873201
 20
1275.385983
 30
0.0
 11
1683.873201
 21
1272.985983
 31
0.0
  0
ARC
  5
671
100
AcDbEntity
  8
1
  6
HIDDEN
100
AcDbCircle
 10
1681.233201
 20
1289.785983
 30
0.0
 40
1.2
100
AcDbArc
 50
0.0
 51
90.0
  0
LINE
  5
672
100
AcDbEntity
  8
1
  6
HIDDEN
100
AcDbLine
 10
1682.433201
 20
1289.785983
 30
0.0
 11
1682.433201
 21
1272.985983
 31
0.0
  0
ARC
  5
673
100
AcDbEntity
  8
1
100
AcDbCircle
 10
1677.273201
 20
1274.140983
 30
0.0
 40
6.0
100
AcDbArc
 50
270.0
 51
294.834587
  0
LINE
  5
674
100
AcDbEntity
  8
1
100
AcDbLine
 10
1674.273201
 20
1272.985983
 30
0.0
 11
1674.273201
 21
1274.185983
 31
0.0
  0
LINE
  5
675
100
AcDbEntity
  8
1
100
AcDbLine
 10
1674.753201
 20
1268.695838
 30
0.0
 11
1674.753201
 21
1269.640983
 31
0.0
  0
ARC
  5
676
100
AcDbEntity
  8
1
100
AcDbCircle
 10
1677.273201
 20
1274.140983
 30
0.0
 40
6.0
100
AcDbArc
 50
245.165413
 51
270.0
  0
LINE
  5
677
100
AcDbEntity
  8
1
100
AcDbLine
 10
1674.273201
 20
1274.185983
 30
0.0
 11
1681.233201
 21
1274.185983
 31
0.0
  0
LINE
  5
678
100
AcDbEntity
  8
1
100
AcDbLine
 10
1682.433201
 20
1272.985983
 30
0.0
 11
1674.273201
 21
1272.985983
 31
0.0
  0
LINE
  5
679
100
AcDbEntity
  8
1
100
AcDbLine
 10
1697.673201
 20
1290.985983
 30
0.0
 11
1697.673201
 21
1279.885983
 31
0.0
  0
LINE
  5
67A
100
AcDbEntity
  8
SILK
100
AcDbLine
 10
1693.493501
 20
1270.360983
 30
0.0
 11
1703.018501
 21
1279.885983
 31
0.0
  0
LINE
  5
67B
100
AcDbEntity
  8
1
100
AcDbLine
 10
1694.073201
 20
1269.640983
 30
0.0
 11
1694.073201
 21
1270.360983
 31
0.0
  0
LINE
  5
67C
100
AcDbEntity
  8
1
100
AcDbLine
 10
1704.873201
 20
1270.360983
 30
0.0
 11
1703.073201
 21
1270.360983
 31
0.0
  0
LINE
  5
67D
100
AcDbEntity
  8
1
100
AcDbLine
 10
1696.473201
 20
1281.085983
 30
0.0
 11
1696.473201
 21
1290.985983
 31
0.0
  0
LINE
  5
67E
100
AcDbEntity
  8
1
100
AcDbLine
 10
1696.473201
 20
1290.985983
 30
0.0
 11
1697.673201
 21
1290.985983
 31
0.0
  0
LINE
  5
67F
100
AcDbEntity
  8
1
100
AcDbLine
 10
1694.073201
 20
1311.389831
 30
0.0
 11
1694.073201
 21
1301.389831
 31
0.0
  0
LINE
  5
680
100
AcDbEntity
  8
1
100
AcDbLine
 10
1694.073201
 20
1301.389831
 30
0.0
 11
1700.073201
 21
1301.389831
 31
0.0
  0
LINE
  5
681
100
AcDbEntity
  8
1
100
AcDbLine
 10
1694.073201
 20
1311.389831
 30
0.0
 11
1700.073201
 21
1311.389831
 31
0.0
  0
LINE
  5
682
100
AcDbEntity
  8
1
100
AcDbLine
 10
1700.073201
 20
1311.389831
 30
0.0
 11
1700.073201
 21
1301.389831
 31
0.0
  0
LINE
  5
683
100
AcDbEntity
  8
1
100
AcDbLine
 10
1697.188164
 20
1301.389831
 30
0.0
 11
1701.230123
 21
1293.385983
 31
0.0
  0
LINE
  5
684
100
AcDbEntity
  8
1
100
AcDbLine
 10
1696.958238
 20
1301.389831
 30
0.0
 11
1692.916279
 21
1293.385983
 31
0.0
  0
ARC
  5
685
100
AcDbEntity
  8
1
100
AcDbCircle
 10
1697.073201
 20
1290.985983
 30
0.0
 40
4.8
100
AcDbArc
 50
150.0
 51
390.0
  0
LINE
  5
686
100
AcDbEntity
  8
SILK
100
AcDbLine
 10
1710.464064
 20
1270.360983
 30
0.0
 11
1719.989064
 21
1279.885983
 31
0.0
  0
LINE
  5
687
100
AcDbEntity
  8
SILK
100
AcDbLine
 10
1727.434627
 20
1270.360983
 30
0.0
 11
1736.959627
 21
1279.885983
 31
0.0
  0
LINE
  5
688
100
AcDbEntity
  8
SILK
100
AcDbLine
 10
1755.796109
 20
566.862992
 30
0.0
 11
1765.321109
 21
576.387992
 31
0.0
  0
LINE
  5
689
100
AcDbEntity
  8
SILK
100
AcDbLine
 10
1755.796109
 20
532.921867
 30
0.0
 11
1765.321109
 21
542.446867
 31
0.0
  0
LINE
  5
68A
100
AcDbEntity
  8
SILK
100
AcDbLine
 10
1755.796109
 20
549.89243
 30
0.0
 11
1765.321109
 21
559.41743
 31
0.0
  0
LINE
  5
68B
100
AcDbEntity
  8
SILK
100
AcDbLine
 10
1755.796109
 20
515.951304
 30
0.0
 11
1765.321109
 21
525.476304
 31
0.0
  0
LINE
  5
68C
100
AcDbEntity
  8
SILK
100
AcDbLine
 10
1763.431109
 20
782.519562
 30
0.0
 11
1763.431109
 21
833.976461
 31
0.0
  0
LINE
  5
68D
100
AcDbEntity
  8
SILK
100
AcDbLine
 10
1748.350303
 20
763.469562
 30
0.0
 11
1767.400303
 21
782.519562
 31
0.0
  0
LINE
  5
68E
100
AcDbEntity
  8
SILK
100
AcDbLine
 10
1744.663247
 20
782.519562
 30
0.0
 11
1763.431109
 21
801.287425
 31
0.0
  0
LINE
  5
68F
100
AcDbEntity
  8
1
100
AcDbLine
 10
1751.131109
 20
763.469562
 30
0.0
 11
1754.731109
 21
763.469562
 31
0.0
  0
LINE
  5
690
100
AcDbEntity
  8
SILK
100
AcDbLine
 10
1765.320866
 20
763.469562
 30
0.0
 11
1778.389931
 21
776.538628
 31
0.0
  0
LINE
  5
691
100
AcDbEntity
  8
SILK
100
AcDbLine
 10
1761.63381
 20
782.519562
 30
0.0
 11
1763.431109
 21
784.316862
 31
0.0
  0
LINE
  5
692
100
AcDbEntity
  8
SILK
100
AcDbLine
 10
1763.431109
 20
830.040708
 30
0.0
 11
1759.495356
 21
833.976461
 31
0.0
  0
LINE
  5
693
100
AcDbEntity
  8
SILK
100
AcDbLine
 10
1746.963631
 20
966.055026
 30
0.0
 11
1754.553201
 21
973.644596
 31
0.0
  0
LINE
  5
694
100
AcDbEntity
  8
SILK
100
AcDbLine
 10
1744.40519
 20
1270.360983
 30
0.0
 11
1753.93019
 21
1279.885983
 31
0.0
  0
LINE
  5
695
100
AcDbEntity
  8
1
100
AcDbLine
 10
1451.073201
 20
1523.583085
 30
0.0
 11
1632.273201
 21
1523.583085
 31
0.0
  0
ARC
  5
696
100
AcDbEntity
  8
1
100
AcDbCircle
 10
1541.673201
 20
6114.933085
 30
0.0
 40
4594.35
100
AcDbArc
 50
268.791625
 51
271.208375
  0
ARC
  5
697
100
AcDbEntity
  8
1
100
AcDbCircle
 10
1541.673201
 20
6114.933085
 30
0.0
 40
4593.99
100
AcDbArc
 50
268.791625
 51
271.208375
  0
LINE
  5
698
100
AcDbEntity
  8
1
  6
HIDDEN
100
AcDbLine
 10
1380.273201
 20
1539.783085
 30
0.0
 11
1703.073201
 21
1539.783085
 31
0.0
  0
LINE
  5
699
100
AcDbEntity
  8
1
  6
HIDDEN
100
AcDbLine
 10
1402.113201
 20
1560.408085
 30
0.0
 11
1681.233201
 21
1560.408085
 31
0.0
  0
LINE
  5
69A
100
AcDbEntity
  8
1
  6
HIDDEN
100
AcDbLine
 10
1683.873201
 20
1542.408085
 30
0.0
 11
1399.473201
 21
1542.408085
 31
0.0
  0
LINE
  5
69B
100
AcDbEntity
  8
1
100
AcDbLine
 10
1673.673201
 20
1601.583085
 30
0.0
 11
1409.673201
 21
1601.583085
 31
0.0
  0
ARC
  5
69D
100
AcDbEntity
  8
0
100
AcDbCircle
 10
1200.755055
 20
1635.723731
 30
0.0
 40
25.0
100
AcDbArc
 50
0.0
 51
90.0
  0
ARC
  5
69E
100
AcDbEntity
  8
0
100
AcDbCircle
 10
1168.755055
 20
1603.723731
 30
0.0
 40
72.0
100
AcDbArc
 50
0.0
 51
90.0
  0
ARC
  5
69F
100
AcDbEntity
  8
0
100
AcDbCircle
 10
1168.755055
 20
1603.723731
 30
0.0
 40
75.0
100
AcDbArc
 50
0.0
 51
90.0
  0
CIRCLE
  5
6A0
100
AcDbEntity
  8
0
100
AcDbCircle
 10
1028.755055
 20
1406.723731
 30
0.0
 40
35.0
  0
LINE
  5
6A1
100
AcDbEntity
  8
0
100
AcDbLine
 10
939.255055
 20
1634.523731
 30
0.0
 11
939.255055
 21
1660.723731
 31
0.0
  0
LINE
  5
6A2
100
AcDbEntity
  8
0
100
AcDbLine
 10
948.255055
 20
1634.523731
 30
0.0
 11
948.255055
 21
1660.723731
 31
0.0
  0
LINE
  5
6A3
100
AcDbEntity
  8
0
100
AcDbLine
 10
946.255055
 20
1632.523731
 30
0.0
 11
941.255055
 21
1632.523731
 31
0.0
  0
ARC
  5
6A4
100
AcDbEntity
  8
0
100
AcDbCircle
 10
941.255055
 20
1634.523731
 30
0.0
 40
2.0
100
AcDbArc
 50
180.0
 51
270.0
  0
ARC
  5
6A5
100
AcDbEntity
  8
0
100
AcDbCircle
 10
946.255055
 20
1634.523731
 30
0.0
 40
2.0
100
AcDbArc
 50
270.0
 51
360.0
  0
CIRCLE
  5
6A6
100
AcDbEntity
  8
1
100
AcDbCircle
 10
1028.755055
 20
1632.723731
 30
0.0
 40
2.5
  0
LINE
  5
6A7
100
AcDbEntity
  8
0
100
AcDbLine
 10
1116.255055
 20
1632.523731
 30
0.0
 11
1111.255055
 21
1632.523731
 31
0.0
  0
LINE
  5
6A8
100
AcDbEntity
  8
0
100
AcDbLine
 10
1109.255055
 20
1660.723731
 30
0.0
 11
1109.255055
 21
1634.523731
 31
0.0
  0
ARC
  5
6A9
100
AcDbEntity
  8
0
100
AcDbCircle
 10
1111.255055
 20
1634.523731
 30
0.0
 40
2.0
100
AcDbArc
 50
180.0
 51
270.0
  0
LINE
  5
6AA
100
AcDbEntity
  8
0
100
AcDbLine
 10
1118.255055
 20
1660.723731
 30
0.0
 11
1118.255055
 21
1634.523731
 31
0.0
  0
ARC
  5
6AB
100
AcDbEntity
  8
0
100
AcDbCircle
 10
1116.255055
 20
1634.523731
 30
0.0
 40
2.0
100
AcDbArc
 50
270.0
 51
360.0
  0
LINE
  5
6AC
100
AcDbEntity
  8
1
100
AcDbLine
 10
1180.200843
 20
1635.223731
 30
0.0
 11
1189.309267
 21
1635.223731
 31
0.0
  0
LINE
  5
6AD
100
AcDbEntity
  8
1
100
AcDbLine
 10
1190.055055
 20
1637.923731
 30
0.0
 11
1179.455055
 21
1637.923731
 31
0.0
  0
LINE
  5
6AE
100
AcDbEntity
  8
1
100
AcDbLine
 10
1179.455055
 20
1627.523731
 30
0.0
 11
1190.055055
 21
1627.523731
 31
0.0
  0
LINE
  5
6AF
100
AcDbEntity
  8
1
100
AcDbLine
 10
1189.309267
 20
1630.223731
 30
0.0
 11
1180.200843
 21
1630.223731
 31
0.0
  0
CIRCLE
  5
6B0
100
AcDbEntity
  8
1
100
AcDbCircle
 10
1157.755055
 20
1632.723731
 30
0.0
 40
6.0
  0
CIRCLE
  5
6B1
100
AcDbEntity
  8
1
100
AcDbCircle
 10
1175.755055
 20
1632.723731
 30
0.0
 40
1.2
  0
LINE
  5
6B2
100
AcDbEntity
  8
1
100
AcDbLine
 10
1179.455055
 20
1637.923731
 30
0.0
 11
1179.455055
 21
1627.523731
 31
0.0
  0
LINE
  5
6B3
100
AcDbEntity
  8
1
100
AcDbLine
 10
1183.005055
 20
1630.223731
 30
0.0
 11
1183.005055
 21
1635.223731
 31
0.0
  0
CIRCLE
  5
6B4
100
AcDbEntity
  8
1
100
AcDbCircle
 10
1193.755055
 20
1632.723731
 30
0.0
 40
1.2
  0
LINE
  5
6B5
100
AcDbEntity
  8
1
100
AcDbLine
 10
1190.055055
 20
1627.523731
 30
0.0
 11
1190.055055
 21
1637.923731
 31
0.0
  0
LINE
  5
6B6
100
AcDbEntity
  8
1
100
AcDbLine
 10
1186.505055
 20
1635.223731
 30
0.0
 11
1186.505055
 21
1630.223731
 31
0.0
  0
DIMENSION
  5
6B7
100
AcDbEntity
  8
SCALE
100
AcDbDimension
  2
*D21
 10
1296.031499
 20
1549.308085
 30
0.0
 11
1274.031499
 21
1639.2938
 31
0.0
  1
12 - 33
  3
STANDARD
100
AcDbAlignedDimension
 13
1328.793201
 23
1539.783085
 33
0.0
 14
1328.793201
 24
1549.308085
 34
0.0
 50
90.0
100
AcDbRotatedDimension
1001
ACAD
1000
DSTYLE
1002
{
1070
   140
1040
2.2
1070
   340
1005
E
1070
   145
1040
1.0
1070
    74
1070
     0
1070
   172
1070
     1
1070
    73
1070
     0
1070
   272
1070
     4
1070
    40
1040
10.0
1070
   287
1070
     3
1070
    42
1040
2.0
1070
    44
1040
1.5
1070
    43
1040
10.0
1070
   271
1070
     4
1070
     5
1000
YAZ3
1070
    41
1040
1.5
1002
}
  0
LINE
  5
6C6
100
AcDbEntity
  8
1
100
AcDbLine
 10
1401.213201
 20
1590.648085
 30
0.0
 11
1401.213201
 21
1589.208085
 31
0.0
  0
LINE
  5
6C7
100
AcDbEntity
  8
1
100
AcDbLine
 10
1390.533201
 20
1590.648085
 30
0.0
 11
1390.533201
 21
1589.208085
 31
0.0
  0
LINE
  5
6C8
100
AcDbEntity
  8
1
100
AcDbLine
 10
1386.873201
 20
1550.808085
 30
0.0
 11
1386.873201
 21
1592.808085
 31
0.0
  0
LINE
  5
6C9
100
AcDbEntity
  8
1
100
AcDbLine
 10
1388.073201
 20
1550.808085
 30
0.0
 11
1388.073201
 21
1591.608085
 31
0.0
  0
LINE
  5
6CA
100
AcDbEntity
  8
1
100
AcDbLine
 10
1409.673201
 20
1539.783085
 30
0.0
 11
1409.673201
 21
1601.583085
 31
0.0
  0
LINE
  5
6CB
100
AcDbEntity
  8
1
100
AcDbLine
 10
1389.273201
 20
1539.063085
 30
0.0
 11
1444.593201
 21
1539.063085
 31
0.0
  0
LINE
  5
6CC
100
AcDbEntity
  8
1
100
AcDbLine
 10
1390.533201
 20
1589.208085
 30
0.0
 11
1401.213201
 21
1589.208085
 31
0.0
  0
LINE
  5
6CD
100
AcDbEntity
  8
1
100
AcDbLine
 10
1400.373201
 20
1579.608085
 30
0.0
 11
1391.373201
 21
1579.608085
 31
0.0
  0
LINE
  5
6CE
100
AcDbEntity
  8
1
100
AcDbLine
 10
1391.373201
 20
1584.408085
 30
0.0
 11
1400.373201
 21
1584.408085
 31
0.0
  0
LINE
  5
6CF
100
AcDbEntity
  8
SILK
100
AcDbLine
 10
1328.793201
 20
1549.308085
 30
0.0
 11
1397.673201
 21
1549.308085
 31
0.0
  0
LINE
  5
6D0
100
AcDbEntity
  8
SILK
100
AcDbLine
 10
1397.673201
 20
1539.783085
 30
0.0
 11
1328.793201
 21
1539.783085
 31
0.0
  0
LINE
  5
6D1
100
AcDbEntity
  8
1
100
AcDbLine
 10
1400.913201
 20
1549.308085
 30
0.0
 11
1385.673201
 21
1549.308085
 31
0.0
  0
LINE
  5
6D2
100
AcDbEntity
  8
1
100
AcDbLine
 10
1386.873201
 20
1550.508085
 30
0.0
 11
1402.113201
 21
1550.508085
 31
0.0
  0
LINE
  5
6D3
100
AcDbEntity
  8
SILK
100
AcDbLine
 10
1390.435493
 20
1539.783085
 30
0.0
 11
1397.673201
 21
1547.020793
 31
0.0
  0
LINE
  5
6D4
100
AcDbEntity
  8
1
100
AcDbLine
 10
1410.174754
 20
1531.143085
 30
0.0
 11
1389.213201
 21
1531.143085
 31
0.0
  0
LINE
  5
6D5
100
AcDbEntity
  8
1
100
AcDbLine
 10
1410.174754
 20
1530.783085
 30
0.0
 11
1388.853201
 21
1530.783085
 31
0.0
  0
LINE
  5
6D6
100
AcDbEntity
  8
1
100
AcDbLine
 10
1389.273201
 20
1539.783085
 30
0.0
 11
1409.673201
 21
1539.783085
 31
0.0
  0
LINE
  5
6D7
100
AcDbEntity
  8
SILK
100
AcDbLine
 10
1356.494368
 20
1539.783085
 30
0.0
 11
1366.019368
 21
1549.308085
 31
0.0
  0
LINE
  5
6D8
100
AcDbEntity
  8
SILK
100
AcDbLine
 10
1328.793201
 20
1546.023044
 30
0.0
 11
1332.078242
 21
1549.308085
 31
0.0
  0
LINE
  5
6D9
100
AcDbEntity
  8
SILK
100
AcDbLine
 10
1339.523805
 20
1539.783085
 30
0.0
 11
1349.048805
 21
1549.308085
 31
0.0
  0
LINE
  5
6DA
100
AcDbEntity
  8
1
100
AcDbLine
 10
1387.473201
 20
1536.183085
 30
0.0
 11
1387.473201
 21
1532.583085
 31
0.0
  0
LINE
  5
6DB
100
AcDbEntity
  8
1
100
AcDbLine
 10
1390.593201
 20
1534.383085
 30
0.0
 11
1390.593201
 21
1536.183085
 31
0.0
  0
ARC
  5
6DC
100
AcDbEntity
  8
1
100
AcDbCircle
 10
1387.473201
 20
1539.783085
 30
0.0
 40
7.2
100
AcDbArc
 50
180.0
 51
270.0
  0
ARC
  5
6DD
100
AcDbEntity
  8
1
100
AcDbCircle
 10
1387.473201
 20
1539.783085
 30
0.0
 40
9.0
100
AcDbArc
 50
180.0
 51
270.0
  0
LINE
  5
6DE
100
AcDbEntity
  8
1
100
AcDbLine
 10
1388.673201
 20
1530.783085
 30
0.0
 11
1387.473201
 21
1530.783085
 31
0.0
  0
LINE
  5
6DF
100
AcDbEntity
  8
1
100
AcDbLine
 10
1388.673201
 20
1530.783085
 30
0.0
 11
1388.673201
 21
1534.383085
 31
0.0
  0
LINE
  5
6E0
100
AcDbEntity
  8
1
100
AcDbLine
 10
1388.673201
 20
1534.383085
 30
0.0
 11
1390.593201
 21
1534.383085
 31
0.0
  0
LINE
  5
6E1
100
AcDbEntity
  8
1
100
AcDbLine
 10
1389.213201
 20
1533.783085
 30
0.0
 11
1389.213201
 21
1531.143085
 31
0.0
  0
LINE
  5
6E2
100
AcDbEntity
  8
1
100
AcDbLine
 10
1388.853201
 20
1533.783085
 30
0.0
 11
1389.213201
 21
1533.783085
 31
0.0
  0
LINE
  5
6E3
100
AcDbEntity
  8
1
100
AcDbLine
 10
1388.853201
 20
1530.783085
 30
0.0
 11
1388.853201
 21
1533.783085
 31
0.0
  0
LINE
  5
6E4
100
AcDbEntity
  8
SILK
100
AcDbLine
 10
1373.464931
 20
1539.783085
 30
0.0
 11
1382.989931
 21
1549.308085
 31
0.0
  0
LINE
  5
6E5
100
AcDbEntity
  8
1
100
AcDbLine
 10
1389.018346
 20
1552.788085
 30
0.0
 11
1388.073201
 21
1552.788085
 31
0.0
  0
LINE
  5
6E6
100
AcDbEntity
  8
1
100
AcDbLine
 10
1388.073201
 20
1557.828085
 30
0.0
 11
1389.018346
 21
1557.828085
 31
0.0
  0
LINE
  5
6E7
100
AcDbEntity
  8
1
100
AcDbLine
 10
1382.073201
 20
1556.508085
 30
0.0
 11
1385.673201
 21
1556.508085
 31
0.0
  0
LINE
  5
6E8
100
AcDbEntity
  8
1
100
AcDbLine
 10
1382.073201
 20
1554.108085
 30
0.0
 11
1382.073201
 21
1556.508085
 31
0.0
  0
LINE
  5
6E9
100
AcDbEntity
  8
1
100
AcDbLine
 10
1385.673201
 20
1554.108085
 30
0.0
 11
1382.073201
 21
1554.108085
 31
0.0
  0
LINE
  5
6EA
100
AcDbEntity
  8
1
100
AcDbLine
 10
1378.473201
 20
1539.783085
 30
0.0
 11
1380.273201
 21
1539.783085
 31
0.0
  0
LINE
  5
6EB
100
AcDbEntity
  8
1
100
AcDbLine
 10
1390.773201
 20
1588.608085
 30
0.0
 11
1391.373201
 21
1589.208085
 31
0.0
  0
LINE
  5
6EC
100
AcDbEntity
  8
1
100
AcDbLine
 10
1390.773201
 20
1585.008085
 30
0.0
 11
1390.773201
 21
1588.608085
 31
0.0
  0
LINE
  5
6ED
100
AcDbEntity
  8
1
100
AcDbLine
 10
1390.773201
 20
1583.808085
 30
0.0
 11
1391.373201
 21
1584.408085
 31
0.0
  0
LINE
  5
6EE
100
AcDbEntity
  8
1
100
AcDbLine
 10
1390.773201
 20
1580.208085
 30
0.0
 11
1390.773201
 21
1583.808085
 31
0.0
  0
LINE
  5
6EF
100
AcDbEntity
  8
1
100
AcDbLine
 10
1391.373201
 20
1584.408085
 30
0.0
 11
1390.773201
 21
1585.008085
 31
0.0
  0
LINE
  5
6F0
100
AcDbEntity
  8
1
100
AcDbLine
 10
1391.373201
 20
1579.608085
 30
0.0
 11
1390.773201
 21
1580.208085
 31
0.0
  0
LINE
  5
6F1
100
AcDbEntity
  8
1
100
AcDbLine
 10
1389.273201
 20
1539.783085
 30
0.0
 11
1389.273201
 21
1539.063085
 31
0.0
  0
LINE
  5
6F2
100
AcDbEntity
  8
1
100
AcDbLine
 10
1386.873201
 20
1550.808085
 30
0.0
 11
1388.073201
 21
1550.808085
 31
0.0
  0
LINE
  5
6F3
100
AcDbEntity
  8
1
100
AcDbLine
 10
1385.673201
 20
1560.408085
 30
0.0
 11
1386.873201
 21
1560.408085
 31
0.0
  0
LINE
  5
6F4
100
AcDbEntity
  8
1
100
AcDbLine
 10
1385.673201
 20
1549.308085
 30
0.0
 11
1385.673201
 21
1560.408085
 31
0.0
  0
LINE
  5
6F5
100
AcDbEntity
  8
1
100
AcDbLine
 10
1386.873201
 20
1560.408085
 30
0.0
 11
1386.873201
 21
1550.508085
 31
0.0
  0
ARC
  5
6F6
100
AcDbEntity
  8
1
100
AcDbCircle
 10
1383.573201
 20
1555.308085
 30
0.0
 40
6.0
100
AcDbArc
 50
0.0
 51
24.834587
  0
ARC
  5
6F7
100
AcDbEntity
  8
1
100
AcDbCircle
 10
1383.573201
 20
1555.308085
 30
0.0
 40
6.0
100
AcDbArc
 50
335.165413
 51
360.0
  0
LINE
  5
6F8
100
AcDbEntity
  8
1
100
AcDbLine
 10
1390.593201
 20
1536.183085
 30
0.0
 11
1388.673201
 21
1536.183085
 31
0.0
  0
LINE
  5
6F9
100
AcDbEntity
  8
1
100
AcDbLine
 10
1388.673201
 20
1536.183085
 30
0.0
 11
1387.473201
 21
1536.183085
 31
0.0
  0
LINE
  5
6FA
100
AcDbEntity
  8
1
100
AcDbLine
 10
1426.43544
 20
1527.304458
 30
0.0
 11
1429.605509
 21
1525.719424
 31
0.0
  0
LINE
  5
6FB
100
AcDbEntity
  8
1
100
AcDbLine
 10
1426.274443
 20
1526.982464
 30
0.0
 11
1429.444512
 21
1525.39743
 31
0.0
  0
ARC
  5
6FC
100
AcDbEntity
  8
1
100
AcDbCircle
 10
1410.174754
 20
1494.783085
 30
0.0
 40
36.36
100
AcDbArc
 50
63.434949
 51
90.0
  0
ARC
  5
6FD
100
AcDbEntity
  8
1
100
AcDbCircle
 10
1410.174754
 20
1494.783085
 30
0.0
 40
36.0
100
AcDbArc
 50
63.434949
 51
90.0
  0
ARC
  5
6FE
100
AcDbEntity
  8
1
  6
HIDDEN
100
AcDbCircle
 10
1402.113201
 20
1559.208085
 30
0.0
 40
1.2
100
AcDbArc
 50
90.0
 51
180.0
  0
LINE
  5
6FF
100
AcDbEntity
  8
1
  6
HIDDEN
100
AcDbLine
 10
1400.913201
 20
1542.408085
 30
0.0
 11
1400.913201
 21
1559.208085
 31
0.0
  0
LINE
  5
700
100
AcDbEntity
  8
1
  6
HIDDEN
100
AcDbLine
 10
1399.473201
 20
1544.808085
 30
0.0
 11
1400.913201
 21
1544.808085
 31
0.0
  0
LINE
  5
701
100
AcDbEntity
  8
1
  6
HIDDEN
100
AcDbLine
 10
1399.473201
 20
1542.408085
 30
0.0
 11
1399.473201
 21
1544.808085
 31
0.0
  0
LINE
  5
702
100
AcDbEntity
  8
1
100
AcDbLine
 10
1407.273201
 20
1542.408085
 30
0.0
 11
1407.273201
 21
1539.783085
 31
0.0
  0
LINE
  5
703
100
AcDbEntity
  8
1
100
AcDbLine
 10
1407.273201
 20
1551.063085
 30
0.0
 11
1407.273201
 21
1543.608085
 31
0.0
  0
LINE
  5
704
100
AcDbEntity
  8
1
100
AcDbLine
 10
1408.593201
 20
1539.063085
 30
0.0
 11
1408.593201
 21
1538.117941
 31
0.0
  0
LINE
  5
705
100
AcDbEntity
  8
1
100
AcDbLine
 10
1409.073201
 20
1543.608085
 30
0.0
 11
1409.073201
 21
1542.408085
 31
0.0
  0
LINE
  5
706
100
AcDbEntity
  8
1
100
AcDbLine
 10
1404.873201
 20
1543.608085
 30
0.0
 11
1404.873201
 21
1551.063085
 31
0.0
  0
LINE
  5
707
100
AcDbEntity
  8
1
100
AcDbLine
 10
1404.873201
 20
1539.783085
 30
0.0
 11
1404.873201
 21
1542.408085
 31
0.0
  0
LINE
  5
708
100
AcDbEntity
  8
1
100
AcDbLine
 10
1403.553201
 20
1538.117941
 30
0.0
 11
1403.553201
 21
1539.063085
 31
0.0
  0
LINE
  5
709
100
AcDbEntity
  8
1
100
AcDbLine
 10
1400.973201
 20
1580.208085
 30
0.0
 11
1400.373201
 21
1579.608085
 31
0.0
  0
LINE
  5
70A
100
AcDbEntity
  8
1
100
AcDbLine
 10
1400.973201
 20
1583.808085
 30
0.0
 11
1400.973201
 21
1580.208085
 31
0.0
  0
LINE
  5
70B
100
AcDbEntity
  8
1
100
AcDbLine
 10
1400.973201
 20
1585.008085
 30
0.0
 11
1400.373201
 21
1584.408085
 31
0.0
  0
LINE
  5
70C
100
AcDbEntity
  8
1
100
AcDbLine
 10
1400.973201
 20
1588.608085
 30
0.0
 11
1400.973201
 21
1585.008085
 31
0.0
  0
LINE
  5
70D
100
AcDbEntity
  8
1
100
AcDbLine
 10
1400.373201
 20
1584.408085
 30
0.0
 11
1400.973201
 21
1583.808085
 31
0.0
  0
LINE
  5
70E
100
AcDbEntity
  8
1
100
AcDbLine
 10
1400.373201
 20
1589.208085
 30
0.0
 11
1400.973201
 21
1588.608085
 31
0.0
  0
LINE
  5
70F
100
AcDbEntity
  8
1
100
AcDbLine
 10
1398.873201
 20
1577.088085
 30
0.0
 11
1398.873201
 21
1579.608085
 31
0.0
  0
LINE
  5
710
100
AcDbEntity
  8
SILK
100
AcDbLine
 10
1397.673201
 20
1549.308085
 30
0.0
 11
1397.673201
 21
1539.783085
 31
0.0
  0
LINE
  5
711
100
AcDbEntity
  8
1
100
AcDbLine
 10
1400.913201
 20
1542.408085
 30
0.0
 11
1400.913201
 21
1549.308085
 31
0.0
  0
LINE
  5
712
100
AcDbEntity
  8
1
100
AcDbLine
 10
1402.113201
 20
1550.508085
 30
0.0
 11
1402.113201
 21
1543.608085
 31
0.0
  0
ARC
  5
713
100
AcDbEntity
  8
1
100
AcDbCircle
 10
1406.073201
 20
1543.563085
 30
0.0
 40
6.0
100
AcDbArc
 50
245.165413
 51
270.0
  0
LINE
  5
714
100
AcDbEntity
  8
1
100
AcDbLine
 10
1404.873201
 20
1551.063085
 30
0.0
 11
1407.273201
 21
1551.063085
 31
0.0
  0
LINE
  5
715
100
AcDbEntity
  8
1
100
AcDbLine
 10
1409.073201
 20
1542.408085
 30
0.0
 11
1400.913201
 21
1542.408085
 31
0.0
  0
LINE
  5
716
100
AcDbEntity
  8
1
100
AcDbLine
 10
1402.113201
 20
1543.608085
 30
0.0
 11
1409.073201
 21
1543.608085
 31
0.0
  0
ARC
  5
717
100
AcDbEntity
  8
1
100
AcDbCircle
 10
1406.073201
 20
1543.563085
 30
0.0
 40
6.0
100
AcDbArc
 50
270.0
 51
294.834587
  0
LINE
  5
718
100
AcDbEntity
  8
1
100
AcDbLine
 10
1392.873201
 20
1577.088085
 30
0.0
 11
1392.873201
 21
1579.608085
 31
0.0
  0
LINE
  5
719
100
AcDbEntity
  8
1
100
AcDbLine
 10
1392.873201
 20
1577.088085
 30
0.0
 11
1398.873201
 21
1577.088085
 31
0.0
  0
LINE
  5
71A
100
AcDbEntity
  8
1
  6
HIDDEN
100
AcDbLine
 10
1423.173201
 20
1555.308085
 30
0.0
 11
1423.173201
 21
1557.108085
 31
0.0
  0
LINE
  5
71B
100
AcDbEntity
  8
1
  6
HIDDEN
100
AcDbLine
 10
1420.173201
 20
1557.108085
 30
0.0
 11
1420.173201
 21
1555.308085
 31
0.0
  0
ARC
  5
71C
100
AcDbEntity
  8
1
  6
HIDDEN
100
AcDbCircle
 10
1421.673201
 20
1557.108085
 30
0.0
 40
1.5
100
AcDbArc
 50
0.0
 51
180.0
  0
ARC
  5
71D
100
AcDbEntity
  8
1
  6
HIDDEN
100
AcDbCircle
 10
1421.673201
 20
1555.308085
 30
0.0
 40
1.5
100
AcDbArc
 50
180.0
 51
360.0
  0
LINE
  5
71E
100
AcDbEntity
  8
1
100
AcDbLine
 10
1451.073201
 20
1538.343085
 30
0.0
 11
1451.073201
 21
1523.583085
 31
0.0
  0
ARC
  5
71F
100
AcDbEntity
  8
1
100
AcDbCircle
 10
1445.544202
 20
1557.596809
 30
0.0
 40
35.64
100
AcDbArc
 50
243.434949
 51
268.791625
  0
ARC
  5
720
100
AcDbEntity
  8
1
100
AcDbCircle
 10
1445.544202
 20
1557.596809
 30
0.0
 40
36.0
100
AcDbArc
 50
243.434949
 51
268.791625
  0
LINE
  5
721
100
AcDbEntity
  8
1
100
AcDbLine
 10
1444.593201
 20
1538.343085
 30
0.0
 11
1451.073201
 21
1538.343085
 31
0.0
  0
LINE
  5
722
100
AcDbEntity
  8
1
100
AcDbLine
 10
1444.593201
 20
1539.063085
 30
0.0
 11
1444.593201
 21
1538.343085
 31
0.0
  0
LINE
  5
723
100
AcDbEntity
  8
1
100
AcDbLine
 10
1392.273201
 20
1592.808085
 30
0.0
 11
1389.273201
 21
1592.808085
 31
0.0
  0
LINE
  5
724
100
AcDbEntity
  8
1
100
AcDbLine
 10
1392.273201
 20
1591.608085
 30
0.0
 11
1389.273201
 21
1591.608085
 31
0.0
  0
LINE
  5
725
100
AcDbEntity
  8
1
100
AcDbLine
 10
1391.373201
 20
1598.568085
 30
0.0
 11
1400.373201
 21
1598.568085
 31
0.0
  0
LINE
  5
726
100
AcDbEntity
  8
1
100
AcDbLine
 10
1388.073201
 20
1591.608085
 30
0.0
 11
1404.273201
 21
1591.608085
 31
0.0
  0
LINE
  5
727
100
AcDbEntity
  8
1
100
AcDbLine
 10
1402.473201
 20
1593.768085
 30
0.0
 11
1389.273201
 21
1593.768085
 31
0.0
  0
LINE
  5
728
100
AcDbEntity
  8
1
100
AcDbLine
 10
1386.873201
 20
1592.808085
 30
0.0
 11
1404.273201
 21
1592.808085
 31
0.0
  0
LINE
  5
729
100
AcDbEntity
  8
1
100
AcDbLine
 10
1402.473201
 20
1590.648085
 30
0.0
 11
1389.273201
 21
1590.648085
 31
0.0
  0
LINE
  5
72A
100
AcDbEntity
  8
1
100
AcDbLine
 10
1390.773201
 20
1597.968085
 30
0.0
 11
1391.373201
 21
1598.568085
 31
0.0
  0
LINE
  5
72B
100
AcDbEntity
  8
1
100
AcDbLine
 10
1389.273201
 20
1592.808085
 30
0.0
 11
1389.273201
 21
1593.768085
 31
0.0
  0
LINE
  5
72C
100
AcDbEntity
  8
1
100
AcDbLine
 10
1391.373201
 20
1593.768085
 30
0.0
 11
1390.773201
 21
1594.368085
 31
0.0
  0
LINE
  5
72D
100
AcDbEntity
  8
1
100
AcDbLine
 10
1390.773201
 20
1594.368085
 30
0.0
 11
1390.773201
 21
1597.968085
 31
0.0
  0
LINE
  5
72E
100
AcDbEntity
  8
1
100
AcDbLine
 10
1389.273201
 20
1591.608085
 30
0.0
 11
1389.273201
 21
1590.648085
 31
0.0
  0
LINE
  5
72F
100
AcDbEntity
  8
1
100
AcDbLine
 10
1409.673201
 20
1601.4472
 30
0.0
 11
1409.809086
 21
1601.583085
 31
0.0
  0
LINE
  5
730
100
AcDbEntity
  8
1
100
AcDbLine
 10
1398.873201
 20
1598.568085
 30
0.0
 11
1398.873201
 21
1635.768085
 31
0.0
  0
LINE
  5
731
100
AcDbEntity
  8
1
100
AcDbLine
 10
1400.373201
 20
1598.568085
 30
0.0
 11
1400.973201
 21
1597.968085
 31
0.0
  0
LINE
  5
732
100
AcDbEntity
  8
1
100
AcDbLine
 10
1402.473201
 20
1592.808085
 30
0.0
 11
1402.473201
 21
1593.768085
 31
0.0
  0
LINE
  5
733
100
AcDbEntity
  8
1
100
AcDbLine
 10
1400.973201
 20
1594.368085
 30
0.0
 11
1400.373201
 21
1593.768085
 31
0.0
  0
LINE
  5
734
100
AcDbEntity
  8
1
100
AcDbLine
 10
1404.273201
 20
1592.808085
 30
0.0
 11
1404.273201
 21
1591.608085
 31
0.0
  0
LINE
  5
735
100
AcDbEntity
  8
1
100
AcDbLine
 10
1400.973201
 20
1597.968085
 30
0.0
 11
1400.973201
 21
1594.368085
 31
0.0
  0
LINE
  5
736
100
AcDbEntity
  8
1
100
AcDbLine
 10
1392.873201
 20
1598.568085
 30
0.0
 11
1392.873201
 21
1635.768085
 31
0.0
  0
LINE
  5
737
100
AcDbEntity
  8
1
100
AcDbLine
 10
1402.473201
 20
1591.608085
 30
0.0
 11
1402.473201
 21
1590.648085
 31
0.0
  0
LINE
  5
739
100
AcDbEntity
  8
SILK
100
AcDbLine
 10
1685.673201
 20
1549.308085
 30
0.0
 11
1754.553201
 21
1549.308085
 31
0.0
  0
LINE
  5
73A
100
AcDbEntity
  8
SILK
100
AcDbLine
 10
1754.553201
 20
1539.783085
 30
0.0
 11
1685.673201
 21
1539.783085
 31
0.0
  0
LINE
  5
73B
100
AcDbEntity
  8
1
  6
HIDDEN
100
AcDbLine
 10
1543.173201
 20
1555.308085
 30
0.0
 11
1543.173201
 21
1557.108085
 31
0.0
  0
LINE
  5
73C
100
AcDbEntity
  8
1
  6
HIDDEN
100
AcDbLine
 10
1540.173201
 20
1557.108085
 30
0.0
 11
1540.173201
 21
1555.308085
 31
0.0
  0
ARC
  5
73D
100
AcDbEntity
  8
1
  6
HIDDEN
100
AcDbCircle
 10
1541.673201
 20
1555.308085
 30
0.0
 40
1.5
100
AcDbArc
 50
180.0
 51
360.0
  0
ARC
  5
73E
100
AcDbEntity
  8
1
  6
HIDDEN
100
AcDbCircle
 10
1541.673201
 20
1557.108085
 30
0.0
 40
1.5
100
AcDbArc
 50
0.0
 51
180.0
  0
LINE
  5
73F
100
AcDbEntity
  8
1
100
AcDbLine
 10
1682.133201
 20
1589.208085
 30
0.0
 11
1682.133201
 21
1590.648085
 31
0.0
  0
LINE
  5
740
100
AcDbEntity
  8
1
100
AcDbLine
 10
1692.813201
 20
1589.208085
 30
0.0
 11
1692.813201
 21
1590.648085
 31
0.0
  0
LINE
  5
741
100
AcDbEntity
  8
1
100
AcDbLine
 10
1696.473201
 20
1592.808085
 30
0.0
 11
1696.473201
 21
1550.808085
 31
0.0
  0
LINE
  5
742
100
AcDbEntity
  8
1
100
AcDbLine
 10
1695.273201
 20
1591.608085
 30
0.0
 11
1695.273201
 21
1550.808085
 31
0.0
  0
LINE
  5
743
100
AcDbEntity
  8
1
100
AcDbLine
 10
1673.673201
 20
1601.583085
 30
0.0
 11
1673.673201
 21
1539.783085
 31
0.0
  0
LINE
  5
744
100
AcDbEntity
  8
1
100
AcDbLine
 10
1694.133201
 20
1531.143085
 30
0.0
 11
1673.171648
 21
1531.143085
 31
0.0
  0
LINE
  5
745
100
AcDbEntity
  8
1
100
AcDbLine
 10
1694.493201
 20
1530.783085
 30
0.0
 11
1673.171648
 21
1530.783085
 31
0.0
  0
LINE
  5
746
100
AcDbEntity
  8
1
100
AcDbLine
 10
1638.753201
 20
1539.063085
 30
0.0
 11
1694.073201
 21
1539.063085
 31
0.0
  0
LINE
  5
747
100
AcDbEntity
  8
1
100
AcDbLine
 10
1632.273201
 20
1538.343085
 30
0.0
 11
1638.753201
 21
1538.343085
 31
0.0
  0
LINE
  5
748
100
AcDbEntity
  8
1
100
AcDbLine
 10
1632.273201
 20
1523.583085
 30
0.0
 11
1632.273201
 21
1538.343085
 31
0.0
  0
LINE
  5
749
100
AcDbEntity
  8
1
100
AcDbLine
 10
1653.740893
 20
1525.719424
 30
0.0
 11
1656.910962
 21
1527.304458
 31
0.0
  0
LINE
  5
74A
100
AcDbEntity
  8
1
100
AcDbLine
 10
1653.90189
 20
1525.39743
 30
0.0
 11
1657.071959
 21
1526.982464
 31
0.0
  0
ARC
  5
74B
100
AcDbEntity
  8
1
100
AcDbCircle
 10
1637.802201
 20
1557.596809
 30
0.0
 40
35.64
100
AcDbArc
 50
271.208375
 51
296.565051
  0
ARC
  5
74C
100
AcDbEntity
  8
1
100
AcDbCircle
 10
1637.802201
 20
1557.596809
 30
0.0
 40
36.0
100
AcDbArc
 50
271.208375
 51
296.565051
  0
ARC
  5
74D
100
AcDbEntity
  8
1
100
AcDbCircle
 10
1673.171648
 20
1494.783085
 30
0.0
 40
36.36
100
AcDbArc
 50
90.0
 51
116.565051
  0
ARC
  5
74E
100
AcDbEntity
  8
1
100
AcDbCircle
 10
1673.171648
 20
1494.783085
 30
0.0
 40
36.0
100
AcDbArc
 50
90.0
 51
116.565051
  0
LINE
  5
74F
100
AcDbEntity
  8
1
100
AcDbLine
 10
1638.753201
 20
1538.343085
 30
0.0
 11
1638.753201
 21
1539.063085
 31
0.0
  0
LINE
  5
750
100
AcDbEntity
  8
1
  6
HIDDEN
100
AcDbLine
 10
1660.173201
 20
1557.108085
 30
0.0
 11
1660.173201
 21
1555.308085
 31
0.0
  0
LINE
  5
751
100
AcDbEntity
  8
1
  6
HIDDEN
100
AcDbLine
 10
1663.173201
 20
1555.308085
 30
0.0
 11
1663.173201
 21
1557.108085
 31
0.0
  0
ARC
  5
752
100
AcDbEntity
  8
1
  6
HIDDEN
100
AcDbCircle
 10
1661.673201
 20
1557.108085
 30
0.0
 40
1.5
100
AcDbArc
 50
0.0
 51
180.0
  0
ARC
  5
753
100
AcDbEntity
  8
1
  6
HIDDEN
100
AcDbCircle
 10
1661.673201
 20
1555.308085
 30
0.0
 40
1.5
100
AcDbArc
 50
180.0
 51
360.0
  0
LINE
  5
754
100
AcDbEntity
  8
1
100
AcDbLine
 10
1695.873201
 20
1532.583085
 30
0.0
 11
1695.873201
 21
1536.183085
 31
0.0
  0
LINE
  5
755
100
AcDbEntity
  8
1
100
AcDbLine
 10
1692.753201
 20
1536.183085
 30
0.0
 11
1692.753201
 21
1534.383085
 31
0.0
  0
ARC
  5
756
100
AcDbEntity
  8
1
100
AcDbCircle
 10
1695.873201
 20
1539.783085
 30
0.0
 40
7.2
100
AcDbArc
 50
270.0
 51
360.0
  0
ARC
  5
757
100
AcDbEntity
  8
1
100
AcDbCircle
 10
1695.873201
 20
1539.783085
 30
0.0
 40
9.0
100
AcDbArc
 50
270.0
 51
360.0
  0
LINE
  5
758
100
AcDbEntity
  8
1
100
AcDbLine
 10
1695.873201
 20
1530.783085
 30
0.0
 11
1694.673201
 21
1530.783085
 31
0.0
  0
LINE
  5
759
100
AcDbEntity
  8
1
100
AcDbLine
 10
1694.673201
 20
1534.383085
 30
0.0
 11
1694.673201
 21
1530.783085
 31
0.0
  0
LINE
  5
75A
100
AcDbEntity
  8
1
100
AcDbLine
 10
1694.133201
 20
1531.143085
 30
0.0
 11
1694.133201
 21
1533.783085
 31
0.0
  0
LINE
  5
75B
100
AcDbEntity
  8
1
100
AcDbLine
 10
1694.133201
 20
1533.783085
 30
0.0
 11
1694.493201
 21
1533.783085
 31
0.0
  0
LINE
  5
75C
100
AcDbEntity
  8
1
100
AcDbLine
 10
1694.493201
 20
1533.783085
 30
0.0
 11
1694.493201
 21
1530.783085
 31
0.0
  0
LINE
  5
75D
100
AcDbEntity
  8
1
100
AcDbLine
 10
1692.753201
 20
1534.383085
 30
0.0
 11
1694.673201
 21
1534.383085
 31
0.0
  0
LINE
  5
75E
100
AcDbEntity
  8
1
100
AcDbLine
 10
1682.133201
 20
1589.208085
 30
0.0
 11
1692.813201
 21
1589.208085
 31
0.0
  0
LINE
  5
75F
100
AcDbEntity
  8
1
100
AcDbLine
 10
1691.973201
 20
1579.608085
 30
0.0
 11
1682.973201
 21
1579.608085
 31
0.0
  0
LINE
  5
760
100
AcDbEntity
  8
1
100
AcDbLine
 10
1682.973201
 20
1584.408085
 30
0.0
 11
1691.973201
 21
1584.408085
 31
0.0
  0
LINE
  5
761
100
AcDbEntity
  8
1
100
AcDbLine
 10
1697.673201
 20
1549.308085
 30
0.0
 11
1682.433201
 21
1549.308085
 31
0.0
  0
LINE
  5
762
100
AcDbEntity
  8
1
100
AcDbLine
 10
1681.233201
 20
1550.508085
 30
0.0
 11
1696.473201
 21
1550.508085
 31
0.0
  0
LINE
  5
763
100
AcDbEntity
  8
1
100
AcDbLine
 10
1673.673201
 20
1539.783085
 30
0.0
 11
1694.073201
 21
1539.783085
 31
0.0
  0
LINE
  5
764
100
AcDbEntity
  8
1
  6
HIDDEN
100
AcDbLine
 10
1682.433201
 20
1544.808085
 30
0.0
 11
1683.873201
 21
1544.808085
 31
0.0
  0
LINE
  5
765
100
AcDbEntity
  8
1
  6
HIDDEN
100
AcDbLine
 10
1683.873201
 20
1544.808085
 30
0.0
 11
1683.873201
 21
1542.408085
 31
0.0
  0
ARC
  5
766
100
AcDbEntity
  8
1
  6
HIDDEN
100
AcDbCircle
 10
1681.233201
 20
1559.208085
 30
0.0
 40
1.2
100
AcDbArc
 50
0.0
 51
90.0
  0
LINE
  5
767
100
AcDbEntity
  8
1
  6
HIDDEN
100
AcDbLine
 10
1682.433201
 20
1559.208085
 30
0.0
 11
1682.433201
 21
1542.408085
 31
0.0
  0
LINE
  5
768
100
AcDbEntity
  8
1
100
AcDbLine
 10
1679.793201
 20
1539.063085
 30
0.0
 11
1679.793201
 21
1538.117941
 31
0.0
  0
LINE
  5
769
100
AcDbEntity
  8
1
100
AcDbLine
 10
1678.473201
 20
1542.408085
 30
0.0
 11
1678.473201
 21
1539.783085
 31
0.0
  0
LINE
  5
76A
100
AcDbEntity
  8
1
100
AcDbLine
 10
1676.073201
 20
1551.063085
 30
0.0
 11
1678.473201
 21
1551.063085
 31
0.0
  0
LINE
  5
76B
100
AcDbEntity
  8
1
100
AcDbLine
 10
1676.073201
 20
1543.608085
 30
0.0
 11
1676.073201
 21
1551.063085
 31
0.0
  0
LINE
  5
76C
100
AcDbEntity
  8
1
100
AcDbLine
 10
1676.073201
 20
1539.783085
 30
0.0
 11
1676.073201
 21
1542.408085
 31
0.0
  0
LINE
  5
76D
100
AcDbEntity
  8
1
100
AcDbLine
 10
1678.473201
 20
1551.063085
 30
0.0
 11
1678.473201
 21
1543.608085
 31
0.0
  0
LINE
  5
76E
100
AcDbEntity
  8
1
100
AcDbLine
 10
1682.973201
 20
1579.608085
 30
0.0
 11
1682.373201
 21
1580.208085
 31
0.0
  0
LINE
  5
76F
100
AcDbEntity
  8
1
100
AcDbLine
 10
1682.373201
 20
1580.208085
 30
0.0
 11
1682.373201
 21
1583.808085
 31
0.0
  0
LINE
  5
770
100
AcDbEntity
  8
1
100
AcDbLine
 10
1682.973201
 20
1584.408085
 30
0.0
 11
1682.373201
 21
1585.008085
 31
0.0
  0
LINE
  5
771
100
AcDbEntity
  8
1
100
AcDbLine
 10
1682.373201
 20
1585.008085
 30
0.0
 11
1682.373201
 21
1588.608085
 31
0.0
  0
LINE
  5
772
100
AcDbEntity
  8
1
100
AcDbLine
 10
1682.373201
 20
1583.808085
 30
0.0
 11
1682.973201
 21
1584.408085
 31
0.0
  0
LINE
  5
773
100
AcDbEntity
  8
1
100
AcDbLine
 10
1682.373201
 20
1588.608085
 30
0.0
 11
1682.973201
 21
1589.208085
 31
0.0
  0
LINE
  5
774
100
AcDbEntity
  8
1
100
AcDbLine
 10
1684.473201
 20
1577.088085
 30
0.0
 11
1690.473201
 21
1577.088085
 31
0.0
  0
LINE
  5
775
100
AcDbEntity
  8
1
100
AcDbLine
 10
1684.473201
 20
1579.608085
 30
0.0
 11
1684.473201
 21
1577.088085
 31
0.0
  0
LINE
  5
776
100
AcDbEntity
  8
1
100
AcDbLine
 10
1690.473201
 20
1579.608085
 30
0.0
 11
1690.473201
 21
1577.088085
 31
0.0
  0
LINE
  5
777
100
AcDbEntity
  8
SILK
100
AcDbLine
 10
1685.673201
 20
1539.783085
 30
0.0
 11
1685.673201
 21
1549.308085
 31
0.0
  0
LINE
  5
778
100
AcDbEntity
  8
1
100
AcDbLine
 10
1682.433201
 20
1549.308085
 30
0.0
 11
1682.433201
 21
1542.408085
 31
0.0
  0
LINE
  5
779
100
AcDbEntity
  8
1
100
AcDbLine
 10
1681.233201
 20
1543.608085
 30
0.0
 11
1681.233201
 21
1550.508085
 31
0.0
  0
ARC
  5
77A
100
AcDbEntity
  8
1
100
AcDbCircle
 10
1677.273201
 20
1543.563085
 30
0.0
 40
6.0
100
AcDbArc
 50
270.0
 51
294.834587
  0
LINE
  5
77B
100
AcDbEntity
  8
SILK
100
AcDbLine
 10
1685.673201
 20
1546.521226
 30
0.0
 11
1688.46006
 21
1549.308085
 31
0.0
  0
LINE
  5
77C
100
AcDbEntity
  8
1
100
AcDbLine
 10
1674.753201
 20
1538.117941
 30
0.0
 11
1674.753201
 21
1539.063085
 31
0.0
  0
LINE
  5
77D
100
AcDbEntity
  8
1
100
AcDbLine
 10
1674.273201
 20
1542.408085
 30
0.0
 11
1674.273201
 21
1543.608085
 31
0.0
  0
LINE
  5
77E
100
AcDbEntity
  8
1
100
AcDbLine
 10
1682.433201
 20
1542.408085
 30
0.0
 11
1674.273201
 21
1542.408085
 31
0.0
  0
LINE
  5
77F
100
AcDbEntity
  8
1
100
AcDbLine
 10
1674.273201
 20
1543.608085
 30
0.0
 11
1681.233201
 21
1543.608085
 31
0.0
  0
ARC
  5
780
100
AcDbEntity
  8
1
100
AcDbCircle
 10
1677.273201
 20
1543.563085
 30
0.0
 40
6.0
100
AcDbArc
 50
245.165413
 51
270.0
  0
LINE
  5
781
100
AcDbEntity
  8
1
100
AcDbLine
 10
1704.873201
 20
1539.783085
 30
0.0
 11
1703.073201
 21
1539.783085
 31
0.0
  0
LINE
  5
782
100
AcDbEntity
  8
1
100
AcDbLine
 10
1701.273201
 20
1554.108085
 30
0.0
 11
1697.673201
 21
1554.108085
 31
0.0
  0
LINE
  5
783
100
AcDbEntity
  8
1
100
AcDbLine
 10
1701.273201
 20
1556.508085
 30
0.0
 11
1701.273201
 21
1554.108085
 31
0.0
  0
LINE
  5
784
100
AcDbEntity
  8
1
100
AcDbLine
 10
1697.673201
 20
1556.508085
 30
0.0
 11
1701.273201
 21
1556.508085
 31
0.0
  0
LINE
  5
785
100
AcDbEntity
  8
1
100
AcDbLine
 10
1694.328057
 20
1557.828085
 30
0.0
 11
1695.273201
 21
1557.828085
 31
0.0
  0
LINE
  5
786
100
AcDbEntity
  8
1
100
AcDbLine
 10
1695.273201
 20
1552.788085
 30
0.0
 11
1694.328057
 21
1552.788085
 31
0.0
  0
LINE
  5
787
100
AcDbEntity
  8
1
100
AcDbLine
 10
1695.273201
 20
1550.808085
 30
0.0
 11
1696.473201
 21
1550.808085
 31
0.0
  0
LINE
  5
788
100
AcDbEntity
  8
1
100
AcDbLine
 10
1694.073201
 20
1539.063085
 30
0.0
 11
1694.073201
 21
1539.783085
 31
0.0
  0
LINE
  5
789
100
AcDbEntity
  8
1
100
AcDbLine
 10
1696.473201
 20
1560.408085
 30
0.0
 11
1697.673201
 21
1560.408085
 31
0.0
  0
LINE
  5
78A
100
AcDbEntity
  8
1
100
AcDbLine
 10
1697.673201
 20
1560.408085
 30
0.0
 11
1697.673201
 21
1549.308085
 31
0.0
  0
LINE
  5
78B
100
AcDbEntity
  8
1
100
AcDbLine
 10
1696.473201
 20
1550.508085
 30
0.0
 11
1696.473201
 21
1560.408085
 31
0.0
  0
ARC
  5
78C
100
AcDbEntity
  8
1
100
AcDbCircle
 10
1699.773201
 20
1555.308085
 30
0.0
 40
6.0
100
AcDbArc
 50
180.0
 51
204.834587
  0
ARC
  5
78D
100
AcDbEntity
  8
1
100
AcDbCircle
 10
1699.773201
 20
1555.308085
 30
0.0
 40
6.0
100
AcDbArc
 50
155.165413
 51
180.0
  0
LINE
  5
78E
100
AcDbEntity
  8
SILK
100
AcDbLine
 10
1695.905623
 20
1539.783085
 30
0.0
 11
1705.430623
 21
1549.308085
 31
0.0
  0
LINE
  5
78F
100
AcDbEntity
  8
1
100
AcDbLine
 10
1691.973201
 20
1589.208085
 30
0.0
 11
1692.573201
 21
1588.608085
 31
0.0
  0
LINE
  5
790
100
AcDbEntity
  8
1
100
AcDbLine
 10
1692.573201
 20
1588.608085
 30
0.0
 11
1692.573201
 21
1585.008085
 31
0.0
  0
LINE
  5
791
100
AcDbEntity
  8
1
100
AcDbLine
 10
1691.973201
 20
1584.408085
 30
0.0
 11
1692.573201
 21
1583.808085
 31
0.0
  0
LINE
  5
792
100
AcDbEntity
  8
1
100
AcDbLine
 10
1692.573201
 20
1583.808085
 30
0.0
 11
1692.573201
 21
1580.208085
 31
0.0
  0
LINE
  5
793
100
AcDbEntity
  8
1
100
AcDbLine
 10
1692.573201
 20
1585.008085
 30
0.0
 11
1691.973201
 21
1584.408085
 31
0.0
  0
LINE
  5
794
100
AcDbEntity
  8
1
100
AcDbLine
 10
1692.573201
 20
1580.208085
 30
0.0
 11
1691.973201
 21
1579.608085
 31
0.0
  0
LINE
  5
795
100
AcDbEntity
  8
1
100
AcDbLine
 10
1695.873201
 20
1536.183085
 30
0.0
 11
1694.673201
 21
1536.183085
 31
0.0
  0
LINE
  5
796
100
AcDbEntity
  8
1
100
AcDbLine
 10
1694.673201
 20
1536.183085
 30
0.0
 11
1692.753201
 21
1536.183085
 31
0.0
  0
LINE
  5
797
100
AcDbEntity
  8
SILK
100
AcDbLine
 10
1712.876186
 20
1539.783085
 30
0.0
 11
1722.401186
 21
1549.308085
 31
0.0
  0
LINE
  5
798
100
AcDbEntity
  8
SILK
100
AcDbLine
 10
1729.846748
 20
1539.783085
 30
0.0
 11
1739.371748
 21
1549.308085
 31
0.0
  0
LINE
  5
799
100
AcDbEntity
  8
1
100
AcDbLine
 10
1682.973201
 20
1598.568085
 30
0.0
 11
1691.973201
 21
1598.568085
 31
0.0
  0
LINE
  5
79A
100
AcDbEntity
  8
1
100
AcDbLine
 10
1679.073201
 20
1591.608085
 30
0.0
 11
1695.273201
 21
1591.608085
 31
0.0
  0
LINE
  5
79B
100
AcDbEntity
  8
1
100
AcDbLine
 10
1694.073201
 20
1593.768085
 30
0.0
 11
1680.873201
 21
1593.768085
 31
0.0
  0
LINE
  5
79C
100
AcDbEntity
  8
1
100
AcDbLine
 10
1679.073201
 20
1592.808085
 30
0.0
 11
1696.473201
 21
1592.808085
 31
0.0
  0
LINE
  5
79D
100
AcDbEntity
  8
1
100
AcDbLine
 10
1694.073201
 20
1590.648085
 30
0.0
 11
1680.873201
 21
1590.648085
 31
0.0
  0
LINE
  5
79E
100
AcDbEntity
  8
1
100
AcDbLine
 10
1690.473201
 20
1635.768085
 30
0.0
 11
1690.473201
 21
1598.568085
 31
0.0
  0
LINE
  5
79F
100
AcDbEntity
  8
1
100
AcDbLine
 10
1684.473201
 20
1635.768085
 30
0.0
 11
1684.473201
 21
1598.568085
 31
0.0
  0
LINE
  5
7A0
100
AcDbEntity
  8
1
100
AcDbLine
 10
1682.373201
 20
1597.968085
 30
0.0
 11
1682.973201
 21
1598.568085
 31
0.0
  0
LINE
  5
7A1
100
AcDbEntity
  8
1
100
AcDbLine
 10
1680.873201
 20
1593.768085
 30
0.0
 11
1680.873201
 21
1592.808085
 31
0.0
  0
LINE
  5
7A2
100
AcDbEntity
  8
1
100
AcDbLine
 10
1682.973201
 20
1593.768085
 30
0.0
 11
1682.373201
 21
1594.368085
 31
0.0
  0
LINE
  5
7A3
100
AcDbEntity
  8
1
100
AcDbLine
 10
1679.073201
 20
1591.608085
 30
0.0
 11
1679.073201
 21
1592.808085
 31
0.0
  0
LINE
  5
7A4
100
AcDbEntity
  8
1
100
AcDbLine
 10
1682.373201
 20
1594.368085
 30
0.0
 11
1682.373201
 21
1597.968085
 31
0.0
  0
LINE
  5
7A5
100
AcDbEntity
  8
1
100
AcDbLine
 10
1680.873201
 20
1590.648085
 30
0.0
 11
1680.873201
 21
1591.608085
 31
0.0
  0
LINE
  5
7A6
100
AcDbEntity
  8
1
100
AcDbLine
 10
1694.073201
 20
1593.768085
 30
0.0
 11
1694.073201
 21
1592.808085
 31
0.0
  0
LINE
  5
7A7
100
AcDbEntity
  8
1
100
AcDbLine
 10
1691.973201
 20
1598.568085
 30
0.0
 11
1692.573201
 21
1597.968085
 31
0.0
  0
LINE
  5
7A8
100
AcDbEntity
  8
1
100
AcDbLine
 10
1692.573201
 20
1594.368085
 30
0.0
 11
1691.973201
 21
1593.768085
 31
0.0
  0
LINE
  5
7A9
100
AcDbEntity
  8
1
100
AcDbLine
 10
1692.573201
 20
1597.968085
 30
0.0
 11
1692.573201
 21
1594.368085
 31
0.0
  0
LINE
  5
7AA
100
AcDbEntity
  8
1
100
AcDbLine
 10
1694.073201
 20
1592.808085
 30
0.0
 11
1691.073201
 21
1592.808085
 31
0.0
  0
LINE
  5
7AB
100
AcDbEntity
  8
1
100
AcDbLine
 10
1694.073201
 20
1591.608085
 30
0.0
 11
1691.073201
 21
1591.608085
 31
0.0
  0
LINE
  5
7AC
100
AcDbEntity
  8
1
100
AcDbLine
 10
1694.073201
 20
1590.648085
 30
0.0
 11
1694.073201
 21
1591.608085
 31
0.0
  0
LINE
  5
7AD
100
AcDbEntity
  8
SILK
100
AcDbLine
 10
1746.817311
 20
1539.783085
 30
0.0
 11
1754.553201
 21
1547.518975
 31
0.0
  0
TEXT
  5
800
100
AcDbEntity
  8
1
100
AcDbText
 10
1354.530344
 20
1482.09573
 30
0.0
 40
25.0
  1
Ceiling mount example 1
 41
0.8
  7
UT7
 72
     1
 11
1541.673201
 21
1482.09573
 31
0.0
100
AcDbText
  0
LINE
  5
801
100
AcDbEntity
  8
1
100
AcDbLine
 10
1736.673201
 20
1470.09573
 30
0.0
 11
1346.673201
 21
1470.09573
 31
0.0
  0
TEXT
  5
802
100
AcDbEntity
  8
1
100
AcDbText
 10
1390.24463
 20
1437.09573
 30
0.0
 40
25.0
  1
(Fixed with 2 bolts)
 41
0.8
  7
UT7
 72
     1
 11
1541.673201
 21
1437.09573
 31
0.0
100
AcDbText
  0
LINE
  5
806
100
AcDbEntity
  8
1
100
AcDbLine
 10
1736.673201
 20
1200.673628
 30
0.0
 11
1346.673201
 21
1200.673628
 31
0.0
  0
TEXT
  5
807
100
AcDbEntity
  8
1
100
AcDbText
 10
1390.24463
 20
1167.673628
 30
0.0
 40
25.0
  1
(Fixed with 4 bolts)
 41
0.8
  7
UT7
 72
     1
 11
1541.673201
 21
1167.673628
 31
0.0
100
AcDbText
  0
TEXT
  5
808
100
AcDbEntity
  8
1
100
AcDbText
 10
1350.24463
 20
1212.673628
 30
0.0
 40
25.0
  1
Ceiling mount example 2
 41
0.8
  7
UT7
 72
     1
 11
1541.673201
 21
1212.673628
 31
0.0
100
AcDbText
  0
TEXT
  5
809
100
AcDbEntity
  8
1
100
AcDbText
 10
1350.24463
 20
908.727671
 30
0.0
 40
25.0
  1
Ceiling mount example 3
 41
0.8
  7
UT7
 72
     1
 11
1541.673201
 21
908.727671
 31
0.0
100
AcDbText
  0
TEXT
  5
80A
100
AcDbEntity
  8
1
100
AcDbText
 10
1390.24463
 20
863.727671
 30
0.0
 40
25.0
  1
(Fixed with 4 bolts)
 41
0.8
  7
UT7
 72
     1
 11
1541.673201
 21
863.727671
 31
0.0
100
AcDbText
  0
LINE
  5
80B
100
AcDbEntity
  8
1
100
AcDbLine
 10
1736.673201
 20
896.727671
 30
0.0
 11
1346.673201
 21
896.727671
 31
0.0
  0
LINE
  5
80F
100
AcDbEntity
  8
1
100
AcDbLine
 10
1701.673201
 20
142.85565
 30
0.0
 11
1381.673201
 21
142.85565
 31
0.0
  0
TEXT
  5
810
100
AcDbEntity
  8
1
100
AcDbText
 10
1388.816058
 20
154.85565
 30
0.0
 40
25.0
  1
Wall mount example
 41
0.8
  7
UT7
 72
     1
 11
1541.673201
 21
154.85565
 31
0.0
100
AcDbText
  0
TEXT
  5
811
100
AcDbEntity
  8
1
100
AcDbText
 10
1396.911296
 20
109.85565
 30
0.0
 40
25.0
  1
(2%%1314 construction)
 41
0.8
  7
UT7
 72
     1
 11
1541.673201
 21
109.85565
 31
0.0
100
AcDbText
  0
TEXT
  5
818
100
AcDbEntity
  8
SCALE
100
AcDbText
 10
1643.041145
 20
601.204345
 30
0.0
 40
22.0
  1
A
100
AcDbText
  0
LINE
  5
819
100
AcDbEntity
  8
SCALE
100
AcDbLine
 10
1675.635729
 20
591.204276
 30
0.0
 11
1637.305029
 21
591.20426
 31
0.0
  0
INSERT
  5
81C
100
AcDbEntity
  8
SCALE
100
AcDbBlockReference
  2
YAZ3
 10
1613.575143
 20
615.437341
 30
0.0
 41
15.0
 42
15.0
 43
15.0
 50
134.398914
  0
LINE
  5
81D
100
AcDbEntity
  8
SCALE
100
AcDbLine
 10
1613.575143
 20
615.437341
 30
0.0
 11
1637.305165
 21
591.204121
 31
0.0
  0
LINE
  5
820
100
AcDbEntity
  8
1
100
AcDbLine
 10
1792.38827
 20
629.604313
 30
0.0
 11
1652.38827
 21
629.604313
 31
0.0
  0
TEXT
  5
872
100
AcDbEntity
  8
1
100
AcDbText
 10
1661.91208
 20
704.487086
 30
0.0
 40
25.0
  1
Enlarged
 41
0.8
  7
UT7
 72
     1
 11
1722.38827
 21
704.487086
 31
0.0
100
AcDbText
  0
TEXT
  5
873
100
AcDbEntity
  8
1
100
AcDbText
 10
1670.007318
 20
673.487086
 30
0.0
 40
25.0
  1
view of
 41
0.8
  7
UT7
 72
     1
 11
1722.38827
 21
673.487086
 31
0.0
100
AcDbText
  0
TEXT
  5
874
100
AcDbEntity
  8
1
100
AcDbText
 10
1652.864461
 20
643.487086
 30
0.0
 40
25.0
  1
portion A
 41
0.8
  7
UT7
 72
     1
 11
1722.38827
 21
643.487086
 31
0.0
100
AcDbText
  0
DIMENSION
  5
884
100
AcDbEntity
  8
SCALE
100
AcDbDimension
  2
*D22
 10
589.123431
 20
1093.04016
 30
0.0
 11
555.413907
 21
1115.04016
 31
0.0
 12
-16.471265
 22
-7.563275
 32
0.0
  1
32
  3
STANDARD
100
AcDbAlignedDimension
 13
621.123431
 23
1134.723731
 33
0.0
 14
589.123431
 24
1406.723731
 34
0.0
100
AcDbRotatedDimension
1001
ACAD
1000
DSTYLE
1002
{
1070
   140
1040
2.2
1070
   145
1040
1.0
1070
    74
1070
     0
1070
   172
1070
     1
1070
    73
1070
     0
1070
   272
1070
     4
1070
    40
1040
10.0
1070
   287
1070
     3
1070
    42
1040
2.0
1070
    44
1040
1.5
1070
    43
1040
10.0
1070
   271
1070
     4
1070
     5
1000
YAZ3
1070
    41
1040
1.5
1002
}
  0
ENDSEC
  0
SECTION
  2
OBJECTS
  0
DICTIONARY
  5
A41
100
AcDbDictionary
  3
ACAD_GROUP
350
A42
  3
ACAD_MLINESTYLE
350
A43
  0
DICTIONARY
  5
A42
102
{ACAD_REACTORS
330
A41
102
}
100
AcDbDictionary
  0
DICTIONARY
  5
A43
102
{ACAD_REACTORS
330
A41
102
}
100
AcDbDictionary
  3
STANDARD
350
A44
  0
MLINESTYLE
  5
A44
102
{ACAD_REACTORS
330
A43
102
}
100
AcDbMlineStyle
  2
STANDARD
 70
     0
  3

 62
     0
 51
90.0
 52
90.0
 71
     2
 49
0.5
 62
   256
  6
BYLAYER
 49
-0.5
 62
   256
  6
BYLAYER
  0
ENDSEC
  0
EOF
