  0
SECTION
  2
HEADER
  9
$ACADVER
  1
AC1014
  9
$ACADMAINTVER
 70
     0
  9
$DWGCODEPAGE
  3
ANSI_1252
  9
$INSBASE
 10
0.0
 20
0.0
 30
0.0
  9
$EXTMIN
 10
30.377171
 20
62.602644
 30
0.0
  9
$EXTMAX
 10
1028.080839
 20
760.612481
 30
0.0
  9
$LIMMIN
 10
0.0
 20
0.0
  9
$LIMMAX
 10
198.0
 20
285.0
  9
$ORTHOMODE
 70
     1
  9
$REGENMODE
 70
     0
  9
$FILLMODE
 70
     1
  9
$QTEXTMODE
 70
     0
  9
$MIRRTEXT
 70
     0
  9
$DRAGMODE
 70
     2
  9
$LTSCALE
 40
48.0
  9
$OSMODE
 70
     0
  9
$ATTMODE
 70
     1
  9
$TEXTSIZE
 40
15.0
  9
$TRACEWID
 40
0.05
  9
$TEXTSTYLE
  7
UT7
  9
$CLAYER
  8
1
  9
$CELTYPE
  6
BYLAYER
  9
$CECOLOR
 62
   256
  9
$CELTSCALE
 40
1.0
  9
$DELOBJ
 70
     1
  9
$DISPSILH
 70
     0
  9
$DIMSCALE
 40
6.0
  9
$DIMASZ
 40
1.5
  9
$DIMEXO
 40
2.0
  9
$DIMDLI
 40
10.0
  9
$DIMRND
 40
0.0
  9
$DIMDLE
 40
0.0
  9
$DIMEXE
 40
1.5
  9
$DIMTP
 40
0.0
  9
$DIMTM
 40
0.0
  9
$DIMTXT
 40
2.2
  9
$DIMCEN
 40
0.09
  9
$DIMTSZ
 40
0.0
  9
$DIMTOL
 70
     0
  9
$DIMLIM
 70
     0
  9
$DIMTIH
 70
     0
  9
$DIMTOH
 70
     0
  9
$DIMSE1
 70
     0
  9
$DIMSE2
 70
     0
  9
$DIMTAD
 70
     0
  9
$DIMZIN
 70
     0
  9
$DIMBLK
  1
YAZ3
  9
$DIMASO
 70
     1
  9
$DIMSHO
 70
     0
  9
$DIMPOST
  1

  9
$DIMAPOST
  1

  9
$DIMALT
 70
     0
  9
$DIMALTD
 70
     2
  9
$DIMALTF
 40
25.4
  9
$DIMLFAC
 40
1.0
  9
$DIMTOFL
 70
     1
  9
$DIMTVP
 40
1.0
  9
$DIMTIX
 70
     0
  9
$DIMSOXD
 70
     0
  9
$DIMSAH
 70
     0
  9
$DIMBLK1
  1

  9
$DIMBLK2
  1

  9
$DIMSTYLE
  2
STANDARD
  9
$DIMCLRD
 70
     0
  9
$DIMCLRE
 70
     0
  9
$DIMCLRT
 70
     0
  9
$DIMTFAC
 40
1.0
  9
$DIMGAP
 40
0.09
  9
$DIMJUST
 70
     0
  9
$DIMSD1
 70
     0
  9
$DIMSD2
 70
     0
  9
$DIMTOLJ
 70
     1
  9
$DIMTZIN
 70
     0
  9
$DIMALTZ
 70
     0
  9
$DIMALTTZ
 70
     0
  9
$DIMFIT
 70
     3
  9
$DIMUPT
 70
     0
  9
$DIMUNIT
 70
     2
  9
$DIMDEC
 70
     4
  9
$DIMTDEC
 70
     4
  9
$DIMALTU
 70
     2
  9
$DIMALTTD
 70
     2
  9
$DIMTXSTY
  7
UT7
  9
$DIMAUNIT
 70
     0
  9
$LUNITS
 70
     2
  9
$LUPREC
 70
     3
  9
$SKETCHINC
 40
0.1
  9
$FILLETRAD
 40
0.0
  9
$AUNITS
 70
     0
  9
$AUPREC
 70
     0
  9
$MENU
  1
AMECEX
  9
$ELEVATION
 40
0.0
  9
$PELEVATION
 40
0.0
  9
$THICKNESS
 40
0.0
  9
$LIMCHECK
 70
     0
  9
$BLIPMODE
 70
     0
  9
$CHAMFERA
 40
0.0
  9
$CHAMFERB
 40
0.0
  9
$CHAMFERC
 40
0.0
  9
$CHAMFERD
 40
0.0
  9
$SKPOLY
 70
     0
  9
$TDCREATE
 40
2451716.417271528
  9
$TDUPDATE
 40
2452076.645393519
  9
$TDINDWG
 40
0.0025809838
  9
$TDUSRTIMER
 40
0.0025694097
  9
$USRTIMER
 70
     1
  9
$ANGBASE
 50
0.0
  9
$ANGDIR
 70
     0
  9
$PDMODE
 70
     0
  9
$PDSIZE
 40
0.0
  9
$PLINEWID
 40
0.0
  9
$COORDS
 70
     2
  9
$SPLFRAME
 70
     0
  9
$SPLINETYPE
 70
     6
  9
$SPLINESEGS
 70
     8
  9
$ATTDIA
 70
     0
  9
$ATTREQ
 70
     1
  9
$HANDLING
 70
     1
  9
$HANDSEED
  5
D56
  9
$SURFTAB1
 70
     6
  9
$SURFTAB2
 70
     6
  9
$SURFTYPE
 70
     6
  9
$SURFU
 70
     6
  9
$SURFV
 70
     6
  9
$UCSNAME
  2

  9
$UCSORG
 10
0.0
 20
0.0
 30
0.0
  9
$UCSXDIR
 10
1.0
 20
0.0
 30
0.0
  9
$UCSYDIR
 10
0.0
 20
1.0
 30
0.0
  9
$PUCSNAME
  2

  9
$PUCSORG
 10
0.0
 20
0.0
 30
0.0
  9
$PUCSXDIR
 10
1.0
 20
0.0
 30
0.0
  9
$PUCSYDIR
 10
0.0
 20
1.0
 30
0.0
  9
$USERI1
 70
     0
  9
$USERI2
 70
     0
  9
$USERI3
 70
     0
  9
$USERI4
 70
     0
  9
$USERI5
 70
     0
  9
$USERR1
 40
30.0
  9
$USERR2
 40
0.0
  9
$USERR3
 40
0.0
  9
$USERR4
 40
0.0
  9
$USERR5
 40
0.0
  9
$WORLDVIEW
 70
     1
  9
$SHADEDGE
 70
     3
  9
$SHADEDIF
 70
    70
  9
$TILEMODE
 70
     1
  9
$MAXACTVP
 70
    16
  9
$PINSBASE
 10
0.0
 20
0.0
 30
0.0
  9
$PLIMCHECK
 70
     0
  9
$PEXTMIN
 10
1.000000E+20
 20
1.000000E+20
 30
1.000000E+20
  9
$PEXTMAX
 10
-1.000000E+20
 20
-1.000000E+20
 30
-1.000000E+20
  9
$PLIMMIN
 10
0.0
 20
0.0
  9
$PLIMMAX
 10
12.0
 20
9.0
  9
$UNITMODE
 70
     0
  9
$VISRETAIN
 70
     0
  9
$PLINEGEN
 70
     0
  9
$PSLTSCALE
 70
     0
  9
$TREEDEPTH
 70
  3020
  9
$PICKSTYLE
 70
     1
  9
$CMLSTYLE
  2
STANDARD
  9
$CMLJUST
 70
     0
  9
$CMLSCALE
 40
1.0
  9
$PROXYGRAPHICS
 70
     0
  9
$MEASUREMENT
 70
     0
  0
ENDSEC
  0
SECTION
  2
CLASSES
  0
CLASS
  1
LWPOLYLINE
  2
AcDbPolyline
  3
"AutoCAD"
 90
        0
280
     0
281
     1
  0
CLASS
  1
IMAGE
  2
AcDbRasterImage
  3
ISM
 90
      127
280
     0
281
     1
  0
CLASS
  1
OLE2FRAME
  2
AcDbOle2Frame
  3
""
 90
        0
280
     0
281
     1
  0
CLASS
  1
HATCH
  2
AcDbHatch
  3
"ACAD_SEDONA"
 90
        0
280
     0
281
     1
  0
CLASS
  1
DICTIONARYVAR
  2
AcDbDictionaryVar
  3
"AutoCAD"
 90
        0
280
     0
281
     0
  0
CLASS
  1
RASTERVARIABLES
  2
AcDbRasterVariables
  3
ISM
 90
        0
280
     0
281
     0
  0
CLASS
  1
IMAGEDEF
  2
AcDbRasterImageDef
  3
ISM
 90
        0
280
     0
281
     0
  0
CLASS
  1
IMAGEDEF_REACTOR
  2
AcDbRasterImageDefReactor
  3
ISM
 90
        1
280
     0
281
     0
  0
CLASS
  1
IDBUFFER
  2
AcDbIdBuffer
  3
"Acad"
 90
        0
280
     0
281
     0
  0
CLASS
  1
SPATIAL_FILTER
  2
AcDbSpatialFilter
  3
"Acad"
 90
        0
280
     0
281
     0
  0
CLASS
  1
XRECORD
  2
AcDbXrecord
  3
"<Built In>"
 90
        0
280
     0
281
     0
  0
CLASS
  1
SORTENTSTABLE
  2
AcDbSortentsTable
  3
"AutoCAD"
 90
        0
280
     0
281
     0
  0
CLASS
  1
LAYER_INDEX
  2
AcDbLayerIndex
  3
"Acad"
 90
        0
280
     0
281
     0
  0
CLASS
  1
SPATIAL_INDEX
  2
AcDbSpatialIndex
  3
"Acad"
 90
        0
280
     0
281
     0
  0
CLASS
  1
OBJECT_PTR
  2
CAseDLPNTableRecord
  3
"ASE-LPNTableRecord"
 90
        1
280
     0
281
     0
  0
CLASS
  1
LAYOUT
  2
AcDbLayout
  3
"AutoCAD 2000"
 90
        1
280
     0
281
     0
  0
CLASS
  1
PLOTSETTINGS
  2
AcDbPlotSettings
  3
"AutoCAD 2000"
 90
        1
280
     0
281
     0
  0
CLASS
  1
ACDBDICTIONARYWDFLT
  2
AcDbDictionaryWithDefault
  3
"AutoCAD 2000"
 90
        1
280
     0
281
     0
  0
CLASS
  1
ACDBPLACEHOLDER
  2
AcDbPlaceHolder
  3
"AutoCAD 2000"
 90
        1
280
     0
281
     0
  0
CLASS
  1
VBA_PROJECT
  2
AcDbVbaProject
  3
"acadvba"
 90
        1
280
     0
281
     0
  0
CLASS
  1
WIPEOUT
  2
AcDbWipeout
  3
WipeOut|AutoCAD Express Tool|expresstools@autodesk.com
 90
      127
280
     0
281
     1
  0
CLASS
  1
WIPEOUTVARIABLES
  2
AcDbWipeoutVariables
  3
WipeOut|AutoCAD Express Tool|expresstools@autodesk.com
 90
        0
280
     0
281
     0
  0
CLASS
  1
RTEXT
  2
RText
  3
RText|AutoCAD Express Tool|expresstools@autodesk.com
 90
        0
280
     0
281
     1
  0
CLASS
  1
ARCALIGNEDTEXT
  2
AcDbArcAlignedText
  3
ATEXT|AutoCAD Express Tool|expresstools@autodesk.com
 90
        0
280
     0
281
     1
  0
ENDSEC
  0
SECTION
  2
TABLES
  0
TABLE
  2
VPORT
  5
D14
100
AcDbSymbolTable
 70
     1
  0
VPORT
  5
D27
100
AcDbSymbolTableRecord
100
AcDbViewportTableRecord
  2
*ACTIVE
 70
     0
 10
0.0
 20
0.0
 11
1.0
 21
1.0
 12
529.229005
 22
411.607562
 13
0.0
 23
0.0
 14
1.0
 24
1.0
 15
0.0
 25
0.0
 16
0.0
 26
0.0
 36
1.0
 17
0.0
 27
0.0
 37
0.0
 40
711.970033
 41
1.608558
 42
50.0
 43
0.0
 44
0.0
 50
0.0
 51
0.0
 71
     0
 72
   100
 73
     1
 74
     0
 75
     0
 76
     0
 77
     0
 78
     0
  0
ENDTAB
  0
TABLE
  2
LTYPE
  5
D11
100
AcDbSymbolTable
 70
     5
  0
LTYPE
  5
D1A
100
AcDbSymbolTableRecord
100
AcDbLinetypeTableRecord
  2
BYBLOCK
 70
    64
  3

 72
    65
 73
     0
 40
0.0
  0
LTYPE
  5
D1B
100
AcDbSymbolTableRecord
100
AcDbLinetypeTableRecord
  2
BYLAYER
 70
    64
  3

 72
    65
 73
     0
 40
0.0
  0
LTYPE
  5
D1C
100
AcDbSymbolTableRecord
100
AcDbLinetypeTableRecord
  2
CONTINUOUS
 70
    64
  3
Solid line
 72
    65
 73
     0
 40
0.0
  0
LTYPE
  5
D1D
100
AcDbSymbolTableRecord
100
AcDbLinetypeTableRecord
  2
HIDDEN
 70
    64
  3
_ _ _ _ _ _ _ _ _ _ _ _ _ _ _ _ _ _ _ _ _ _ _
 72
    65
 73
     2
 40
0.375
 49
0.25
 74
     0
 49
-0.125
 74
     0
  0
LTYPE
  5
D1E
100
AcDbSymbolTableRecord
100
AcDbLinetypeTableRecord
  2
CENTER
 70
    64
  3
____ _ ____ _ ____ _ ____ _ ____ _ ____ _ ____
 72
    65
 73
     4
 40
2.0
 49
1.25
 74
     0
 49
-0.25
 74
     0
 49
0.25
 74
     0
 49
-0.25
 74
     0
  0
ENDTAB
  0
TABLE
  2
LAYER
  5
D0F
100
AcDbSymbolTable
 70
     8
  0
LAYER
  5
D1F
100
AcDbSymbolTableRecord
100
AcDbLayerTableRecord
  2
0
 70
    64
 62
     7
  6
CONTINUOUS
  0
LAYER
  5
D20
100
AcDbSymbolTableRecord
100
AcDbLayerTableRecord
  2
GAWA
 70
    64
 62
     2
  6
CONTINUOUS
  0
LAYER
  5
D21
100
AcDbSymbolTableRecord
100
AcDbLayerTableRecord
  2
1
 70
    64
 62
     3
  6
CONTINUOUS
  0
LAYER
  5
D22
100
AcDbSymbolTableRecord
100
AcDbLayerTableRecord
  2
SCALE
 70
    64
 62
     4
  6
CONTINUOUS
  0
LAYER
  5
D23
100
AcDbSymbolTableRecord
100
AcDbLayerTableRecord
  2
CENTER
 70
    64
 62
     1
  6
CENTER
  0
LAYER
  5
D24
100
AcDbSymbolTableRecord
100
AcDbLayerTableRecord
  2
PEN1
 70
    64
 62
     5
  6
CONTINUOUS
  0
LAYER
  5
D25
100
AcDbSymbolTableRecord
100
AcDbLayerTableRecord
  2
SILK
 70
    64
 62
     5
  6
CONTINUOUS
  0
LAYER
  5
D26
100
AcDbSymbolTableRecord
100
AcDbLayerTableRecord
  2
DEFPOINTS
 70
    64
 62
    -7
  6
CONTINUOUS
  0
ENDTAB
  0
TABLE
  2
STYLE
  5
D10
100
AcDbSymbolTable
 70
     4
  0
STYLE
  5
D29
100
AcDbSymbolTableRecord
100
AcDbTextStyleTableRecord
  2
STANDARD
 70
    64
 40
0.0
 41
1.0
 50
0.0
 71
     0
 42
13.2
  3
SIMPLEX
  4

  0
STYLE
  5
D2A
100
AcDbSymbolTableRecord
100
AcDbTextStyleTableRecord
  2
CMP-SET
 70
    64
 40
0.0
 41
0.9
 50
0.0
 71
     0
 42
20.0
  3
COMPLEX
  4

  0
STYLE
  5
D2B
100
AcDbSymbolTableRecord
100
AcDbTextStyleTableRecord
  2
TOALOGO
 70
    64
 40
3.0
 41
1.0
 50
0.0
 71
     0
 42
3.0
  3
SIMPLEX
  4
SLFONT
  0
STYLE
  5
D2C
100
AcDbSymbolTableRecord
100
AcDbTextStyleTableRecord
  2
UT7
 70
    64
 40
0.0
 41
0.8
 50
0.0
 71
     0
 42
15.0
  3
TOAFONT
  4

  0
ENDTAB
  0
TABLE
  2
VIEW
  5
D12
100
AcDbSymbolTable
 70
     0
  0
ENDTAB
  0
TABLE
  2
UCS
  5
D13
100
AcDbSymbolTable
 70
     0
  0
ENDTAB
  0
TABLE
  2
APPID
  5
D15
100
AcDbSymbolTable
 70
     1
  0
APPID
  5
D28
100
AcDbSymbolTableRecord
100
AcDbRegAppTableRecord
  2
ACAD
 70
    64
  0
ENDTAB
  0
TABLE
  2
DIMSTYLE
  5
D16
100
AcDbSymbolTable
 70
     1
  0
DIMSTYLE
105
D43
100
AcDbSymbolTableRecord
100
AcDbDimStyleTableRecord
  2
STANDARD
 70
    64
  3

  4

  5

  6

  7

 40
1.0
 41
0.18
 42
0.0625
 43
0.38
 44
0.18
 45
0.0
 46
0.0
 47
0.0
 48
0.0
 71
     0
 72
     0
 73
     1
 74
     1
 75
     0
 76
     0
 77
     0
 78
     0
140
0.18
141
0.09
142
0.0
143
25.4
144
1.0
145
0.0
146
1.0
147
0.09
170
     0
171
     2
172
     0
173
     0
174
     0
175
     0
176
     0
177
     0
178
     0
270
     2
271
     4
272
     4
273
     2
274
     2
275
     0
280
     0
281
     0
282
     0
283
     1
284
     0
285
     0
286
     0
287
     0
288
     0
340
D29
  0
ENDTAB
  0
TABLE
  2
BLOCK_RECORD
  5
D3E
100
AcDbSymbolTable
 70
    15
  0
BLOCK_RECORD
  5
D3C
100
AcDbSymbolTableRecord
100
AcDbBlockTableRecord
  2
*MODEL_SPACE
  0
BLOCK_RECORD
  5
D3D
100
AcDbSymbolTableRecord
100
AcDbBlockTableRecord
  2
*PAPER_SPACE
  0
BLOCK_RECORD
  5
D2D
100
AcDbSymbolTableRecord
100
AcDbBlockTableRecord
  2
LOGO8911
  0
BLOCK_RECORD
  5
D2E
100
AcDbSymbolTableRecord
100
AcDbBlockTableRecord
  2
TOA8911
  0
BLOCK_RECORD
  5
D2F
100
AcDbSymbolTableRecord
100
AcDbBlockTableRecord
  2
YAZ3
  0
BLOCK_RECORD
  5
D30
100
AcDbSymbolTableRecord
100
AcDbBlockTableRecord
  2
YAZ1
  0
BLOCK_RECORD
  5
D31
100
AcDbSymbolTableRecord
100
AcDbBlockTableRecord
  2
*D4
  0
BLOCK_RECORD
  5
D32
100
AcDbSymbolTableRecord
100
AcDbBlockTableRecord
  2
*D5
  0
BLOCK_RECORD
  5
D33
100
AcDbSymbolTableRecord
100
AcDbBlockTableRecord
  2
*D6
  0
BLOCK_RECORD
  5
D34
100
AcDbSymbolTableRecord
100
AcDbBlockTableRecord
  2
*D7
  0
BLOCK_RECORD
  5
D35
100
AcDbSymbolTableRecord
100
AcDbBlockTableRecord
  2
*D8
  0
BLOCK_RECORD
  5
D36
100
AcDbSymbolTableRecord
100
AcDbBlockTableRecord
  2
*D9
  0
BLOCK_RECORD
  5
D37
100
AcDbSymbolTableRecord
100
AcDbBlockTableRecord
  2
*D10
  0
BLOCK_RECORD
  5
D38
100
AcDbSymbolTableRecord
100
AcDbBlockTableRecord
  2
*D11
  0
BLOCK_RECORD
  5
D39
100
AcDbSymbolTableRecord
100
AcDbBlockTableRecord
  2
*D12
  0
BLOCK_RECORD
  5
D3A
100
AcDbSymbolTableRecord
100
AcDbBlockTableRecord
  2
*D13
  0
BLOCK_RECORD
  5
D3B
100
AcDbSymbolTableRecord
100
AcDbBlockTableRecord
  2
*D14
  0
ENDTAB
  0
ENDSEC
  0
SECTION
  2
BLOCKS
  0
BLOCK
  5
D3F
100
AcDbEntity
  8
0
100
AcDbBlockBegin
  2
*MODEL_SPACE
 70
     0
 10
0.0
 20
0.0
 30
0.0
  3
*MODEL_SPACE
  1

  0
ENDBLK
  5
D40
100
AcDbEntity
  8
0
100
AcDbBlockEnd
  0
BLOCK
  5
D41
100
AcDbEntity
 67
     1
  8
0
100
AcDbBlockBegin
  2
*PAPER_SPACE
 70
     0
 10
0.0
 20
0.0
 30
0.0
  3
*PAPER_SPACE
  1

  0
ENDBLK
  5
D42
100
AcDbEntity
 67
     1
  8
0
100
AcDbBlockEnd
  0
BLOCK
  5
5C8
100
AcDbEntity
  8
0
100
AcDbBlockBegin
  2
LOGO8911
 70
    64
 10
0.0
 20
0.0
 30
0.0
  3
LOGO8911
  1

  0
TEXT
  5
5C6
100
AcDbEntity
  8
0
100
AcDbText
 10
0.008136
 20
0.013361
 30
0.0
 40
11.4
  1
‡z
  7
TOALOGO
100
AcDbText
  0
TEXT
  5
5C7
100
AcDbEntity
  8
1
100
AcDbText
 10
0.008136
 20
0.013361
 30
0.0
 40
11.4
  1
‡y
  7
TOALOGO
100
AcDbText
  0
ENDBLK
  5
5C9
100
AcDbEntity
  8
0
100
AcDbBlockEnd
  0
BLOCK
  5
4D
100
AcDbEntity
  8
0
100
AcDbBlockBegin
  2
TOA8911
 70
    64
 10
0.0
 20
0.0
 30
0.0
  3
TOA8911
  1

  0
TEXT
  5
4B
100
AcDbEntity
  8
1
100
AcDbText
 10
0.051707
 20
0.1026
 30
0.0
 40
3.8475
  1
‡{
  7
TOALOGO
100
AcDbText
  0
ENDBLK
  5
4E
100
AcDbEntity
  8
0
100
AcDbBlockEnd
  0
BLOCK
  5
78
100
AcDbEntity
  8
0
100
AcDbBlockBegin
  2
YAZ3
 70
    64
 10
0.0
 20
0.0
 30
0.0
  3
YAZ3
  1

  0
INSERT
  5
66
100
AcDbEntity
  8
0
100
AcDbBlockReference
  2
YAZ1
 10
0.0
 20
0.0
 30
0.0
  0
LINE
  5
6D
100
AcDbEntity
  8
0
100
AcDbLine
 10
-0.999365
 20
0.04706
 30
0.0
 11
-0.175629
 21
0.04706
 31
0.0
  0
LINE
  5
6E
100
AcDbEntity
  8
0
100
AcDbLine
 10
-0.999365
 20
0.09706
 30
0.0
 11
-0.362232
 21
0.09706
 31
0.0
  0
LINE
  5
6F
100
AcDbEntity
  8
0
100
AcDbLine
 10
-0.999365
 20
0.14706
 30
0.0
 11
-0.548834
 21
0.14706
 31
0.0
  0
LINE
  5
70
100
AcDbEntity
  8
0
100
AcDbLine
 10
-0.999365
 20
0.19706
 30
0.0
 11
-0.735437
 21
0.19706
 31
0.0
  0
LINE
  5
71
100
AcDbEntity
  8
0
100
AcDbLine
 10
-0.999365
 20
0.24706
 30
0.0
 11
-0.922039
 21
0.24706
 31
0.0
  0
LINE
  5
72
100
AcDbEntity
  8
0
100
AcDbLine
 10
-0.999365
 20
-0.05294
 30
0.0
 11
-0.197576
 21
-0.05294
 31
0.0
  0
LINE
  5
73
100
AcDbEntity
  8
0
100
AcDbLine
 10
-0.999365
 20
-0.10294
 30
0.0
 11
-0.384179
 21
-0.10294
 31
0.0
  0
LINE
  5
74
100
AcDbEntity
  8
0
100
AcDbLine
 10
-0.999365
 20
-0.15294
 30
0.0
 11
-0.570781
 21
-0.15294
 31
0.0
  0
LINE
  5
75
100
AcDbEntity
  8
0
100
AcDbLine
 10
-0.999365
 20
-0.20294
 30
0.0
 11
-0.757384
 21
-0.20294
 31
0.0
  0
LINE
  5
76
100
AcDbEntity
  8
0
100
AcDbLine
 10
-0.999365
 20
-0.25294
 30
0.0
 11
-0.943986
 21
-0.25294
 31
0.0
  0
SOLID
  5
77
100
AcDbEntity
  8
0
100
AcDbTrace
 10
0.0
 20
0.0
 30
0.0
 11
-1.0
 21
0.267949
 31
0.0
 12
-1.0
 22
-0.267949
 32
0.0
 13
-1.0
 23
-0.267949
 33
0.0
  0
ENDBLK
  5
79
100
AcDbEntity
  8
0
100
AcDbBlockEnd
  0
BLOCK
  5
6B
100
AcDbEntity
  8
0
100
AcDbBlockBegin
  2
YAZ1
 70
    64
 10
184.0
 20
133.0
 30
0.0
  3
YAZ1
  1

  0
LINE
  5
68
100
AcDbEntity
  8
0
100
AcDbLine
 10
184.0
 20
133.0
 30
0.0
 11
183.0
 21
132.732051
 31
0.0
  0
LINE
  5
69
100
AcDbEntity
  8
0
100
AcDbLine
 10
184.0
 20
133.0
 30
0.0
 11
183.0
 21
133.267949
 31
0.0
  0
LINE
  5
6A
100
AcDbEntity
  8
0
100
AcDbLine
 10
183.0
 20
133.0
 30
0.0
 11
184.0
 21
133.0
 31
0.0
  0
ENDBLK
  5
6C
100
AcDbEntity
  8
0
100
AcDbBlockEnd
  0
BLOCK
  5
8D
100
AcDbEntity
  8
0
100
AcDbBlockBegin
  2
*D4
 70
    65
 10
0.0
 20
0.0
 30
0.0
  3
*D4
  1

  0
LINE
  5
84
100
AcDbEntity
  8
0
  6
BYBLOCK
 62
     0
100
AcDbLine
 10
32.112747
 20
689.700146
 30
0.0
 11
32.112747
 21
749.812481
 31
0.0
  0
LINE
  5
85
100
AcDbEntity
  8
0
  6
BYBLOCK
 62
     0
100
AcDbLine
 10
327.415981
 20
689.700146
 30
0.0
 11
327.415981
 21
749.812481
 31
0.0
  0
LINE
  5
86
100
AcDbEntity
  8
0
  6
BYBLOCK
 62
     0
100
AcDbLine
 10
41.112747
 20
740.812481
 30
0.0
 11
318.415981
 21
740.812481
 31
0.0
  0
INSERT
  5
87
100
AcDbEntity
  8
0
  6
BYBLOCK
 62
     0
100
AcDbBlockReference
  2
YAZ3
 10
32.112747
 20
740.812481
 30
0.0
 41
9.0
 42
9.0
 43
9.0
 50
180.0
  0
INSERT
  5
88
100
AcDbEntity
  8
0
  6
BYBLOCK
 62
     0
100
AcDbBlockReference
  2
YAZ3
 10
327.415981
 20
740.812481
 30
0.0
 41
9.0
 42
9.0
 43
9.0
  0
TEXT
  5
89
100
AcDbEntity
  8
0
  6
CONTINUOUS
 62
     0
100
AcDbText
 10
162.792936
 20
747.412481
 30
0.0
 40
13.2
  1
295
100
AcDbText
  0
POINT
  5
8A
100
AcDbEntity
  8
DEFPOINTS
  6
BYBLOCK
 62
     0
100
AcDbPoint
 10
32.112747
 20
677.700146
 30
0.0
  0
POINT
  5
8B
100
AcDbEntity
  8
DEFPOINTS
  6
BYBLOCK
 62
     0
100
AcDbPoint
 10
327.415981
 20
677.700146
 30
0.0
  0
POINT
  5
8C
100
AcDbEntity
  8
DEFPOINTS
  6
BYBLOCK
 62
     0
100
AcDbPoint
 10
327.415981
 20
740.812481
 30
0.0
  0
ENDBLK
  5
8E
100
AcDbEntity
  8
0
100
AcDbBlockEnd
  0
BLOCK
  5
54D
100
AcDbEntity
  8
0
100
AcDbBlockBegin
  2
*D5
 70
    65
 10
0.0
 20
0.0
 30
0.0
  3
*D5
  1

  0
LINE
  5
544
100
AcDbEntity
  8
0
  6
BYBLOCK
 62
     0
100
AcDbLine
 10
389.865601
 20
689.700146
 30
0.0
 11
389.865601
 21
749.812481
 31
0.0
  0
LINE
  5
545
100
AcDbEntity
  8
0
  6
BYBLOCK
 62
     0
100
AcDbLine
 10
518.865601
 20
729.700146
 30
0.0
 11
518.865601
 21
749.812481
 31
0.0
  0
LINE
  5
546
100
AcDbEntity
  8
0
  6
BYBLOCK
 62
     0
100
AcDbLine
 10
398.865601
 20
740.812481
 30
0.0
 11
509.865601
 21
740.812481
 31
0.0
  0
INSERT
  5
547
100
AcDbEntity
  8
0
  6
BYBLOCK
 62
     0
100
AcDbBlockReference
  2
YAZ3
 10
389.865601
 20
740.812481
 30
0.0
 41
9.0
 42
9.0
 43
9.0
 50
180.0
  0
INSERT
  5
548
100
AcDbEntity
  8
0
  6
BYBLOCK
 62
     0
100
AcDbBlockReference
  2
YAZ3
 10
518.865601
 20
740.812481
 30
0.0
 41
9.0
 42
9.0
 43
9.0
  0
TEXT
  5
549
100
AcDbEntity
  8
0
  6
CONTINUOUS
 62
     0
100
AcDbText
 10
438.965601
 20
747.412481
 30
0.0
 40
13.2
  1
129
100
AcDbText
  0
POINT
  5
54A
100
AcDbEntity
  8
DEFPOINTS
  6
BYBLOCK
 62
     0
100
AcDbPoint
 10
389.865601
 20
677.700146
 30
0.0
  0
POINT
  5
54B
100
AcDbEntity
  8
DEFPOINTS
  6
BYBLOCK
 62
     0
100
AcDbPoint
 10
518.865601
 20
717.700146
 30
0.0
  0
POINT
  5
54C
100
AcDbEntity
  8
DEFPOINTS
  6
BYBLOCK
 62
     0
100
AcDbPoint
 10
518.865601
 20
740.812481
 30
0.0
  0
ENDBLK
  5
54E
100
AcDbEntity
  8
0
100
AcDbBlockEnd
  0
BLOCK
  5
80
100
AcDbEntity
  8
0
100
AcDbBlockBegin
  2
*D6
 70
    65
 10
0.0
 20
0.0
 30
0.0
  3
*D6
  1

  0
LINE
  5
61
100
AcDbEntity
  8
0
  6
BYBLOCK
 62
     0
100
AcDbLine
 10
299.415981
 20
717.700146
 30
0.0
 11
366.181539
 21
717.700146
 31
0.0
  0
LINE
  5
62
100
AcDbEntity
  8
0
  6
BYBLOCK
 62
     0
100
AcDbLine
 10
191.764364
 20
400.048529
 30
0.0
 11
366.181539
 21
400.048529
 31
0.0
  0
LINE
  5
63
100
AcDbEntity
  8
0
  6
BYBLOCK
 62
     0
100
AcDbLine
 10
357.181539
 20
708.700146
 30
0.0
 11
357.181539
 21
409.048529
 31
0.0
  0
INSERT
  5
64
100
AcDbEntity
  8
0
  6
BYBLOCK
 62
     0
100
AcDbBlockReference
  2
YAZ3
 10
357.181539
 20
717.700146
 30
0.0
 41
9.0
 42
9.0
 43
9.0
 50
90.0
  0
INSERT
  5
7A
100
AcDbEntity
  8
0
  6
BYBLOCK
 62
     0
100
AcDbBlockReference
  2
YAZ3
 10
357.181539
 20
400.048529
 30
0.0
 41
9.0
 42
9.0
 43
9.0
 50
270.0
  0
TEXT
  5
7B
100
AcDbEntity
  8
0
  6
CONTINUOUS
 62
     0
100
AcDbText
 10
350.581539
 20
543.160052
 30
0.0
 40
13.2
  1
318
 50
90.0
100
AcDbText
  0
POINT
  5
7C
100
AcDbEntity
  8
DEFPOINTS
  6
BYBLOCK
 62
     0
100
AcDbPoint
 10
287.415981
 20
717.700146
 30
0.0
  0
POINT
  5
7E
100
AcDbEntity
  8
DEFPOINTS
  6
BYBLOCK
 62
     0
100
AcDbPoint
 10
179.764364
 20
400.048529
 30
0.0
  0
POINT
  5
7F
100
AcDbEntity
  8
DEFPOINTS
  6
BYBLOCK
 62
     0
100
AcDbPoint
 10
357.181539
 20
400.048529
 30
0.0
  0
ENDBLK
  5
81
100
AcDbEntity
  8
0
100
AcDbBlockEnd
  0
BLOCK
  5
5EE
100
AcDbEntity
  8
0
100
AcDbBlockBegin
  2
*D7
 70
    65
 10
0.0
 20
0.0
 30
0.0
  3
*D7
  1

  0
LINE
  5
5E5
100
AcDbEntity
  8
0
  6
BYBLOCK
 62
     0
100
AcDbLine
 10
640.14245
 20
277.770161
 30
0.0
 11
640.14245
 21
312.913406
 31
0.0
  0
LINE
  5
5E6
100
AcDbEntity
  8
0
  6
BYBLOCK
 62
     0
100
AcDbLine
 10
760.14245
 20
277.770161
 30
0.0
 11
760.14245
 21
312.913406
 31
0.0
  0
LINE
  5
5E7
100
AcDbEntity
  8
0
  6
BYBLOCK
 62
     0
100
AcDbLine
 10
649.14245
 20
303.913406
 30
0.0
 11
751.14245
 21
303.913406
 31
0.0
  0
INSERT
  5
5E8
100
AcDbEntity
  8
0
  6
BYBLOCK
 62
     0
100
AcDbBlockReference
  2
YAZ3
 10
640.14245
 20
303.913406
 30
0.0
 41
9.0
 42
9.0
 43
9.0
 50
180.0
  0
INSERT
  5
5E9
100
AcDbEntity
  8
0
  6
BYBLOCK
 62
     0
100
AcDbBlockReference
  2
YAZ3
 10
760.14245
 20
303.913406
 30
0.0
 41
9.0
 42
9.0
 43
9.0
  0
TEXT
  5
5EA
100
AcDbEntity
  8
0
  6
CONTINUOUS
 62
     0
100
AcDbText
 10
684.428164
 20
310.513406
 30
0.0
 40
13.2
  1
120
100
AcDbText
  0
POINT
  5
5EB
100
AcDbEntity
  8
DEFPOINTS
  6
BYBLOCK
 62
     0
100
AcDbPoint
 10
640.14245
 20
265.770161
 30
0.0
  0
POINT
  5
5EC
100
AcDbEntity
  8
DEFPOINTS
  6
BYBLOCK
 62
     0
100
AcDbPoint
 10
760.14245
 20
265.770161
 30
0.0
  0
POINT
  5
5ED
100
AcDbEntity
  8
DEFPOINTS
  6
BYBLOCK
 62
     0
100
AcDbPoint
 10
760.14245
 20
303.913406
 30
0.0
  0
ENDBLK
  5
5EF
100
AcDbEntity
  8
0
100
AcDbBlockEnd
  0
BLOCK
  5
5E1
100
AcDbEntity
  8
0
100
AcDbBlockBegin
  2
*D8
 70
    65
 10
0.0
 20
0.0
 30
0.0
  3
*D8
  1

  0
LINE
  5
5D8
100
AcDbEntity
  8
0
  6
BYBLOCK
 62
     0
100
AcDbLine
 10
598.64245
 20
257.770161
 30
0.0
 11
598.64245
 21
340.344294
 31
0.0
  0
LINE
  5
5D9
100
AcDbEntity
  8
0
  6
BYBLOCK
 62
     0
100
AcDbLine
 10
801.64245
 20
257.770161
 30
0.0
 11
801.64245
 21
340.344294
 31
0.0
  0
LINE
  5
5DA
100
AcDbEntity
  8
0
  6
BYBLOCK
 62
     0
100
AcDbLine
 10
607.64245
 20
331.344294
 30
0.0
 11
792.64245
 21
331.344294
 31
0.0
  0
INSERT
  5
5DB
100
AcDbEntity
  8
0
  6
BYBLOCK
 62
     0
100
AcDbBlockReference
  2
YAZ3
 10
598.64245
 20
331.344294
 30
0.0
 41
9.0
 42
9.0
 43
9.0
 50
180.0
  0
INSERT
  5
5DC
100
AcDbEntity
  8
0
  6
BYBLOCK
 62
     0
100
AcDbBlockReference
  2
YAZ3
 10
801.64245
 20
331.344294
 30
0.0
 41
9.0
 42
9.0
 43
9.0
  0
TEXT
  5
5DD
100
AcDbEntity
  8
0
  6
CONTINUOUS
 62
     0
100
AcDbText
 10
683.171021
 20
337.944294
 30
0.0
 40
13.2
  1
203
100
AcDbText
  0
POINT
  5
5DE
100
AcDbEntity
  8
DEFPOINTS
  6
BYBLOCK
 62
     0
100
AcDbPoint
 10
598.64245
 20
245.770161
 30
0.0
  0
POINT
  5
5DF
100
AcDbEntity
  8
DEFPOINTS
  6
BYBLOCK
 62
     0
100
AcDbPoint
 10
801.64245
 20
245.770161
 30
0.0
  0
POINT
  5
5E0
100
AcDbEntity
  8
DEFPOINTS
  6
BYBLOCK
 62
     0
100
AcDbPoint
 10
801.64245
 20
331.344294
 30
0.0
  0
ENDBLK
  5
5E2
100
AcDbEntity
  8
0
100
AcDbBlockEnd
  0
BLOCK
  5
654
100
AcDbEntity
  8
0
100
AcDbBlockBegin
  2
*D9
 70
    65
 10
0.0
 20
0.0
 30
0.0
  3
*D9
  1

  0
LINE
  5
64B
100
AcDbEntity
  8
0
  6
BYBLOCK
 62
     0
100
AcDbLine
 10
778.14245
 20
259.770161
 30
0.0
 11
837.233279
 21
259.770161
 31
0.0
  0
LINE
  5
64C
100
AcDbEntity
  8
0
  6
BYBLOCK
 62
     0
100
AcDbLine
 10
780.14245
 20
169.770161
 30
0.0
 11
837.233279
 21
169.770161
 31
0.0
  0
LINE
  5
64D
100
AcDbEntity
  8
0
  6
BYBLOCK
 62
     0
100
AcDbLine
 10
828.233279
 20
250.770161
 30
0.0
 11
828.233279
 21
178.770161
 31
0.0
  0
INSERT
  5
64E
100
AcDbEntity
  8
0
  6
BYBLOCK
 62
     0
100
AcDbBlockReference
  2
YAZ3
 10
828.233279
 20
259.770161
 30
0.0
 41
9.0
 42
9.0
 43
9.0
 50
90.0
  0
INSERT
  5
64F
100
AcDbEntity
  8
0
  6
BYBLOCK
 62
     0
100
AcDbBlockReference
  2
YAZ3
 10
828.233279
 20
169.770161
 30
0.0
 41
9.0
 42
9.0
 43
9.0
 50
270.0
  0
TEXT
  5
650
100
AcDbEntity
  8
0
  6
CONTINUOUS
 62
     0
100
AcDbText
 10
821.633279
 20
204.084447
 30
0.0
 40
13.2
  1
90
 50
90.0
100
AcDbText
  0
POINT
  5
651
100
AcDbEntity
  8
DEFPOINTS
  6
BYBLOCK
 62
     0
100
AcDbPoint
 10
766.14245
 20
259.770161
 30
0.0
  0
POINT
  5
652
100
AcDbEntity
  8
DEFPOINTS
  6
BYBLOCK
 62
     0
100
AcDbPoint
 10
768.14245
 20
169.770161
 30
0.0
  0
POINT
  5
653
100
AcDbEntity
  8
DEFPOINTS
  6
BYBLOCK
 62
     0
100
AcDbPoint
 10
828.233279
 20
169.770161
 30
0.0
  0
ENDBLK
  5
655
100
AcDbEntity
  8
0
100
AcDbBlockEnd
  0
BLOCK
  5
647
100
AcDbEntity
  8
0
100
AcDbBlockBegin
  2
*D10
 70
    65
 10
0.0
 20
0.0
 30
0.0
  3
*D10
  1

  0
LINE
  5
63E
100
AcDbEntity
  8
0
  6
BYBLOCK
 62
     0
100
AcDbLine
 10
763.64245
 20
295.770161
 30
0.0
 11
865.234134
 21
295.770161
 31
0.0
  0
LINE
  5
63F
100
AcDbEntity
  8
0
  6
BYBLOCK
 62
     0
100
AcDbLine
 10
763.64245
 20
133.770161
 30
0.0
 11
865.234134
 21
133.770161
 31
0.0
  0
LINE
  5
640
100
AcDbEntity
  8
0
  6
BYBLOCK
 62
     0
100
AcDbLine
 10
856.234134
 20
286.770161
 30
0.0
 11
856.234134
 21
142.770161
 31
0.0
  0
INSERT
  5
641
100
AcDbEntity
  8
0
  6
BYBLOCK
 62
     0
100
AcDbBlockReference
  2
YAZ3
 10
856.234134
 20
295.770161
 30
0.0
 41
9.0
 42
9.0
 43
9.0
 50
90.0
  0
INSERT
  5
642
100
AcDbEntity
  8
0
  6
BYBLOCK
 62
     0
100
AcDbBlockReference
  2
YAZ3
 10
856.234134
 20
133.770161
 30
0.0
 41
9.0
 42
9.0
 43
9.0
 50
270.0
  0
TEXT
  5
643
100
AcDbEntity
  8
0
  6
CONTINUOUS
 62
     0
100
AcDbText
 10
849.634134
 20
199.055875
 30
0.0
 40
13.2
  1
162
 50
90.0
100
AcDbText
  0
POINT
  5
644
100
AcDbEntity
  8
DEFPOINTS
  6
BYBLOCK
 62
     0
100
AcDbPoint
 10
751.64245
 20
295.770161
 30
0.0
  0
POINT
  5
645
100
AcDbEntity
  8
DEFPOINTS
  6
BYBLOCK
 62
     0
100
AcDbPoint
 10
751.64245
 20
133.770161
 30
0.0
  0
POINT
  5
646
100
AcDbEntity
  8
DEFPOINTS
  6
BYBLOCK
 62
     0
100
AcDbPoint
 10
856.234134
 20
133.770161
 30
0.0
  0
ENDBLK
  5
648
100
AcDbEntity
  8
0
100
AcDbBlockEnd
  0
BLOCK
  5
5FB
100
AcDbEntity
  8
0
100
AcDbBlockBegin
  2
*D11
 70
    65
 10
0.0
 20
0.0
 30
0.0
  3
*D11
  1

  0
LINE
  5
5F2
100
AcDbEntity
  8
0
  6
BYBLOCK
 62
     0
100
AcDbLine
 10
677.1237
 20
154.098286
 30
0.0
 11
677.1237
 21
101.211585
 31
0.0
  0
LINE
  5
5F3
100
AcDbEntity
  8
0
  6
BYBLOCK
 62
     0
100
AcDbLine
 10
723.1612
 20
154.098286
 30
0.0
 11
723.1612
 21
101.211585
 31
0.0
  0
LINE
  5
5F4
100
AcDbEntity
  8
0
  6
BYBLOCK
 62
     0
100
AcDbLine
 10
686.1237
 20
110.211585
 30
0.0
 11
714.1612
 21
110.211585
 31
0.0
  0
INSERT
  5
5F5
100
AcDbEntity
  8
0
  6
BYBLOCK
 62
     0
100
AcDbBlockReference
  2
YAZ3
 10
677.1237
 20
110.211585
 30
0.0
 41
9.0
 42
9.0
 43
9.0
 50
180.0
  0
INSERT
  5
5F6
100
AcDbEntity
  8
0
  6
BYBLOCK
 62
     0
100
AcDbBlockReference
  2
YAZ3
 10
723.1612
 20
110.211585
 30
0.0
 41
9.0
 42
9.0
 43
9.0
  0
TEXT
  5
5F7
100
AcDbEntity
  8
0
  6
CONTINUOUS
 62
     0
100
AcDbText
 10
689.771021
 20
116.811585
 30
0.0
 40
13.2
  1
46
100
AcDbText
  0
POINT
  5
5F8
100
AcDbEntity
  8
DEFPOINTS
  6
BYBLOCK
 62
     0
100
AcDbPoint
 10
677.1237
 20
166.098286
 30
0.0
  0
POINT
  5
5F9
100
AcDbEntity
  8
DEFPOINTS
  6
BYBLOCK
 62
     0
100
AcDbPoint
 10
723.1612
 20
166.098286
 30
0.0
  0
POINT
  5
5FA
100
AcDbEntity
  8
DEFPOINTS
  6
BYBLOCK
 62
     0
100
AcDbPoint
 10
723.1612
 20
110.211585
 30
0.0
  0
ENDBLK
  5
5FC
100
AcDbEntity
  8
0
100
AcDbBlockEnd
  0
BLOCK
  5
615
100
AcDbEntity
  8
0
100
AcDbBlockBegin
  2
*D12
 70
    65
 10
0.0
 20
0.0
 30
0.0
  3
*D12
  1

  0
LINE
  5
60C
100
AcDbEntity
  8
0
  6
BYBLOCK
 62
     0
100
AcDbLine
 10
658.1237
 20
256.442036
 30
0.0
 11
576.224705
 21
256.442036
 31
0.0
  0
LINE
  5
60D
100
AcDbEntity
  8
0
  6
BYBLOCK
 62
     0
100
AcDbLine
 10
659.6237
 20
173.098286
 30
0.0
 11
576.224705
 21
173.098286
 31
0.0
  0
LINE
  5
60E
100
AcDbEntity
  8
0
  6
BYBLOCK
 62
     0
100
AcDbLine
 10
585.224705
 20
247.442036
 30
0.0
 11
585.224705
 21
182.098286
 31
0.0
  0
INSERT
  5
60F
100
AcDbEntity
  8
0
  6
BYBLOCK
 62
     0
100
AcDbBlockReference
  2
YAZ3
 10
585.224705
 20
256.442036
 30
0.0
 41
9.0
 42
9.0
 43
9.0
 50
90.0
  0
INSERT
  5
610
100
AcDbEntity
  8
0
  6
BYBLOCK
 62
     0
100
AcDbBlockReference
  2
YAZ3
 10
585.224705
 20
173.098286
 30
0.0
 41
9.0
 42
9.0
 43
9.0
 50
270.0
  0
TEXT
  5
611
100
AcDbEntity
  8
0
  6
CONTINUOUS
 62
     0
100
AcDbText
 10
578.624705
 20
194.655875
 30
0.0
 40
13.2
  1
83.5
 50
90.0
100
AcDbText
  0
POINT
  5
612
100
AcDbEntity
  8
DEFPOINTS
  6
BYBLOCK
 62
     0
100
AcDbPoint
 10
670.1237
 20
256.442036
 30
0.0
  0
POINT
  5
613
100
AcDbEntity
  8
DEFPOINTS
  6
BYBLOCK
 62
     0
100
AcDbPoint
 10
671.6237
 20
173.098286
 30
0.0
  0
POINT
  5
614
100
AcDbEntity
  8
DEFPOINTS
  6
BYBLOCK
 62
     0
100
AcDbPoint
 10
585.224705
 20
173.098286
 30
0.0
  0
ENDBLK
  5
616
100
AcDbEntity
  8
0
100
AcDbBlockEnd
  0
BLOCK
  5
841
100
AcDbEntity
  8
0
100
AcDbBlockBegin
  2
*D13
 70
    65
 10
0.0
 20
0.0
 30
0.0
  3
*D13
  1

  0
LINE
  5
842
100
AcDbEntity
  8
0
  6
BYBLOCK
 62
     0
100
AcDbLine
 10
907.293214
 20
307.770161
 30
0.0
 11
907.293214
 21
325.426118
 31
0.0
  0
LINE
  5
843
100
AcDbEntity
  8
0
  6
BYBLOCK
 62
     0
100
AcDbLine
 10
908.893214
 20
307.770161
 30
0.0
 11
908.893214
 21
325.426118
 31
0.0
  0
LINE
  5
844
100
AcDbEntity
  8
0
  6
BYBLOCK
 62
     0
100
AcDbLine
 10
898.293214
 20
316.426118
 30
0.0
 11
889.293214
 21
316.426118
 31
0.0
  0
LINE
  5
845
100
AcDbEntity
  8
0
  6
BYBLOCK
 62
     0
100
AcDbLine
 10
917.893214
 20
316.426118
 30
0.0
 11
952.4875
 21
316.426118
 31
0.0
  0
LINE
  5
846
100
AcDbEntity
  8
0
  6
BYBLOCK
 62
     0
100
AcDbLine
 10
907.293214
 20
316.426118
 30
0.0
 11
908.893214
 21
316.426118
 31
0.0
  0
INSERT
  5
847
100
AcDbEntity
  8
0
  6
BYBLOCK
 62
     0
100
AcDbBlockReference
  2
YAZ3
 10
907.293214
 20
316.426118
 30
0.0
 41
9.0
 42
9.0
 43
9.0
  0
INSERT
  5
848
100
AcDbEntity
  8
0
  6
BYBLOCK
 62
     0
100
AcDbBlockReference
  2
YAZ3
 10
908.893214
 20
316.426118
 30
0.0
 41
9.0
 42
9.0
 43
9.0
 50
180.0
  0
TEXT
  5
849
100
AcDbEntity
  8
0
  6
CONTINUOUS
 62
     0
100
AcDbText
 10
927.433214
 20
323.026118
 30
0.0
 40
13.2
  1
1.6
100
AcDbText
  0
POINT
  5
84A
100
AcDbEntity
  8
DEFPOINTS
  6
BYBLOCK
 62
     0
100
AcDbPoint
 10
907.293214
 20
295.770161
 30
0.0
  0
POINT
  5
84B
100
AcDbEntity
  8
DEFPOINTS
  6
BYBLOCK
 62
     0
100
AcDbPoint
 10
908.893214
 20
295.770161
 30
0.0
  0
POINT
  5
84C
100
AcDbEntity
  8
DEFPOINTS
  6
BYBLOCK
 62
     0
100
AcDbPoint
 10
908.893214
 20
316.426118
 30
0.0
  0
ENDBLK
  5
84D
100
AcDbEntity
  8
0
100
AcDbBlockEnd
  0
BLOCK
  5
84F
100
AcDbEntity
  8
0
100
AcDbBlockBegin
  2
*D14
 70
    65
 10
0.0
 20
0.0
 30
0.0
  3
*D14
  1

  0
LINE
  5
850
100
AcDbEntity
  8
0
  6
BYBLOCK
 62
     0
100
AcDbLine
 10
907.293214
 20
122.426411
 30
0.0
 11
907.293214
 21
101.211585
 31
0.0
  0
LINE
  5
851
100
AcDbEntity
  8
0
  6
BYBLOCK
 62
     0
100
AcDbLine
 10
912.889505
 20
135.526411
 30
0.0
 11
912.889505
 21
101.211585
 31
0.0
  0
LINE
  5
852
100
AcDbEntity
  8
0
  6
BYBLOCK
 62
     0
100
AcDbLine
 10
898.293214
 20
110.211585
 30
0.0
 11
889.293214
 21
110.211585
 31
0.0
  0
LINE
  5
853
100
AcDbEntity
  8
0
  6
BYBLOCK
 62
     0
100
AcDbLine
 10
921.889505
 20
110.211585
 30
0.0
 11
958.998076
 21
110.211585
 31
0.0
  0
LINE
  5
854
100
AcDbEntity
  8
0
  6
BYBLOCK
 62
     0
100
AcDbLine
 10
907.293214
 20
110.211585
 30
0.0
 11
912.889505
 21
110.211585
 31
0.0
  0
INSERT
  5
855
100
AcDbEntity
  8
0
  6
BYBLOCK
 62
     0
100
AcDbBlockReference
  2
YAZ3
 10
907.293214
 20
110.211585
 30
0.0
 41
9.0
 42
9.0
 43
9.0
  0
INSERT
  5
856
100
AcDbEntity
  8
0
  6
BYBLOCK
 62
     0
100
AcDbBlockReference
  2
YAZ3
 10
912.889505
 20
110.211585
 30
0.0
 41
9.0
 42
9.0
 43
9.0
 50
180.0
  0
TEXT
  5
857
100
AcDbEntity
  8
0
  6
CONTINUOUS
 62
     0
100
AcDbText
 10
931.429505
 20
116.811585
 30
0.0
 40
13.2
  1
5.6
100
AcDbText
  0
POINT
  5
858
100
AcDbEntity
  8
DEFPOINTS
  6
BYBLOCK
 62
     0
100
AcDbPoint
 10
907.293214
 20
134.426411
 30
0.0
  0
POINT
  5
859
100
AcDbEntity
  8
DEFPOINTS
  6
BYBLOCK
 62
     0
100
AcDbPoint
 10
912.889505
 20
147.526411
 30
0.0
  0
POINT
  5
85A
100
AcDbEntity
  8
DEFPOINTS
  6
BYBLOCK
 62
     0
100
AcDbPoint
 10
912.889505
 20
110.211585
 30
0.0
  0
ENDBLK
  5
85B
100
AcDbEntity
  8
0
100
AcDbBlockEnd
  0
ENDSEC
  0
SECTION
  2
ENTITIES
  0
LINE
  5
45
100
AcDbEntity
  8
SCALE
100
AcDbLine
 10
333.354882
 20
95.989057
 30
0.0
 11
610.097319
 21
95.989057
 31
0.0
  0
TEXT
  5
46
100
AcDbEntity
  8
SCALE
100
AcDbText
 10
335.403126
 20
133.551915
 30
0.0
 40
13.2
  1
Wall mounting hole 4-%%C6
  7
UT7
100
AcDbText
  0
TEXT
  5
47
100
AcDbEntity
  8
SCALE
100
AcDbText
 10
335.403126
 20
102.989057
 30
0.0
 40
13.2
  1
Box mounting hole 4-8x5
  7
UT7
100
AcDbText
  0
LINE
  5
48
100
AcDbEntity
  8
SCALE
100
AcDbLine
 10
333.354882
 20
126.551915
 30
0.0
 11
592.155749
 21
126.551915
 31
0.0
  0
LINE
  5
5B
100
AcDbEntity
  8
1
100
AcDbLine
 10
119.764364
 20
140.320057
 30
0.0
 11
239.764364
 21
140.320057
 31
0.0
  0
TEXT
  5
5C
100
AcDbEntity
  8
1
100
AcDbText
 10
123.192936
 20
146.320057
 30
0.0
 40
15.0
  1
Bottom View
 41
0.8
  7
UT7
 72
     1
 11
179.764364
 21
146.320057
 31
0.0
100
AcDbText
  0
TEXT
  5
5D
100
AcDbEntity
  8
1
100
AcDbText
 10
132.907221
 20
365.638863
 30
0.0
 40
15.0
  1
Front View
 41
0.8
  7
UT7
 72
     1
 11
179.764364
 21
365.638863
 31
0.0
100
AcDbText
  0
LINE
  5
5E
100
AcDbEntity
  8
1
100
AcDbLine
 10
131.764364
 20
359.638863
 30
0.0
 11
227.764364
 21
359.638863
 31
0.0
  0
DIMENSION
  5
5F
100
AcDbEntity
  8
SCALE
100
AcDbDimension
  2
*D6
 10
357.181539
 20
400.048529
 30
0.0
 11
343.981539
 21
558.874338
 31
0.0
  1
318
  3
STANDARD
100
AcDbAlignedDimension
 13
287.415981
 23
717.700146
 33
0.0
 14
179.764364
 24
400.048529
 34
0.0
 50
90.0
100
AcDbRotatedDimension
1001
ACAD
1000
DSTYLE
1002
{
1070
   140
1040
2.2
1070
   145
1040
1.0
1070
    74
1070
     0
1070
   172
1070
     1
1070
    73
1070
     0
1070
    40
1040
6.0
1070
    42
1040
2.0
1070
    44
1040
1.5
1070
    43
1040
10.0
1070
     5
1000
YAZ3
1070
    41
1040
1.5
1002
}
  0
DIMENSION
  5
82
100
AcDbEntity
  8
SCALE
100
AcDbDimension
  2
*D4
 10
327.415981
 20
740.812481
 30
0.0
 11
179.764364
 21
754.012481
 31
0.0
  1
295
  3
STANDARD
100
AcDbAlignedDimension
 13
32.112747
 23
677.700146
 33
0.0
 14
327.415981
 24
677.700146
 34
0.0
100
AcDbRotatedDimension
1001
ACAD
1000
DSTYLE
1002
{
1070
   140
1040
2.2
1070
   145
1040
1.0
1070
    74
1070
     0
1070
   172
1070
     1
1070
    73
1070
     0
1070
    40
1040
6.0
1070
    42
1040
2.0
1070
    44
1040
1.5
1070
    43
1040
10.0
1070
     5
1000
YAZ3
1070
    41
1040
1.5
1002
}
  0
ARC
  5
8F
100
AcDbEntity
  8
1
  6
HIDDEN
100
AcDbCircle
 10
189.281193
 20
-9447.021406
 30
0.0
 40
9932.145993
100
AcDbArc
 50
89.906488
 51
90.005739
  0
LWPOLYLINE
  5
91
100
AcDbEntity
  8
1
  6
HIDDEN
100
AcDbPolyline
 90
        9
 70
     0
 10
200.71446
 20
469.513325
 42
0.000236
 10
201.251318
 20
469.621032
 42
-0.000567
 10
206.089405
 20
470.591773
 42
-0.004454
 10
210.932731
 20
471.513863
 42
-0.009185
 10
215.793771
 20
472.303834
 42
-0.01286
 10
220.683541
 20
472.872417
 42
-0.009622
 10
225.591261
 20
473.205606
 42
-0.001
 10
230.511721
 20
473.43396
 42
0.001116
 10
231.725062
 20
473.492579
 42
0.006593
  0
LWPOLYLINE
  5
9C
100
AcDbEntity
  8
1
  6
HIDDEN
100
AcDbPolyline
 90
       11
 70
     0
 10
200.643568
 20
453.040107
 42
0.001068
 10
200.897081
 20
452.977221
 42
0.002076
 10
201.175033
 20
452.91038
 42
0.002077
 10
201.478984
 20
452.83988
 42
0.002334
 10
201.810632
 20
452.766052
 42
0.002442
 10
202.171774
 20
452.689284
 42
0.002529
 10
202.564417
 20
452.609876
 42
0.002363
 10
202.990724
 20
452.528078
 42
0.002899
 10
203.453007
 20
452.444074
 42
-0.000098
 10
203.953947
 20
452.35755
 42
-0.002201
 10
204.50242
 20
452.257887
  0
LWPOLYLINE
  5
A9
100
AcDbEntity
  8
1
  6
HIDDEN
100
AcDbPolyline
 90
        7
 70
     0
 10
205.901964
 20
300.961512
 42
0.006945
 10
203.798375
 20
301.915474
 42
0.008106
 10
201.657549
 20
302.807947
 42
0.009972
 10
199.517767
 20
303.610216
 42
0.008589
 10
198.115085
 20
304.075375
 42
0.011397
 10
196.82592
 20
304.446437
 42
0.015466
 10
195.681236
 20
304.709055
  0
LWPOLYLINE
  5
B2
100
AcDbEntity
  8
1
  6
HIDDEN
100
AcDbPolyline
 90
       20
 70
     0
 10
218.190662
 20
226.509871
 42
0.005142
 10
216.35644
 20
227.736911
 42
-0.001949
 10
215.029229
 20
228.602305
 42
-0.005687
 10
213.721913
 20
229.491091
 42
-0.013148
 10
211.184072
 20
231.35905
 42
-0.013541
 10
208.756769
 20
233.357305
 42
-0.011326
 10
206.432397
 20
235.477051
 42
-0.006643
 10
204.182502
 20
237.684846
 42
-0.003778
 10
201.971414
 20
239.938648
 42
-0.005243
 10
199.792686
 20
242.230874
 42
-0.01181
 10
197.686897
 20
244.604669
 42
-0.016913
 10
195.728502
 20
247.086226
 42
-0.018299
 10
193.964009
 20
249.696133
 42
-0.011236
 10
192.360713
 20
252.412727
 42
0.002047
 10
190.810951
 20
255.164727
 42
0.020296
 10
189.149873
 20
257.835399
 42
0.038273
 10
187.196842
 20
260.271866
 42
0.022288
 10
186.066751
 20
261.366477
 42
0.020769
 10
184.83819
 20
262.365013
 42
0.04029
 10
179.429967
 20
265.576653
  0
ARC
  5
C8
100
AcDbEntity
  8
1
  6
HIDDEN
100
AcDbCircle
 10
178.028788
 20
159.814196
 30
0.0
 40
78.0
100
AcDbArc
 50
49.377013
 51
130.622987
  0
ARC
  5
C9
100
AcDbEntity
  8
1
  6
HIDDEN
100
AcDbCircle
 10
173.309226
 20
154.67019
 30
0.0
 40
139.87196
100
AcDbArc
 50
41.235961
 51
88.066358
  0
LINE
  5
CA
100
AcDbEntity
  8
0
100
AcDbLine
 10
304.764364
 20
702.700146
 30
0.0
 11
54.764364
 21
702.700146
 31
0.0
  0
LINE
  5
CB
100
AcDbEntity
  8
0
100
AcDbLine
 10
287.415981
 20
717.700146
 30
0.0
 11
72.112747
 21
717.700146
 31
0.0
  0
ARC
  5
CC
100
AcDbEntity
  8
0
100
AcDbCircle
 10
179.764364
 20
547.700146
 30
0.0
 40
140.8
100
AcDbArc
 50
180.0
 51
360.0
  0
ARC
  5
CD
100
AcDbEntity
  8
0
100
AcDbCircle
 10
179.764364
 20
547.700146
 30
0.0
 40
147.651617
100
AcDbArc
 50
180.0
 51
360.0
  0
ARC
  5
CE
100
AcDbEntity
  8
1
  6
HIDDEN
100
AcDbCircle
 10
179.764364
 20
547.700146
 30
0.0
 40
135.0
100
AcDbArc
 50
180.0
 51
360.0
  0
LINE
  5
CF
100
AcDbEntity
  8
1
  6
HIDDEN
100
AcDbLine
 10
277.764364
 20
709.698129
 30
0.0
 11
81.764364
 21
709.698129
 31
0.0
  0
LINE
  5
D0
100
AcDbEntity
  8
0
100
AcDbLine
 10
30.377171
 20
179.814196
 30
0.0
 11
325.680405
 21
179.814196
 31
0.0
  0
LINE
  5
D1
100
AcDbEntity
  8
0
100
AcDbLine
 10
36.413111
 20
203.814196
 30
0.0
 11
319.644465
 21
203.814196
 31
0.0
  0
ARC
  5
D2
100
AcDbEntity
  8
1
  6
HIDDEN
100
AcDbCircle
 10
178.028788
 20
159.814196
 30
0.0
 40
146.0
100
AcDbArc
 50
22.707677
 51
157.292323
  0
ARC
  5
D3
100
AcDbEntity
  8
0
100
AcDbCircle
 10
178.028788
 20
159.814196
 30
0.0
 40
149.0
100
AcDbArc
 50
20.915405
 51
159.084595
  0
TEXT
  5
D4
100
AcDbEntity
  8
1
100
AcDbText
 10
160.967052
 20
63.514644
 30
0.0
 40
15.0
  1
SCALE:1/6
 41
0.8
  7
UT7
100
AcDbText
  0
ARC
  5
D5
100
AcDbEntity
  8
0
100
AcDbCircle
 10
178.028788
 20
159.814196
 30
0.0
 40
149.0
100
AcDbArc
 50
163.10968
 51
172.286008
  0
LWPOLYLINE
  5
D8
100
AcDbEntity
  8
1
  6
HIDDEN
100
AcDbPolyline
 90
       14
 70
     0
 10
136.191761
 20
291.851511
 42
-0.007969
 10
135.461168
 20
291.240835
 42
-0.007902
 10
134.374061
 20
290.389309
 42
-0.006312
 10
133.101706
 20
289.44718
 42
-0.00552
 10
131.651341
 20
288.42467
 42
-0.004771
 10
130.034136
 20
287.332729
 42
-0.004195
 10
128.265198
 20
286.183287
 42
-0.003696
 10
126.363573
 20
284.9894
 42
-0.003464
 10
124.35579
 20
283.767787
 42
-0.003102
 10
122.263644
 20
282.532644
 42
-0.002404
 10
120.08558
 20
281.278746
 42
-0.001799
 10
117.770296
 20
279.971497
 42
-0.000996
 10
115.301483
 20
278.596148
 42
-0.000662
 10
112.669978
 20
277.139884
  0
LWPOLYLINE
  5
E8
100
AcDbEntity
  8
1
  6
HIDDEN
100
AcDbPolyline
 90
        8
 70
     0
 10
115.867707
 20
209.814196
 42
0.032482
 10
116.513289
 20
209.856004
 42
0.032912
 10
117.158228
 20
209.983544
 42
0.034464
 10
117.801566
 20
210.203319
 42
0.026845
 10
118.281406
 20
210.435377
 42
0.02766
 10
118.746835
 20
210.726333
 42
0.028707
 10
119.191775
 20
211.078894
 42
0.030264
 10
119.61235
 20
211.500943
  0
ARC
  5
F2
100
AcDbEntity
  8
1
  6
HIDDEN
100
AcDbCircle
 10
182.748349
 20
154.67019
 30
0.0
 40
139.87196
100
AcDbArc
 50
91.933642
 51
138.764039
  0
TEXT
  5
F3
100
AcDbEntity
  8
1
100
AcDbText
 10
41.021406
 20
62.602644
 30
0.0
 40
15.0
  1
UNIT:mm
 41
0.8
  7
UT7
100
AcDbText
  0
LINE
  5
F4
100
AcDbEntity
  8
1
  6
HIDDEN
100
AcDbLine
 10
43.028788
 20
196.514196
 30
0.0
 11
43.320287
 21
179.814196
 31
0.0
  0
ARC
  5
F5
100
AcDbEntity
  8
1
  6
HIDDEN
100
AcDbCircle
 10
178.028788
 20
160.264939
 30
0.0
 40
132.525283
100
AcDbArc
 50
139.195018
 51
152.396386
  0
LINE
  5
F6
100
AcDbEntity
  8
1
  6
HIDDEN
100
AcDbLine
 10
70.953923
 20
209.814196
 30
0.0
 11
115.867707
 21
209.814196
 31
0.0
  0
ARC
  5
F7
100
AcDbEntity
  8
0
100
AcDbCircle
 10
57.528788
 20
205.865797
 30
0.0
 40
20.0
100
AcDbArc
 50
159.084595
 51
180.0
  0
LINE
  5
F8
100
AcDbEntity
  8
1
  6
HIDDEN
100
AcDbLine
 10
43.345778
 20
216.174525
 30
0.0
 11
43.028788
 21
198.014196
 31
0.0
  0
ARC
  5
F9
100
AcDbEntity
  8
0
100
AcDbCircle
 10
36.413111
 20
202.814196
 30
0.0
 40
1.0
100
AcDbArc
 50
90.0
 51
163.10968
  0
LINE
  5
FA
100
AcDbEntity
  8
0
100
AcDbLine
 10
37.528788
 20
205.865797
 30
0.0
 11
37.528788
 21
203.814196
 31
0.0
  0
LWPOLYLINE
  5
FB
100
AcDbEntity
  8
1
  6
HIDDEN
100
AcDbPolyline
 90
       11
 70
     0
 10
62.562343
 20
216.213219
 42
0.038443
 10
63.16702
 20
214.64332
 42
0.020381
 10
63.541116
 20
213.939232
 42
0.021077
 10
63.961192
 20
213.286822
 42
0.042916
 10
64.906666
 20
212.166522
 42
0.021963
 10
65.42697
 20
211.693951
 42
0.021814
 10
65.975294
 20
211.27787
 42
0.042028
 10
67.127426
 20
210.617438
 42
0.039587
 10
68.349176
 20
210.164268
 42
0.036413
 10
69.63267
 20
209.899652
 42
0.033092
 10
70.953923
 20
209.814196
  0
LWPOLYLINE
  5
108
100
AcDbEntity
  8
1
  6
HIDDEN
100
AcDbPolyline
 90
        7
 70
     0
 10
160.376633
 20
304.708359
 42
0.016695
 10
159.23432
 20
304.444514
 42
0.011454
 10
157.945555
 20
304.072396
 42
0.008824
 10
156.54318
 20
303.607226
 42
0.010343
 10
154.399158
 20
302.804897
 42
0.008473
 10
152.254609
 20
301.912516
 42
0.007206
 10
150.155965
 20
300.961678
  0
LWPOLYLINE
  5
111
100
AcDbEntity
  8
1
  6
HIDDEN
100
AcDbPolyline
 90
       20
 70
     0
 10
176.627608
 20
265.576653
 42
0.039653
 10
171.243742
 20
262.383185
 42
0.043087
 10
168.8906
 20
260.30341
 42
0.021295
 10
167.842673
 20
259.09812
 42
0.017615
 10
166.898923
 20
257.822664
 42
0.020346
 10
165.22934
 20
255.134686
 42
0.001854
 10
163.675065
 20
252.374151
 42
-0.011418
 10
162.064354
 20
249.649502
 42
-0.018362
 10
160.294812
 20
247.039529
 42
-0.016804
 10
158.340498
 20
244.568872
 42
-0.011682
 10
156.24382
 20
242.208144
 42
-0.005177
 10
154.073373
 20
239.925415
 42
-0.003758
 10
151.871308
 20
237.681065
 42
-0.006604
 10
149.631211
 20
235.482794
 42
-0.011245
 10
147.318275
 20
233.372495
 42
-0.013466
 10
144.904787
 20
231.383415
 42
-0.013119
 10
142.383302
 20
229.524329
 42
-0.005691
 10
141.084988
 20
228.639937
 42
-0.002421
 10
139.766626
 20
227.779602
 42
0.005495
 10
137.803977
 20
226.466906
  0
LWPOLYLINE
  5
127
100
AcDbEntity
  8
1
  6
HIDDEN
100
AcDbPolyline
 90
        3
 70
     0
 10
119.61235
 20
211.500943
 42
-0.017167
 10
123.296992
 20
215.38824
 42
-0.017211
 10
127.244643
 20
219.016988
  0
LWPOLYLINE
  5
12C
100
AcDbEntity
  8
1
  6
HIDDEN
100
AcDbPolyline
 90
        5
 70
     0
 10
142.722182
 20
296.91582
 42
-0.00328
 10
141.432005
 20
295.905879
 42
-0.005038
 10
140.014031
 20
294.83595
 42
0.004226
 10
138.504668
 20
293.701939
 42
0.00914
 10
136.234818
 20
291.878692
  0
LWPOLYLINE
  5
133
100
AcDbEntity
  8
1
  6
HIDDEN
100
AcDbPolyline
 90
        5
 70
     0
 10
150.038433
 20
300.904715
 42
0.007339
 10
147.451248
 20
299.683765
 42
0.007951
 10
145.707823
 20
298.810991
 42
0.021128
 10
144.110127
 20
297.889755
 42
0.021202
 10
142.722592
 20
296.916145
  0
LWPOLYLINE
  5
13A
100
AcDbEntity
  8
1
  6
HIDDEN
100
AcDbPolyline
 90
       11
 70
     0
 10
179.429967
 20
265.576653
 42
0.032888
 10
179.132909
 20
265.841398
 42
0.043618
 10
178.79834
 20
266.057872
 42
0.035781
 10
178.553883
 20
266.16553
 42
0.041418
 10
178.295858
 20
266.234285
 42
0.043775
 10
178.029388
 20
266.258305
 42
0.044027
 10
177.763487
 20
266.234636
 42
0.041201
 10
177.504832
 20
266.165944
 42
0.036019
 10
177.2601
 20
266.058327
 42
0.043366
 10
176.925063
 20
265.841684
 42
0.033072
 10
176.627608
 20
265.576653
  0
ARC
  5
147
100
AcDbEntity
  8
0
100
AcDbCircle
 10
72.112747
 20
677.700146
 30
0.0
 40
40.0
100
AcDbArc
 50
90.0
 51
180.0
  0
LINE
  5
148
100
AcDbEntity
  8
0
100
AcDbLine
 10
32.112747
 20
677.700146
 30
0.0
 11
32.112747
 21
547.700146
 31
0.0
  0
LINE
  5
149
100
AcDbEntity
  8
0
100
AcDbLine
 10
38.964364
 20
677.700146
 30
0.0
 11
38.964364
 21
547.700146
 31
0.0
  0
LINE
  5
14A
100
AcDbEntity
  8
1
  6
HIDDEN
100
AcDbLine
 10
44.764364
 20
547.700146
 30
0.0
 11
44.764364
 21
672.698129
 31
0.0
  0
LINE
  5
14B
100
AcDbEntity
  8
1
  6
HIDDEN
100
AcDbLine
 10
118.276985
 20
496.407126
 30
0.0
 11
116.838584
 21
496.394899
 31
0.0
  0
LWPOLYLINE
  5
14C
100
AcDbEntity
  8
1
  6
HIDDEN
100
AcDbPolyline
 90
       11
 70
     0
 10
80.811304
 20
496.907988
 42
-0.032744
 10
76.629717
 20
497.241988
 42
-0.028957
 10
73.035115
 20
498.022655
 42
-0.031927
 10
69.993757
 20
499.115322
 42
-0.016683
 10
67.73213
 20
500.229931
 42
-0.017032
 10
66.241355
 20
501.125964
 42
-0.034167
 10
64.075966
 20
502.692243
 42
-0.017289
 10
62.001048
 20
504.543707
 42
-0.017394
 10
60.672748
 20
505.950493
 42
-0.034744
 10
58.811686
 20
508.298031
 10
57.671051
 20
510.02574
  0
ARC
  5
159
100
AcDbEntity
  8
1
  6
HIDDEN
100
AcDbCircle
 10
101.599283
 20
-577.919444
 30
0.0
 40
1062.480818
100
AcDbArc
 50
91.226292
 51
91.901443
  0
ARC
  5
15A
100
AcDbEntity
  8
1
  6
HIDDEN
100
AcDbCircle
 10
123.379973
 20
-1439.82151
 30
0.0
 40
1924.654494
100
AcDbArc
 50
90.721591
 51
91.325423
  0
LWPOLYLINE
  5
15B
100
AcDbEntity
  8
1
  6
HIDDEN
100
AcDbPolyline
 90
       15
 70
     0
 10
96.959214
 20
496.630885
 42
-0.000046
 10
96.323751
 20
496.640094
 42
-0.00009
 10
95.146565
 20
496.657471
 42
-0.00009
 10
93.969385
 20
496.675274
 42
-0.000192
 10
91.615046
 20
496.712206
 42
-0.000097
 10
90.501057
 20
496.730324
 42
-0.000097
 10
89.387075
 20
496.748874
 42
-0.000104
 10
88.2731
 20
496.767871
 42
-0.000104
 10
87.159134
 20
496.787333
 42
-0.000111
 10
86.045176
 20
496.807274
 42
-0.000105
 10
84.998383
 20
496.826465
 42
-0.000113
 10
83.951599
 20
496.846113
 42
-0.000114
 10
82.904824
 20
496.866237
 42
-0.000122
 10
81.858059
 20
496.886856
 42
-0.000123
 10
80.811304
 20
496.907988
  0
LWPOLYLINE
  5
16C
100
AcDbEntity
  8
1
  6
HIDDEN
100
AcDbPolyline
 90
        4
 70
     0
 10
99.688333
 20
477.236809
 42
0.017398
 10
109.356001
 20
475.310928
 42
0.009168
 10
114.245781
 20
474.618213
 42
0.006107
 10
118.08465
 20
474.193125
 42
0.006587
  0
LWPOLYLINE
  5
172
100
AcDbEntity
  8
1
  6
HIDDEN
100
AcDbPolyline
 90
        4
 70
     0
 10
116.838584
 20
496.394899
 42
-0.000136
 10
114.157283
 20
496.421483
 42
-0.000143
 10
111.475998
 20
496.449565
 42
-0.00005
 10
110.563416
 20
496.459477
 42
-0.000151
  0
ARC
  5
178
100
AcDbEntity
  8
1
  6
HIDDEN
100
AcDbCircle
 10
164.859564
 20
585.951836
 30
0.0
 40
77.612933
100
AcDbArc
 50
205.895885
 51
210.215319
  0
ARC
  5
179
100
AcDbEntity
  8
1
  6
HIDDEN
100
AcDbCircle
 10
158.374383
 20
584.880049
 30
0.0
 40
71.783861
100
AcDbArc
 50
223.177434
 51
224.74796
  0
ARC
  5
17A
100
AcDbEntity
  8
1
  6
HIDDEN
100
AcDbCircle
 10
138.420579
 20
565.101029
 30
0.0
 40
43.68824
100
AcDbArc
 50
224.74796
 51
227.293393
  0
ARC
  5
17B
100
AcDbEntity
  8
1
  6
HIDDEN
100
AcDbCircle
 10
135.096719
 20
560.348165
 30
0.0
 40
37.929727
100
AcDbArc
 50
228.987075
 51
231.11187
  0
ARC
  5
17C
100
AcDbEntity
  8
1
  6
HIDDEN
100
AcDbCircle
 10
152.439614
 20
580.289796
 30
0.0
 40
64.357831
100
AcDbArc
 50
227.293393
 51
228.987075
  0
ARC
  5
17D
100
AcDbEntity
  8
1
  6
HIDDEN
100
AcDbCircle
 10
140.37222
 20
567.98823
 30
0.0
 40
47.097601
100
AcDbArc
 50
220.75271
 51
223.177434
  0
ARC
  5
17E
100
AcDbEntity
  8
1
  6
HIDDEN
100
AcDbCircle
 10
161.109549
 20
585.858366
 30
0.0
 40
74.472381
100
AcDbArc
 50
218.808774
 51
220.75271
  0
ARC
  5
17F
100
AcDbEntity
  8
1
  6
HIDDEN
100
AcDbCircle
 10
144.29131
 20
572.331913
 30
0.0
 40
52.889562
100
AcDbArc
 50
216.033087
 51
218.808774
  0
ARC
  5
180
100
AcDbEntity
  8
1
  6
HIDDEN
100
AcDbCircle
 10
164.904334
 20
587.326347
 30
0.0
 40
78.379359
100
AcDbArc
 50
213.755981
 51
216.033087
  0
ARC
  5
181
100
AcDbEntity
  8
1
  6
HIDDEN
100
AcDbCircle
 10
149.217113
 20
576.842112
 30
0.0
 40
59.511183
100
AcDbArc
 50
210.215319
 51
213.755981
  0
LWPOLYLINE
  5
182
100
AcDbEntity
  8
1
  6
HIDDEN
100
AcDbPolyline
 90
       16
 70
     0
 10
121.347927
 20
438.633873
 42
0.006782
 10
122.64079
 20
438.238257
 42
0.006358
 10
123.943782
 20
437.876699
 42
0.006207
 10
125.285837
 20
437.540381
 42
0.005968
 10
126.666172
 20
437.229982
 42
0.005714
 10
128.053365
 20
436.951919
 42
0.005598
 10
129.507933
 20
436.694434
 42
0.005397
 10
130.967831
 20
436.468992
 42
0.005161
 10
132.462539
 20
436.270389
 42
0.005101
 10
133.991448
 20
436.099092
 42
0.004792
 10
135.523446
 20
435.958078
 42
0.004824
 10
137.117155
 20
435.842244
 42
0.004557
 10
138.712771
 20
435.756329
 42
0.004499
 10
140.338185
 20
435.698309
 42
0.004337
 10
141.992853
 20
435.668506
 42
0.004227
 10
143.64771
 20
435.667046
  0
LINE
  5
194
100
AcDbEntity
  8
1
  6
HIDDEN
100
AcDbLine
 10
121.347927
 20
438.633873
 30
0.0
 11
121.347927
 21
429.755265
 31
0.0
  0
LWPOLYLINE
  5
195
100
AcDbEntity
  8
1
  6
HIDDEN
100
AcDbPolyline
 90
        5
 70
     0
 10
159.659426
 20
433.679377
 42
0.002672
 10
161.075193
 20
433.482959
 42
0.009646
 10
166.348196
 20
432.883381
 42
0.015733
 10
175.272445
 20
432.3252
 42
0.043167
 10
199.8681
 20
433.686195
 42
0.008268
  0
LWPOLYLINE
  5
19C
100
AcDbEntity
  8
1
  6
HIDDEN
100
AcDbPolyline
 90
        3
 70
     0
 10
149.653888
 20
435.326319
 42
0.014337
 10
146.828986
 20
435.58116
 42
0.017001
 10
143.64771
 20
435.667046
  0
LWPOLYLINE
  5
1A1
100
AcDbEntity
  8
1
  6
HIDDEN
100
AcDbPolyline
 90
        6
 70
     0
 10
160.437051
 20
438.089505
 42
0.007376
 10
163.910445
 20
437.591323
 42
0.011931
 10
169.704112
 20
436.987521
 42
0.025021
 10
182.287048
 20
436.610551
 42
0.026684
 10
195.618283
 20
437.591323
 42
0.0077
 10
199.091839
 20
438.088591
 42
0.008482
  0
ARC
  5
1A9
100
AcDbEntity
  8
1
  6
HIDDEN
100
AcDbCircle
 10
169.185515
 20
445.354079
 30
0.0
 40
12.896231
100
AcDbArc
 50
125.065679
 51
136.368826
  0
ARC
  5
1AA
100
AcDbEntity
  8
1
  6
HIDDEN
100
AcDbCircle
 10
170.247535
 20
-9447.021406
 30
0.0
 40
9932.145993
100
AcDbArc
 50
89.994261
 51
90.093512
  0
ARC
  5
1AB
100
AcDbEntity
  8
1
  6
HIDDEN
100
AcDbCircle
 10
120.365585
 20
516.53357
 30
0.0
 40
19.551514
100
AcDbArc
 50
310.114027
 51
318.768918
  0
LWPOLYLINE
  5
1AC
100
AcDbEntity
  8
1
  6
HIDDEN
100
AcDbPolyline
 90
        9
 70
     0
 10
127.803667
 20
473.49258
 42
0.001096
 10
128.991393
 20
473.435168
 42
-0.000954
 10
133.90794
 20
473.207115
 42
-0.009559
 10
138.810608
 20
472.875517
 42
-0.012873
 10
143.694818
 20
472.309526
 42
-0.009235
 10
148.56235
 20
471.519906
 42
-0.004489
 10
153.412078
 20
470.597171
 42
-0.000586
 10
158.255458
 20
469.625434
 42
0.000244
 10
158.814267
 20
469.513321
 42
0.003041
  0
ARC
  5
1B7
100
AcDbEntity
  8
1
  6
HIDDEN
100
AcDbCircle
 10
155.861672
 20
-2828.885208
 30
0.0
 40
3313.990059
100
AcDbArc
 50
90.253766
 51
90.397107
  0
LWPOLYLINE
  5
1B8
100
AcDbEntity
  8
1
  6
HIDDEN
100
AcDbPolyline
 90
        4
 70
     0
 10
141.189758
 20
447.695658
 42
0.011003
 10
134.883466
 20
445.55585
 42
-0.003663
 10
128.606073
 20
443.322697
 10
125.44209
 20
442.287797
  0
LWPOLYLINE
  5
1BE
100
AcDbEntity
  8
1
  6
HIDDEN
100
AcDbPolyline
 90
       16
 70
     0
 10
125.44209
 20
442.287797
 42
0.006193
 10
126.57762
 20
441.961737
 42
0.005862
 10
127.720811
 20
441.663111
 42
0.005745
 10
128.893316
 20
441.385732
 42
0.005553
 10
130.094541
 20
441.130073
 42
0.005349
 10
131.301042
 20
440.900668
 42
0.005258
 10
132.558119
 20
440.689171
 42
0.005089
 10
133.819316
 20
440.503729
 42
0.004901
 10
135.10682
 20
440.340625
 42
0.004844
 10
136.420154
 20
440.200195
 42
0.004591
 10
137.735902
 20
440.084571
 42
0.004612
 10
139.098479
 20
439.990068
 42
0.00439
 10
140.462548
 20
439.920111
 42
0.004335
 10
141.849432
 20
439.873228
 42
0.004199
 10
143.258702
 20
439.849657
 42
0.004096
 10
144.668105
 20
439.849469
  0
LWPOLYLINE
  5
1D0
100
AcDbEntity
  8
1
  6
HIDDEN
100
AcDbPolyline
 90
       11
 70
     0
 10
125.44209
 20
442.287797
 42
0.026838
 10
124.460678
 20
442.107514
 42
0.027256
 10
123.624598
 20
441.849903
 42
0.037331
 10
122.933059
 20
441.527078
 42
0.050338
 10
122.299851
 20
441.084113
 42
0.031793
 10
121.896742
 20
440.663497
 42
0.035831
 10
121.677359
 20
440.340371
 42
0.050289
 10
121.483159
 20
439.92442
 42
0.050105
 10
121.355471
 20
439.418717
 42
0.046196
 10
121.32717
 20
438.895292
 10
121.347927
 20
438.633873
  0
ARC
  5
1DD
100
AcDbEntity
  8
1
  6
HIDDEN
100
AcDbCircle
 10
119.328522
 20
518.06699
 30
0.0
 40
21.406668
100
AcDbArc
 50
293.985074
 51
301.741717
  0
ARC
  5
1DE
100
AcDbEntity
  8
1
  6
HIDDEN
100
AcDbCircle
 10
194.035287
 20
-7953.165484
 30
0.0
 40
8438.412251
100
AcDbArc
 50
90.415151
 51
90.495995
  0
ARC
  5
1DF
100
AcDbEntity
  8
1
  6
HIDDEN
100
AcDbCircle
 10
117.071847
 20
526.88372
 30
0.0
 40
30.528875
100
AcDbArc
 50
277.661114
 51
283.950511
  0
ARC
  5
1E0
100
AcDbEntity
  8
1
  6
HIDDEN
100
AcDbCircle
 10
117.414488
 20
526.370296
 30
0.0
 40
29.975581
100
AcDbArc
 50
271.648817
 51
277.142853
  0
ARC
  5
1E1
100
AcDbEntity
  8
1
  6
HIDDEN
100
AcDbCircle
 10
118.637927
 20
519.680829
 30
0.0
 40
23.161894
100
AcDbArc
 50
284.486355
 51
293.923083
  0
ARC
  5
1E2
100
AcDbEntity
  8
1
  6
HIDDEN
100
AcDbCircle
 10
120.089487
 20
516.863637
 30
0.0
 40
19.98183
100
AcDbArc
 50
305.908312
 51
310.109678
  0
ARC
  5
1E3
100
AcDbEntity
  8
1
  6
HIDDEN
100
AcDbCircle
 10
119.815028
 20
517.244951
 30
0.0
 40
20.451646
100
AcDbArc
 50
301.794187
 51
305.904567
  0
LWPOLYLINE
  5
1E4
100
AcDbEntity
  8
1
  6
HIDDEN
100
AcDbPolyline
 90
        3
 70
     0
 10
144.668105
 20
439.849469
 42
-0.018536
 10
148.07497
 20
439.84517
 42
-0.014214
 10
150.815819
 20
439.662706
 42
-0.017759
  0
LWPOLYLINE
  5
1E9
100
AcDbEntity
  8
1
  6
HIDDEN
100
AcDbPolyline
 90
        8
 70
     0
 10
144.668105
 20
449.312208
 42
-0.012629
 10
149.898723
 20
450.887635
 42
-0.005544
 10
150.44572
 20
451.029306
 42
-0.000353
 10
151.158621
 20
451.207765
 42
0.000164
 10
152.309034
 20
451.494188
 42
0.004223
 10
153.605426
 20
451.827977
 42
0.010084
 10
154.623471
 20
452.12225
 10
155.026309
 20
452.257953
  0
ARC
  5
1F3
100
AcDbEntity
  8
1
  6
HIDDEN
100
AcDbCircle
 10
163.991135
 20
449.71565
 30
0.0
 40
6.238423
100
AcDbArc
 50
190.232139
 51
208.85798
  0
ARC
  5
1F4
100
AcDbEntity
  8
1
  6
HIDDEN
100
AcDbCircle
 10
163.198505
 20
449.575761
 30
0.0
 40
5.43355
100
AcDbArc
 50
169.734789
 51
190.265211
  0
ARC
  5
1F5
100
AcDbEntity
  8
1
  6
HIDDEN
100
AcDbCircle
 10
163.978869
 20
449.440227
 30
0.0
 40
6.225579
100
AcDbArc
 50
151.122634
 51
169.787246
  0
LWPOLYLINE
  5
1F6
100
AcDbEntity
  8
1
  6
HIDDEN
100
AcDbPolyline
 90
       19
 70
     0
 10
155.026309
 20
452.257953
 42
0.001236
 10
155.321479
 20
452.310973
 42
-0.001444
 10
155.605465
 20
452.362854
 42
-0.001076
 10
155.876117
 20
452.409433
 42
0.001866
 10
156.136657
 20
452.455583
 42
0.001167
 10
156.387434
 20
452.50136
 42
0.001361
 10
156.628744
 20
452.546726
 42
0.00131
 10
156.860876
 20
452.59164
 42
0.001314
 10
157.084116
 20
452.636055
 42
0.001296
 10
157.298747
 20
452.679922
 42
0.001274
 10
157.505041
 20
452.723193
 42
0.001245
 10
157.703267
 20
452.765817
 42
0.00121
 10
157.893686
 20
452.807743
 42
0.001161
 10
158.076548
 20
452.848916
 42
0.001116
 10
158.252086
 20
452.889281
 42
0.001092
 10
158.42055
 20
452.928801
 42
0.001018
 10
158.582176
 20
452.967445
 42
0.001086
 10
158.737193
 20
453.005178
 42
0.000597
 10
158.885819
 20
453.041965
  0
ARC
  5
20B
100
AcDbEntity
  8
1
  6
HIDDEN
100
AcDbCircle
 10
166.144611
 20
448.250887
 30
0.0
 40
8.696399
100
AcDbArc
 50
136.358517
 51
151.152047
  0
ARC
  5
20C
100
AcDbEntity
  8
1
  6
HIDDEN
100
AcDbCircle
 10
158.209914
 20
-3007.136124
 30
0.0
 40
3492.249975
100
AcDbArc
 50
90.068456
 51
90.27934
  0
ARC
  5
20D
100
AcDbEntity
  8
1
  6
HIDDEN
100
AcDbCircle
 10
131.241769
 20
541.875464
 30
0.0
 40
19.055836
100
AcDbArc
 50
275.758645
 51
295.508487
  0
LWPOLYLINE
  5
20E
100
AcDbEntity
  8
1
  6
HIDDEN
100
AcDbPolyline
 90
        4
 70
     0
 10
136.882691
 20
506.086218
 42
0.009884
 10
138.35142
 20
508.583114
 42
0.008832
 10
139.761755
 20
511.19742
 10
140.437753
 20
512.531706
  0
ARC
  5
214
100
AcDbEntity
  8
1
  6
HIDDEN
100
AcDbCircle
 10
130.714597
 20
542.535612
 30
0.0
 40
19.724601
100
AcDbArc
 50
263.489267
 51
266.696589
  0
ARC
  5
215
100
AcDbEntity
  8
1
  6
HIDDEN
100
AcDbCircle
 10
130.580055
 20
544.115636
 30
0.0
 40
21.273303
100
AcDbArc
 50
258.26906
 51
261.336874
  0
ARC
  5
216
100
AcDbEntity
  8
1
  6
HIDDEN
100
AcDbCircle
 10
132.91706
 20
555.369997
 30
0.0
 40
32.767747
100
AcDbArc
 50
256.260429
 51
258.26906
  0
ARC
  5
217
100
AcDbEntity
  8
1
  6
HIDDEN
100
AcDbCircle
 10
131.83467
 20
552.350021
 30
0.0
 40
29.602717
100
AcDbArc
 50
261.336874
 51
263.489267
  0
ARC
  5
218
100
AcDbEntity
  8
1
  6
HIDDEN
100
AcDbCircle
 10
120.584382
 20
516.309463
 30
0.0
 40
19.239273
100
AcDbArc
 50
318.841382
 51
327.901679
  0
ARC
  5
219
100
AcDbEntity
  8
1
  6
HIDDEN
100
AcDbCircle
 10
130.76678
 20
546.585455
 30
0.0
 40
23.789717
100
AcDbArc
 50
272.34354
 51
275.758645
  0
ARC
  5
21A
100
AcDbEntity
  8
1
  6
HIDDEN
100
AcDbCircle
 10
130.985375
 20
541.244139
 30
0.0
 40
18.44393
100
AcDbArc
 50
269.00553
 51
272.34354
  0
ARC
  5
21B
100
AcDbEntity
  8
1
  6
HIDDEN
100
AcDbCircle
 10
131.133892
 20
549.799978
 30
0.0
 40
27.001058
100
AcDbArc
 50
266.696589
 51
269.00553
  0
ARC
  5
21C
100
AcDbEntity
  8
1
  6
HIDDEN
100
AcDbCircle
 10
123.356959
 20
548.141571
 30
0.0
 40
29.249805
100
AcDbArc
 50
331.432688
 51
333.74121
  0
LWPOLYLINE
  5
21D
100
AcDbEntity
  8
1
  6
HIDDEN
100
AcDbPolyline
 90
        6
 70
     0
 10
148.497721
 20
528.91652
 42
0.031558
 10
150.290022
 20
532.467631
 42
0.02741
 10
151.675826
 20
536.260457
 42
0.029744
 10
152.763608
 20
540.675464
 42
0.02584
 10
153.441952
 20
545.618658
 10
153.598112
 20
548.103963
  0
ARC
  5
225
100
AcDbEntity
  8
1
  6
HIDDEN
100
AcDbCircle
 10
125.674863
 20
546.880548
 30
0.0
 40
26.611102
100
AcDbArc
 50
326.463647
 51
328.915655
  0
ARC
  5
226
100
AcDbEntity
  8
1
  6
HIDDEN
100
AcDbCircle
 10
127.570036
 20
545.62443
 30
0.0
 40
24.337446
100
AcDbArc
 50
323.803657
 51
326.463647
  0
ARC
  5
227
100
AcDbEntity
  8
1
  6
HIDDEN
100
AcDbCircle
 10
127.54898
 20
545.639838
 30
0.0
 40
24.363538
100
AcDbArc
 50
321.188696
 51
323.803657
  0
ARC
  5
228
100
AcDbEntity
  8
1
  6
HIDDEN
100
AcDbCircle
 10
129.011602
 20
544.463385
 30
0.0
 40
22.486491
100
AcDbArc
 50
317.472005
 51
321.188696
  0
ARC
  5
229
100
AcDbEntity
  8
1
  6
HIDDEN
100
AcDbCircle
 10
129.422936
 20
544.086097
 30
0.0
 40
21.928332
100
AcDbArc
 50
313.717226
 51
317.472005
  0
ARC
  5
22A
100
AcDbEntity
  8
1
  6
HIDDEN
100
AcDbCircle
 10
130.375858
 20
543.089522
 30
0.0
 40
20.549483
100
AcDbArc
 50
308.786945
 51
313.717226
  0
ARC
  5
22B
100
AcDbEntity
  8
1
  6
HIDDEN
100
AcDbCircle
 10
130.767869
 20
542.60173
 30
0.0
 40
19.923693
100
AcDbArc
 50
303.772422
 51
308.786945
  0
ARC
  5
22C
100
AcDbEntity
  8
1
  6
HIDDEN
100
AcDbCircle
 10
131.212413
 20
541.936986
 30
0.0
 40
19.124003
100
AcDbArc
 50
295.508487
 51
303.772422
  0
ARC
  5
22D
100
AcDbEntity
  8
1
  6
HIDDEN
100
AcDbCircle
 10
125.692403
 20
546.869973
 30
0.0
 40
26.590621
100
AcDbArc
 50
328.915655
 51
331.432688
  0
ARC
  5
22E
100
AcDbEntity
  8
1
  6
HIDDEN
100
AcDbCircle
 10
123.423959
 20
548.108517
 30
0.0
 40
29.175096
100
AcDbArc
 50
333.74121
 51
336.096421
  0
ARC
  5
22F
100
AcDbEntity
  8
1
  6
HIDDEN
100
AcDbCircle
 10
102.079821
 20
552.918508
 30
0.0
 40
51.210307
100
AcDbArc
 50
357.135409
 51
358.731601
  0
ARC
  5
230
100
AcDbEntity
  8
1
  6
HIDDEN
100
AcDbCircle
 10
104.346581
 20
552.805083
 30
0.0
 40
48.940711
100
AcDbArc
 50
355.476994
 51
357.135409
  0
ARC
  5
231
100
AcDbEntity
  8
1
  6
HIDDEN
100
AcDbCircle
 10
105.881226
 20
552.683684
 30
0.0
 40
47.401271
100
AcDbArc
 50
353.789291
 51
355.476994
  0
ARC
  5
232
100
AcDbEntity
  8
1
  6
HIDDEN
100
AcDbCircle
 10
108.094526
 20
552.442824
 30
0.0
 40
45.174905
100
AcDbArc
 50
352.045266
 51
353.789291
  0
ARC
  5
233
100
AcDbEntity
  8
1
  6
HIDDEN
100
AcDbCircle
 10
109.655504
 20
552.2247
 30
0.0
 40
43.59876
100
AcDbArc
 50
350.252096
 51
352.045266
  0
ARC
  5
234
100
AcDbEntity
  8
1
  6
HIDDEN
100
AcDbCircle
 10
111.767878
 20
551.861808
 30
0.0
 40
41.455442
100
AcDbArc
 50
348.411465
 51
350.252096
  0
ARC
  5
235
100
AcDbEntity
  8
1
  6
HIDDEN
100
AcDbCircle
 10
113.302503
 20
551.547114
 30
0.0
 40
39.888884
100
AcDbArc
 50
346.51451
 51
348.411465
  0
ARC
  5
236
100
AcDbEntity
  8
1
  6
HIDDEN
100
AcDbCircle
 10
115.268836
 20
551.075566
 30
0.0
 40
37.8668
100
AcDbArc
 50
345.204752
 51
346.51451
  0
ARC
  5
237
100
AcDbEntity
  8
1
  6
HIDDEN
100
AcDbCircle
 10
115.889146
 20
550.911728
 30
0.0
 40
37.225217
100
AcDbArc
 50
343.223449
 51
345.204752
  0
ARC
  5
238
100
AcDbEntity
  8
1
  6
HIDDEN
100
AcDbCircle
 10
118.393968
 20
550.156596
 30
0.0
 40
34.609045
100
AcDbArc
 50
341.827378
 51
343.223449
  0
ARC
  5
239
100
AcDbEntity
  8
1
  6
HIDDEN
100
AcDbCircle
 10
118.340849
 20
550.174033
 30
0.0
 40
34.664952
100
AcDbArc
 50
339.754958
 51
341.827378
  0
ARC
  5
23A
100
AcDbEntity
  8
1
  6
HIDDEN
100
AcDbCircle
 10
121.217947
 20
549.112898
 30
0.0
 40
31.598408
100
AcDbArc
 50
338.266022
 51
339.754958
  0
ARC
  5
23B
100
AcDbEntity
  8
1
  6
HIDDEN
100
AcDbCircle
 10
120.620207
 20
549.351179
 30
0.0
 40
32.241891
100
AcDbArc
 50
336.096421
 51
338.266022
  0
LWPOLYLINE
  5
23C
100
AcDbEntity
  8
1
  6
HIDDEN
100
AcDbPolyline
 90
        5
 70
     0
 10
152.540047
 20
562.173259
 42
-0.010652
 10
152.903814
 20
559.525074
 42
-0.010963
 10
153.148124
 20
556.908762
 42
-0.015192
 10
153.287858
 20
553.473612
 10
153.277641
 20
551.787665
  0
LWPOLYLINE
  5
243
100
AcDbEntity
  8
1
  6
HIDDEN
100
AcDbPolyline
 90
        5
 70
     0
 10
152.540047
 20
562.173259
 42
-0.012653
 10
153.090379
 20
558.677042
 42
-0.013308
 10
153.457573
 20
555.166252
 42
-0.019147
 10
153.644512
 20
550.46445
 10
153.598112
 20
548.103963
  0
ARC
  5
24A
100
AcDbEntity
  8
1
  6
HIDDEN
100
AcDbCircle
 10
179.764158
 20
416.459675
 30
0.0
 40
44.116085
100
AcDbArc
 50
87.515762
 51
89.999732
  0
LWPOLYLINE
  5
24B
100
AcDbEntity
  8
1
  6
HIDDEN
100
AcDbPolyline
 90
        8
 70
     0
 10
177.589762
 20
466.026751
 42
0.030617
 10
178.294153
 20
465.798072
 42
0.023369
 10
178.927656
 20
465.6711
 42
0.023905
 10
179.483581
 20
465.617806
 42
0.031673
 10
180.134414
 20
465.622713
 42
0.031462
 10
180.867343
 20
465.715733
 42
0.031113
 10
181.587702
 20
465.900868
 10
181.938966
 20
466.026751
  0
LWPOLYLINE
  5
255
100
AcDbEntity
  8
1
  6
HIDDEN
100
AcDbPolyline
 90
       12
 70
     0
 10
190.900486
 20
459.06229
 42
0.002776
 10
190.530486
 20
459.334693
 42
0.010299
 10
189.257635
 20
460.221089
 42
0.014664
 10
187.437487
 20
461.357524
 42
0.015127
 10
185.585304
 20
462.365138
 42
0.014697
 10
183.68824
 20
463.251979
 42
0.004632
 10
182.923361
 20
463.573728
 42
0.003326
 10
182.226675
 20
463.854255
 42
0.002578
 10
181.599381
 20
464.098032
 42
0.001605
 10
181.042325
 20
464.309165
 42
-0.000013
 10
180.556072
 20
464.49138
 42
-0.000551
 10
180.140974
 20
464.648009
  0
ARC
  5
263
100
AcDbEntity
  8
1
  6
HIDDEN
100
AcDbCircle
 10
179.763709
 20
482.712577
 30
0.0
 40
44.136816
100
AcDbArc
 50
270.000851
 51
272.483655
  0
ARC
  5
264
100
AcDbEntity
  8
1
  6
HIDDEN
100
AcDbCircle
 10
179.155294
 20
477.125565
 30
0.0
 40
38.512358
100
AcDbArc
 50
256.999832
 51
262.436695
  0
LWPOLYLINE
  5
265
100
AcDbEntity
  8
1
  6
HIDDEN
100
AcDbPolyline
 90
        4
 70
     0
 10
165.741911
 20
468.17486
 42
0.001384
 10
167.948996
 20
467.773149
 42
0.001012
 10
172.790298
 20
466.92374
 42
-0.007995
 10
177.589762
 20
466.026751
  0
LWPOLYLINE
  5
26B
100
AcDbEntity
  8
1
  6
HIDDEN
100
AcDbPolyline
 90
       18
 70
     0
 10
179.387754
 20
464.648009
 42
-0.000744
 10
179.162888
 20
464.563057
 42
-0.000807
 10
178.908827
 20
464.468263
 42
0.000176
 10
178.62562
 20
464.362876
 42
0.000681
 10
178.313344
 20
464.246076
 42
0.001185
 10
177.9721
 20
464.116972
 42
0.001599
 10
177.602027
 20
463.974602
 42
0.001967
 10
177.203306
 20
463.817938
 42
0.00232
 10
176.776165
 20
463.645884
 42
0.002565
 10
176.320892
 20
463.45728
 42
0.003105
 10
175.837839
 20
463.2509
 42
0.009535
 10
174.578745
 20
462.67499
 42
0.009757
 10
173.331245
 20
462.044998
 42
0.009755
 10
172.098674
 20
461.361493
 42
0.008154
 10
171.105974
 20
460.763776
 42
0.0082
 10
170.129349
 20
460.131345
 42
0.008442
 10
169.170541
 20
459.464629
 42
0.004781
 10
168.620791
 20
459.060095
  0
ARC
  5
27F
100
AcDbEntity
  8
1
  6
HIDDEN
100
AcDbCircle
 10
175.508835
 20
464.619858
 30
0.0
 40
25.467527
100
AcDbArc
 50
243.745681
 51
250.905024
  0
ARC
  5
280
100
AcDbEntity
  8
1
  6
HIDDEN
100
AcDbCircle
 10
172.501256
 20
458.520594
 30
0.0
 40
18.667045
100
AcDbArc
 50
234.933113
 51
243.743433
  0
ARC
  5
281
100
AcDbEntity
  8
1
  6
HIDDEN
100
AcDbCircle
 10
172.494672
 20
440.642034
 30
0.0
 40
18.654173
100
AcDbArc
 50
116.253521
 51
125.069933
  0
ARC
  5
282
100
AcDbEntity
  8
1
  6
HIDDEN
100
AcDbCircle
 10
175.505222
 20
434.540313
 30
0.0
 40
25.458172
100
AcDbArc
 50
109.093658
 51
116.255636
  0
ARC
  5
283
100
AcDbEntity
  8
1
  6
HIDDEN
100
AcDbCircle
 10
177.789366
 20
471.208778
 30
0.0
 40
32.439951
100
AcDbArc
 50
250.905759
 51
256.999681
  0
ARC
  5
284
100
AcDbEntity
  8
1
  6
HIDDEN
100
AcDbCircle
 10
177.787588
 20
427.948926
 30
0.0
 40
32.433527
100
AcDbArc
 50
102.999715
 51
109.094845
  0
ARC
  5
285
100
AcDbEntity
  8
1
  6
HIDDEN
100
AcDbCircle
 10
179.76457
 20
416.459675
 30
0.0
 40
44.116085
100
AcDbArc
 50
90.000268
 51
92.484238
  0
LWPOLYLINE
  5
286
100
AcDbEntity
  8
1
  6
HIDDEN
100
AcDbPolyline
 90
        6
 70
     0
 10
180.140974
 20
464.648009
 42
0.011417
 10
180.061694
 20
464.676444
 42
0.017247
 10
179.975107
 20
464.702021
 42
0.016604
 10
179.910844
 20
464.716484
 42
0.021557
 10
179.840342
 20
464.726879
 42
0.026153
 10
179.764364
 20
464.730862
  0
LWPOLYLINE
  5
28E
100
AcDbEntity
  8
1
  6
HIDDEN
100
AcDbPolyline
 90
        6
 70
     0
 10
179.764364
 20
464.730862
 42
0.025268
 10
179.688405
 20
464.726903
 42
0.020914
 10
179.618088
 20
464.716543
 42
0.015855
 10
179.553808
 20
464.702069
 42
0.016574
 10
179.467058
 20
464.676457
 42
0.011113
 10
179.387754
 20
464.648009
  0
LINE
  5
296
100
AcDbEntity
  8
1
  6
HIDDEN
100
AcDbLine
 10
179.764364
 20
458.479369
 30
0.0
 11
179.764364
 21
464.730862
 31
0.0
  0
ARC
  5
297
100
AcDbEntity
  8
1
  6
HIDDEN
100
AcDbCircle
 10
179.76502
 20
482.712577
 30
0.0
 40
44.136816
100
AcDbArc
 50
267.516345
 51
269.999149
  0
ARC
  5
298
100
AcDbEntity
  8
1
  6
HIDDEN
100
AcDbCircle
 10
179.700505
 20
481.231248
 30
0.0
 40
42.654083
100
AcDbArc
 50
262.4366
 51
267.516697
  0
ARC
  5
299
100
AcDbEntity
  8
1
  6
HIDDEN
100
AcDbCircle
 10
181.74114
 20
427.948926
 30
0.0
 40
32.433527
100
AcDbArc
 50
70.905155
 51
77.000285
  0
LWPOLYLINE
  5
29A
100
AcDbEntity
  8
1
  6
HIDDEN
100
AcDbPolyline
 90
        4
 70
     0
 10
181.938966
 20
466.026751
 42
-0.008031
 10
186.727062
 20
466.92175
 42
0.001001
 10
191.565495
 20
467.770599
 42
0.001394
 10
193.786819
 20
468.174852
 42
0.002123
  0
ARC
  5
2A0
100
AcDbEntity
  8
1
  6
HIDDEN
100
AcDbCircle
 10
180.37415
 20
422.029902
 30
0.0
 40
38.508353
100
AcDbArc
 50
76.999549
 51
82.436978
  0
ARC
  5
2A1
100
AcDbEntity
  8
1
  6
HIDDEN
100
AcDbCircle
 10
179.828392
 20
417.92219
 30
0.0
 40
42.652161
100
AcDbArc
 50
82.436485
 51
87.516811
  0
ARC
  5
2A2
100
AcDbEntity
  8
1
  6
HIDDEN
100
AcDbCircle
 10
179.828224
 20
481.231248
 30
0.0
 40
42.654083
100
AcDbArc
 50
272.483303
 51
277.5634
  0
ARC
  5
2A3
100
AcDbEntity
  8
1
  6
HIDDEN
100
AcDbCircle
 10
184.019893
 20
464.619858
 30
0.0
 40
25.467527
100
AcDbArc
 50
289.094976
 51
296.254319
  0
ARC
  5
2A4
100
AcDbEntity
  8
1
  6
HIDDEN
100
AcDbCircle
 10
187.027472
 20
458.520594
 30
0.0
 40
18.667045
100
AcDbArc
 50
296.256567
 51
305.066887
  0
ARC
  5
2A5
100
AcDbEntity
  8
1
  6
HIDDEN
100
AcDbCircle
 10
190.332273
 20
453.810155
 30
0.0
 40
12.912922
100
AcDbArc
 50
305.073008
 51
316.361498
  0
ARC
  5
2A6
100
AcDbEntity
  8
1
  6
HIDDEN
100
AcDbCircle
 10
193.368871
 20
450.911812
 30
0.0
 40
8.715146
100
AcDbArc
 50
316.374517
 51
331.136047
  0
ARC
  5
2A7
100
AcDbEntity
  8
1
  6
HIDDEN
100
AcDbCircle
 10
193.384117
 20
448.250887
 30
0.0
 40
8.696399
100
AcDbArc
 50
28.847953
 51
43.641483
  0
ARC
  5
2A8
100
AcDbEntity
  8
1
  6
HIDDEN
100
AcDbCircle
 10
190.343214
 20
445.354079
 30
0.0
 40
12.896231
100
AcDbArc
 50
43.631174
 51
54.934321
  0
ARC
  5
2A9
100
AcDbEntity
  8
1
  6
HIDDEN
100
AcDbCircle
 10
195.537594
 20
449.71565
 30
0.0
 40
6.238423
100
AcDbArc
 50
331.14202
 51
349.767861
  0
ARC
  5
2AA
100
AcDbEntity
  8
1
  6
HIDDEN
100
AcDbCircle
 10
196.330223
 20
449.575761
 30
0.0
 40
5.43355
100
AcDbArc
 50
349.734789
 51
370.265211
  0
ARC
  5
2AB
100
AcDbEntity
  8
1
  6
HIDDEN
100
AcDbCircle
 10
195.54986
 20
449.440227
 30
0.0
 40
6.225579
100
AcDbArc
 50
10.212754
 51
28.877366
  0
LWPOLYLINE
  5
2AC
100
AcDbEntity
  8
1
  6
HIDDEN
100
AcDbPolyline
 90
       10
 70
     0
 10
114.064123
 20
612.638986
 42
-0.038173
 10
118.820273
 20
610.884813
 42
-0.012724
 10
122.065033
 20
609.220221
 42
-0.011867
 10
123.812185
 20
608.16487
 42
-0.022208
 10
126.359937
 20
606.420262
 42
-0.02029
 10
129.619794
 20
603.814997
 42
-0.009381
 10
131.963146
 20
601.664731
 42
-0.008988
 10
133.477457
 20
600.141598
 42
-0.033829
 10
137.049164
 20
596.086575
 10
139.663483
 20
592.641806
  0
ARC
  5
2B8
100
AcDbEntity
  8
0
100
AcDbCircle
 10
60.484407
 20
684.222607
 30
0.0
 40
19.816309
100
AcDbArc
 50
121.046862
 51
149.99538
  0
ARC
  5
2B9
100
AcDbEntity
  8
1
  6
HIDDEN
100
AcDbCircle
 10
81.764364
 20
672.698129
 30
0.0
 40
37.0
100
AcDbArc
 50
90.0
 51
180.0
  0
LWPOLYLINE
  5
2BA
100
AcDbEntity
  8
1
  6
HIDDEN
100
AcDbPolyline
 90
       10
 70
     0
 10
73.091063
 20
609.784831
 42
-0.023712
 10
75.30411
 20
611.536926
 42
-0.012244
 10
76.474744
 20
612.333507
 42
-0.012376
 10
77.687151
 20
613.073878
 42
-0.032971
 10
81.07118
 20
614.739599
 42
-0.032226
 10
84.677173
 20
615.961983
 42
-0.031071
 10
88.514962
 20
616.742837
 42
-0.011168
 10
90.016347
 20
616.920452
 42
-0.01089
 10
91.551176
 20
617.033891
 42
-0.020766
 10
94.672224
 20
617.065853
  0
ARC
  5
2C6
100
AcDbEntity
  8
0
100
AcDbCircle
 10
72.112747
 20
677.700146
 30
0.0
 40
33.148383
100
AcDbArc
 50
150.283392
 51
180.0
  0
ARC
  5
2C7
100
AcDbEntity
  8
1
  6
HIDDEN
100
AcDbCircle
 10
110.784284
 20
590.682129
 30
0.0
 40
20.027031
100
AcDbArc
 50
130.672015
 51
135.763017
  0
ARC
  5
2C8
100
AcDbEntity
  8
1
  6
HIDDEN
100
AcDbCircle
 10
134.507142
 20
580.367906
 30
0.0
 40
46.270927
100
AcDbArc
 50
179.676788
 51
181.479277
  0
ARC
  5
2C9
100
AcDbEntity
  8
1
  6
HIDDEN
100
AcDbCircle
 10
150.84263
 20
580.275755
 30
0.0
 40
62.606676
100
AcDbArc
 50
178.353424
 51
179.676788
  0
ARC
  5
2CA
100
AcDbEntity
  8
1
  6
HIDDEN
100
AcDbCircle
 10
131.652022
 20
580.82741
 30
0.0
 40
43.408141
100
AcDbArc
 50
176.470043
 51
178.353424
  0
ARC
  5
2CB
100
AcDbEntity
  8
1
  6
HIDDEN
100
AcDbCircle
 10
145.789635
 20
579.955297
 30
0.0
 40
57.572627
100
AcDbArc
 50
175.070241
 51
176.470043
  0
ARC
  5
2CC
100
AcDbEntity
  8
1
  6
HIDDEN
100
AcDbCircle
 10
128.729502
 20
581.426792
 30
0.0
 40
40.44915
100
AcDbArc
 50
173.092177
 51
175.070241
  0
ARC
  5
2CD
100
AcDbEntity
  8
1
  6
HIDDEN
100
AcDbCircle
 10
140.787103
 20
579.965992
 30
0.0
 40
52.594919
100
AcDbArc
 50
171.605533
 51
173.092177
  0
ARC
  5
2CE
100
AcDbEntity
  8
1
  6
HIDDEN
100
AcDbCircle
 10
125.788553
 20
582.179305
 30
0.0
 40
37.43394
100
AcDbArc
 50
169.533442
 51
171.605533
  0
ARC
  5
2CF
100
AcDbEntity
  8
1
  6
HIDDEN
100
AcDbCircle
 10
135.894943
 20
580.312297
 30
0.0
 40
47.711335
100
AcDbArc
 50
167.933941
 51
169.533442
  0
ARC
  5
2D0
100
AcDbEntity
  8
1
  6
HIDDEN
100
AcDbCircle
 10
122.945519
 20
583.080391
 30
0.0
 40
34.469359
100
AcDbArc
 50
165.75684
 51
167.933941
  0
ARC
  5
2D1
100
AcDbEntity
  8
1
  6
HIDDEN
100
AcDbCircle
 10
131.290557
 20
580.962081
 30
0.0
 40
43.079057
100
AcDbArc
 50
164.029673
 51
165.75684
  0
ARC
  5
2D2
100
AcDbEntity
  8
1
  6
HIDDEN
100
AcDbCircle
 10
118.659311
 20
584.576954
 30
0.0
 40
29.940728
100
AcDbArc
 50
162.415664
 51
164.029673
  0
ARC
  5
2D3
100
AcDbEntity
  8
1
  6
HIDDEN
100
AcDbCircle
 10
142.818036
 20
579.988022
 30
0.0
 40
54.5382
100
AcDbArc
 50
186.623927
 51
188.766293
  0
ARC
  5
2D4
100
AcDbEntity
  8
1
  6
HIDDEN
100
AcDbCircle
 10
158.176449
 20
581.771551
 30
0.0
 40
69.999824
100
AcDbArc
 50
184.973038
 51
186.623927
  0
ARC
  5
2D5
100
AcDbEntity
  8
1
  6
HIDDEN
100
AcDbCircle
 10
139.297511
 20
580.128809
 30
0.0
 40
51.04955
100
AcDbArc
 50
182.736046
 51
184.973038
  0
ARC
  5
2D6
100
AcDbEntity
  8
1
  6
HIDDEN
100
AcDbCircle
 10
155.81456
 20
580.918148
 30
0.0
 40
67.585449
100
AcDbArc
 50
181.479277
 51
182.736046
  0
ARC
  5
2D7
100
AcDbEntity
  8
1
  6
HIDDEN
100
AcDbCircle
 10
110.405618
 20
591.229405
 30
0.0
 40
19.371149
100
AcDbArc
 50
88.681793
 51
118.536867
  0
ARC
  5
2D8
100
AcDbEntity
  8
1
  6
HIDDEN
100
AcDbCircle
 10
111.560358
 20
589.778968
 30
0.0
 40
21.217825
100
AcDbArc
 50
125.941324
 51
130.672015
  0
ARC
  5
2D9
100
AcDbEntity
  8
1
  6
HIDDEN
100
AcDbCircle
 10
110.095884
 20
591.798991
 30
0.0
 40
18.722794
100
AcDbArc
 50
118.536867
 51
125.941324
  0
LWPOLYLINE
  5
2DA
100
AcDbEntity
  8
1
  6
HIDDEN
100
AcDbPolyline
 90
        3
 70
     0
 10
109.075773
 20
614.225316
 42
0.010846
 10
112.382921
 20
613.134047
 10
114.064123
 20
612.638986
  0
ARC
  5
2DF
100
AcDbEntity
  8
0
100
AcDbCircle
 10
56.234243
 20
690.790509
 30
0.0
 40
12.0
100
AcDbArc
 50
97.035825
 51
119.834073
  0
LWPOLYLINE
  5
2E0
100
AcDbEntity
  8
1
  6
HIDDEN
100
AcDbPolyline
 90
        5
 70
     0
 10
132.729505
 20
600.408695
 42
-0.01579
 10
135.140525
 20
598.019856
 42
-0.011284
 10
137.172274
 20
595.761097
 42
-0.010896
 10
138.850498
 20
593.705689
 10
139.663483
 20
592.641806
  0
ARC
  5
2E7
100
AcDbEntity
  8
1
  6
HIDDEN
100
AcDbCircle
 10
112.632821
 20
582.300739
 30
0.0
 40
26.82321
100
AcDbArc
 50
52.030546
 51
54.945378
  0
ARC
  5
2E8
100
AcDbEntity
  8
1
  6
HIDDEN
100
AcDbCircle
 10
93.640903
 20
544.06655
 30
0.0
 40
69.804149
100
AcDbArc
 50
66.667559
 51
67.678509
  0
ARC
  5
2E9
100
AcDbEntity
  8
1
  6
HIDDEN
100
AcDbCircle
 10
112.607672
 20
588.038345
 30
0.0
 40
21.916185
100
AcDbArc
 50
63.389333
 51
66.667559
  0
ARC
  5
2EA
100
AcDbEntity
  8
1
  6
HIDDEN
100
AcDbCircle
 10
84.9323
 20
532.797593
 30
0.0
 40
83.701838
100
AcDbArc
 50
62.5235
 51
63.389333
  0
ARC
  5
2EB
100
AcDbEntity
  8
1
  6
HIDDEN
100
AcDbCircle
 10
112.672749
 20
586.139907
 30
0.0
 40
23.577508
100
AcDbArc
 50
59.367949
 51
62.5235
  0
ARC
  5
2EC
100
AcDbEntity
  8
1
  6
HIDDEN
100
AcDbCircle
 10
73.706934
 20
520.336352
 30
0.0
 40
100.052619
100
AcDbArc
 50
58.618063
 51
59.367949
  0
ARC
  5
2ED
100
AcDbEntity
  8
1
  6
HIDDEN
100
AcDbCircle
 10
112.684328
 20
584.236865
 30
0.0
 40
25.202684
100
AcDbArc
 50
55.590227
 51
58.618063
  0
ARC
  5
2EE
100
AcDbEntity
  8
1
  6
HIDDEN
100
AcDbCircle
 10
58.964594
 20
505.809874
 30
0.0
 40
120.263732
100
AcDbArc
 50
54.945378
 51
55.590227
  0
ARC
  5
2EF
100
AcDbEntity
  8
1
  6
HIDDEN
100
AcDbCircle
 10
39.774675
 20
488.944019
 30
0.0
 40
145.24528
100
AcDbArc
 50
51.479779
 51
52.030546
  0
ARC
  5
2F0
100
AcDbEntity
  8
1
  6
HIDDEN
100
AcDbCircle
 10
112.48578
 20
580.288215
 30
0.0
 40
28.494833
100
AcDbArc
 50
48.651634
 51
51.479779
  0
ARC
  5
2F1
100
AcDbEntity
  8
1
  6
HIDDEN
100
AcDbCircle
 10
58.669181
 20
519.134256
 30
0.0
 40
109.956683
100
AcDbArc
 50
47.660472
 51
48.651634
  0
ARC
  5
2F2
100
AcDbEntity
  8
1
  6
HIDDEN
100
AcDbCircle
 10
178.028788
 20
160.264939
 30
0.0
 40
132.525283
100
AcDbArc
 50
27.603614
 51
40.804982
  0
LWPOLYLINE
  5
2F3
100
AcDbEntity
  8
1
  6
HIDDEN
100
AcDbPolyline
 90
       11
 70
     0
 10
285.103652
 20
209.814196
 42
0.032635
 10
286.420757
 20
209.898704
 42
0.036144
 10
287.69559
 20
210.16063
 42
0.019501
 10
288.316862
 20
210.36274
 42
0.020352
 10
288.925566
 20
210.615945
 42
0.04266
 10
290.079581
 20
211.276003
 42
0.044569
 10
291.143285
 20
212.15897
 42
0.022149
 10
291.635562
 20
212.691191
 42
0.021767
 10
292.090728
 20
213.278825
 42
0.042763
 10
292.885118
 20
214.632018
 42
0.040205
 10
293.495233
 20
216.213219
  0
LINE
  5
300
100
AcDbEntity
  8
1
  6
HIDDEN
100
AcDbLine
 10
240.189869
 20
209.814196
 30
0.0
 11
285.103652
 21
209.814196
 31
0.0
  0
LWPOLYLINE
  5
301
100
AcDbEntity
  8
1
  6
HIDDEN
100
AcDbPolyline
 90
        3
 70
     0
 10
228.812933
 20
219.016988
 42
-0.017176
 10
232.760584
 20
215.38824
 42
-0.017182
 10
236.445225
 20
211.500943
  0
LWPOLYLINE
  5
306
100
AcDbEntity
  8
1
  6
HIDDEN
100
AcDbPolyline
 90
        8
 70
     0
 10
236.445225
 20
211.500943
 42
0.029389
 10
236.8655
 20
211.079154
 42
0.028059
 10
237.309339
 20
210.727321
 42
0.027171
 10
237.772862
 20
210.437201
 42
0.026392
 10
238.25261
 20
210.204746
 42
0.033827
 10
238.897836
 20
209.983946
 42
0.032558
 10
239.543894
 20
209.856055
 42
0.032367
 10
240.189869
 20
209.814196
  0
LWPOLYLINE
  5
310
100
AcDbEntity
  8
1
  6
HIDDEN
100
AcDbPolyline
 90
       15
 70
     0
 10
243.376073
 20
277.119541
 42
-0.000016
 10
243.283761
 20
277.170347
 42
-0.000806
 10
240.769316
 20
278.55803
 42
-0.001691
 10
238.432805
 20
279.863705
 42
-0.002094
 10
235.997042
 20
281.249726
 42
-0.002378
 10
233.622468
 20
282.628749
 42
-0.002837
 10
231.366062
 20
283.971024
 42
-0.003302
 10
229.249384
 20
285.265758
 42
-0.00384
 10
227.288271
 20
286.504451
 42
-0.004476
 10
225.493825
 20
287.680415
 42
-0.005143
 10
223.874082
 20
288.787723
 42
-0.006111
 10
222.427814
 20
289.825227
 42
-0.006486
 10
221.159895
 20
290.78671
 42
-0.011035
 10
220.085355
 20
291.656413
 42
-0.004437
 10
219.864334
 20
291.849739
  0
LWPOLYLINE
  5
321
100
AcDbEntity
  8
1
  6
HIDDEN
100
AcDbPolyline
 90
        5
 70
     0
 10
213.334984
 20
296.916145
 42
0.021955
 10
211.947448
 20
297.889755
 42
0.022165
 10
210.349753
 20
298.810991
 42
0.008005
 10
208.606328
 20
299.683765
 42
0.007297
 10
206.019143
 20
300.904715
  0
LWPOLYLINE
  5
328
100
AcDbEntity
  8
1
  6
HIDDEN
100
AcDbPolyline
 90
        5
 70
     0
 10
219.822755
 20
291.878695
 42
0.009068
 10
217.531155
 20
293.720437
 42
0.00416
 10
216.024034
 20
294.852467
 42
-0.004809
 10
214.613899
 20
295.915944
 42
-0.003086
 10
213.335388
 20
296.915825
  0
CIRCLE
  5
32F
100
AcDbEntity
  8
SILK
100
AcDbCircle
 10
271.938051
 20
243.432126
 30
0.0
 40
1.5
  0
CIRCLE
  5
331
100
AcDbEntity
  8
SILK
100
AcDbCircle
 10
267.938051
 20
243.432126
 30
0.0
 40
1.5
  0
CIRCLE
  5
332
100
AcDbEntity
  8
SILK
100
AcDbCircle
 10
259.938051
 20
243.432126
 30
0.0
 40
1.5
  0
CIRCLE
  5
333
100
AcDbEntity
  8
SILK
100
AcDbCircle
 10
251.938051
 20
243.432126
 30
0.0
 40
1.5
  0
CIRCLE
  5
334
100
AcDbEntity
  8
SILK
100
AcDbCircle
 10
255.938051
 20
243.432126
 30
0.0
 40
1.5
  0
CIRCLE
  5
335
100
AcDbEntity
  8
SILK
100
AcDbCircle
 10
263.938051
 20
243.432126
 30
0.0
 40
1.5
  0
CIRCLE
  5
336
100
AcDbEntity
  8
SILK
100
AcDbCircle
 10
265.938051
 20
239.968024
 30
0.0
 40
1.5
  0
CIRCLE
  5
337
100
AcDbEntity
  8
SILK
100
AcDbCircle
 10
265.938051
 20
233.039821
 30
0.0
 40
1.5
  0
CIRCLE
  5
338
100
AcDbEntity
  8
SILK
100
AcDbCircle
 10
255.938051
 20
236.503923
 30
0.0
 40
1.5
  0
CIRCLE
  5
339
100
AcDbEntity
  8
SILK
100
AcDbCircle
 10
253.938051
 20
239.968024
 30
0.0
 40
1.5
  0
CIRCLE
  5
33A
100
AcDbEntity
  8
SILK
100
AcDbCircle
 10
259.938051
 20
236.503923
 30
0.0
 40
1.5
  0
CIRCLE
  5
33B
100
AcDbEntity
  8
SILK
100
AcDbCircle
 10
261.938051
 20
239.968024
 30
0.0
 40
1.5
  0
CIRCLE
  5
33C
100
AcDbEntity
  8
SILK
100
AcDbCircle
 10
257.938051
 20
239.968024
 30
0.0
 40
1.5
  0
CIRCLE
  5
33D
100
AcDbEntity
  8
SILK
100
AcDbCircle
 10
261.938051
 20
233.039821
 30
0.0
 40
1.5
  0
CIRCLE
  5
33E
100
AcDbEntity
  8
SILK
100
AcDbCircle
 10
257.938051
 20
233.039821
 30
0.0
 40
1.5
  0
CIRCLE
  5
33F
100
AcDbEntity
  8
SILK
100
AcDbCircle
 10
263.938051
 20
236.503923
 30
0.0
 40
1.5
  0
CIRCLE
  5
340
100
AcDbEntity
  8
SILK
100
AcDbCircle
 10
275.938051
 20
236.503923
 30
0.0
 40
1.5
  0
CIRCLE
  5
341
100
AcDbEntity
  8
SILK
100
AcDbCircle
 10
271.938051
 20
236.503923
 30
0.0
 40
1.5
  0
CIRCLE
  5
342
100
AcDbEntity
  8
SILK
100
AcDbCircle
 10
267.938051
 20
236.503923
 30
0.0
 40
1.5
  0
CIRCLE
  5
343
100
AcDbEntity
  8
SILK
100
AcDbCircle
 10
273.938051
 20
239.968024
 30
0.0
 40
1.5
  0
CIRCLE
  5
344
100
AcDbEntity
  8
SILK
100
AcDbCircle
 10
269.938051
 20
239.968024
 30
0.0
 40
1.5
  0
CIRCLE
  5
345
100
AcDbEntity
  8
SILK
100
AcDbCircle
 10
273.938051
 20
233.039821
 30
0.0
 40
1.5
  0
CIRCLE
  5
346
100
AcDbEntity
  8
SILK
100
AcDbCircle
 10
269.938051
 20
233.039821
 30
0.0
 40
1.5
  0
CIRCLE
  5
347
100
AcDbEntity
  8
SILK
100
AcDbCircle
 10
277.938051
 20
233.039821
 30
0.0
 40
1.5
  0
LINE
  5
348
100
AcDbEntity
  8
1
  6
HIDDEN
100
AcDbLine
 10
312.737288
 20
179.814196
 30
0.0
 11
313.028788
 21
196.514196
 31
0.0
  0
ARC
  5
349
100
AcDbEntity
  8
0
100
AcDbCircle
 10
178.028788
 20
159.814196
 30
0.0
 40
149.0
100
AcDbArc
 50
7.713992
 51
16.89032
  0
LINE
  5
34A
100
AcDbEntity
  8
1
  6
HIDDEN
100
AcDbLine
 10
313.028788
 20
198.014196
 30
0.0
 11
312.711798
 21
216.174525
 31
0.0
  0
ARC
  5
34B
100
AcDbEntity
  8
0
100
AcDbCircle
 10
298.528788
 20
205.865797
 30
0.0
 40
20.0
100
AcDbArc
 50
0.0
 51
20.915405
  0
ARC
  5
34C
100
AcDbEntity
  8
0
100
AcDbCircle
 10
319.644465
 20
202.814196
 30
0.0
 40
1.0
100
AcDbArc
 50
16.89032
 51
90.0
  0
LINE
  5
34D
100
AcDbEntity
  8
0
100
AcDbLine
 10
318.528788
 20
203.814196
 30
0.0
 11
318.528788
 21
205.865797
 31
0.0
  0
ARC
  5
34E
100
AcDbEntity
  8
0
100
AcDbCircle
 10
538.865601
 20
547.700146
 30
0.0
 40
149.0
100
AcDbArc
 50
180.0
 51
249.084595
  0
LINE
  5
34F
100
AcDbEntity
  8
0
100
AcDbLine
 10
320.564364
 20
547.700146
 30
0.0
 11
320.564364
 21
677.700146
 31
0.0
  0
LINE
  5
350
100
AcDbEntity
  8
0
100
AcDbLine
 10
327.415981
 20
547.700146
 30
0.0
 11
327.415981
 21
677.700146
 31
0.0
  0
LINE
  5
351
100
AcDbEntity
  8
1
  6
HIDDEN
100
AcDbLine
 10
314.764364
 20
672.698129
 30
0.0
 11
314.764364
 21
547.700146
 31
0.0
  0
ARC
  5
352
100
AcDbEntity
  8
1
  6
HIDDEN
100
AcDbCircle
 10
253.489149
 20
-740.559214
 30
0.0
 40
1225.178741
100
AcDbArc
 50
88.143386
 51
88.728879
  0
LWPOLYLINE
  5
353
100
AcDbEntity
  8
1
  6
HIDDEN
100
AcDbPolyline
 90
       11
 70
     0
 10
278.717425
 20
496.907988
 42
0.032744
 10
282.899012
 20
497.241988
 42
0.028957
 10
286.493614
 20
498.022655
 42
0.031927
 10
289.534971
 20
499.115322
 42
0.016683
 10
291.796598
 20
500.229931
 42
0.017032
 10
293.287373
 20
501.125964
 42
0.034167
 10
295.452763
 20
502.692243
 42
0.017289
 10
297.527681
 20
504.543707
 42
0.017394
 10
298.85598
 20
505.950493
 42
0.034744
 10
300.717043
 20
508.298031
 10
301.857677
 20
510.02574
  0
LWPOLYLINE
  5
360
100
AcDbEntity
  8
1
  6
HIDDEN
100
AcDbPolyline
 90
       16
 70
     0
 10
215.881018
 20
435.667046
 42
0.004181
 10
217.535875
 20
435.668506
 42
0.004383
 10
219.190544
 20
435.698309
 42
0.004453
 10
220.815957
 20
435.756329
 42
0.004603
 10
222.411574
 20
435.842244
 42
0.004778
 10
224.005283
 20
435.958078
 42
0.004838
 10
225.53728
 20
436.099092
 42
0.005055
 10
227.066189
 20
436.270389
 42
0.005207
 10
228.560897
 20
436.468992
 42
0.005351
 10
230.020795
 20
436.694434
 42
0.005644
 10
231.475364
 20
436.951919
 42
0.005669
 10
232.862557
 20
437.229982
 42
0.006014
 10
234.242891
 20
437.540381
 42
0.006161
 10
235.584946
 20
437.876699
 42
0.006404
 10
236.887938
 20
438.238257
 42
0.006736
 10
238.180802
 20
438.633873
  0
LINE
  5
372
100
AcDbEntity
  8
1
  6
HIDDEN
100
AcDbLine
 10
238.180802
 20
429.755265
 30
0.0
 11
238.180802
 21
438.633873
 31
0.0
  0
LWPOLYLINE
  5
373
100
AcDbEntity
  8
1
  6
HIDDEN
100
AcDbPolyline
 90
        3
 70
     0
 10
215.881018
 20
435.667046
 42
0.017145
 10
212.699742
 20
435.58116
 42
0.014486
 10
209.874809
 20
435.326437
 42
0.016442
  0
LWPOLYLINE
  5
378
100
AcDbEntity
  8
1
  6
HIDDEN
100
AcDbPolyline
 90
        4
 70
     0
 10
242.690145
 20
496.394899
 42
0.000136
 10
245.371445
 20
496.421483
 42
0.000143
 10
248.052731
 20
496.449565
 42
0.00005
 10
248.965313
 20
496.459477
 42
0.000151
  0
LWPOLYLINE
  5
37E
100
AcDbEntity
  8
1
  6
HIDDEN
100
AcDbPolyline
 90
        4
 70
     0
 10
241.444078
 20
474.193126
 42
0.006092
 10
245.275122
 20
474.617247
 42
0.009161
 10
250.164193
 20
475.309554
 42
0.017415
 10
259.840395
 20
477.236809
  0
ARC
  5
384
100
AcDbEntity
  8
1
  6
HIDDEN
100
AcDbCircle
 10
239.163144
 20
516.53357
 30
0.0
 40
19.551514
100
AcDbArc
 50
221.231082
 51
229.885973
  0
ARC
  5
385
100
AcDbEntity
  8
1
  6
HIDDEN
100
AcDbCircle
 10
203.270411
 20
-2898.71706
 30
0.0
 40
3383.822985
100
AcDbArc
 50
89.604372
 51
89.744755
  0
LWPOLYLINE
  5
386
100
AcDbEntity
  8
1
  6
HIDDEN
100
AcDbPolyline
 90
        4
 70
     0
 10
234.086638
 20
442.287797
 42
-0.011021
 10
227.783057
 20
444.426963
 42
0.003655
 10
221.508462
 20
446.659761
 10
218.345902
 20
447.694557
  0
LWPOLYLINE
  5
38C
100
AcDbEntity
  8
1
  6
HIDDEN
100
AcDbPolyline
 90
       16
 70
     0
 10
214.860624
 20
439.849469
 42
0.00406
 10
216.270027
 20
439.849657
 42
0.004236
 10
217.679296
 20
439.873228
 42
0.004298
 10
219.066181
 20
439.920111
 42
0.004427
 10
220.430249
 20
439.990068
 42
0.004576
 10
221.792826
 20
440.084571
 42
0.004628
 10
223.108574
 20
440.200195
 42
0.004807
 10
224.421909
 20
440.340625
 42
0.004937
 10
225.709412
 20
440.503729
 42
0.005052
 10
226.97061
 20
440.689171
 42
0.005295
 10
228.227686
 20
440.900668
 42
0.005312
 10
229.434187
 20
441.130073
 42
0.00559
 10
230.635412
 20
441.385732
 42
0.005708
 10
231.807917
 20
441.663111
 42
0.005899
 10
232.951108
 20
441.961737
 42
0.006156
 10
234.086638
 20
442.287797
  0
LWPOLYLINE
  5
39E
100
AcDbEntity
  8
1
  6
HIDDEN
100
AcDbPolyline
 90
        3
 70
     0
 10
208.712958
 20
439.662523
 42
-0.014083
 10
211.453758
 20
439.84517
 42
-0.018408
 10
214.860624
 20
439.849469
  0
LWPOLYLINE
  5
3A3
100
AcDbEntity
  8
1
  6
HIDDEN
100
AcDbPolyline
 90
        8
 70
     0
 10
204.50242
 20
452.257887
 42
0.014337
 10
205.152522
 20
452.059186
 42
0.005859
 10
205.887124
 20
451.865732
 42
0.003427
 10
206.64811
 20
451.679158
 42
-0.006965
 10
207.758386
 20
451.399671
 42
-0.003332
 10
208.836372
 20
451.110131
 42
0.00057
 10
209.641202
 20
450.88516
 42
-0.012622
 10
214.860624
 20
449.312048
  0
ARC
  5
3AD
100
AcDbEntity
  8
1
  6
HIDDEN
100
AcDbCircle
 10
190.476724
 20
-6579.368179
 30
0.0
 40
7064.495493
100
AcDbArc
 50
89.773978
 51
89.878226
  0
LWPOLYLINE
  5
3AE
100
AcDbEntity
  8
1
  6
HIDDEN
100
AcDbPolyline
 90
       11
 70
     0
 10
238.180802
 20
438.633873
 42
0.043153
 10
238.199834
 20
439.153569
 42
0.036413
 10
238.138064
 20
439.607258
 42
0.0378
 10
238.023746
 20
439.9823
 42
0.037796
 10
237.854353
 20
440.335198
 42
0.03581
 10
237.634208
 20
440.660672
 42
0.063812
 10
237.230412
 20
441.0828
 42
0.049546
 10
236.600489
 20
441.524526
 42
0.03742
 10
235.909597
 20
441.847872
 42
0.036223
 10
235.069733
 20
442.107117
 42
0.026946
 10
234.086638
 20
442.287797
  0
ARC
  5
3BB
100
AcDbEntity
  8
1
  6
HIDDEN
100
AcDbCircle
 10
240.890801
 20
519.680829
 30
0.0
 40
23.161894
100
AcDbArc
 50
246.076917
 51
255.513645
  0
ARC
  5
3BC
100
AcDbEntity
  8
1
  6
HIDDEN
100
AcDbCircle
 10
198.277253
 20
-3830.148522
 30
0.0
 40
4315.266958
100
AcDbArc
 50
89.465383
 51
89.623471
  0
ARC
  5
3BD
100
AcDbEntity
  8
1
  6
HIDDEN
100
AcDbCircle
 10
240.200206
 20
518.06699
 30
0.0
 40
21.406668
100
AcDbArc
 50
238.258283
 51
246.014926
  0
ARC
  5
3BE
100
AcDbEntity
  8
1
  6
HIDDEN
100
AcDbCircle
 10
239.713701
 20
517.244951
 30
0.0
 40
20.451646
100
AcDbArc
 50
234.095433
 51
238.205813
  0
ARC
  5
3BF
100
AcDbEntity
  8
1
  6
HIDDEN
100
AcDbCircle
 10
239.439241
 20
516.863637
 30
0.0
 40
19.98183
100
AcDbArc
 50
229.890322
 51
234.091688
  0
LINE
  5
3C0
100
AcDbEntity
  8
1
  6
HIDDEN
100
AcDbLine
 10
241.251743
 20
496.407126
 30
0.0
 11
242.690145
 21
496.394899
 31
0.0
  0
ARC
  5
3C1
100
AcDbEntity
  8
1
  6
HIDDEN
100
AcDbCircle
 10
242.11424
 20
526.370296
 30
0.0
 40
29.975581
100
AcDbArc
 50
262.857147
 51
268.351183
  0
ARC
  5
3C2
100
AcDbEntity
  8
1
  6
HIDDEN
100
AcDbCircle
 10
242.456881
 20
526.88372
 30
0.0
 40
30.528875
100
AcDbArc
 50
256.049489
 51
262.338886
  0
ARC
  5
3C3
100
AcDbEntity
  8
1
  6
HIDDEN
100
AcDbCircle
 10
228.28696
 20
541.875464
 30
0.0
 40
19.055836
100
AcDbArc
 50
244.491513
 51
264.241355
  0
ARC
  5
3C4
100
AcDbEntity
  8
1
  6
HIDDEN
100
AcDbCircle
 10
238.944347
 20
516.309463
 30
0.0
 40
19.239273
100
AcDbArc
 50
212.098321
 51
221.158618
  0
ARC
  5
3C5
100
AcDbEntity
  8
1
  6
HIDDEN
100
AcDbCircle
 10
236.171769
 20
548.141571
 30
0.0
 40
29.249805
100
AcDbArc
 50
206.25879
 51
208.567312
  0
LWPOLYLINE
  5
3C6
100
AcDbEntity
  8
1
  6
HIDDEN
100
AcDbPolyline
 90
        6
 70
     0
 10
211.031007
 20
528.91652
 42
-0.031558
 10
209.238706
 20
532.467631
 42
-0.02741
 10
207.852902
 20
536.260457
 42
-0.029744
 10
206.765121
 20
540.675464
 42
-0.02584
 10
206.086776
 20
545.618658
 10
205.930616
 20
548.103963
  0
ARC
  5
3CE
100
AcDbEntity
  8
1
  6
HIDDEN
100
AcDbCircle
 10
230.517126
 20
544.463385
 30
0.0
 40
22.486491
100
AcDbArc
 50
218.811304
 51
222.527995
  0
ARC
  5
3CF
100
AcDbEntity
  8
1
  6
HIDDEN
100
AcDbCircle
 10
231.979748
 20
545.639838
 30
0.0
 40
24.363538
100
AcDbArc
 50
216.196343
 51
218.811304
  0
ARC
  5
3D0
100
AcDbEntity
  8
1
  6
HIDDEN
100
AcDbCircle
 10
233.853865
 20
546.880548
 30
0.0
 40
26.611102
100
AcDbArc
 50
211.084345
 51
213.536353
  0
ARC
  5
3D1
100
AcDbEntity
  8
1
  6
HIDDEN
100
AcDbCircle
 10
233.836325
 20
546.869973
 30
0.0
 40
26.590621
100
AcDbArc
 50
208.567312
 51
211.084345
  0
ARC
  5
3D2
100
AcDbEntity
  8
1
  6
HIDDEN
100
AcDbCircle
 10
231.958692
 20
545.62443
 30
0.0
 40
24.337446
100
AcDbArc
 50
213.536353
 51
216.196343
  0
ARC
  5
3D3
100
AcDbEntity
  8
1
  6
HIDDEN
100
AcDbCircle
 10
228.316315
 20
541.936986
 30
0.0
 40
19.124003
100
AcDbArc
 50
236.227578
 51
244.491513
  0
ARC
  5
3D4
100
AcDbEntity
  8
1
  6
HIDDEN
100
AcDbCircle
 10
228.760859
 20
542.60173
 30
0.0
 40
19.923693
100
AcDbArc
 50
231.213055
 51
236.227578
  0
ARC
  5
3D5
100
AcDbEntity
  8
1
  6
HIDDEN
100
AcDbCircle
 10
229.152871
 20
543.089522
 30
0.0
 40
20.549483
100
AcDbArc
 50
226.282774
 51
231.213055
  0
ARC
  5
3D6
100
AcDbEntity
  8
1
  6
HIDDEN
100
AcDbCircle
 10
230.105793
 20
544.086097
 30
0.0
 40
21.928332
100
AcDbArc
 50
222.527995
 51
226.282774
  0
LWPOLYLINE
  5
3D7
100
AcDbEntity
  8
1
  6
HIDDEN
100
AcDbPolyline
 90
        4
 70
     0
 10
222.646037
 20
506.086218
 42
-0.009884
 10
221.177308
 20
508.583114
 42
-0.008832
 10
219.766974
 20
511.19742
 10
219.090975
 20
512.531706
  0
ARC
  5
3DD
100
AcDbEntity
  8
1
  6
HIDDEN
100
AcDbCircle
 10
238.908521
 20
549.351179
 30
0.0
 40
32.241891
100
AcDbArc
 50
201.733978
 51
203.903579
  0
ARC
  5
3DE
100
AcDbEntity
  8
1
  6
HIDDEN
100
AcDbCircle
 10
238.310782
 20
549.112898
 30
0.0
 40
31.598408
100
AcDbArc
 50
200.245042
 51
201.733978
  0
ARC
  5
3DF
100
AcDbEntity
  8
1
  6
HIDDEN
100
AcDbCircle
 10
241.187879
 20
550.174033
 30
0.0
 40
34.664952
100
AcDbArc
 50
198.172622
 51
200.245042
  0
ARC
  5
3E0
100
AcDbEntity
  8
1
  6
HIDDEN
100
AcDbCircle
 10
241.134761
 20
550.156596
 30
0.0
 40
34.609045
100
AcDbArc
 50
196.776551
 51
198.172622
  0
ARC
  5
3E1
100
AcDbEntity
  8
1
  6
HIDDEN
100
AcDbCircle
 10
243.639582
 20
550.911728
 30
0.0
 40
37.225217
100
AcDbArc
 50
194.795248
 51
196.776551
  0
ARC
  5
3E2
100
AcDbEntity
  8
1
  6
HIDDEN
100
AcDbCircle
 10
244.259893
 20
551.075566
 30
0.0
 40
37.8668
100
AcDbArc
 50
193.48549
 51
194.795248
  0
ARC
  5
3E3
100
AcDbEntity
  8
1
  6
HIDDEN
100
AcDbCircle
 10
246.226226
 20
551.547114
 30
0.0
 40
39.888884
100
AcDbArc
 50
191.588535
 51
193.48549
  0
ARC
  5
3E4
100
AcDbEntity
  8
1
  6
HIDDEN
100
AcDbCircle
 10
247.760851
 20
551.861808
 30
0.0
 40
41.455442
100
AcDbArc
 50
189.747904
 51
191.588535
  0
ARC
  5
3E5
100
AcDbEntity
  8
1
  6
HIDDEN
100
AcDbCircle
 10
249.873224
 20
552.2247
 30
0.0
 40
43.59876
100
AcDbArc
 50
187.954734
 51
189.747904
  0
ARC
  5
3E6
100
AcDbEntity
  8
1
  6
HIDDEN
100
AcDbCircle
 10
251.434202
 20
552.442824
 30
0.0
 40
45.174905
100
AcDbArc
 50
186.210709
 51
187.954734
  0
ARC
  5
3E7
100
AcDbEntity
  8
1
  6
HIDDEN
100
AcDbCircle
 10
253.647502
 20
552.683684
 30
0.0
 40
47.401271
100
AcDbArc
 50
184.523006
 51
186.210709
  0
ARC
  5
3E8
100
AcDbEntity
  8
1
  6
HIDDEN
100
AcDbCircle
 10
255.182148
 20
552.805083
 30
0.0
 40
48.940711
100
AcDbArc
 50
182.864591
 51
184.523006
  0
ARC
  5
3E9
100
AcDbEntity
  8
1
  6
HIDDEN
100
AcDbCircle
 10
257.448907
 20
552.918508
 30
0.0
 40
51.210307
100
AcDbArc
 50
181.268399
 51
182.864591
  0
LWPOLYLINE
  5
3EA
100
AcDbEntity
  8
1
  6
HIDDEN
100
AcDbPolyline
 90
        5
 70
     0
 10
206.988681
 20
562.173259
 42
0.012653
 10
206.43835
 20
558.677042
 42
0.013308
 10
206.071156
 20
555.166252
 42
0.019147
 10
205.884216
 20
550.46445
 10
205.930616
 20
548.103963
  0
LWPOLYLINE
  5
3F1
100
AcDbEntity
  8
1
  6
HIDDEN
100
AcDbPolyline
 90
        5
 70
     0
 10
206.988681
 20
562.173259
 42
0.010652
 10
206.624914
 20
559.525074
 42
0.010963
 10
206.380605
 20
556.908762
 42
0.015192
 10
206.24087
 20
553.473612
 10
206.251088
 20
551.787665
  0
ARC
  5
3F8
100
AcDbEntity
  8
1
  6
HIDDEN
100
AcDbCircle
 10
236.10477
 20
548.108517
 30
0.0
 40
29.175096
100
AcDbArc
 50
203.903579
 51
206.25879
  0
ARC
  5
3F9
100
AcDbEntity
  8
1
  6
HIDDEN
100
AcDbCircle
 10
226.611668
 20
555.369997
 30
0.0
 40
32.767747
100
AcDbArc
 50
281.73094
 51
283.739571
  0
ARC
  5
3FA
100
AcDbEntity
  8
1
  6
HIDDEN
100
AcDbCircle
 10
228.948673
 20
544.115636
 30
0.0
 40
21.273303
100
AcDbArc
 50
278.663126
 51
281.73094
  0
ARC
  5
3FB
100
AcDbEntity
  8
1
  6
HIDDEN
100
AcDbCircle
 10
227.694059
 20
552.350021
 30
0.0
 40
29.602717
100
AcDbArc
 50
276.510733
 51
278.663126
  0
ARC
  5
3FC
100
AcDbEntity
  8
1
  6
HIDDEN
100
AcDbCircle
 10
228.814132
 20
542.535612
 30
0.0
 40
19.724601
100
AcDbArc
 50
273.303411
 51
276.510733
  0
ARC
  5
3FD
100
AcDbEntity
  8
1
  6
HIDDEN
100
AcDbCircle
 10
228.394837
 20
549.799978
 30
0.0
 40
27.001058
100
AcDbArc
 50
270.99447
 51
273.303411
  0
ARC
  5
3FE
100
AcDbEntity
  8
1
  6
HIDDEN
100
AcDbCircle
 10
228.543354
 20
541.244139
 30
0.0
 40
18.44393
100
AcDbArc
 50
267.65646
 51
270.99447
  0
ARC
  5
3FF
100
AcDbEntity
  8
1
  6
HIDDEN
100
AcDbCircle
 10
228.761949
 20
546.585455
 30
0.0
 40
23.789717
100
AcDbArc
 50
264.241355
 51
267.65646
  0
LWPOLYLINE
  5
400
100
AcDbEntity
  8
1
  6
HIDDEN
100
AcDbPolyline
 90
       15
 70
     0
 10
262.569515
 20
496.630885
 42
0.000046
 10
263.204977
 20
496.640094
 42
0.00009
 10
264.382163
 20
496.657471
 42
0.00009
 10
265.559343
 20
496.675274
 42
0.000192
 10
267.913683
 20
496.712206
 42
0.000097
 10
269.027672
 20
496.730324
 42
0.000097
 10
270.141654
 20
496.748874
 42
0.000104
 10
271.255628
 20
496.767871
 42
0.000104
 10
272.369595
 20
496.787333
 42
0.000111
 10
273.483552
 20
496.807274
 42
0.000105
 10
274.530345
 20
496.826465
 42
0.000113
 10
275.577129
 20
496.846113
 42
0.000114
 10
276.623904
 20
496.866237
 42
0.000122
 10
277.67067
 20
496.886856
 42
0.000123
 10
278.717425
 20
496.907988
  0
ARC
  5
411
100
AcDbEntity
  8
1
  6
HIDDEN
100
AcDbCircle
 10
212.426416
 20
-2767.653309
 30
0.0
 40
3252.687272
100
AcDbArc
 50
88.797846
 51
89.155139
  0
ARC
  5
412
100
AcDbEntity
  8
1
  6
HIDDEN
100
AcDbCircle
 10
201.154345
 20
584.880049
 30
0.0
 40
71.783861
100
AcDbArc
 50
315.25204
 51
316.822566
  0
ARC
  5
413
100
AcDbEntity
  8
1
  6
HIDDEN
100
AcDbCircle
 10
221.108149
 20
565.101029
 30
0.0
 40
43.68824
100
AcDbArc
 50
312.706607
 51
315.25204
  0
ARC
  5
414
100
AcDbEntity
  8
1
  6
HIDDEN
100
AcDbCircle
 10
207.089114
 20
580.289796
 30
0.0
 40
64.357831
100
AcDbArc
 50
311.012925
 51
312.706607
  0
ARC
  5
415
100
AcDbEntity
  8
1
  6
HIDDEN
100
AcDbCircle
 10
224.43201
 20
560.348165
 30
0.0
 40
37.929727
100
AcDbArc
 50
308.88813
 51
311.012925
  0
ARC
  5
416
100
AcDbEntity
  8
1
  6
HIDDEN
100
AcDbCircle
 10
198.419179
 20
585.858366
 30
0.0
 40
74.472381
100
AcDbArc
 50
319.24729
 51
321.191226
  0
ARC
  5
417
100
AcDbEntity
  8
1
  6
HIDDEN
100
AcDbCircle
 10
219.156509
 20
567.98823
 30
0.0
 40
47.097601
100
AcDbArc
 50
316.822566
 51
319.24729
  0
ARC
  5
418
100
AcDbEntity
  8
1
  6
HIDDEN
100
AcDbCircle
 10
194.669164
 20
585.951836
 30
0.0
 40
77.612933
100
AcDbArc
 50
329.784681
 51
334.104115
  0
ARC
  5
419
100
AcDbEntity
  8
1
  6
HIDDEN
100
AcDbCircle
 10
210.311615
 20
576.842112
 30
0.0
 40
59.511183
100
AcDbArc
 50
326.244019
 51
329.784681
  0
ARC
  5
41A
100
AcDbEntity
  8
1
  6
HIDDEN
100
AcDbCircle
 10
194.624395
 20
587.326347
 30
0.0
 40
78.379359
100
AcDbArc
 50
323.966913
 51
326.244019
  0
ARC
  5
41B
100
AcDbEntity
  8
1
  6
HIDDEN
100
AcDbCircle
 10
215.237418
 20
572.331913
 30
0.0
 40
52.889562
100
AcDbArc
 50
321.191226
 51
323.966913
  0
CIRCLE
  5
41C
100
AcDbEntity
  8
SILK
100
AcDbCircle
 10
287.383129
 20
676.155425
 30
0.0
 40
1.5
  0
CIRCLE
  5
41D
100
AcDbEntity
  8
SILK
100
AcDbCircle
 10
285.383129
 20
679.619526
 30
0.0
 40
1.5
  0
CIRCLE
  5
41E
100
AcDbEntity
  8
SILK
100
AcDbCircle
 10
285.383129
 20
672.691323
 30
0.0
 40
1.5
  0
CIRCLE
  5
41F
100
AcDbEntity
  8
SILK
100
AcDbCircle
 10
287.383129
 20
683.083628
 30
0.0
 40
1.5
  0
ARC
  5
420
100
AcDbEntity
  8
1
  6
HIDDEN
100
AcDbCircle
 10
277.764364
 20
672.698129
 30
0.0
 40
37.0
100
AcDbArc
 50
0.0
 51
90.0
  0
LWPOLYLINE
  5
421
100
AcDbEntity
  8
1
  6
HIDDEN
100
AcDbPolyline
 90
       10
 70
     0
 10
245.464606
 20
612.638986
 42
0.038173
 10
240.708456
 20
610.884813
 42
0.012724
 10
237.463696
 20
609.220221
 42
0.011867
 10
235.716543
 20
608.16487
 42
0.022208
 10
233.168792
 20
606.420262
 42
0.02029
 10
229.908934
 20
603.814997
 42
0.009381
 10
227.565582
 20
601.664731
 42
0.008988
 10
226.051271
 20
600.141598
 42
0.033829
 10
222.479565
 20
596.086575
 10
219.865245
 20
592.641806
  0
LWPOLYLINE
  5
42D
100
AcDbEntity
  8
1
  6
HIDDEN
100
AcDbPolyline
 90
        5
 70
     0
 10
226.799223
 20
600.408695
 42
0.01579
 10
224.388204
 20
598.019856
 42
0.011284
 10
222.356455
 20
595.761097
 42
0.010896
 10
220.67823
 20
593.705689
 10
219.865245
 20
592.641806
  0
ARC
  5
434
100
AcDbEntity
  8
1
  6
HIDDEN
100
AcDbCircle
 10
285.821795
 20
520.336352
 30
0.0
 40
100.052619
100
AcDbArc
 50
120.632051
 51
121.381937
  0
ARC
  5
435
100
AcDbEntity
  8
1
  6
HIDDEN
100
AcDbCircle
 10
300.859547
 20
519.134256
 30
0.0
 40
109.956683
100
AcDbArc
 50
131.348366
 51
132.339528
  0
ARC
  5
436
100
AcDbEntity
  8
1
  6
HIDDEN
100
AcDbCircle
 10
247.042949
 20
580.288215
 30
0.0
 40
28.494833
100
AcDbArc
 50
128.520221
 51
131.348366
  0
ARC
  5
437
100
AcDbEntity
  8
1
  6
HIDDEN
100
AcDbCircle
 10
319.754053
 20
488.944019
 30
0.0
 40
145.24528
100
AcDbArc
 50
127.969454
 51
128.520221
  0
ARC
  5
438
100
AcDbEntity
  8
1
  6
HIDDEN
100
AcDbCircle
 10
246.895908
 20
582.300739
 30
0.0
 40
26.82321
100
AcDbArc
 50
125.054622
 51
127.969454
  0
ARC
  5
439
100
AcDbEntity
  8
1
  6
HIDDEN
100
AcDbCircle
 10
300.564134
 20
505.809874
 30
0.0
 40
120.263732
100
AcDbArc
 50
124.409773
 51
125.054622
  0
ARC
  5
43A
100
AcDbEntity
  8
1
  6
HIDDEN
100
AcDbCircle
 10
246.844401
 20
584.236865
 30
0.0
 40
25.202684
100
AcDbArc
 50
121.381937
 51
124.409773
  0
ARC
  5
43B
100
AcDbEntity
  8
1
  6
HIDDEN
100
AcDbCircle
 10
246.85598
 20
586.139907
 30
0.0
 40
23.577508
100
AcDbArc
 50
117.4765
 51
120.632051
  0
ARC
  5
43C
100
AcDbEntity
  8
1
  6
HIDDEN
100
AcDbCircle
 10
274.596429
 20
532.797593
 30
0.0
 40
83.701838
100
AcDbArc
 50
116.610667
 51
117.4765
  0
ARC
  5
43D
100
AcDbEntity
  8
1
  6
HIDDEN
100
AcDbCircle
 10
246.921056
 20
588.038345
 30
0.0
 40
21.916185
100
AcDbArc
 50
113.332441
 51
116.610667
  0
ARC
  5
43E
100
AcDbEntity
  8
1
  6
HIDDEN
100
AcDbCircle
 10
265.887825
 20
544.06655
 30
0.0
 40
69.804149
100
AcDbArc
 50
112.321491
 51
113.332441
  0
LWPOLYLINE
  5
43F
100
AcDbEntity
  8
1
  6
HIDDEN
100
AcDbPolyline
 90
       10
 70
     0
 10
286.437666
 20
609.784831
 42
0.023712
 10
284.224618
 20
611.536926
 42
0.012244
 10
283.053984
 20
612.333507
 42
0.012376
 10
281.841577
 20
613.073878
 42
0.032971
 10
278.457548
 20
614.739599
 42
0.032226
 10
274.851555
 20
615.961983
 42
0.031071
 10
271.013766
 20
616.742837
 42
0.011168
 10
269.512381
 20
616.920452
 42
0.01089
 10
267.977552
 20
617.033891
 42
0.020766
 10
264.856504
 20
617.065853
  0
ARC
  5
44B
100
AcDbEntity
  8
1
  6
HIDDEN
100
AcDbCircle
 10
249.12311
 20
591.229405
 30
0.0
 40
19.371149
100
AcDbArc
 50
61.463133
 51
91.318207
  0
LWPOLYLINE
  5
44C
100
AcDbEntity
  8
1
  6
HIDDEN
100
AcDbPolyline
 90
        3
 70
     0
 10
250.452956
 20
614.225316
 42
-0.010846
 10
247.145808
 20
613.134047
 10
245.464606
 20
612.638986
  0
ARC
  5
451
100
AcDbEntity
  8
1
  6
HIDDEN
100
AcDbCircle
 10
249.432845
 20
591.798991
 30
0.0
 40
18.722794
100
AcDbArc
 50
54.058676
 51
61.463133
  0
ARC
  5
452
100
AcDbEntity
  8
1
  6
HIDDEN
100
AcDbCircle
 10
247.968371
 20
589.778968
 30
0.0
 40
21.217825
100
AcDbArc
 50
49.327985
 51
54.058676
  0
ARC
  5
453
100
AcDbEntity
  8
1
  6
HIDDEN
100
AcDbCircle
 10
248.744444
 20
590.682129
 30
0.0
 40
20.027031
100
AcDbArc
 50
44.236983
 51
49.327985
  0
ARC
  5
454
100
AcDbEntity
  8
1
  6
HIDDEN
100
AcDbCircle
 10
240.869417
 20
584.576954
 30
0.0
 40
29.940728
100
AcDbArc
 50
15.970327
 51
17.584336
  0
ARC
  5
455
100
AcDbEntity
  8
1
  6
HIDDEN
100
AcDbCircle
 10
228.238171
 20
580.962081
 30
0.0
 40
43.079057
100
AcDbArc
 50
14.24316
 51
15.970327
  0
ARC
  5
456
100
AcDbEntity
  8
1
  6
HIDDEN
100
AcDbCircle
 10
236.58321
 20
583.080391
 30
0.0
 40
34.469359
100
AcDbArc
 50
12.066059
 51
14.24316
  0
ARC
  5
457
100
AcDbEntity
  8
1
  6
HIDDEN
100
AcDbCircle
 10
223.633785
 20
580.312297
 30
0.0
 40
47.711335
100
AcDbArc
 50
10.466558
 51
12.066059
  0
ARC
  5
458
100
AcDbEntity
  8
1
  6
HIDDEN
100
AcDbCircle
 10
233.740176
 20
582.179305
 30
0.0
 40
37.43394
100
AcDbArc
 50
8.394467
 51
10.466558
  0
ARC
  5
459
100
AcDbEntity
  8
1
  6
HIDDEN
100
AcDbCircle
 10
218.741625
 20
579.965992
 30
0.0
 40
52.594919
100
AcDbArc
 50
6.907823
 51
8.394467
  0
ARC
  5
45A
100
AcDbEntity
  8
1
  6
HIDDEN
100
AcDbCircle
 10
230.799227
 20
581.426792
 30
0.0
 40
40.44915
100
AcDbArc
 50
4.929759
 51
6.907823
  0
ARC
  5
45B
100
AcDbEntity
  8
1
  6
HIDDEN
100
AcDbCircle
 10
213.739093
 20
579.955297
 30
0.0
 40
57.572627
100
AcDbArc
 50
3.529957
 51
4.929759
  0
ARC
  5
45C
100
AcDbEntity
  8
1
  6
HIDDEN
100
AcDbCircle
 10
227.876706
 20
580.82741
 30
0.0
 40
43.408141
100
AcDbArc
 50
1.646576
 51
3.529957
  0
ARC
  5
45D
100
AcDbEntity
  8
1
  6
HIDDEN
100
AcDbCircle
 10
208.686098
 20
580.275755
 30
0.0
 40
62.606676
100
AcDbArc
 50
0.323212
 51
1.646576
  0
ARC
  5
45E
100
AcDbEntity
  8
1
  6
HIDDEN
100
AcDbCircle
 10
225.021587
 20
580.367906
 30
0.0
 40
46.270927
100
AcDbArc
 50
358.520723
 51
360.323212
  0
ARC
  5
45F
100
AcDbEntity
  8
1
  6
HIDDEN
100
AcDbCircle
 10
220.231217
 20
580.128809
 30
0.0
 40
51.04955
100
AcDbArc
 50
355.026962
 51
357.263954
  0
ARC
  5
460
100
AcDbEntity
  8
1
  6
HIDDEN
100
AcDbCircle
 10
201.352279
 20
581.771551
 30
0.0
 40
69.999824
100
AcDbArc
 50
353.376073
 51
355.026962
  0
ARC
  5
461
100
AcDbEntity
  8
1
  6
HIDDEN
100
AcDbCircle
 10
216.710692
 20
579.988022
 30
0.0
 40
54.5382
100
AcDbArc
 50
351.233707
 51
353.376073
  0
ARC
  5
462
100
AcDbEntity
  8
1
  6
HIDDEN
100
AcDbCircle
 10
203.714169
 20
580.918148
 30
0.0
 40
67.585449
100
AcDbArc
 50
357.263954
 51
358.520723
  0
CIRCLE
  5
463
100
AcDbEntity
  8
SILK
100
AcDbCircle
 10
277.383129
 20
679.619526
 30
0.0
 40
1.5
  0
CIRCLE
  5
464
100
AcDbEntity
  8
SILK
100
AcDbCircle
 10
277.383129
 20
672.691323
 30
0.0
 40
1.5
  0
CIRCLE
  5
465
100
AcDbEntity
  8
SILK
100
AcDbCircle
 10
275.383129
 20
676.155425
 30
0.0
 40
1.5
  0
CIRCLE
  5
466
100
AcDbEntity
  8
SILK
100
AcDbCircle
 10
275.383129
 20
683.083628
 30
0.0
 40
1.5
  0
CIRCLE
  5
467
100
AcDbEntity
  8
SILK
100
AcDbCircle
 10
271.383129
 20
676.155425
 30
0.0
 40
1.5
  0
CIRCLE
  5
468
100
AcDbEntity
  8
SILK
100
AcDbCircle
 10
273.383129
 20
679.619526
 30
0.0
 40
1.5
  0
CIRCLE
  5
469
100
AcDbEntity
  8
SILK
100
AcDbCircle
 10
269.383129
 20
679.619526
 30
0.0
 40
1.5
  0
CIRCLE
  5
46A
100
AcDbEntity
  8
SILK
100
AcDbCircle
 10
273.383129
 20
672.691323
 30
0.0
 40
1.5
  0
CIRCLE
  5
46B
100
AcDbEntity
  8
SILK
100
AcDbCircle
 10
271.383129
 20
683.083628
 30
0.0
 40
1.5
  0
CIRCLE
  5
46C
100
AcDbEntity
  8
SILK
100
AcDbCircle
 10
267.383129
 20
683.083628
 30
0.0
 40
1.5
  0
CIRCLE
  5
46D
100
AcDbEntity
  8
SILK
100
AcDbCircle
 10
283.383129
 20
676.155425
 30
0.0
 40
1.5
  0
CIRCLE
  5
46E
100
AcDbEntity
  8
SILK
100
AcDbCircle
 10
279.383129
 20
676.155425
 30
0.0
 40
1.5
  0
CIRCLE
  5
46F
100
AcDbEntity
  8
SILK
100
AcDbCircle
 10
281.383129
 20
679.619526
 30
0.0
 40
1.5
  0
CIRCLE
  5
470
100
AcDbEntity
  8
SILK
100
AcDbCircle
 10
281.383129
 20
672.691323
 30
0.0
 40
1.5
  0
CIRCLE
  5
471
100
AcDbEntity
  8
SILK
100
AcDbCircle
 10
283.383129
 20
683.083628
 30
0.0
 40
1.5
  0
CIRCLE
  5
472
100
AcDbEntity
  8
SILK
100
AcDbCircle
 10
279.383129
 20
683.083628
 30
0.0
 40
1.5
  0
ARC
  5
473
100
AcDbEntity
  8
0
100
AcDbCircle
 10
299.044321
 20
684.222607
 30
0.0
 40
19.816309
100
AcDbArc
 50
30.00462
 51
58.953138
  0
ARC
  5
474
100
AcDbEntity
  8
0
100
AcDbCircle
 10
287.415981
 20
677.700146
 30
0.0
 40
40.0
100
AcDbArc
 50
0.0
 51
90.0
  0
CIRCLE
  5
475
100
AcDbEntity
  8
SILK
100
AcDbCircle
 10
291.383129
 20
676.155425
 30
0.0
 40
1.5
  0
CIRCLE
  5
476
100
AcDbEntity
  8
SILK
100
AcDbCircle
 10
289.383129
 20
679.619526
 30
0.0
 40
1.5
  0
CIRCLE
  5
477
100
AcDbEntity
  8
SILK
100
AcDbCircle
 10
293.383129
 20
672.691323
 30
0.0
 40
1.5
  0
CIRCLE
  5
478
100
AcDbEntity
  8
SILK
100
AcDbCircle
 10
289.383129
 20
672.691323
 30
0.0
 40
1.5
  0
ARC
  5
479
100
AcDbEntity
  8
0
100
AcDbCircle
 10
287.415981
 20
677.700146
 30
0.0
 40
33.148383
100
AcDbArc
 50
0.0
 51
29.716608
  0
ARC
  5
47A
100
AcDbEntity
  8
0
100
AcDbCircle
 10
303.294485
 20
690.790509
 30
0.0
 40
12.0
100
AcDbArc
 50
60.165927
 51
82.964175
  0
LWPOLYLINE
  5
47B
100
AcDbEntity
  8
1
  6
HIDDEN
100
AcDbPolyline
 90
        8
 70
     0
 10
479.341732
 20
560.755673
 42
0.001204
 10
479.306142
 20
560.965261
 42
0.017573
 10
478.446212
 20
564.938531
 42
0.009648
 10
477.420391
 20
568.819124
 42
0.012025
 10
476.233535
 20
572.600757
 42
0.010989
 10
474.890337
 20
576.278228
 42
0.013458
 10
473.397684
 20
579.840719
 42
0.008389
 10
472.504664
 20
581.722709
  0
LINE
  5
485
100
AcDbEntity
  8
0
100
AcDbLine
 10
518.865601
 20
400.048529
 30
0.0
 11
518.865601
 21
717.700146
 31
0.0
  0
LINE
  5
486
100
AcDbEntity
  8
0
100
AcDbLine
 10
494.865601
 20
406.084469
 30
0.0
 11
494.865601
 21
687.700146
 31
0.0
  0
LINE
  5
487
100
AcDbEntity
  8
0
100
AcDbLine
 10
389.865601
 20
677.700146
 30
0.0
 11
389.865601
 21
547.700146
 31
0.0
  0
LINE
  5
488
100
AcDbEntity
  8
1
  6
HIDDEN
100
AcDbLine
 10
392.865601
 20
677.700147
 30
0.0
 11
392.865601
 21
547.700147
 31
0.0
  0
LINE
  5
489
100
AcDbEntity
  8
1
100
AcDbLine
 10
409.365601
 20
359.638863
 30
0.0
 11
499.365601
 21
359.638863
 31
0.0
  0
TEXT
  5
48A
100
AcDbEntity
  8
1
100
AcDbText
 10
412.651315
 20
365.638863
 30
0.0
 40
15.0
  1
Side View
 41
0.8
  7
UT7
 72
     1
 11
454.365601
 21
365.638863
 31
0.0
100
AcDbText
  0
ARC
  5
48B
100
AcDbEntity
  8
1
  6
HIDDEN
100
AcDbCircle
 10
461.97956
 20
555.960001
 30
0.0
 40
33.226429
100
AcDbArc
 50
258.832899
 51
260.99914
  0
LINE
  5
48C
100
AcDbEntity
  8
1
  6
HIDDEN
100
AcDbLine
 10
413.256441
 20
485.12461
 30
0.0
 11
479.040125
 21
483.976351
 31
0.0
  0
LINE
  5
48D
100
AcDbEntity
  8
1
  6
HIDDEN
100
AcDbLine
 10
457.254585
 20
497.00706
 30
0.0
 11
455.252224
 21
496.907988
 31
0.0
  0
LWPOLYLINE
  5
48E
100
AcDbEntity
  8
1
  6
HIDDEN
100
AcDbPolyline
 90
       18
 70
     0
 10
483.842486
 20
465.642234
 42
-0.009335
 10
482.492687
 20
466.436297
 42
-0.009765
 10
480.346803
 20
467.833994
 42
0.002667
 10
477.32858
 20
469.846732
 42
0.009009
 10
474.272199
 20
471.779469
 42
0.013141
 10
471.578497
 20
473.322071
 42
0.01507
 10
468.992105
 20
474.607813
 42
0.014549
 10
466.140244
 20
475.817865
 42
0.013005
 10
463.014051
 20
476.946191
 42
0.011655
 10
459.569597
 20
478.000146
 42
0.009551
 10
455.714643
 20
479.00118
 42
0.009892
 10
451.36187
 20
479.962669
 42
0.005567
 10
446.70491
 20
480.81623
 42
-0.005509
 10
441.854779
 20
481.710595
 42
-0.010426
 10
438.478162
 20
482.448275
 42
-0.010273
 10
435.392341
 20
483.270326
 42
-0.022722
 10
432.683685
 20
484.150496
 42
-0.002761
 10
432.447597
 20
484.243755
  0
ARC
  5
4A2
100
AcDbEntity
  8
1
  6
HIDDEN
100
AcDbCircle
 10
538.865601
 20
547.700147
 30
0.0
 40
146.0
100
AcDbArc
 50
180.0
 51
239.696978
  0
LWPOLYLINE
  5
4A3
100
AcDbEntity
  8
1
  6
HIDDEN
100
AcDbPolyline
 90
       10
 70
     0
 10
410.312432
 20
506.086218
 42
0.024764
 10
412.056394
 20
503.647215
 42
0.026993
 10
413.890798
 20
501.581282
 42
0.014728
 10
414.842055
 20
500.679222
 42
0.015551
 10
415.816464
 20
499.862153
 42
0.03263
 10
417.790327
 20
498.508758
 42
0.034739
 10
419.781678
 20
497.513041
 42
0.035881
 10
421.797227
 20
496.845342
 42
0.034785
 10
423.827328
 20
496.482838
 42
0.031195
 10
425.857344
 20
496.394899
  0
LWPOLYLINE
  5
4AF
100
AcDbEntity
  8
1
  6
HIDDEN
100
AcDbPolyline
 90
       10
 70
     0
 10
413.265255
 20
485.124456
 42
-0.043906
 10
411.507582
 20
485.311378
 42
-0.036742
 10
410.087821
 20
485.701448
 42
-0.028414
 10
409.041354
 20
486.142184
 42
-0.020917
 10
408.305913
 20
486.541359
 42
-0.026845
 10
407.414688
 20
487.141813
 42
-0.035996
 10
406.333083
 20
488.087674
 42
-0.044135
 10
405.202267
 20
489.453419
 42
-0.034389
 10
404.506514
 20
490.629795
 10
404.217293
 20
491.256961
  0
LWPOLYLINE
  5
4BB
100
AcDbEntity
  8
1
  6
HIDDEN
100
AcDbPolyline
 90
        2
 70
     0
 10
432.442703
 20
484.237277
 42
0.083642
 10
429.17662
 20
484.846722
  0
LINE
  5
4BF
100
AcDbEntity
  8
1
  6
HIDDEN
100
AcDbLine
 10
425.857344
 20
496.394899
 30
0.0
 11
433.982449
 21
496.536723
 31
0.0
  0
LINE
  5
4C0
100
AcDbEntity
  8
1
  6
HIDDEN
100
AcDbLine
 10
445.546019
 20
496.738566
 30
0.0
 11
455.252224
 21
496.907988
 31
0.0
  0
ARC
  5
4C1
100
AcDbEntity
  8
1
  6
HIDDEN
100
AcDbCircle
 10
470.785744
 20
571.613817
 30
0.0
 40
51.23207
100
AcDbArc
 50
223.564045
 51
226.990417
  0
ARC
  5
4C2
100
AcDbEntity
  8
1
  6
HIDDEN
100
AcDbCircle
 10
480.701802
 20
580.144057
 30
0.0
 40
64.343488
100
AcDbArc
 50
204.998674
 51
216.940468
  0
ARC
  5
4C3
100
AcDbEntity
  8
1
  6
HIDDEN
100
AcDbCircle
 10
481.076595
 20
580.32544
 30
0.0
 40
64.759823
100
AcDbArc
 50
198.376011
 51
205.003986
  0
ARC
  5
4C4
100
AcDbEntity
  8
1
  6
HIDDEN
100
AcDbCircle
 10
479.056606
 20
579.654418
 30
0.0
 40
62.631296
100
AcDbArc
 50
194.495502
 51
198.376011
  0
ARC
  5
4C5
100
AcDbEntity
  8
1
  6
HIDDEN
100
AcDbCircle
 10
478.600946
 20
579.046786
 30
0.0
 40
62.017542
100
AcDbArc
 50
220.69192
 51
223.564045
  0
ARC
  5
4C6
100
AcDbEntity
  8
1
  6
HIDDEN
100
AcDbCircle
 10
474.132622
 20
575.204518
 30
0.0
 40
56.124415
100
AcDbArc
 50
216.940468
 51
220.69192
  0
ARC
  5
4C7
100
AcDbEntity
  8
1
  6
HIDDEN
100
AcDbCircle
 10
471.513567
 20
572.581383
 30
0.0
 40
52.454747
100
AcDbArc
 50
232.576324
 51
234.702835
  0
ARC
  5
4C8
100
AcDbEntity
  8
1
  6
HIDDEN
100
AcDbCircle
 10
467.80437
 20
567.734108
 30
0.0
 40
46.351123
100
AcDbArc
 50
229.519219
 51
232.576324
  0
ARC
  5
4C9
100
AcDbEntity
  8
1
  6
HIDDEN
100
AcDbCircle
 10
474.665833
 20
575.773308
 30
0.0
 40
56.920343
100
AcDbArc
 50
226.990417
 51
229.519219
  0
ARC
  5
4CA
100
AcDbEntity
  8
1
  6
HIDDEN
100
AcDbCircle
 10
461.070557
 20
551.355324
 30
0.0
 40
28.532887
100
AcDbArc
 50
256.293994
 51
258.832899
  0
LINE
  5
4CB
100
AcDbEntity
  8
1
  6
HIDDEN
100
AcDbLine
 10
488.865601
 20
433.524842
 30
0.0
 11
488.865601
 21
473.977874
 31
0.0
  0
LINE
  5
4CC
100
AcDbEntity
  8
1
  6
HIDDEN
100
AcDbLine
 10
463.365601
 20
436.58538
 30
0.0
 11
467.684973
 21
439.079171
 31
0.0
  0
ARC
  5
4CD
100
AcDbEntity
  8
0
100
AcDbCircle
 10
538.865601
 20
547.700146
 30
0.0
 40
149.0
100
AcDbArc
 50
253.10968
 51
262.286008
  0
LINE
  5
4CE
100
AcDbEntity
  8
1
  6
HIDDEN
100
AcDbLine
 10
465.197919
 20
421.648282
 30
0.0
 11
518.865601
 21
422.585054
 31
0.0
  0
LINE
  5
4CF
100
AcDbEntity
  8
1
  6
HIDDEN
100
AcDbLine
 10
466.665601
 20
421.700073
 30
0.0
 11
465.865601
 21
421.700073
 31
0.0
  0
ARC
  5
4D0
100
AcDbEntity
  8
1
  6
HIDDEN
100
AcDbCircle
 10
465.865601
 20
426.700073
 30
0.0
 40
5.0
100
AcDbArc
 50
180.0
 51
270.0
  0
LINE
  5
4D1
100
AcDbEntity
  8
1
  6
HIDDEN
100
AcDbLine
 10
460.865601
 20
432.255253
 30
0.0
 11
460.865601
 21
426.700073
 31
0.0
  0
LWPOLYLINE
  5
4D2
100
AcDbEntity
  8
1
  6
HIDDEN
100
AcDbPolyline
 90
        7
 70
     0
 10
460.865601
 20
432.255253
 42
-0.042236
 10
460.942331
 20
433.126866
 42
-0.043795
 10
461.166743
 20
433.963862
 42
-0.043593
 10
461.535474
 20
434.755253
 42
-0.043506
 10
462.036473
 20
435.470278
 42
-0.043602
 10
462.649126
 20
436.083123
 42
-0.042872
 10
463.365601
 20
436.58538
  0
ARC
  5
4DB
100
AcDbEntity
  8
0
100
AcDbCircle
 10
495.865601
 20
406.084469
 30
0.0
 40
1.0
100
AcDbArc
 50
180.0
 51
253.10968
  0
ARC
  5
4DC
100
AcDbEntity
  8
0
100
AcDbCircle
 10
492.813999
 20
427.200146
 30
0.0
 40
20.0
100
AcDbArc
 50
249.084595
 51
270.0
  0
LINE
  5
4DD
100
AcDbEntity
  8
0
100
AcDbLine
 10
492.813999
 20
407.200146
 30
0.0
 11
494.865601
 21
407.200146
 31
0.0
  0
LWPOLYLINE
  5
4DE
100
AcDbEntity
  8
1
  6
HIDDEN
100
AcDbPolyline
 90
       12
 70
     0
 10
488.865601
 20
433.524842
 42
0.099375
 10
489.167138
 20
432.022909
 42
0.030162
 10
489.397438
 20
431.554005
 42
0.029279
 10
489.656566
 20
431.154481
 42
0.025624
 10
489.961795
 20
430.780992
 42
0.027828
 10
490.309742
 20
430.437637
 42
0.024181
 10
490.696574
 20
430.128159
 42
0.026459
 10
491.118056
 20
429.855916
 42
0.025659
 10
491.621605
 20
429.600582
 42
0.030582
 10
492.210374
 20
429.381092
 42
0.037491
 10
493.054757
 20
429.191613
 42
0.037131
 10
493.865601
 20
429.133484
  0
ARC
  5
4EC
100
AcDbEntity
  8
1
  6
HIDDEN
100
AcDbCircle
 10
457.316065
 20
517.01712
 30
0.0
 40
19.6676
100
AcDbArc
 50
308.658674
 51
313.449323
  0
ARC
  5
4ED
100
AcDbEntity
  8
1
  6
HIDDEN
100
AcDbCircle
 10
457.458761
 20
516.849743
 30
0.0
 40
19.447956
100
AcDbArc
 50
313.483238
 51
318.447728
  0
LINE
  5
4EE
100
AcDbEntity
  8
1
  6
HIDDEN
100
AcDbLine
 10
467.684973
 20
439.079171
 30
0.0
 11
488.865302
 21
451.307639
 31
0.0
  0
ARC
  5
4EF
100
AcDbEntity
  8
1
  6
HIDDEN
100
AcDbCircle
 10
456.482118
 20
518.407403
 30
0.0
 40
21.291121
100
AcDbArc
 50
291.118518
 51
299.499643
  0
ARC
  5
4F0
100
AcDbEntity
  8
1
  6
HIDDEN
100
AcDbCircle
 10
455.133524
 20
523.25809
 30
0.0
 40
26.336581
100
AcDbArc
 50
274.619416
 51
283.375124
  0
ARC
  5
4F1
100
AcDbEntity
  8
1
  6
HIDDEN
100
AcDbCircle
 10
455.707255
 20
520.613014
 30
0.0
 40
23.630591
100
AcDbArc
 50
283.505338
 51
287.204064
  0
ARC
  5
4F2
100
AcDbEntity
  8
1
  6
HIDDEN
100
AcDbCircle
 10
456.015905
 20
519.599312
 30
0.0
 40
22.570954
100
AcDbArc
 50
287.216725
 51
291.132371
  0
ARC
  5
4F3
100
AcDbEntity
  8
1
  6
HIDDEN
100
AcDbCircle
 10
456.98129
 20
517.480475
 30
0.0
 40
20.238572
100
AcDbArc
 50
299.561861
 51
308.579323
  0
LWPOLYLINE
  5
4F4
100
AcDbEntity
  8
1
  6
HIDDEN
100
AcDbPolyline
 90
       13
 70
     0
 10
488.69189
 20
462.893324
 42
-0.445815
 10
488.676621
 20
462.906655
 42
0.015868
 10
488.620456
 20
462.990887
 42
0.024534
 10
488.521163
 20
463.117692
 42
0.020228
 10
488.399592
 20
463.24997
 42
0.015558
 10
488.281562
 20
463.362317
 42
0.019335
 10
488.06546
 20
463.542222
 42
0.017793
 10
487.786778
 20
463.74251
 42
0.020624
 10
487.398513
 20
463.982594
 42
0.015108
 10
486.930884
 20
464.229176
 42
0.013927
 10
486.44496
 20
464.449283
 42
0.013041
 10
485.780416
 20
464.708587
 10
485.408591
 20
464.839469
  0
LWPOLYLINE
  5
503
100
AcDbEntity
  8
1
  6
HIDDEN
100
AcDbPolyline
 90
        9
 70
     0
 10
485.632612
 20
464.730862
 42
-0.000113
 10
485.636189
 20
464.72962
 42
-0.000113
 10
485.6461
 20
464.726175
 42
-0.000127
 10
485.661272
 20
464.720894
 42
-0.000148
 10
485.680632
 20
464.714144
 42
-0.000179
 10
485.703106
 20
464.706293
 42
-0.000471
 10
485.743117
 20
464.692269
 42
-0.000476
 10
485.803653
 20
464.670942
 42
-0.000523
 10
485.868345
 20
464.648009
  0
LWPOLYLINE
  5
50E
100
AcDbEntity
  8
1
  6
HIDDEN
100
AcDbPolyline
 90
        2
 70
     0
 10
484.168734
 20
465.425358
 42
0.058061
 10
485.632612
 20
464.730862
  0
LWPOLYLINE
  5
512
100
AcDbEntity
  8
1
  6
HIDDEN
100
AcDbPolyline
 90
       11
 70
     0
 10
482.466578
 20
483.30702
 42
-0.043216
 10
484.036477
 20
482.537199
 42
-0.021044
 10
484.740565
 20
482.070142
 42
-0.020645
 10
485.392974
 20
481.553717
 42
-0.039367
 10
486.513274
 20
480.420939
 42
-0.019146
 10
486.985845
 20
479.814108
 42
-0.018657
 10
487.401927
 20
479.18663
 42
-0.035621
 10
488.062358
 20
477.906193
 42
-0.034321
 10
488.515529
 20
476.600638
 42
-0.033319
 10
488.780144
 20
475.282414
 42
-0.032552
 10
488.865601
 20
473.977874
  0
LWPOLYLINE
  5
51F
100
AcDbEntity
  8
1
  6
HIDDEN
100
AcDbPolyline
 90
        2
 70
     0
 10
484.494499
 20
482.234805
 42
0.070101
 10
482.002479
 20
483.470994
  0
LWPOLYLINE
  5
523
100
AcDbEntity
  8
1
  6
HIDDEN
100
AcDbPolyline
 90
        5
 70
     0
 10
479.040125
 20
483.976351
 42
-0.020726
 10
479.86046
 20
483.928379
 42
-0.021557
 10
480.704444
 20
483.807353
 42
-0.022667
 10
481.574577
 20
483.603956
 42
-0.02374
 10
482.466578
 20
483.30702
  0
ARC
  5
52A
100
AcDbEntity
  8
1
  6
HIDDEN
100
AcDbCircle
 10
459.560113
 20
548.331558
 30
0.0
 40
26.206067
100
AcDbArc
 50
309.56378
 51
314.685156
  0
ARC
  5
52B
100
AcDbEntity
  8
1
  6
HIDDEN
100
AcDbCircle
 10
461.571221
 20
545.665209
 30
0.0
 40
22.823218
100
AcDbArc
 50
280.050291
 51
285.872951
  0
ARC
  5
52C
100
AcDbEntity
  8
1
  6
HIDDEN
100
AcDbCircle
 10
461.027718
 20
548.731825
 30
0.0
 40
25.937625
100
AcDbArc
 50
275.734546
 51
280.050291
  0
ARC
  5
52D
100
AcDbEntity
  8
1
  6
HIDDEN
100
AcDbCircle
 10
461.231199
 20
546.70557
 30
0.0
 40
23.901178
100
AcDbArc
 50
271.947082
 51
275.734546
  0
ARC
  5
52E
100
AcDbEntity
  8
1
  6
HIDDEN
100
AcDbCircle
 10
461.084019
 20
551.034883
 30
0.0
 40
28.232993
100
AcDbArc
 50
268.706084
 51
271.947082
  0
ARC
  5
52F
100
AcDbEntity
  8
1
  6
HIDDEN
100
AcDbCircle
 10
461.014044
 20
547.936837
 30
0.0
 40
25.134157
100
AcDbArc
 50
265.930112
 51
268.706084
  0
ARC
  5
530
100
AcDbEntity
  8
1
  6
HIDDEN
100
AcDbCircle
 10
461.423941
 20
553.697647
 30
0.0
 40
30.909531
100
AcDbArc
 50
263.659092
 51
265.930112
  0
ARC
  5
531
100
AcDbEntity
  8
1
  6
HIDDEN
100
AcDbCircle
 10
460.960269
 20
549.525072
 30
0.0
 40
26.711272
100
AcDbArc
 50
260.99914
 51
263.659092
  0
ARC
  5
532
100
AcDbEntity
  8
1
  6
HIDDEN
100
AcDbCircle
 10
461.780141
 20
545.644549
 30
0.0
 40
22.720591
100
AcDbArc
 50
300.816393
 51
309.56378
  0
ARC
  5
533
100
AcDbEntity
  8
1
  6
HIDDEN
100
AcDbCircle
 10
461.392141
 20
546.295001
 30
0.0
 40
23.477976
100
AcDbArc
 50
285.872951
 51
300.816393
  0
LWPOLYLINE
  5
534
100
AcDbEntity
  8
1
  6
HIDDEN
100
AcDbPolyline
 90
        9
 70
     0
 10
479.338784
 20
523.662425
 42
0.009636
 10
479.856552
 20
526.694931
 42
0.009873
 10
480.300203
 20
530.10957
 42
0.007886
 10
480.599743
 20
533.271061
 42
0.007899
 10
480.813853
 20
536.677938
 42
0.007462
 10
480.922791
 20
540.035157
 42
0.006296
 10
480.936334
 20
543.396899
 42
0.008982
 10
480.859304
 20
546.742472
 42
0.002514
 10
480.822644
 20
547.490427
  0
ARC
  5
53F
100
AcDbEntity
  8
1
  6
HIDDEN
100
AcDbCircle
 10
464.539837
 20
544.513644
 30
0.0
 40
19.917962
100
AcDbArc
 50
322.545011
 51
323.702698
  0
ARC
  5
540
100
AcDbEntity
  8
1
  6
HIDDEN
100
AcDbCircle
 10
461.187909
 20
546.685774
 30
0.0
 40
23.891262
100
AcDbArc
 50
314.685156
 51
319.437492
  0
ARC
  5
541
100
AcDbEntity
  8
1
  6
HIDDEN
100
AcDbCircle
 10
456.785691
 20
550.453937
 30
0.0
 40
29.685964
100
AcDbArc
 50
319.437492
 51
322.545011
  0
DIMENSION
  5
542
100
AcDbEntity
  8
SCALE
100
AcDbDimension
  2
*D5
 10
518.865601
 20
740.812481
 30
0.0
 11
454.365601
 21
754.012481
 31
0.0
  1
129
  3
STANDARD
100
AcDbAlignedDimension
 13
389.865601
 23
677.700146
 33
0.0
 14
518.865601
 24
717.700146
 34
0.0
100
AcDbRotatedDimension
1001
ACAD
1000
DSTYLE
1002
{
1070
   140
1040
2.2
1070
   145
1040
1.0
1070
    74
1070
     0
1070
   172
1070
     1
1070
    73
1070
     0
1070
    40
1040
6.0
1070
    42
1040
2.0
1070
    44
1040
1.5
1070
    43
1040
10.0
1070
     5
1000
YAZ3
1070
    41
1040
1.5
1002
}
  0
CIRCLE
  5
54F
100
AcDbEntity
  8
SILK
100
AcDbCircle
 10
454.383129
 20
676.155425
 30
0.0
 40
1.5
  0
CIRCLE
  5
550
100
AcDbEntity
  8
SILK
100
AcDbCircle
 10
456.383129
 20
679.619526
 30
0.0
 40
1.5
  0
CIRCLE
  5
551
100
AcDbEntity
  8
SILK
100
AcDbCircle
 10
456.383129
 20
672.691323
 30
0.0
 40
1.5
  0
CIRCLE
  5
552
100
AcDbEntity
  8
SILK
100
AcDbCircle
 10
454.383129
 20
683.083628
 30
0.0
 40
1.5
  0
LWPOLYLINE
  5
553
100
AcDbEntity
  8
1
  6
HIDDEN
100
AcDbPolyline
 90
        6
 70
     0
 10
450.877767
 20
609.790066
 42
-0.022615
 10
457.008785
 20
605.802048
 42
-0.021099
 10
462.562743
 20
601.44431
 42
-0.017414
 10
465.93857
 20
598.37116
 42
-0.002466
 10
467.677473
 20
596.571916
 10
467.827232
 20
596.407231
  0
LINE
  5
55B
100
AcDbEntity
  8
0
100
AcDbLine
 10
518.865601
 20
717.700146
 30
0.0
 11
429.865601
 21
717.700146
 31
0.0
  0
LINE
  5
55C
100
AcDbEntity
  8
1
  6
HIDDEN
100
AcDbLine
 10
501.415601
 20
709.713237
 30
0.0
 11
412.921558
 21
708.168568
 31
0.0
  0
LINE
  5
55D
100
AcDbEntity
  8
0
100
AcDbLine
 10
479.865601
 20
702.700146
 30
0.0
 11
399.865601
 21
702.700146
 31
0.0
  0
ARC
  5
55E
100
AcDbEntity
  8
0
100
AcDbCircle
 10
429.865601
 20
677.700146
 30
0.0
 40
40.0
100
AcDbArc
 50
144.091927
 51
180.0
  0
ARC
  5
55F
100
AcDbEntity
  8
1
  6
HIDDEN
100
AcDbCircle
 10
429.865601
 20
677.700147
 30
0.0
 40
37.0
100
AcDbArc
 50
143.516263
 51
180.0
  0
ARC
  5
560
100
AcDbEntity
  8
1
  6
HIDDEN
100
AcDbCircle
 10
442.220739
 20
587.363656
 30
0.0
 40
23.195266
100
AcDbArc
 50
104.945834
 51
116.314462
  0
LWPOLYLINE
  5
561
100
AcDbEntity
  8
1
  6
HIDDEN
100
AcDbPolyline
 90
        7
 70
     0
 10
440.579372
 20
615.220107
 42
0.003769
 10
440.056726
 20
615.405732
 42
0.020002
 10
437.438891
 20
616.198794
 42
0.021974
 10
434.877417
 20
616.742837
 42
0.011908
 10
433.619176
 20
616.920452
 42
0.012495
 10
432.377988
 20
617.033891
 42
0.026372
 10
429.987165
 20
617.065853
  0
ARC
  5
56A
100
AcDbEntity
  8
1
  6
HIDDEN
100
AcDbCircle
 10
446.519484
 20
583.460355
 30
0.0
 40
29.036148
100
AcDbArc
 50
146.216775
 51
149.464293
  0
ARC
  5
56B
100
AcDbEntity
  8
1
  6
HIDDEN
100
AcDbCircle
 10
463.916851
 20
578.289052
 30
0.0
 40
47.361389
100
AcDbArc
 50
176.008076
 51
177.766665
  0
ARC
  5
56C
100
AcDbEntity
  8
1
  6
HIDDEN
100
AcDbCircle
 10
464.000495
 20
578.283215
 30
0.0
 40
47.445237
100
AcDbArc
 50
174.262581
 51
176.008076
  0
ARC
  5
56D
100
AcDbEntity
  8
1
  6
HIDDEN
100
AcDbCircle
 10
461.024066
 20
578.582265
 30
0.0
 40
44.453823
100
AcDbArc
 50
172.43304
 51
174.262581
  0
ARC
  5
56E
100
AcDbEntity
  8
1
  6
HIDDEN
100
AcDbCircle
 10
460.942614
 20
578.593085
 30
0.0
 40
44.371655
100
AcDbArc
 50
170.611639
 51
172.43304
  0
ARC
  5
56F
100
AcDbEntity
  8
1
  6
HIDDEN
100
AcDbCircle
 10
458.165379
 20
579.052274
 30
0.0
 40
41.556715
100
AcDbArc
 50
168.691459
 51
170.611639
  0
ARC
  5
570
100
AcDbEntity
  8
1
  6
HIDDEN
100
AcDbCircle
 10
457.955438
 20
579.094257
 30
0.0
 40
41.342617
100
AcDbArc
 50
166.786544
 51
168.691459
  0
ARC
  5
571
100
AcDbEntity
  8
1
  6
HIDDEN
100
AcDbCircle
 10
455.401401
 20
579.693934
 30
0.0
 40
38.719123
100
AcDbArc
 50
164.766011
 51
166.786544
  0
ARC
  5
572
100
AcDbEntity
  8
1
  6
HIDDEN
100
AcDbCircle
 10
455.109248
 20
579.773496
 30
0.0
 40
38.416331
100
AcDbArc
 50
162.770488
 51
164.766011
  0
ARC
  5
573
100
AcDbEntity
  8
1
  6
HIDDEN
100
AcDbCircle
 10
452.802688
 20
580.488798
 30
0.0
 40
36.001403
100
AcDbArc
 50
160.655552
 51
162.770488
  0
ARC
  5
574
100
AcDbEntity
  8
1
  6
HIDDEN
100
AcDbCircle
 10
452.470881
 20
580.605284
 30
0.0
 40
35.649744
100
AcDbArc
 50
158.548937
 51
160.655552
  0
ARC
  5
575
100
AcDbEntity
  8
1
  6
HIDDEN
100
AcDbCircle
 10
450.419344
 20
581.411382
 30
0.0
 40
33.44552
100
AcDbArc
 50
156.333876
 51
158.548937
  0
ARC
  5
576
100
AcDbEntity
  8
1
  6
HIDDEN
100
AcDbCircle
 10
450.099335
 20
581.551631
 30
0.0
 40
33.096128
100
AcDbArc
 50
154.110824
 51
156.333876
  0
ARC
  5
577
100
AcDbEntity
  8
1
  6
HIDDEN
100
AcDbCircle
 10
448.300715
 20
582.424574
 30
0.0
 40
31.096862
100
AcDbArc
 50
151.792052
 51
154.110824
  0
ARC
  5
578
100
AcDbEntity
  8
1
  6
HIDDEN
100
AcDbCircle
 10
448.021527
 20
582.574324
 30
0.0
 40
30.780047
100
AcDbArc
 50
149.464293
 51
151.792052
  0
ARC
  5
579
100
AcDbEntity
  8
1
  6
HIDDEN
100
AcDbCircle
 10
446.81572
 20
583.108626
 30
0.0
 40
29.482332
100
AcDbArc
 50
140.450347
 51
143.592423
  0
LWPOLYLINE
  5
57A
100
AcDbEntity
  8
1
  6
HIDDEN
100
AcDbPolyline
 90
        5
 70
     0
 10
428.299717
 20
616.925649
 42
0.027397
 10
426.30535
 20
616.562561
 42
0.028871
 10
424.415173
 20
615.990988
 42
0.029903
 10
422.627989
 20
615.210377
 42
0.030065
 10
420.955247
 20
614.225316
  0
ARC
  5
581
100
AcDbEntity
  8
1
  6
HIDDEN
100
AcDbCircle
 10
443.504386
 20
585.550628
 30
0.0
 40
25.36793
100
AcDbArc
 50
143.592423
 51
146.354034
  0
ARC
  5
582
100
AcDbEntity
  8
1
  6
HIDDEN
100
AcDbCircle
 10
442.539755
 20
582.257428
 30
0.0
 40
28.342771
100
AcDbArc
 50
82.806518
 51
85.288775
  0
LWPOLYLINE
  5
583
100
AcDbEntity
  8
1
  6
HIDDEN
100
AcDbPolyline
 90
        8
 70
     0
 10
440.490992
 20
615.235195
 42
-0.008746
 10
441.187881
 20
614.988896
 42
-0.017709
 10
443.133362
 20
614.171361
 42
-0.013264
 10
445.168666
 20
613.180877
 42
-0.011663
 10
447.274645
 20
612.014454
 42
-0.010176
 10
448.710392
 20
611.146251
 42
-0.004064
 10
449.602558
 20
610.553394
 10
449.774929
 20
610.432833
  0
ARC
  5
58D
100
AcDbEntity
  8
1
  6
HIDDEN
100
AcDbCircle
 10
442.393607
 20
586.716054
 30
0.0
 40
23.865543
100
AcDbArc
 50
99.359292
 51
104.945834
  0
ARC
  5
58E
100
AcDbEntity
  8
1
  6
HIDDEN
100
AcDbCircle
 10
442.543928
 20
585.804017
 30
0.0
 40
24.789885
100
AcDbArc
 50
94.82752
 51
99.359292
  0
ARC
  5
58F
100
AcDbEntity
  8
1
  6
HIDDEN
100
AcDbCircle
 10
442.614593
 20
584.967312
 30
0.0
 40
25.629569
100
AcDbArc
 50
91.284486
 51
94.82752
  0
ARC
  5
590
100
AcDbEntity
  8
1
  6
HIDDEN
100
AcDbCircle
 10
442.636273
 20
584.000414
 30
0.0
 40
26.59671
100
AcDbArc
 50
87.817725
 51
91.284486
  0
ARC
  5
591
100
AcDbEntity
  8
1
  6
HIDDEN
100
AcDbCircle
 10
442.595743
 20
582.936791
 30
0.0
 40
27.661105
100
AcDbArc
 50
85.288775
 51
87.817725
  0
ARC
  5
592
100
AcDbEntity
  8
1
  6
HIDDEN
100
AcDbCircle
 10
442.389647
 20
581.068118
 30
0.0
 40
29.541517
100
AcDbArc
 50
80.379995
 51
82.806518
  0
ARC
  5
593
100
AcDbEntity
  8
1
  6
HIDDEN
100
AcDbCircle
 10
442.251076
 20
580.25057
 30
0.0
 40
30.370725
100
AcDbArc
 50
78.004021
 51
80.379995
  0
ARC
  5
594
100
AcDbEntity
  8
1
  6
HIDDEN
100
AcDbCircle
 10
441.972763
 20
578.94076
 30
0.0
 40
31.709777
100
AcDbArc
 50
75.698259
 51
78.004021
  0
ARC
  5
595
100
AcDbEntity
  8
1
  6
HIDDEN
100
AcDbCircle
 10
441.738958
 20
578.023621
 30
0.0
 40
32.656249
100
AcDbArc
 50
73.428356
 51
75.698259
  0
ARC
  5
596
100
AcDbEntity
  8
1
  6
HIDDEN
100
AcDbCircle
 10
441.311003
 20
576.585477
 30
0.0
 40
34.156717
100
AcDbArc
 50
71.243607
 51
73.428356
  0
CIRCLE
  5
597
100
AcDbEntity
  8
SILK
100
AcDbCircle
 10
452.383129
 20
679.619526
 30
0.0
 40
1.5
  0
CIRCLE
  5
598
100
AcDbEntity
  8
SILK
100
AcDbCircle
 10
450.383129
 20
683.083628
 30
0.0
 40
1.5
  0
ARC
  5
599
100
AcDbEntity
  8
0
100
AcDbCircle
 10
429.865601
 20
677.700146
 30
0.0
 40
40.0
100
AcDbArc
 50
90.0
 51
138.038111
  0
ARC
  5
59A
100
AcDbEntity
  8
1
  6
HIDDEN
100
AcDbCircle
 10
430.128895
 20
677.652691
 30
0.0
 40
35.033002
100
AcDbArc
 50
119.417844
 51
140.999003
  0
LINE
  5
59B
100
AcDbEntity
  8
1
  6
HIDDEN
100
AcDbLine
 10
402.903523
 20
699.700147
 30
0.0
 11
400.116651
 21
699.700147
 31
0.0
  0
ARC
  5
59C
100
AcDbEntity
  8
0
100
AcDbCircle
 10
400.865601
 20
703.776956
 30
0.0
 40
1.0
100
AcDbArc
 50
138.038111
 51
180.0
  0
ARC
  5
59D
100
AcDbEntity
  8
0
100
AcDbCircle
 10
399.897117
 20
699.400146
 30
0.0
 40
3.0
100
AcDbArc
 50
90.0
 51
144.091927
  0
LINE
  5
59E
100
AcDbEntity
  8
0
100
AcDbLine
 10
399.865601
 20
702.399981
 30
0.0
 11
399.865601
 21
703.776956
 31
0.0
  0
ARC
  5
59F
100
AcDbEntity
  8
0
100
AcDbCircle
 10
479.865601
 20
687.700146
 30
0.0
 40
15.0
100
AcDbArc
 50
0.0
 51
90.0
  0
CIRCLE
  5
5A0
100
AcDbEntity
  8
SILK
100
AcDbCircle
 10
476.383129
 20
672.691323
 30
0.0
 40
1.5
  0
CIRCLE
  5
5A1
100
AcDbEntity
  8
SILK
100
AcDbCircle
 10
466.383129
 20
676.155425
 30
0.0
 40
1.5
  0
CIRCLE
  5
5A2
100
AcDbEntity
  8
SILK
100
AcDbCircle
 10
466.383129
 20
683.083628
 30
0.0
 40
1.5
  0
CIRCLE
  5
5A3
100
AcDbEntity
  8
SILK
100
AcDbCircle
 10
462.383129
 20
676.155425
 30
0.0
 40
1.5
  0
CIRCLE
  5
5A4
100
AcDbEntity
  8
SILK
100
AcDbCircle
 10
458.383129
 20
676.155425
 30
0.0
 40
1.5
  0
CIRCLE
  5
5A5
100
AcDbEntity
  8
SILK
100
AcDbCircle
 10
464.383129
 20
679.619526
 30
0.0
 40
1.5
  0
CIRCLE
  5
5A6
100
AcDbEntity
  8
SILK
100
AcDbCircle
 10
460.383129
 20
679.619526
 30
0.0
 40
1.5
  0
CIRCLE
  5
5A7
100
AcDbEntity
  8
SILK
100
AcDbCircle
 10
464.383129
 20
672.691323
 30
0.0
 40
1.5
  0
CIRCLE
  5
5A8
100
AcDbEntity
  8
SILK
100
AcDbCircle
 10
460.383129
 20
672.691323
 30
0.0
 40
1.5
  0
CIRCLE
  5
5A9
100
AcDbEntity
  8
SILK
100
AcDbCircle
 10
462.383129
 20
683.083628
 30
0.0
 40
1.5
  0
CIRCLE
  5
5AA
100
AcDbEntity
  8
SILK
100
AcDbCircle
 10
458.383129
 20
683.083628
 30
0.0
 40
1.5
  0
CIRCLE
  5
5AB
100
AcDbEntity
  8
SILK
100
AcDbCircle
 10
474.383129
 20
676.155425
 30
0.0
 40
1.5
  0
CIRCLE
  5
5AC
100
AcDbEntity
  8
SILK
100
AcDbCircle
 10
470.383129
 20
676.155425
 30
0.0
 40
1.5
  0
CIRCLE
  5
5AD
100
AcDbEntity
  8
SILK
100
AcDbCircle
 10
472.383129
 20
679.619526
 30
0.0
 40
1.5
  0
CIRCLE
  5
5AE
100
AcDbEntity
  8
SILK
100
AcDbCircle
 10
468.383129
 20
679.619526
 30
0.0
 40
1.5
  0
CIRCLE
  5
5AF
100
AcDbEntity
  8
SILK
100
AcDbCircle
 10
472.383129
 20
672.691323
 30
0.0
 40
1.5
  0
CIRCLE
  5
5B0
100
AcDbEntity
  8
SILK
100
AcDbCircle
 10
468.383129
 20
672.691323
 30
0.0
 40
1.5
  0
CIRCLE
  5
5B1
100
AcDbEntity
  8
SILK
100
AcDbCircle
 10
470.383129
 20
683.083628
 30
0.0
 40
1.5
  0
LINE
  5
5B2
100
AcDbEntity
  8
1
  6
HIDDEN
100
AcDbLine
 10
518.865601
 20
709.408647
 30
0.0
 11
501.415601
 21
709.713237
 31
0.0
  0
TEXT
  5
5D1
100
AcDbEntity
  8
SCALE
100
AcDbText
 10
830.052021
 20
337.344294
 30
0.0
 40
13.2
  1
%%C21.6
  7
UT7
100
AcDbText
  0
LINE
  5
5D2
100
AcDbEntity
  8
SCALE
100
AcDbLine
 10
830.052021
 20
331.344294
 30
0.0
 11
881.246912
 21
331.344294
 31
0.0
  0
ARC
  5
5D3
100
AcDbEntity
  8
0
100
AcDbCircle
 10
1032.205839
 20
547.700146
 30
0.0
 40
149.0
100
AcDbArc
 50
180.0
 51
249.084595
  0
LINE
  5
5D5
100
AcDbEntity
  8
SCALE
100
AcDbLine
 10
709.543293
 20
228.086566
 30
0.0
 11
830.052021
 21
331.344294
 31
0.0
  0
DIMENSION
  5
5D6
100
AcDbEntity
  8
SCALE
100
AcDbDimension
  2
*D8
 10
801.64245
 20
331.344294
 30
0.0
 11
700.14245
 21
344.544294
 31
0.0
  1
203
  3
STANDARD
100
AcDbAlignedDimension
 13
598.64245
 23
245.770161
 33
0.0
 14
801.64245
 24
245.770161
 34
0.0
100
AcDbRotatedDimension
1001
ACAD
1000
DSTYLE
1002
{
1070
   140
1040
2.2
1070
   145
1040
1.0
1070
    74
1070
     0
1070
   172
1070
     1
1070
    73
1070
     0
1070
    40
1040
6.0
1070
    42
1040
2.0
1070
    44
1040
1.5
1070
    43
1040
10.0
1070
     5
1000
YAZ3
1070
    41
1040
1.5
1002
}
  0
DIMENSION
  5
5E3
100
AcDbEntity
  8
SCALE
100
AcDbDimension
  2
*D7
 10
760.14245
 20
303.913406
 30
0.0
 11
700.14245
 21
317.113406
 31
0.0
  1
120
  3
STANDARD
100
AcDbAlignedDimension
 13
640.14245
 23
265.770161
 33
0.0
 14
760.14245
 24
265.770161
 34
0.0
100
AcDbRotatedDimension
1001
ACAD
1000
DSTYLE
1002
{
1070
   140
1040
2.2
1070
   145
1040
1.0
1070
    74
1070
     0
1070
   172
1070
     1
1070
    73
1070
     0
1070
    40
1040
6.0
1070
    42
1040
2.0
1070
    44
1040
1.5
1070
    43
1040
10.0
1070
     5
1000
YAZ3
1070
    41
1040
1.5
1002
}
  0
DIMENSION
  5
5F0
100
AcDbEntity
  8
SCALE
100
AcDbDimension
  2
*D11
 10
723.1612
 20
110.211585
 30
0.0
 11
700.14245
 21
123.411585
 31
0.0
  1
46
  3
STANDARD
100
AcDbAlignedDimension
 13
677.1237
 23
166.098286
 33
0.0
 14
723.1612
 24
166.098286
 34
0.0
100
AcDbRotatedDimension
1001
ACAD
1000
DSTYLE
1002
{
1070
   140
1040
2.2
1070
   145
1040
1.0
1070
    74
1070
     0
1070
   172
1070
     1
1070
    73
1070
     0
1070
    40
1040
6.0
1070
    42
1040
2.0
1070
    44
1040
1.5
1070
    43
1040
10.0
1070
     5
1000
YAZ3
1070
    41
1040
1.5
1002
}
  0
CIRCLE
  5
5FD
100
AcDbEntity
  8
0
100
AcDbCircle
 10
700.14245
 20
222.770161
 30
0.0
 40
10.8
  0
LINE
  5
5FE
100
AcDbEntity
  8
0
100
AcDbLine
 10
751.64245
 20
282.670161
 30
0.0
 11
648.64245
 21
282.670161
 31
0.0
  0
LINE
  5
5FF
100
AcDbEntity
  8
0
100
AcDbLine
 10
751.64245
 20
288.670161
 30
0.0
 11
648.64245
 21
288.670161
 31
0.0
  0
LINE
  5
600
100
AcDbEntity
  8
0
100
AcDbLine
 10
751.64245
 20
295.770161
 30
0.0
 11
648.64245
 21
295.770161
 31
0.0
  0
LINE
  5
601
100
AcDbEntity
  8
0
100
AcDbLine
 10
648.64245
 20
146.870161
 30
0.0
 11
751.64245
 21
146.870161
 31
0.0
  0
LINE
  5
602
100
AcDbEntity
  8
0
100
AcDbLine
 10
751.64245
 20
140.870161
 30
0.0
 11
648.64245
 21
140.870161
 31
0.0
  0
LINE
  5
603
100
AcDbEntity
  8
0
100
AcDbLine
 10
648.64245
 20
133.770161
 30
0.0
 11
751.64245
 21
133.770161
 31
0.0
  0
LINE
  5
604
100
AcDbEntity
  8
1
  6
HIDDEN
100
AcDbLine
 10
775.14245
 20
239.770161
 30
0.0
 11
625.14245
 21
239.770161
 31
0.0
  0
LINE
  5
605
100
AcDbEntity
  8
1
  6
HIDDEN
100
AcDbLine
 10
625.14245
 20
249.770161
 30
0.0
 11
775.14245
 21
249.770161
 31
0.0
  0
LINE
  5
606
100
AcDbEntity
  8
1
  6
HIDDEN
100
AcDbLine
 10
625.14245
 20
191.270161
 30
0.0
 11
775.14245
 21
191.270161
 31
0.0
  0
LINE
  5
607
100
AcDbEntity
  8
1
  6
HIDDEN
100
AcDbLine
 10
775.14245
 20
181.270161
 30
0.0
 11
625.14245
 21
181.270161
 31
0.0
  0
LINE
  5
608
100
AcDbEntity
  8
SCALE
100
AcDbLine
 10
675.204705
 20
169.995957
 30
0.0
 11
610.097145
 21
95.988859
 31
0.0
  0
LINE
  5
609
100
AcDbEntity
  8
SCALE
100
AcDbLine
 10
638.255295
 20
167.43807
 30
0.0
 11
592.155413
 21
126.551617
 31
0.0
  0
DIMENSION
  5
60A
100
AcDbEntity
  8
SCALE
100
AcDbDimension
  2
*D12
 10
585.224705
 20
173.098286
 30
0.0
 11
572.024705
 21
214.770161
 31
0.0
  1
83.5
  3
STANDARD
100
AcDbAlignedDimension
 13
670.1237
 23
256.442036
 33
0.0
 14
671.6237
 24
173.098286
 34
0.0
 50
90.0
100
AcDbRotatedDimension
1001
ACAD
1000
DSTYLE
1002
{
1070
   140
1040
2.2
1070
   145
1040
1.0
1070
    74
1070
     0
1070
   172
1070
     1
1070
    73
1070
     0
1070
    40
1040
6.0
1070
    42
1040
2.0
1070
    44
1040
1.5
1070
    43
1040
10.0
1070
     5
1000
YAZ3
1070
    41
1040
1.5
1002
}
  0
ARC
  5
617
100
AcDbEntity
  8
1
  6
HIDDEN
100
AcDbCircle
 10
625.14245
 20
244.770161
 30
0.0
 40
5.0
100
AcDbArc
 50
90.0
 51
180.0
  0
ARC
  5
618
100
AcDbEntity
  8
1
  6
HIDDEN
100
AcDbCircle
 10
625.14245
 20
244.770161
 30
0.0
 40
5.0
100
AcDbArc
 50
180.0
 51
270.0
  0
ARC
  5
619
100
AcDbEntity
  8
1
  6
HIDDEN
100
AcDbCircle
 10
625.14245
 20
186.270161
 30
0.0
 40
5.0
100
AcDbArc
 50
180.0
 51
270.0
  0
ARC
  5
61A
100
AcDbEntity
  8
1
  6
HIDDEN
100
AcDbCircle
 10
625.14245
 20
186.270161
 30
0.0
 40
5.0
100
AcDbArc
 50
90.0
 51
180.0
  0
ARC
  5
61B
100
AcDbEntity
  8
0
100
AcDbCircle
 10
648.64245
 20
183.770161
 30
0.0
 40
36.9
100
AcDbArc
 50
180.0
 51
270.0
  0
ARC
  5
61C
100
AcDbEntity
  8
0
100
AcDbCircle
 10
648.64245
 20
245.770161
 30
0.0
 40
36.9
100
AcDbArc
 50
90.0
 51
180.0
  0
ARC
  5
61D
100
AcDbEntity
  8
0
100
AcDbCircle
 10
648.64245
 20
245.770161
 30
0.0
 40
50.0
100
AcDbArc
 50
90.0
 51
180.0
  0
ARC
  5
61E
100
AcDbEntity
  8
0
100
AcDbCircle
 10
648.64245
 20
245.770161
 30
0.0
 40
42.9
100
AcDbArc
 50
90.0
 51
180.0
  0
ARC
  5
61F
100
AcDbEntity
  8
0
100
AcDbCircle
 10
648.64245
 20
183.770161
 30
0.0
 40
50.0
100
AcDbArc
 50
180.0
 51
270.0
  0
ARC
  5
620
100
AcDbEntity
  8
0
100
AcDbCircle
 10
648.64245
 20
183.770161
 30
0.0
 40
42.9
100
AcDbArc
 50
180.0
 51
270.0
  0
LINE
  5
621
100
AcDbEntity
  8
0
100
AcDbLine
 10
611.74245
 20
245.770161
 30
0.0
 11
611.74245
 21
183.770161
 31
0.0
  0
LINE
  5
622
100
AcDbEntity
  8
0
100
AcDbLine
 10
605.74245
 20
245.770161
 30
0.0
 11
605.74245
 21
183.770161
 31
0.0
  0
LINE
  5
623
100
AcDbEntity
  8
0
100
AcDbLine
 10
598.64245
 20
245.770161
 30
0.0
 11
598.64245
 21
183.770161
 31
0.0
  0
LINE
  5
624
100
AcDbEntity
  8
CENTER
100
AcDbLine
 10
646.14245
 20
169.770161
 30
0.0
 11
634.14245
 21
169.770161
 31
0.0
  0
INSERT
  5
627
100
AcDbEntity
  8
SCALE
100
AcDbBlockReference
  2
YAZ3
 10
638.255295
 20
167.43807
 30
0.0
 41
9.0
 42
9.0
 43
9.0
 50
41.570145
  0
LINE
  5
628
100
AcDbEntity
  8
CENTER
100
AcDbLine
 10
640.14245
 20
175.770161
 30
0.0
 11
640.14245
 21
163.770161
 31
0.0
  0
CIRCLE
  5
629
100
AcDbEntity
  8
0
100
AcDbCircle
 10
640.14245
 20
169.770161
 30
0.0
 40
3.0
  0
LINE
  5
62A
100
AcDbEntity
  8
CENTER
100
AcDbLine
 10
671.6237
 20
173.098286
 30
0.0
 11
682.6237
 21
173.098286
 31
0.0
  0
ARC
  5
62B
100
AcDbEntity
  8
0
100
AcDbCircle
 10
677.1237
 20
174.598286
 30
0.0
 40
2.5
100
AcDbArc
 50
0.0
 51
180.0
  0
ARC
  5
62C
100
AcDbEntity
  8
0
100
AcDbCircle
 10
677.1237
 20
171.598286
 30
0.0
 40
2.5
100
AcDbArc
 50
180.0
 51
360.0
  0
INSERT
  5
62D
100
AcDbEntity
  8
SCALE
100
AcDbBlockReference
  2
YAZ3
 10
675.204705
 20
169.995957
 30
0.0
 41
9.0
 42
9.0
 43
9.0
 50
48.660377
  0
LINE
  5
62E
100
AcDbEntity
  8
0
100
AcDbLine
 10
674.6237
 20
174.598286
 30
0.0
 11
674.6237
 21
171.598286
 31
0.0
  0
LINE
  5
62F
100
AcDbEntity
  8
0
100
AcDbLine
 10
679.6237
 20
171.598286
 30
0.0
 11
679.6237
 21
174.598286
 31
0.0
  0
LINE
  5
630
100
AcDbEntity
  8
CENTER
100
AcDbLine
 10
677.1237
 20
180.098286
 30
0.0
 11
677.1237
 21
166.098286
 31
0.0
  0
LINE
  5
631
100
AcDbEntity
  8
CENTER
100
AcDbLine
 10
634.14245
 20
259.770161
 30
0.0
 11
646.14245
 21
259.770161
 31
0.0
  0
LINE
  5
632
100
AcDbEntity
  8
CENTER
100
AcDbLine
 10
640.14245
 20
265.770161
 30
0.0
 11
640.14245
 21
253.770161
 31
0.0
  0
CIRCLE
  5
633
100
AcDbEntity
  8
0
100
AcDbCircle
 10
640.14245
 20
259.770161
 30
0.0
 40
3.0
  0
LINE
  5
634
100
AcDbEntity
  8
CENTER
100
AcDbLine
 10
670.1237
 20
256.442036
 30
0.0
 11
684.1237
 21
256.442036
 31
0.0
  0
LINE
  5
635
100
AcDbEntity
  8
0
100
AcDbLine
 10
678.6237
 20
258.942036
 30
0.0
 11
675.6237
 21
258.942036
 31
0.0
  0
LINE
  5
636
100
AcDbEntity
  8
0
100
AcDbLine
 10
675.6237
 20
253.942036
 30
0.0
 11
678.6237
 21
253.942036
 31
0.0
  0
ARC
  5
637
100
AcDbEntity
  8
0
100
AcDbCircle
 10
675.6237
 20
256.442036
 30
0.0
 40
2.5
100
AcDbArc
 50
90.0
 51
270.0
  0
ARC
  5
638
100
AcDbEntity
  8
0
100
AcDbCircle
 10
678.6237
 20
256.442036
 30
0.0
 40
2.5
100
AcDbArc
 50
270.0
 51
450.0
  0
LINE
  5
639
100
AcDbEntity
  8
CENTER
100
AcDbLine
 10
677.1237
 20
261.942036
 30
0.0
 11
677.1237
 21
250.942036
 31
0.0
  0
TEXT
  5
63A
100
AcDbEntity
  8
1
100
AcDbText
 10
751.974048
 20
77.880148
 30
0.0
 40
15.0
  1
Base Frame
 41
0.8
  7
UT7
 72
     1
 11
805.116905
 21
77.880148
 31
0.0
100
AcDbText
  0
LINE
  5
63B
100
AcDbEntity
  8
1
100
AcDbLine
 10
750.116905
 20
71.880148
 30
0.0
 11
860.116905
 21
71.880148
 31
0.0
  0
DIMENSION
  5
63C
100
AcDbEntity
  8
SCALE
100
AcDbDimension
  2
*D10
 10
856.234134
 20
133.770161
 30
0.0
 11
843.034134
 21
214.770161
 31
0.0
  1
162
  3
STANDARD
100
AcDbAlignedDimension
 13
751.64245
 23
295.770161
 33
0.0
 14
751.64245
 24
133.770161
 34
0.0
 50
90.0
100
AcDbRotatedDimension
1001
ACAD
1000
DSTYLE
1002
{
1070
   140
1040
2.2
1070
   145
1040
1.0
1070
    74
1070
     0
1070
   172
1070
     1
1070
    73
1070
     0
1070
    40
1040
6.0
1070
    42
1040
2.0
1070
    44
1040
1.5
1070
    43
1040
10.0
1070
     5
1000
YAZ3
1070
    41
1040
1.5
1002
}
  0
DIMENSION
  5
649
100
AcDbEntity
  8
SCALE
100
AcDbDimension
  2
*D9
 10
828.233279
 20
169.770161
 30
0.0
 11
815.033279
 21
214.770161
 31
0.0
  1
90
  3
STANDARD
100
AcDbAlignedDimension
 13
766.14245
 23
259.770161
 33
0.0
 14
768.14245
 24
169.770161
 34
0.0
 50
90.0
100
AcDbRotatedDimension
1001
ACAD
1000
DSTYLE
1002
{
1070
   140
1040
2.2
1070
   145
1040
1.0
1070
    74
1070
     0
1070
   172
1070
     1
1070
    73
1070
     0
1070
    40
1040
6.0
1070
    42
1040
2.0
1070
    44
1040
1.5
1070
    43
1040
10.0
1070
     5
1000
YAZ3
1070
    41
1040
1.5
1002
}
  0
ARC
  5
656
100
AcDbEntity
  8
0
100
AcDbCircle
 10
751.64245
 20
183.770161
 30
0.0
 40
36.9
100
AcDbArc
 50
270.0
 51
360.0
  0
ARC
  5
657
100
AcDbEntity
  8
0
100
AcDbCircle
 10
751.64245
 20
245.770161
 30
0.0
 40
36.9
100
AcDbArc
 50
0.0
 51
90.0
  0
ARC
  5
658
100
AcDbEntity
  8
0
100
AcDbCircle
 10
751.64245
 20
245.770161
 30
0.0
 40
50.0
100
AcDbArc
 50
0.0
 51
90.0
  0
ARC
  5
659
100
AcDbEntity
  8
0
100
AcDbCircle
 10
751.64245
 20
245.770161
 30
0.0
 40
42.9
100
AcDbArc
 50
0.0
 51
90.0
  0
ARC
  5
65A
100
AcDbEntity
  8
0
100
AcDbCircle
 10
751.64245
 20
183.770161
 30
0.0
 40
50.0
100
AcDbArc
 50
270.0
 51
360.0
  0
ARC
  5
65B
100
AcDbEntity
  8
0
100
AcDbCircle
 10
751.64245
 20
183.770161
 30
0.0
 40
42.9
100
AcDbArc
 50
270.0
 51
360.0
  0
ARC
  5
65C
100
AcDbEntity
  8
1
  6
HIDDEN
100
AcDbCircle
 10
775.14245
 20
186.270161
 30
0.0
 40
5.0
100
AcDbArc
 50
270.0
 51
360.0
  0
LINE
  5
65D
100
AcDbEntity
  8
CENTER
100
AcDbLine
 10
717.6612
 20
173.098286
 30
0.0
 11
728.6612
 21
173.098286
 31
0.0
  0
LINE
  5
65E
100
AcDbEntity
  8
CENTER
100
AcDbLine
 10
723.1612
 20
166.098286
 30
0.0
 11
723.1612
 21
180.098286
 31
0.0
  0
ARC
  5
65F
100
AcDbEntity
  8
0
100
AcDbCircle
 10
723.1612
 20
174.598286
 30
0.0
 40
2.5
100
AcDbArc
 50
0.0
 51
180.0
  0
ARC
  5
660
100
AcDbEntity
  8
0
100
AcDbCircle
 10
723.1612
 20
171.598286
 30
0.0
 40
2.5
100
AcDbArc
 50
180.0
 51
360.0
  0
LINE
  5
661
100
AcDbEntity
  8
0
100
AcDbLine
 10
720.6612
 20
174.598286
 30
0.0
 11
720.6612
 21
171.598286
 31
0.0
  0
LINE
  5
662
100
AcDbEntity
  8
0
100
AcDbLine
 10
725.6612
 20
171.598286
 30
0.0
 11
725.6612
 21
174.598286
 31
0.0
  0
LINE
  5
663
100
AcDbEntity
  8
CENTER
100
AcDbLine
 10
768.14245
 20
169.770161
 30
0.0
 11
754.14245
 21
169.770161
 31
0.0
  0
CIRCLE
  5
664
100
AcDbEntity
  8
0
100
AcDbCircle
 10
760.14245
 20
169.770161
 30
0.0
 40
3.0
  0
LINE
  5
665
100
AcDbEntity
  8
CENTER
100
AcDbLine
 10
760.14245
 20
177.770161
 30
0.0
 11
760.14245
 21
161.770161
 31
0.0
  0
INSERT
  5
666
100
AcDbEntity
  8
SCALE
100
AcDbBlockReference
  2
YAZ3
 10
709.543293
 20
228.086566
 30
0.0
 41
9.0
 42
9.0
 43
9.0
 50
220.591572
  0
LINE
  5
667
100
AcDbEntity
  8
CENTER
100
AcDbLine
 10
716.1612
 20
256.442036
 30
0.0
 11
730.1612
 21
256.442036
 31
0.0
  0
ARC
  5
668
100
AcDbEntity
  8
0
100
AcDbCircle
 10
721.6612
 20
256.442036
 30
0.0
 40
2.5
100
AcDbArc
 50
90.0
 51
270.0
  0
LINE
  5
669
100
AcDbEntity
  8
CENTER
100
AcDbLine
 10
723.1612
 20
261.942036
 30
0.0
 11
723.1612
 21
250.942036
 31
0.0
  0
LINE
  5
66A
100
AcDbEntity
  8
0
100
AcDbLine
 10
724.6612
 20
258.942036
 30
0.0
 11
721.6612
 21
258.942036
 31
0.0
  0
LINE
  5
66B
100
AcDbEntity
  8
0
100
AcDbLine
 10
721.6612
 20
253.942036
 30
0.0
 11
724.6612
 21
253.942036
 31
0.0
  0
ARC
  5
66C
100
AcDbEntity
  8
0
100
AcDbCircle
 10
724.6612
 20
256.442036
 30
0.0
 40
2.5
100
AcDbArc
 50
270.0
 51
450.0
  0
ARC
  5
66D
100
AcDbEntity
  8
1
  6
HIDDEN
100
AcDbCircle
 10
775.14245
 20
244.770161
 30
0.0
 40
5.0
100
AcDbArc
 50
0.0
 51
90.0
  0
LINE
  5
66E
100
AcDbEntity
  8
0
100
AcDbLine
 10
788.54245
 20
183.770161
 30
0.0
 11
788.54245
 21
245.770161
 31
0.0
  0
ARC
  5
66F
100
AcDbEntity
  8
1
  6
HIDDEN
100
AcDbCircle
 10
775.14245
 20
186.270161
 30
0.0
 40
5.0
100
AcDbArc
 50
0.0
 51
90.0
  0
ARC
  5
670
100
AcDbEntity
  8
1
  6
HIDDEN
100
AcDbCircle
 10
775.14245
 20
244.770161
 30
0.0
 40
5.0
100
AcDbArc
 50
270.0
 51
360.0
  0
LINE
  5
671
100
AcDbEntity
  8
CENTER
100
AcDbLine
 10
754.14245
 20
259.770161
 30
0.0
 11
766.14245
 21
259.770161
 31
0.0
  0
CIRCLE
  5
672
100
AcDbEntity
  8
0
100
AcDbCircle
 10
760.14245
 20
259.770161
 30
0.0
 40
3.0
  0
LINE
  5
673
100
AcDbEntity
  8
CENTER
100
AcDbLine
 10
760.14245
 20
265.770161
 30
0.0
 11
760.14245
 21
253.770161
 31
0.0
  0
LINE
  5
674
100
AcDbEntity
  8
0
100
AcDbLine
 10
801.64245
 20
183.770161
 30
0.0
 11
801.64245
 21
245.770161
 31
0.0
  0
LINE
  5
675
100
AcDbEntity
  8
0
100
AcDbLine
 10
794.54245
 20
183.770161
 30
0.0
 11
794.54245
 21
245.770161
 31
0.0
  0
LINE
  5
676
100
AcDbEntity
  8
1
100
AcDbLine
 10
655.14245
 20
359.638863
 30
0.0
 11
745.14245
 21
359.638863
 31
0.0
  0
TEXT
  5
677
100
AcDbEntity
  8
1
100
AcDbText
 10
656.713879
 20
365.638863
 30
0.0
 40
15.0
  1
Rear View
 41
0.8
  7
UT7
 72
     1
 11
700.14245
 21
365.638863
 31
0.0
100
AcDbText
  0
LINE
  5
678
100
AcDbEntity
  8
SILK
100
AcDbLine
 10
709.79245
 20
633.670117
 30
0.0
 11
705.74245
 21
633.670117
 31
0.0
  0
LINE
  5
679
100
AcDbEntity
  8
SILK
100
AcDbLine
 10
705.74245
 20
638.770117
 30
0.0
 11
709.79245
 21
638.770117
 31
0.0
  0
LINE
  5
67A
100
AcDbEntity
  8
SILK
100
AcDbLine
 10
709.79245
 20
639.470117
 30
0.0
 11
705.74245
 21
639.470117
 31
0.0
  0
LINE
  5
67B
100
AcDbEntity
  8
SILK
100
AcDbLine
 10
705.74245
 20
644.570117
 30
0.0
 11
709.79245
 21
644.570117
 31
0.0
  0
LINE
  5
67C
100
AcDbEntity
  8
SILK
100
AcDbLine
 10
709.76245
 20
620.700117
 30
0.0
 11
705.76245
 21
620.700117
 31
0.0
  0
LINE
  5
67D
100
AcDbEntity
  8
SILK
100
AcDbLine
 10
705.76245
 20
616.700117
 30
0.0
 11
709.76245
 21
616.700117
 31
0.0
  0
LINE
  5
67E
100
AcDbEntity
  8
SILK
100
AcDbLine
 10
689.98245
 20
607.300117
 30
0.0
 11
710.30245
 21
607.300117
 31
0.0
  0
LINE
  5
67F
100
AcDbEntity
  8
SILK
100
AcDbLine
 10
689.98245
 20
622.500117
 30
0.0
 11
710.30245
 21
622.500117
 31
0.0
  0
LINE
  5
680
100
AcDbEntity
  8
0
100
AcDbLine
 10
648.64245
 20
685.700176
 30
0.0
 11
751.64245
 21
685.700176
 31
0.0
  0
LINE
  5
681
100
AcDbEntity
  8
SILK
100
AcDbLine
 10
721.59245
 20
645.620117
 30
0.0
 11
705.74245
 21
645.620117
 31
0.0
  0
LINE
  5
682
100
AcDbEntity
  8
SILK
100
AcDbLine
 10
721.59245
 20
631.820117
 30
0.0
 11
705.74245
 21
631.820117
 31
0.0
  0
LINE
  5
683
100
AcDbEntity
  8
SILK
100
AcDbLine
 10
721.59245
 20
632.620117
 30
0.0
 11
705.74245
 21
632.620117
 31
0.0
  0
LINE
  5
684
100
AcDbEntity
  8
0
100
AcDbLine
 10
672.14245
 20
605.700117
 30
0.0
 11
732.14245
 21
605.700117
 31
0.0
  0
LINE
  5
685
100
AcDbEntity
  8
0
100
AcDbLine
 10
668.14245
 20
648.700117
 30
0.0
 11
732.14245
 21
648.700117
 31
0.0
  0
LINE
  5
686
100
AcDbEntity
  8
0
100
AcDbLine
 10
648.64245
 20
674.20337
 30
0.0
 11
751.64245
 21
674.20337
 31
0.0
  0
LINE
  5
687
100
AcDbEntity
  8
0
100
AcDbLine
 10
751.64245
 20
675.70337
 30
0.0
 11
648.64245
 21
675.70337
 31
0.0
  0
LINE
  5
688
100
AcDbEntity
  8
0
100
AcDbLine
 10
668.14245
 20
592.700117
 30
0.0
 11
732.14245
 21
592.700117
 31
0.0
  0
LINE
  5
689
100
AcDbEntity
  8
0
100
AcDbLine
 10
752.35159
 20
534.196923
 30
0.0
 11
647.93331
 21
534.196923
 31
0.0
  0
LINE
  5
68A
100
AcDbEntity
  8
0
100
AcDbLine
 10
751.64245
 20
522.700117
 30
0.0
 11
648.64245
 21
522.700117
 31
0.0
  0
LINE
  5
68B
100
AcDbEntity
  8
0
100
AcDbLine
 10
648.64245
 20
532.690475
 30
0.0
 11
751.64245
 21
532.690475
 31
0.0
  0
LINE
  5
68C
100
AcDbEntity
  8
0
100
AcDbLine
 10
651.676132
 20
421.700083
 30
0.0
 11
748.608768
 21
421.700083
 31
0.0
  0
LINE
  5
68D
100
AcDbEntity
  8
0
100
AcDbLine
 10
807.794067
 20
717.700146
 30
0.0
 11
592.490833
 21
717.700146
 31
0.0
  0
LINE
  5
68E
100
AcDbEntity
  8
0
100
AcDbLine
 10
807.794067
 20
714.700146
 30
0.0
 11
592.490833
 21
714.700146
 31
0.0
  0
LINE
  5
68F
100
AcDbEntity
  8
0
100
AcDbLine
 10
798.14245
 20
709.698129
 30
0.0
 11
602.14245
 21
709.698129
 31
0.0
  0
ARC
  5
690
100
AcDbEntity
  8
0
100
AcDbCircle
 10
700.14245
 20
547.700146
 30
0.0
 40
147.651617
100
AcDbArc
 50
180.0
 51
360.0
  0
ARC
  5
691
100
AcDbEntity
  8
0
100
AcDbCircle
 10
700.14245
 20
547.700146
 30
0.0
 40
144.651617
100
AcDbArc
 50
180.0
 51
360.0
  0
ARC
  5
692
100
AcDbEntity
  8
0
100
AcDbCircle
 10
648.64245
 20
573.200117
 30
0.0
 40
50.5
100
AcDbArc
 50
180.0
 51
270.0
  0
ARC
  5
693
100
AcDbEntity
  8
0
100
AcDbCircle
 10
648.64245
 20
573.193669
 30
0.0
 40
40.503194
100
AcDbArc
 50
180.0
 51
270.0
  0
ARC
  5
694
100
AcDbEntity
  8
0
100
AcDbCircle
 10
648.64245
 20
573.193669
 30
0.0
 40
39.003194
100
AcDbArc
 50
180.0
 51
268.958214
  0
LINE
  5
695
100
AcDbEntity
  8
0
100
AcDbLine
 10
565.14245
 20
547.700146
 30
0.0
 11
565.14245
 21
672.698129
 31
0.0
  0
LINE
  5
696
100
AcDbEntity
  8
0
100
AcDbLine
 10
555.490833
 20
677.700146
 30
0.0
 11
555.490833
 21
547.700146
 31
0.0
  0
LINE
  5
697
100
AcDbEntity
  8
0
100
AcDbLine
 10
552.490833
 20
677.700146
 30
0.0
 11
552.490833
 21
547.700146
 31
0.0
  0
ARC
  5
698
100
AcDbEntity
  8
0
100
AcDbCircle
 10
700.14245
 20
547.700146
 30
0.0
 40
135.0
100
AcDbArc
 50
180.0
 51
248.960605
  0
CIRCLE
  5
699
100
AcDbEntity
  8
SILK
100
AcDbCircle
 10
585.251741
 20
516.698129
 30
0.0
 40
4.1
  0
LINE
  5
69A
100
AcDbEntity
  8
SILK
100
AcDbLine
 10
583.766817
 20
518.183053
 30
0.0
 11
586.736666
 21
515.213205
 31
0.0
  0
LINE
  5
69B
100
AcDbEntity
  8
SILK
100
AcDbLine
 10
583.766817
 20
515.213205
 30
0.0
 11
586.736666
 21
518.183053
 31
0.0
  0
LINE
  5
69C
100
AcDbEntity
  8
SILK
100
AcDbLine
 10
650.657526
 20
440.295218
 30
0.0
 11
653.627374
 21
437.325369
 31
0.0
  0
LINE
  5
69D
100
AcDbEntity
  8
SILK
100
AcDbLine
 10
650.657526
 20
437.325369
 30
0.0
 11
653.627374
 21
440.295218
 31
0.0
  0
CIRCLE
  5
69E
100
AcDbEntity
  8
SILK
100
AcDbCircle
 10
652.14245
 20
438.810294
 30
0.0
 40
4.1
  0
ARC
  5
69F
100
AcDbEntity
  8
0
100
AcDbCircle
 10
652.424691
 20
425.700083
 30
0.0
 40
4.0
100
AcDbArc
 50
248.638093
 51
270.0
  0
CIRCLE
  5
6A0
100
AcDbEntity
  8
0
100
AcDbCircle
 10
700.14245
 20
414.696952
 30
0.0
 40
4.1
  0
ARC
  5
6A1
100
AcDbEntity
  8
0
100
AcDbCircle
 10
700.14245
 20
414.696952
 30
0.0
 40
5.496806
100
AcDbArc
 50
180.0
 51
270.0
  0
LINE
  5
6A2
100
AcDbEntity
  8
0
100
AcDbLine
 10
694.645644
 20
421.700083
 30
0.0
 11
694.645644
 21
414.696952
 31
0.0
  0
ARC
  5
6A3
100
AcDbEntity
  8
0
100
AcDbCircle
 10
700.14245
 20
414.696952
 30
0.0
 40
5.496806
100
AcDbArc
 50
270.0
 51
360.0
  0
LINE
  5
6A4
100
AcDbEntity
  8
0
100
AcDbLine
 10
705.639256
 20
414.696952
 30
0.0
 11
705.639256
 21
421.700083
 31
0.0
  0
CIRCLE
  5
6A5
100
AcDbEntity
  8
SILK
100
AcDbCircle
 10
700.14245
 20
501.699581
 30
0.0
 40
4.1
  0
LINE
  5
6A6
100
AcDbEntity
  8
SILK
100
AcDbLine
 10
698.657526
 20
503.184505
 30
0.0
 11
701.627374
 21
500.214657
 31
0.0
  0
LINE
  5
6A7
100
AcDbEntity
  8
SILK
100
AcDbLine
 10
698.657526
 20
500.214657
 30
0.0
 11
701.627374
 21
503.184505
 31
0.0
  0
ARC
  5
6A8
100
AcDbEntity
  8
0
100
AcDbCircle
 10
648.64245
 20
635.200176
 30
0.0
 40
50.5
100
AcDbArc
 50
90.0
 51
180.0
  0
ARC
  5
6A9
100
AcDbEntity
  8
0
100
AcDbCircle
 10
648.64245
 20
635.200176
 30
0.0
 40
40.503194
100
AcDbArc
 50
90.0
 51
180.0
  0
ARC
  5
6AA
100
AcDbEntity
  8
0
100
AcDbCircle
 10
648.64245
 20
635.200176
 30
0.0
 40
39.003194
100
AcDbArc
 50
90.0
 51
180.0
  0
ARC
  5
6AB
100
AcDbEntity
  8
0
100
AcDbCircle
 10
602.14245
 20
672.698129
 30
0.0
 40
37.0
100
AcDbArc
 50
90.0
 51
180.0
  0
ARC
  5
6AC
100
AcDbEntity
  8
0
100
AcDbCircle
 10
592.490833
 20
677.700146
 30
0.0
 40
37.0
100
AcDbArc
 50
90.0
 51
180.0
  0
ARC
  5
6AD
100
AcDbEntity
  8
0
100
AcDbCircle
 10
592.490833
 20
677.700146
 30
0.0
 40
40.0
100
AcDbArc
 50
90.0
 51
180.0
  0
CIRCLE
  5
6AE
100
AcDbEntity
  8
SILK
100
AcDbCircle
 10
581.14245
 20
645.700117
 30
0.0
 40
4.1
  0
LINE
  5
6AF
100
AcDbEntity
  8
SILK
100
AcDbLine
 10
579.657526
 20
647.185041
 30
0.0
 11
582.627374
 21
644.215192
 31
0.0
  0
LINE
  5
6B0
100
AcDbEntity
  8
SILK
100
AcDbLine
 10
579.657526
 20
644.215192
 30
0.0
 11
582.627374
 21
647.185041
 31
0.0
  0
CIRCLE
  5
6B1
100
AcDbEntity
  8
SILK
100
AcDbCircle
 10
580.139256
 20
606.196923
 30
0.0
 40
3.464102
  0
LINE
  5
6B2
100
AcDbEntity
  8
SILK
100
AcDbLine
 10
582.139256
 20
602.732821
 30
0.0
 11
584.139256
 21
606.196923
 31
0.0
  0
LINE
  5
6B3
100
AcDbEntity
  8
SILK
100
AcDbLine
 10
584.139256
 20
606.196923
 30
0.0
 11
582.139256
 21
609.661024
 31
0.0
  0
LINE
  5
6B4
100
AcDbEntity
  8
0
100
AcDbLine
 10
580.139256
 20
615.196923
 30
0.0
 11
599.534913
 21
615.196923
 31
0.0
  0
LINE
  5
6B5
100
AcDbEntity
  8
0
100
AcDbLine
 10
598.14245
 20
616.196923
 30
0.0
 11
565.14245
 21
616.196923
 31
0.0
  0
ARC
  5
6B6
100
AcDbEntity
  8
0
100
AcDbCircle
 10
580.139256
 20
606.196923
 30
0.0
 40
25.0
100
AcDbArc
 50
270.0
 51
302.400106
  0
LINE
  5
6B7
100
AcDbEntity
  8
0
100
AcDbLine
 10
601.139256
 20
597.196923
 30
0.0
 11
580.139256
 21
597.196923
 31
0.0
  0
LINE
  5
6B8
100
AcDbEntity
  8
0
100
AcDbLine
 10
571.139256
 20
593.196923
 30
0.0
 11
571.139256
 21
606.196923
 31
0.0
  0
ARC
  5
6B9
100
AcDbEntity
  8
0
100
AcDbCircle
 10
571.576393
 20
586.196923
 30
0.0
 40
2.0
100
AcDbArc
 50
270.0
 51
330.350136
  0
LINE
  5
6BA
100
AcDbEntity
  8
0
100
AcDbLine
 10
580.139256
 20
581.196923
 30
0.0
 11
565.14245
 21
581.196923
 31
0.0
  0
ARC
  5
6BB
100
AcDbEntity
  8
0
100
AcDbCircle
 10
569.139256
 20
593.196923
 30
0.0
 40
2.0
100
AcDbArc
 50
270.0
 51
360.0
  0
LINE
  5
6BC
100
AcDbEntity
  8
0
100
AcDbLine
 10
571.576393
 20
584.196923
 30
0.0
 11
566.139256
 21
584.196923
 31
0.0
  0
LINE
  5
6BD
100
AcDbEntity
  8
0
100
AcDbLine
 10
566.139256
 20
591.196923
 30
0.0
 11
566.139256
 21
584.196923
 31
0.0
  0
LINE
  5
6BE
100
AcDbEntity
  8
0
100
AcDbLine
 10
566.139256
 20
591.196923
 30
0.0
 11
569.139256
 21
591.196923
 31
0.0
  0
LINE
  5
6BF
100
AcDbEntity
  8
0
100
AcDbLine
 10
580.139256
 20
597.196923
 30
0.0
 11
573.314522
 21
585.207526
 31
0.0
  0
ARC
  5
6C0
100
AcDbEntity
  8
0
100
AcDbCircle
 10
580.139256
 20
606.196923
 30
0.0
 40
9.0
100
AcDbArc
 50
90.0
 51
180.0
  0
LINE
  5
6C1
100
AcDbEntity
  8
SILK
100
AcDbLine
 10
582.139256
 20
609.661024
 30
0.0
 11
578.139256
 21
609.661024
 31
0.0
  0
LINE
  5
6C2
100
AcDbEntity
  8
SILK
100
AcDbLine
 10
578.139256
 20
602.732821
 30
0.0
 11
582.139256
 21
602.732821
 31
0.0
  0
LINE
  5
6C3
100
AcDbEntity
  8
SILK
100
AcDbLine
 10
578.139256
 20
609.661024
 30
0.0
 11
576.139256
 21
606.196923
 31
0.0
  0
LINE
  5
6C4
100
AcDbEntity
  8
SILK
100
AcDbLine
 10
576.139256
 20
606.196923
 30
0.0
 11
578.139256
 21
602.732821
 31
0.0
  0
LINE
  5
6C5
100
AcDbEntity
  8
0
100
AcDbLine
 10
598.14245
 20
635.200176
 30
0.0
 11
598.14245
 21
616.196923
 31
0.0
  0
LINE
  5
6C6
100
AcDbEntity
  8
0
100
AcDbLine
 10
608.139256
 20
635.200176
 30
0.0
 11
608.139256
 21
573.193669
 31
0.0
  0
LINE
  5
6C7
100
AcDbEntity
  8
0
100
AcDbLine
 10
609.639256
 20
573.193669
 30
0.0
 11
609.639256
 21
635.200176
 31
0.0
  0
ARC
  5
6C8
100
AcDbEntity
  8
0
100
AcDbCircle
 10
601.139256
 20
599.196923
 30
0.0
 40
2.0
100
AcDbArc
 50
270.0
 51
360.0
  0
LINE
  5
6C9
100
AcDbEntity
  8
0
100
AcDbLine
 10
587.539256
 20
615.196923
 30
0.0
 11
587.539256
 21
597.196923
 31
0.0
  0
LINE
  5
6CA
100
AcDbEntity
  8
0
100
AcDbLine
 10
603.139256
 20
605.977378
 30
0.0
 11
603.139256
 21
599.196923
 31
0.0
  0
ARC
  5
6CB
100
AcDbEntity
  8
0
100
AcDbCircle
 10
595.14245
 20
582.555768
 30
0.0
 40
3.0
100
AcDbArc
 50
0.0
 51
122.400106
  0
LINE
  5
6CC
100
AcDbEntity
  8
0
100
AcDbLine
 10
594.139256
 20
597.196923
 30
0.0
 11
594.139256
 21
585.383064
 31
0.0
  0
LINE
  5
6CD
100
AcDbEntity
  8
0
100
AcDbLine
 10
598.14245
 20
582.555768
 30
0.0
 11
598.14245
 21
573.200117
 31
0.0
  0
ARC
  5
6CE
100
AcDbEntity
  8
0
100
AcDbCircle
 10
601.139256
 20
605.977378
 30
0.0
 40
2.0
100
AcDbArc
 50
0.0
 51
12.528808
  0
ARC
  5
6CF
100
AcDbEntity
  8
0
100
AcDbCircle
 10
599.534913
 20
613.196923
 30
0.0
 40
2.0
100
AcDbArc
 50
12.528808
 51
90.0
  0
LINE
  5
6D0
100
AcDbEntity
  8
0
100
AcDbLine
 10
594.139256
 20
616.196923
 30
0.0
 11
594.139256
 21
615.196923
 31
0.0
  0
LINE
  5
6D1
100
AcDbEntity
  8
0
100
AcDbLine
 10
601.487287
 20
613.630783
 30
0.0
 11
603.09163
 21
606.411239
 31
0.0
  0
CIRCLE
  5
6D2
100
AcDbEntity
  8
SILK
100
AcDbCircle
 10
652.14245
 20
693.700146
 30
0.0
 40
4.1
  0
ARC
  5
6D3
100
AcDbEntity
  8
0
100
AcDbCircle
 10
668.14245
 20
643.700117
 30
0.0
 40
5.0
100
AcDbArc
 50
90.0
 51
180.0
  0
ARC
  5
6D4
100
AcDbEntity
  8
0
100
AcDbCircle
 10
668.14245
 20
610.700117
 30
0.0
 40
5.0
100
AcDbArc
 50
180.0
 51
270.0
  0
LINE
  5
6D5
100
AcDbEntity
  8
0
100
AcDbLine
 10
663.14245
 20
632.200117
 30
0.0
 11
670.64245
 21
632.200117
 31
0.0
  0
LINE
  5
6D6
100
AcDbEntity
  8
0
100
AcDbLine
 10
663.372754
 20
645.200117
 30
0.0
 11
670.64245
 21
645.200117
 31
0.0
  0
ARC
  5
6D7
100
AcDbEntity
  8
0
100
AcDbCircle
 10
668.14245
 20
597.700117
 30
0.0
 40
5.0
100
AcDbArc
 50
180.0
 51
270.0
  0
LINE
  5
6D8
100
AcDbEntity
  8
0
100
AcDbLine
 10
663.14245
 20
643.700117
 30
0.0
 11
663.14245
 21
597.700117
 31
0.0
  0
LINE
  5
6D9
100
AcDbEntity
  8
SILK
100
AcDbLine
 10
650.657526
 20
695.18507
 30
0.0
 11
653.627374
 21
692.215222
 31
0.0
  0
LINE
  5
6DA
100
AcDbEntity
  8
SILK
100
AcDbLine
 10
650.657526
 20
692.215222
 30
0.0
 11
653.627374
 21
695.18507
 31
0.0
  0
LINE
  5
6DB
100
AcDbEntity
  8
SILK
100
AcDbLine
 10
699.54245
 20
633.670117
 30
0.0
 11
699.54245
 21
629.320117
 31
0.0
  0
LINE
  5
6DC
100
AcDbEntity
  8
SILK
100
AcDbLine
 10
705.74245
 20
629.320117
 30
0.0
 11
705.74245
 21
633.670117
 31
0.0
  0
LINE
  5
6DD
100
AcDbEntity
  8
SILK
100
AcDbLine
 10
684.54245
 20
633.670117
 30
0.0
 11
684.54245
 21
631.199964
 31
0.0
  0
LINE
  5
6DE
100
AcDbEntity
  8
SILK
100
AcDbLine
 10
690.74245
 20
629.320117
 30
0.0
 11
690.74245
 21
633.670117
 31
0.0
  0
ARC
  5
6DF
100
AcDbEntity
  8
SILK
100
AcDbCircle
 10
678.14245
 20
632.200117
 30
0.0
 40
1.0
100
AcDbArc
 50
180.0
 51
270.0
  0
LINE
  5
6E0
100
AcDbEntity
  8
SILK
100
AcDbLine
 10
684.54245
 20
629.320117
 30
0.0
 11
688.14245
 21
629.320117
 31
0.0
  0
LINE
  5
6E1
100
AcDbEntity
  8
0
100
AcDbLine
 10
668.14245
 20
605.700117
 30
0.0
 11
672.14245
 21
605.700117
 31
0.0
  0
LINE
  5
6E2
100
AcDbEntity
  8
SILK
100
AcDbLine
 10
684.54245
 20
631.199964
 30
0.0
 11
684.54245
 21
629.320117
 31
0.0
  0
LINE
  5
6E3
100
AcDbEntity
  8
SILK
100
AcDbLine
 10
684.54245
 20
631.200117
 30
0.0
 11
678.14245
 21
631.200117
 31
0.0
  0
CIRCLE
  5
6E4
100
AcDbEntity
  8
SILK
100
AcDbCircle
 10
683.14245
 20
618.700117
 30
0.0
 40
4.2
  0
CIRCLE
  5
6E5
100
AcDbEntity
  8
SILK
100
AcDbCircle
 10
700.14245
 20
586.699581
 30
0.0
 40
4.1
  0
LINE
  5
6E6
100
AcDbEntity
  8
SILK
100
AcDbLine
 10
698.657526
 20
588.184505
 30
0.0
 11
701.627374
 21
585.214657
 31
0.0
  0
LINE
  5
6E7
100
AcDbEntity
  8
SILK
100
AcDbLine
 10
698.657526
 20
585.214657
 30
0.0
 11
701.627374
 21
588.184505
 31
0.0
  0
LINE
  5
6E8
100
AcDbEntity
  8
SILK
100
AcDbLine
 10
695.60245
 20
616.700117
 30
0.0
 11
699.60245
 21
616.700117
 31
0.0
  0
LINE
  5
6E9
100
AcDbEntity
  8
SILK
100
AcDbLine
 10
699.60245
 20
620.700117
 30
0.0
 11
695.60245
 21
620.700117
 31
0.0
  0
LINE
  5
6EA
100
AcDbEntity
  8
SILK
100
AcDbLine
 10
695.60245
 20
620.700117
 30
0.0
 11
695.60245
 21
616.700117
 31
0.0
  0
LINE
  5
6EB
100
AcDbEntity
  8
SILK
100
AcDbLine
 10
694.52245
 20
616.700117
 30
0.0
 11
694.52245
 21
620.700117
 31
0.0
  0
LINE
  5
6EC
100
AcDbEntity
  8
SILK
100
AcDbLine
 10
688.14245
 20
629.320117
 30
0.0
 11
690.74245
 21
629.320117
 31
0.0
  0
LINE
  5
6ED
100
AcDbEntity
  8
SILK
100
AcDbLine
 10
689.14245
 20
613.700117
 30
0.0
 11
689.98245
 21
613.700117
 31
0.0
  0
LINE
  5
6EE
100
AcDbEntity
  8
SILK
100
AcDbLine
 10
689.98245
 20
622.500117
 30
0.0
 11
689.98245
 21
607.300117
 31
0.0
  0
LINE
  5
6EF
100
AcDbEntity
  8
SILK
100
AcDbLine
 10
690.52245
 20
620.700117
 30
0.0
 11
690.52245
 21
616.700117
 31
0.0
  0
LINE
  5
6F0
100
AcDbEntity
  8
SILK
100
AcDbLine
 10
688.14245
 20
614.700117
 30
0.0
 11
688.14245
 21
629.320117
 31
0.0
  0
LINE
  5
6F1
100
AcDbEntity
  8
SILK
100
AcDbLine
 10
690.52245
 20
616.700117
 30
0.0
 11
694.52245
 21
616.700117
 31
0.0
  0
LINE
  5
6F2
100
AcDbEntity
  8
SILK
100
AcDbLine
 10
694.52245
 20
620.700117
 30
0.0
 11
690.52245
 21
620.700117
 31
0.0
  0
ARC
  5
6F3
100
AcDbEntity
  8
SILK
100
AcDbCircle
 10
689.14245
 20
614.700117
 30
0.0
 40
1.0
100
AcDbArc
 50
180.0
 51
270.0
  0
LINE
  5
6F4
100
AcDbEntity
  8
SILK
100
AcDbLine
 10
699.54245
 20
629.320117
 30
0.0
 11
705.74245
 21
629.320117
 31
0.0
  0
LINE
  5
6F5
100
AcDbEntity
  8
SILK
100
AcDbLine
 10
700.68245
 20
620.700117
 30
0.0
 11
700.68245
 21
616.700117
 31
0.0
  0
LINE
  5
6F6
100
AcDbEntity
  8
SILK
100
AcDbLine
 10
700.68245
 20
616.700117
 30
0.0
 11
704.68245
 21
616.700117
 31
0.0
  0
LINE
  5
6F7
100
AcDbEntity
  8
SILK
100
AcDbLine
 10
699.60245
 20
616.700117
 30
0.0
 11
699.60245
 21
620.700117
 31
0.0
  0
LINE
  5
6F8
100
AcDbEntity
  8
SILK
100
AcDbLine
 10
704.68245
 20
620.700117
 30
0.0
 11
700.68245
 21
620.700117
 31
0.0
  0
LINE
  5
6F9
100
AcDbEntity
  8
SILK
100
AcDbLine
 10
704.68245
 20
616.700117
 30
0.0
 11
704.68245
 21
620.700117
 31
0.0
  0
LINE
  5
6FA
100
AcDbEntity
  8
SILK
100
AcDbLine
 10
705.76245
 20
620.700117
 30
0.0
 11
705.76245
 21
616.700117
 31
0.0
  0
ARC
  5
6FB
100
AcDbEntity
  8
SILK
100
AcDbCircle
 10
687.64245
 20
636.220117
 30
0.0
 40
1.0
100
AcDbArc
 50
180.0
 51
360.0
  0
ARC
  5
6FC
100
AcDbEntity
  8
SILK
100
AcDbCircle
 10
687.64245
 20
642.020117
 30
0.0
 40
1.0
100
AcDbArc
 50
0.0
 51
180.0
  0
LINE
  5
6FD
100
AcDbEntity
  8
SILK
100
AcDbLine
 10
690.74245
 20
647.020117
 30
0.0
 11
684.54245
 21
647.020117
 31
0.0
  0
LINE
  5
6FE
100
AcDbEntity
  8
SILK
100
AcDbLine
 10
689.79245
 20
633.670117
 30
0.0
 11
685.49245
 21
633.670117
 31
0.0
  0
LINE
  5
6FF
100
AcDbEntity
  8
SILK
100
AcDbLine
 10
689.79245
 20
644.570117
 30
0.0
 11
685.49245
 21
644.570117
 31
0.0
  0
LINE
  5
700
100
AcDbEntity
  8
SILK
100
AcDbLine
 10
684.54245
 20
633.220117
 30
0.0
 11
690.74245
 21
633.220117
 31
0.0
  0
ARC
  5
701
100
AcDbEntity
  8
0
100
AcDbCircle
 10
670.64245
 20
638.700117
 30
0.0
 40
6.5
100
AcDbArc
 50
270.0
 51
450.0
  0
ARC
  5
702
100
AcDbEntity
  8
SILK
100
AcDbCircle
 10
678.14245
 20
647.700117
 30
0.0
 40
1.0
100
AcDbArc
 50
90.0
 51
180.0
  0
LINE
  5
703
100
AcDbEntity
  8
SILK
100
AcDbLine
 10
684.54245
 20
647.020117
 30
0.0
 11
684.54245
 21
644.570117
 31
0.0
  0
LINE
  5
704
100
AcDbEntity
  8
SILK
100
AcDbLine
 10
681.71745
 20
634.480117
 30
0.0
 11
681.71745
 21
635.120117
 31
0.0
  0
LINE
  5
705
100
AcDbEntity
  8
SILK
100
AcDbLine
 10
683.56745
 20
634.480117
 30
0.0
 11
681.71745
 21
634.480117
 31
0.0
  0
LINE
  5
706
100
AcDbEntity
  8
SILK
100
AcDbLine
 10
684.54245
 20
645.620117
 30
0.0
 11
678.69245
 21
645.620117
 31
0.0
  0
LINE
  5
707
100
AcDbEntity
  8
SILK
100
AcDbLine
 10
683.56745
 20
635.120117
 30
0.0
 11
681.71745
 21
635.120117
 31
0.0
  0
LINE
  5
708
100
AcDbEntity
  8
SILK
100
AcDbLine
 10
681.71745
 20
640.280117
 30
0.0
 11
681.71745
 21
640.920117
 31
0.0
  0
LINE
  5
709
100
AcDbEntity
  8
SILK
100
AcDbLine
 10
683.56745
 20
640.280117
 30
0.0
 11
681.71745
 21
640.280117
 31
0.0
  0
LINE
  5
70A
100
AcDbEntity
  8
SILK
100
AcDbLine
 10
683.56745
 20
640.920117
 30
0.0
 11
681.71745
 21
640.920117
 31
0.0
  0
LINE
  5
70B
100
AcDbEntity
  8
SILK
100
AcDbLine
 10
684.54245
 20
633.670117
 30
0.0
 11
680.49245
 21
633.670117
 31
0.0
  0
LINE
  5
70C
100
AcDbEntity
  8
SILK
100
AcDbLine
 10
680.49245
 20
638.770117
 30
0.0
 11
684.54245
 21
638.770117
 31
0.0
  0
LINE
  5
70D
100
AcDbEntity
  8
SILK
100
AcDbLine
 10
680.49245
 20
633.670117
 30
0.0
 11
680.49245
 21
638.770117
 31
0.0
  0
LINE
  5
70E
100
AcDbEntity
  8
SILK
100
AcDbLine
 10
684.54245
 20
639.470117
 30
0.0
 11
680.49245
 21
639.470117
 31
0.0
  0
LINE
  5
70F
100
AcDbEntity
  8
SILK
100
AcDbLine
 10
680.49245
 20
639.470117
 30
0.0
 11
680.49245
 21
644.570117
 31
0.0
  0
LINE
  5
710
100
AcDbEntity
  8
SILK
100
AcDbLine
 10
680.49245
 20
644.570117
 30
0.0
 11
684.54245
 21
644.570117
 31
0.0
  0
LINE
  5
711
100
AcDbEntity
  8
SILK
100
AcDbLine
 10
684.54245
 20
632.620117
 30
0.0
 11
678.69245
 21
632.620117
 31
0.0
  0
LINE
  5
712
100
AcDbEntity
  8
SILK
100
AcDbLine
 10
685.49245
 20
638.770117
 30
0.0
 11
686.64245
 21
638.770117
 31
0.0
  0
LINE
  5
713
100
AcDbEntity
  8
SILK
100
AcDbLine
 10
685.49245
 20
639.470117
 30
0.0
 11
686.64245
 21
639.470117
 31
0.0
  0
LINE
  5
714
100
AcDbEntity
  8
SILK
100
AcDbLine
 10
686.64245
 20
642.020117
 30
0.0
 11
686.64245
 21
636.220117
 31
0.0
  0
LINE
  5
715
100
AcDbEntity
  8
SILK
100
AcDbLine
 10
685.49245
 20
633.670117
 30
0.0
 11
685.49245
 21
638.770117
 31
0.0
  0
LINE
  5
716
100
AcDbEntity
  8
SILK
100
AcDbLine
 10
685.49245
 20
644.570117
 30
0.0
 11
685.49245
 21
639.470117
 31
0.0
  0
LINE
  5
717
100
AcDbEntity
  8
SILK
100
AcDbLine
 10
683.56745
 20
635.120117
 30
0.0
 11
683.56745
 21
634.480117
 31
0.0
  0
LINE
  5
718
100
AcDbEntity
  8
SILK
100
AcDbLine
 10
683.56745
 20
640.920117
 30
0.0
 11
683.56745
 21
640.280117
 31
0.0
  0
LINE
  5
719
100
AcDbEntity
  8
SILK
100
AcDbLine
 10
684.54245
 20
638.770117
 30
0.0
 11
684.54245
 21
633.670117
 31
0.0
  0
LINE
  5
71A
100
AcDbEntity
  8
SILK
100
AcDbLine
 10
684.54245
 20
639.470117
 30
0.0
 11
684.54245
 21
638.770117
 31
0.0
  0
LINE
  5
71B
100
AcDbEntity
  8
SILK
100
AcDbLine
 10
684.54245
 20
644.570117
 30
0.0
 11
684.54245
 21
639.470117
 31
0.0
  0
LINE
  5
71C
100
AcDbEntity
  8
SILK
100
AcDbLine
 10
677.14245
 20
647.700117
 30
0.0
 11
677.14245
 21
632.200117
 31
0.0
  0
LINE
  5
71D
100
AcDbEntity
  8
SILK
100
AcDbLine
 10
684.54245
 20
631.820117
 30
0.0
 11
678.69245
 21
631.820117
 31
0.0
  0
LINE
  5
71E
100
AcDbEntity
  8
SILK
100
AcDbLine
 10
678.69245
 20
631.820117
 30
0.0
 11
678.69245
 21
645.620117
 31
0.0
  0
LINE
  5
71F
100
AcDbEntity
  8
SILK
100
AcDbLine
 10
698.56745
 20
634.480117
 30
0.0
 11
696.71745
 21
634.480117
 31
0.0
  0
LINE
  5
720
100
AcDbEntity
  8
SILK
100
AcDbLine
 10
698.56745
 20
635.120117
 30
0.0
 11
696.71745
 21
635.120117
 31
0.0
  0
LINE
  5
721
100
AcDbEntity
  8
SILK
100
AcDbLine
 10
698.56745
 20
640.280117
 30
0.0
 11
696.71745
 21
640.280117
 31
0.0
  0
LINE
  5
722
100
AcDbEntity
  8
SILK
100
AcDbLine
 10
698.56745
 20
640.920117
 30
0.0
 11
696.71745
 21
640.920117
 31
0.0
  0
LINE
  5
723
100
AcDbEntity
  8
SILK
100
AcDbLine
 10
699.54245
 20
633.670117
 30
0.0
 11
695.49245
 21
633.670117
 31
0.0
  0
LINE
  5
724
100
AcDbEntity
  8
SILK
100
AcDbLine
 10
695.49245
 20
638.770117
 30
0.0
 11
699.54245
 21
638.770117
 31
0.0
  0
LINE
  5
725
100
AcDbEntity
  8
SILK
100
AcDbLine
 10
699.54245
 20
639.470117
 30
0.0
 11
695.49245
 21
639.470117
 31
0.0
  0
LINE
  5
726
100
AcDbEntity
  8
SILK
100
AcDbLine
 10
695.49245
 20
644.570117
 30
0.0
 11
699.54245
 21
644.570117
 31
0.0
  0
LINE
  5
727
100
AcDbEntity
  8
SILK
100
AcDbLine
 10
699.54245
 20
645.620117
 30
0.0
 11
690.74245
 21
645.620117
 31
0.0
  0
LINE
  5
728
100
AcDbEntity
  8
SILK
100
AcDbLine
 10
699.54245
 20
632.620117
 30
0.0
 11
690.74245
 21
632.620117
 31
0.0
  0
LINE
  5
729
100
AcDbEntity
  8
SILK
100
AcDbLine
 10
699.54245
 20
631.820117
 30
0.0
 11
690.74245
 21
631.820117
 31
0.0
  0
LINE
  5
72A
100
AcDbEntity
  8
SILK
100
AcDbLine
 10
696.71745
 20
634.480117
 30
0.0
 11
696.71745
 21
635.120117
 31
0.0
  0
LINE
  5
72B
100
AcDbEntity
  8
SILK
100
AcDbLine
 10
696.71745
 20
640.280117
 30
0.0
 11
696.71745
 21
640.920117
 31
0.0
  0
LINE
  5
72C
100
AcDbEntity
  8
SILK
100
AcDbLine
 10
695.49245
 20
633.670117
 30
0.0
 11
695.49245
 21
638.770117
 31
0.0
  0
LINE
  5
72D
100
AcDbEntity
  8
SILK
100
AcDbLine
 10
694.79245
 20
638.770117
 30
0.0
 11
694.79245
 21
633.670117
 31
0.0
  0
LINE
  5
72E
100
AcDbEntity
  8
SILK
100
AcDbLine
 10
695.49245
 20
639.470117
 30
0.0
 11
695.49245
 21
644.570117
 31
0.0
  0
LINE
  5
72F
100
AcDbEntity
  8
SILK
100
AcDbLine
 10
694.79245
 20
644.570117
 30
0.0
 11
694.79245
 21
639.470117
 31
0.0
  0
LINE
  5
730
100
AcDbEntity
  8
SILK
100
AcDbLine
 10
690.74245
 20
644.570117
 30
0.0
 11
690.74245
 21
647.020117
 31
0.0
  0
LINE
  5
731
100
AcDbEntity
  8
SILK
100
AcDbLine
 10
693.56745
 20
635.120117
 30
0.0
 11
693.56745
 21
634.480117
 31
0.0
  0
LINE
  5
732
100
AcDbEntity
  8
SILK
100
AcDbLine
 10
693.56745
 20
634.480117
 30
0.0
 11
691.71745
 21
634.480117
 31
0.0
  0
LINE
  5
733
100
AcDbEntity
  8
SILK
100
AcDbLine
 10
693.56745
 20
635.120117
 30
0.0
 11
691.71745
 21
635.120117
 31
0.0
  0
LINE
  5
734
100
AcDbEntity
  8
SILK
100
AcDbLine
 10
693.56745
 20
640.920117
 30
0.0
 11
693.56745
 21
640.280117
 31
0.0
  0
LINE
  5
735
100
AcDbEntity
  8
SILK
100
AcDbLine
 10
693.56745
 20
640.280117
 30
0.0
 11
691.71745
 21
640.280117
 31
0.0
  0
LINE
  5
736
100
AcDbEntity
  8
SILK
100
AcDbLine
 10
693.56745
 20
640.920117
 30
0.0
 11
691.71745
 21
640.920117
 31
0.0
  0
LINE
  5
737
100
AcDbEntity
  8
SILK
100
AcDbLine
 10
688.64245
 20
636.220117
 30
0.0
 11
688.64245
 21
642.020117
 31
0.0
  0
LINE
  5
738
100
AcDbEntity
  8
SILK
100
AcDbLine
 10
689.79245
 20
638.770117
 30
0.0
 11
689.79245
 21
633.670117
 31
0.0
  0
LINE
  5
739
100
AcDbEntity
  8
SILK
100
AcDbLine
 10
688.64245
 20
638.770117
 30
0.0
 11
689.79245
 21
638.770117
 31
0.0
  0
LINE
  5
73A
100
AcDbEntity
  8
SILK
100
AcDbLine
 10
688.64245
 20
639.470117
 30
0.0
 11
689.79245
 21
639.470117
 31
0.0
  0
LINE
  5
73B
100
AcDbEntity
  8
SILK
100
AcDbLine
 10
689.79245
 20
639.470117
 30
0.0
 11
689.79245
 21
644.570117
 31
0.0
  0
LINE
  5
73C
100
AcDbEntity
  8
SILK
100
AcDbLine
 10
691.71745
 20
634.480117
 30
0.0
 11
691.71745
 21
635.120117
 31
0.0
  0
LINE
  5
73D
100
AcDbEntity
  8
SILK
100
AcDbLine
 10
691.71745
 20
640.280117
 30
0.0
 11
691.71745
 21
640.920117
 31
0.0
  0
LINE
  5
73E
100
AcDbEntity
  8
SILK
100
AcDbLine
 10
690.74245
 20
639.470117
 30
0.0
 11
690.74245
 21
644.570117
 31
0.0
  0
LINE
  5
73F
100
AcDbEntity
  8
SILK
100
AcDbLine
 10
690.74245
 20
638.770117
 30
0.0
 11
690.74245
 21
639.470117
 31
0.0
  0
LINE
  5
740
100
AcDbEntity
  8
SILK
100
AcDbLine
 10
690.74245
 20
633.670117
 30
0.0
 11
690.74245
 21
638.770117
 31
0.0
  0
LINE
  5
741
100
AcDbEntity
  8
SILK
100
AcDbLine
 10
694.79245
 20
633.670117
 30
0.0
 11
690.74245
 21
633.670117
 31
0.0
  0
LINE
  5
742
100
AcDbEntity
  8
SILK
100
AcDbLine
 10
690.74245
 20
638.770117
 30
0.0
 11
694.79245
 21
638.770117
 31
0.0
  0
LINE
  5
743
100
AcDbEntity
  8
SILK
100
AcDbLine
 10
694.79245
 20
639.470117
 30
0.0
 11
690.74245
 21
639.470117
 31
0.0
  0
LINE
  5
744
100
AcDbEntity
  8
SILK
100
AcDbLine
 10
690.74245
 20
644.570117
 30
0.0
 11
694.79245
 21
644.570117
 31
0.0
  0
ARC
  5
745
100
AcDbEntity
  8
SILK
100
AcDbCircle
 10
702.64245
 20
636.220117
 30
0.0
 40
1.0
100
AcDbArc
 50
180.0
 51
360.0
  0
ARC
  5
746
100
AcDbEntity
  8
SILK
100
AcDbCircle
 10
702.64245
 20
642.020117
 30
0.0
 40
1.0
100
AcDbArc
 50
0.0
 51
180.0
  0
LINE
  5
747
100
AcDbEntity
  8
SILK
100
AcDbLine
 10
705.74245
 20
644.570117
 30
0.0
 11
705.74245
 21
647.020117
 31
0.0
  0
LINE
  5
748
100
AcDbEntity
  8
SILK
100
AcDbLine
 10
705.74245
 20
647.020117
 30
0.0
 11
699.54245
 21
647.020117
 31
0.0
  0
LINE
  5
749
100
AcDbEntity
  8
SILK
100
AcDbLine
 10
699.54245
 20
647.020117
 30
0.0
 11
699.54245
 21
644.570117
 31
0.0
  0
LINE
  5
74A
100
AcDbEntity
  8
SILK
100
AcDbLine
 10
708.56745
 20
635.120117
 30
0.0
 11
708.56745
 21
634.480117
 31
0.0
  0
LINE
  5
74B
100
AcDbEntity
  8
SILK
100
AcDbLine
 10
708.56745
 20
634.480117
 30
0.0
 11
706.71745
 21
634.480117
 31
0.0
  0
LINE
  5
74C
100
AcDbEntity
  8
SILK
100
AcDbLine
 10
708.56745
 20
635.120117
 30
0.0
 11
706.71745
 21
635.120117
 31
0.0
  0
LINE
  5
74D
100
AcDbEntity
  8
SILK
100
AcDbLine
 10
708.56745
 20
640.920117
 30
0.0
 11
708.56745
 21
640.280117
 31
0.0
  0
LINE
  5
74E
100
AcDbEntity
  8
SILK
100
AcDbLine
 10
708.56745
 20
640.280117
 30
0.0
 11
706.71745
 21
640.280117
 31
0.0
  0
LINE
  5
74F
100
AcDbEntity
  8
SILK
100
AcDbLine
 10
708.56745
 20
640.920117
 30
0.0
 11
706.71745
 21
640.920117
 31
0.0
  0
LINE
  5
750
100
AcDbEntity
  8
SILK
100
AcDbLine
 10
700.49245
 20
639.470117
 30
0.0
 11
701.64245
 21
639.470117
 31
0.0
  0
LINE
  5
751
100
AcDbEntity
  8
SILK
100
AcDbLine
 10
700.49245
 20
638.770117
 30
0.0
 11
701.64245
 21
638.770117
 31
0.0
  0
LINE
  5
752
100
AcDbEntity
  8
SILK
100
AcDbLine
 10
701.64245
 20
642.020117
 30
0.0
 11
701.64245
 21
636.220117
 31
0.0
  0
LINE
  5
753
100
AcDbEntity
  8
SILK
100
AcDbLine
 10
703.64245
 20
636.220117
 30
0.0
 11
703.64245
 21
642.020117
 31
0.0
  0
LINE
  5
754
100
AcDbEntity
  8
SILK
100
AcDbLine
 10
698.56745
 20
635.120117
 30
0.0
 11
698.56745
 21
634.480117
 31
0.0
  0
LINE
  5
755
100
AcDbEntity
  8
SILK
100
AcDbLine
 10
706.71745
 20
634.480117
 30
0.0
 11
706.71745
 21
635.120117
 31
0.0
  0
LINE
  5
756
100
AcDbEntity
  8
SILK
100
AcDbLine
 10
698.56745
 20
640.920117
 30
0.0
 11
698.56745
 21
640.280117
 31
0.0
  0
LINE
  5
757
100
AcDbEntity
  8
SILK
100
AcDbLine
 10
706.71745
 20
640.280117
 30
0.0
 11
706.71745
 21
640.920117
 31
0.0
  0
LINE
  5
758
100
AcDbEntity
  8
SILK
100
AcDbLine
 10
699.54245
 20
633.220117
 30
0.0
 11
705.74245
 21
633.220117
 31
0.0
  0
LINE
  5
759
100
AcDbEntity
  8
SILK
100
AcDbLine
 10
704.79245
 20
639.470117
 30
0.0
 11
704.79245
 21
644.570117
 31
0.0
  0
LINE
  5
75A
100
AcDbEntity
  8
SILK
100
AcDbLine
 10
704.79245
 20
644.570117
 30
0.0
 11
700.49245
 21
644.570117
 31
0.0
  0
LINE
  5
75B
100
AcDbEntity
  8
SILK
100
AcDbLine
 10
700.49245
 20
644.570117
 30
0.0
 11
700.49245
 21
639.470117
 31
0.0
  0
LINE
  5
75C
100
AcDbEntity
  8
SILK
100
AcDbLine
 10
703.64245
 20
639.470117
 30
0.0
 11
704.79245
 21
639.470117
 31
0.0
  0
LINE
  5
75D
100
AcDbEntity
  8
SILK
100
AcDbLine
 10
700.49245
 20
633.670117
 30
0.0
 11
700.49245
 21
638.770117
 31
0.0
  0
LINE
  5
75E
100
AcDbEntity
  8
SILK
100
AcDbLine
 10
703.64245
 20
638.770117
 30
0.0
 11
704.79245
 21
638.770117
 31
0.0
  0
LINE
  5
75F
100
AcDbEntity
  8
SILK
100
AcDbLine
 10
704.79245
 20
638.770117
 30
0.0
 11
704.79245
 21
633.670117
 31
0.0
  0
LINE
  5
760
100
AcDbEntity
  8
SILK
100
AcDbLine
 10
704.79245
 20
633.670117
 30
0.0
 11
700.49245
 21
633.670117
 31
0.0
  0
LINE
  5
761
100
AcDbEntity
  8
SILK
100
AcDbLine
 10
699.54245
 20
638.770117
 30
0.0
 11
699.54245
 21
633.670117
 31
0.0
  0
LINE
  5
762
100
AcDbEntity
  8
SILK
100
AcDbLine
 10
705.74245
 20
639.470117
 30
0.0
 11
705.74245
 21
644.570117
 31
0.0
  0
LINE
  5
763
100
AcDbEntity
  8
SILK
100
AcDbLine
 10
699.54245
 20
639.470117
 30
0.0
 11
699.54245
 21
638.770117
 31
0.0
  0
LINE
  5
764
100
AcDbEntity
  8
SILK
100
AcDbLine
 10
705.74245
 20
638.770117
 30
0.0
 11
705.74245
 21
639.470117
 31
0.0
  0
LINE
  5
765
100
AcDbEntity
  8
SILK
100
AcDbLine
 10
699.54245
 20
644.570117
 30
0.0
 11
699.54245
 21
639.470117
 31
0.0
  0
LINE
  5
766
100
AcDbEntity
  8
SILK
100
AcDbLine
 10
705.74245
 20
633.670117
 30
0.0
 11
705.74245
 21
638.770117
 31
0.0
  0
ARC
  5
767
100
AcDbEntity
  8
0
100
AcDbCircle
 10
751.64245
 20
573.200117
 30
0.0
 40
50.5
100
AcDbArc
 50
270.0
 51
360.0
  0
ARC
  5
768
100
AcDbEntity
  8
0
100
AcDbCircle
 10
751.64245
 20
573.193669
 30
0.0
 40
40.503194
100
AcDbArc
 50
270.0
 51
360.0
  0
ARC
  5
769
100
AcDbEntity
  8
0
100
AcDbCircle
 10
751.64245
 20
573.193669
 30
0.0
 40
39.003194
100
AcDbArc
 50
271.041786
 51
360.0
  0
LINE
  5
76A
100
AcDbEntity
  8
0
100
AcDbLine
 10
844.794067
 20
547.700146
 30
0.0
 11
844.794067
 21
677.700146
 31
0.0
  0
LINE
  5
76B
100
AcDbEntity
  8
0
100
AcDbLine
 10
847.794067
 20
547.700146
 30
0.0
 11
847.794067
 21
677.700146
 31
0.0
  0
LINE
  5
76C
100
AcDbEntity
  8
0
100
AcDbLine
 10
835.14245
 20
672.698129
 30
0.0
 11
835.14245
 21
547.700146
 31
0.0
  0
ARC
  5
76D
100
AcDbEntity
  8
0
100
AcDbCircle
 10
700.14245
 20
547.700146
 30
0.0
 40
135.0
100
AcDbArc
 50
291.039395
 51
360.0
  0
LINE
  5
76E
100
AcDbEntity
  8
SILK
100
AcDbLine
 10
746.657526
 20
440.295218
 30
0.0
 11
749.627374
 21
437.325369
 31
0.0
  0
LINE
  5
76F
100
AcDbEntity
  8
SILK
100
AcDbLine
 10
746.657526
 20
437.325369
 30
0.0
 11
749.627374
 21
440.295218
 31
0.0
  0
CIRCLE
  5
770
100
AcDbEntity
  8
SILK
100
AcDbCircle
 10
748.14245
 20
438.810294
 30
0.0
 40
4.1
  0
LINE
  5
771
100
AcDbEntity
  8
SILK
100
AcDbLine
 10
813.548234
 20
515.213205
 30
0.0
 11
816.518083
 21
518.183053
 31
0.0
  0
CIRCLE
  5
772
100
AcDbEntity
  8
SILK
100
AcDbCircle
 10
815.033159
 20
516.698129
 30
0.0
 40
4.1
  0
LINE
  5
773
100
AcDbEntity
  8
SILK
100
AcDbLine
 10
813.548234
 20
518.183053
 30
0.0
 11
816.518083
 21
515.213205
 31
0.0
  0
ARC
  5
774
100
AcDbEntity
  8
0
100
AcDbCircle
 10
751.64245
 20
635.200176
 30
0.0
 40
50.5
100
AcDbArc
 50
0.0
 51
90.0
  0
ARC
  5
775
100
AcDbEntity
  8
0
100
AcDbCircle
 10
751.64245
 20
635.200176
 30
0.0
 40
40.503194
100
AcDbArc
 50
0.0
 51
90.0
  0
ARC
  5
776
100
AcDbEntity
  8
0
100
AcDbCircle
 10
751.64245
 20
635.200176
 30
0.0
 40
39.003194
100
AcDbArc
 50
0.0
 51
90.0
  0
CIRCLE
  5
777
100
AcDbEntity
  8
SILK
100
AcDbCircle
 10
748.14245
 20
693.700146
 30
0.0
 40
4.1
  0
ARC
  5
778
100
AcDbEntity
  8
SILK
100
AcDbCircle
 10
722.14245
 20
632.200117
 30
0.0
 40
1.0
100
AcDbArc
 50
270.0
 51
360.0
  0
LINE
  5
779
100
AcDbEntity
  8
0
100
AcDbLine
 10
737.14245
 20
597.700117
 30
0.0
 11
737.14245
 21
643.700117
 31
0.0
  0
LINE
  5
77A
100
AcDbEntity
  8
0
100
AcDbLine
 10
728.14245
 20
605.700117
 30
0.0
 11
732.14245
 21
605.700117
 31
0.0
  0
LINE
  5
77B
100
AcDbEntity
  8
SILK
100
AcDbLine
 10
722.14245
 20
631.200117
 30
0.0
 11
713.14245
 21
631.200117
 31
0.0
  0
CIRCLE
  5
77C
100
AcDbEntity
  8
SILK
100
AcDbCircle
 10
717.14245
 20
618.700117
 30
0.0
 40
4.2
  0
LINE
  5
77D
100
AcDbEntity
  8
SILK
100
AcDbLine
 10
710.30245
 20
613.700117
 30
0.0
 11
711.14245
 21
613.700117
 31
0.0
  0
LINE
  5
77E
100
AcDbEntity
  8
SILK
100
AcDbLine
 10
709.76245
 20
616.700117
 30
0.0
 11
709.76245
 21
620.700117
 31
0.0
  0
LINE
  5
77F
100
AcDbEntity
  8
SILK
100
AcDbLine
 10
710.30245
 20
607.300117
 30
0.0
 11
710.30245
 21
622.500117
 31
0.0
  0
ARC
  5
780
100
AcDbEntity
  8
SILK
100
AcDbCircle
 10
711.14245
 20
614.700117
 30
0.0
 40
1.0
100
AcDbArc
 50
270.0
 51
360.0
  0
ARC
  5
781
100
AcDbEntity
  8
SILK
100
AcDbCircle
 10
713.14245
 20
630.200117
 30
0.0
 40
1.0
100
AcDbArc
 50
90.0
 51
180.0
  0
LINE
  5
782
100
AcDbEntity
  8
SILK
100
AcDbLine
 10
712.14245
 20
630.200117
 30
0.0
 11
712.14245
 21
614.700117
 31
0.0
  0
ARC
  5
783
100
AcDbEntity
  8
0
100
AcDbCircle
 10
732.14245
 20
597.700117
 30
0.0
 40
5.0
100
AcDbArc
 50
270.0
 51
360.0
  0
ARC
  5
784
100
AcDbEntity
  8
0
100
AcDbCircle
 10
732.14245
 20
610.700117
 30
0.0
 40
5.0
100
AcDbArc
 50
270.0
 51
360.0
  0
LINE
  5
785
100
AcDbEntity
  8
0
100
AcDbLine
 10
729.64245
 20
632.200117
 30
0.0
 11
737.14245
 21
632.200117
 31
0.0
  0
LINE
  5
786
100
AcDbEntity
  8
0
100
AcDbLine
 10
729.64245
 20
645.200117
 30
0.0
 11
736.912146
 21
645.200117
 31
0.0
  0
LINE
  5
787
100
AcDbEntity
  8
SILK
100
AcDbLine
 10
719.79245
 20
633.670117
 30
0.0
 11
715.49245
 21
633.670117
 31
0.0
  0
LINE
  5
788
100
AcDbEntity
  8
SILK
100
AcDbLine
 10
715.49245
 20
638.770117
 30
0.0
 11
719.79245
 21
638.770117
 31
0.0
  0
LINE
  5
789
100
AcDbEntity
  8
SILK
100
AcDbLine
 10
719.79245
 20
639.470117
 30
0.0
 11
715.49245
 21
639.470117
 31
0.0
  0
LINE
  5
78A
100
AcDbEntity
  8
SILK
100
AcDbLine
 10
715.49245
 20
644.570117
 30
0.0
 11
719.79245
 21
644.570117
 31
0.0
  0
LINE
  5
78B
100
AcDbEntity
  8
SILK
100
AcDbLine
 10
709.79245
 20
638.770117
 30
0.0
 11
709.79245
 21
633.670117
 31
0.0
  0
LINE
  5
78C
100
AcDbEntity
  8
SILK
100
AcDbLine
 10
709.79245
 20
644.570117
 30
0.0
 11
709.79245
 21
639.470117
 31
0.0
  0
LINE
  5
78D
100
AcDbEntity
  8
SILK
100
AcDbLine
 10
710.49245
 20
633.670117
 30
0.0
 11
710.49245
 21
638.770117
 31
0.0
  0
LINE
  5
78E
100
AcDbEntity
  8
SILK
100
AcDbLine
 10
710.49245
 20
639.470117
 30
0.0
 11
710.49245
 21
644.570117
 31
0.0
  0
LINE
  5
78F
100
AcDbEntity
  8
SILK
100
AcDbLine
 10
714.79245
 20
633.670117
 30
0.0
 11
710.49245
 21
633.670117
 31
0.0
  0
LINE
  5
790
100
AcDbEntity
  8
SILK
100
AcDbLine
 10
710.49245
 20
638.770117
 30
0.0
 11
714.79245
 21
638.770117
 31
0.0
  0
LINE
  5
791
100
AcDbEntity
  8
SILK
100
AcDbLine
 10
714.79245
 20
639.470117
 30
0.0
 11
710.49245
 21
639.470117
 31
0.0
  0
LINE
  5
792
100
AcDbEntity
  8
SILK
100
AcDbLine
 10
710.49245
 20
644.570117
 30
0.0
 11
714.79245
 21
644.570117
 31
0.0
  0
LINE
  5
793
100
AcDbEntity
  8
SILK
100
AcDbLine
 10
711.71745
 20
634.480117
 30
0.0
 11
711.71745
 21
635.120117
 31
0.0
  0
LINE
  5
794
100
AcDbEntity
  8
SILK
100
AcDbLine
 10
713.56745
 20
635.120117
 30
0.0
 11
713.56745
 21
634.480117
 31
0.0
  0
LINE
  5
795
100
AcDbEntity
  8
SILK
100
AcDbLine
 10
713.56745
 20
634.480117
 30
0.0
 11
711.71745
 21
634.480117
 31
0.0
  0
LINE
  5
796
100
AcDbEntity
  8
SILK
100
AcDbLine
 10
713.56745
 20
635.120117
 30
0.0
 11
711.71745
 21
635.120117
 31
0.0
  0
LINE
  5
797
100
AcDbEntity
  8
SILK
100
AcDbLine
 10
716.71745
 20
634.480117
 30
0.0
 11
716.71745
 21
635.120117
 31
0.0
  0
LINE
  5
798
100
AcDbEntity
  8
SILK
100
AcDbLine
 10
718.56745
 20
635.120117
 30
0.0
 11
718.56745
 21
634.480117
 31
0.0
  0
LINE
  5
799
100
AcDbEntity
  8
SILK
100
AcDbLine
 10
718.56745
 20
634.480117
 30
0.0
 11
716.71745
 21
634.480117
 31
0.0
  0
LINE
  5
79A
100
AcDbEntity
  8
SILK
100
AcDbLine
 10
718.56745
 20
635.120117
 30
0.0
 11
716.71745
 21
635.120117
 31
0.0
  0
LINE
  5
79B
100
AcDbEntity
  8
SILK
100
AcDbLine
 10
711.71745
 20
640.280117
 30
0.0
 11
711.71745
 21
640.920117
 31
0.0
  0
LINE
  5
79C
100
AcDbEntity
  8
SILK
100
AcDbLine
 10
713.56745
 20
640.920117
 30
0.0
 11
713.56745
 21
640.280117
 31
0.0
  0
LINE
  5
79D
100
AcDbEntity
  8
SILK
100
AcDbLine
 10
713.56745
 20
640.280117
 30
0.0
 11
711.71745
 21
640.280117
 31
0.0
  0
LINE
  5
79E
100
AcDbEntity
  8
SILK
100
AcDbLine
 10
713.56745
 20
640.920117
 30
0.0
 11
711.71745
 21
640.920117
 31
0.0
  0
LINE
  5
79F
100
AcDbEntity
  8
SILK
100
AcDbLine
 10
716.71745
 20
640.280117
 30
0.0
 11
716.71745
 21
640.920117
 31
0.0
  0
LINE
  5
7A0
100
AcDbEntity
  8
SILK
100
AcDbLine
 10
718.56745
 20
640.920117
 30
0.0
 11
718.56745
 21
640.280117
 31
0.0
  0
LINE
  5
7A1
100
AcDbEntity
  8
SILK
100
AcDbLine
 10
718.56745
 20
640.280117
 30
0.0
 11
716.71745
 21
640.280117
 31
0.0
  0
LINE
  5
7A2
100
AcDbEntity
  8
SILK
100
AcDbLine
 10
718.56745
 20
640.920117
 30
0.0
 11
716.71745
 21
640.920117
 31
0.0
  0
LINE
  5
7A3
100
AcDbEntity
  8
SILK
100
AcDbLine
 10
715.49245
 20
633.670117
 30
0.0
 11
715.49245
 21
638.770117
 31
0.0
  0
LINE
  5
7A4
100
AcDbEntity
  8
SILK
100
AcDbLine
 10
714.79245
 20
638.770117
 30
0.0
 11
714.79245
 21
633.670117
 31
0.0
  0
LINE
  5
7A5
100
AcDbEntity
  8
SILK
100
AcDbLine
 10
715.49245
 20
639.470117
 30
0.0
 11
715.49245
 21
644.570117
 31
0.0
  0
LINE
  5
7A6
100
AcDbEntity
  8
SILK
100
AcDbLine
 10
714.79245
 20
644.570117
 30
0.0
 11
714.79245
 21
639.470117
 31
0.0
  0
LINE
  5
7A7
100
AcDbEntity
  8
SILK
100
AcDbLine
 10
719.79245
 20
638.770117
 30
0.0
 11
719.79245
 21
633.670117
 31
0.0
  0
LINE
  5
7A8
100
AcDbEntity
  8
SILK
100
AcDbLine
 10
719.79245
 20
644.570117
 30
0.0
 11
719.79245
 21
639.470117
 31
0.0
  0
LINE
  5
7A9
100
AcDbEntity
  8
SILK
100
AcDbLine
 10
723.14245
 20
632.200117
 30
0.0
 11
723.14245
 21
647.700117
 31
0.0
  0
ARC
  5
7AA
100
AcDbEntity
  8
SILK
100
AcDbCircle
 10
722.14245
 20
647.700117
 30
0.0
 40
1.0
100
AcDbArc
 50
0.0
 51
90.0
  0
ARC
  5
7AB
100
AcDbEntity
  8
0
100
AcDbCircle
 10
729.64245
 20
638.700117
 30
0.0
 40
6.5
100
AcDbArc
 50
90.0
 51
270.0
  0
LINE
  5
7AC
100
AcDbEntity
  8
SILK
100
AcDbLine
 10
721.59245
 20
645.620117
 30
0.0
 11
721.59245
 21
631.820117
 31
0.0
  0
ARC
  5
7AD
100
AcDbEntity
  8
0
100
AcDbCircle
 10
732.14245
 20
643.700117
 30
0.0
 40
5.0
100
AcDbArc
 50
0.0
 51
90.0
  0
LINE
  5
7AE
100
AcDbEntity
  8
SILK
100
AcDbLine
 10
746.657526
 20
695.18507
 30
0.0
 11
749.627374
 21
692.215222
 31
0.0
  0
LINE
  5
7AF
100
AcDbEntity
  8
SILK
100
AcDbLine
 10
746.657526
 20
692.215222
 30
0.0
 11
749.627374
 21
695.18507
 31
0.0
  0
LINE
  5
7B0
100
AcDbEntity
  8
0
100
AcDbLine
 10
792.145644
 20
573.193669
 30
0.0
 11
792.145644
 21
635.200176
 31
0.0
  0
LINE
  5
7B1
100
AcDbEntity
  8
0
100
AcDbLine
 10
790.645644
 20
635.200176
 30
0.0
 11
790.645644
 21
573.193669
 31
0.0
  0
ARC
  5
7B2
100
AcDbEntity
  8
0
100
AcDbCircle
 10
807.794067
 20
677.700146
 30
0.0
 40
37.0
100
AcDbArc
 50
0.0
 51
90.0
  0
ARC
  5
7B3
100
AcDbEntity
  8
0
100
AcDbCircle
 10
807.794067
 20
677.700146
 30
0.0
 40
40.0
100
AcDbArc
 50
0.0
 51
90.0
  0
ARC
  5
7B4
100
AcDbEntity
  8
0
100
AcDbCircle
 10
798.14245
 20
672.698129
 30
0.0
 40
37.0
100
AcDbArc
 50
0.0
 51
90.0
  0
LINE
  5
7B5
100
AcDbEntity
  8
0
100
AcDbLine
 10
802.14245
 20
629.838077
 30
0.0
 11
802.14245
 21
635.200176
 31
0.0
  0
ARC
  5
7B6
100
AcDbEntity
  8
0
100
AcDbCircle
 10
820.145644
 20
606.196923
 30
0.0
 40
25.0
100
AcDbArc
 50
90.0
 51
122.400106
  0
LINE
  5
7B7
100
AcDbEntity
  8
0
100
AcDbLine
 10
799.145644
 20
615.196923
 30
0.0
 11
820.145644
 21
615.196923
 31
0.0
  0
LINE
  5
7B8
100
AcDbEntity
  8
0
100
AcDbLine
 10
802.14245
 20
596.196923
 30
0.0
 11
835.14245
 21
596.196923
 31
0.0
  0
LINE
  5
7B9
100
AcDbEntity
  8
0
100
AcDbLine
 10
820.145644
 20
597.196923
 30
0.0
 11
800.749987
 21
597.196923
 31
0.0
  0
LINE
  5
7BA
100
AcDbEntity
  8
0
100
AcDbLine
 10
798.797613
 20
598.763062
 30
0.0
 11
797.19327
 21
605.982606
 31
0.0
  0
LINE
  5
7BB
100
AcDbEntity
  8
0
100
AcDbLine
 10
812.745644
 20
597.196923
 30
0.0
 11
812.745644
 21
615.196923
 31
0.0
  0
LINE
  5
7BC
100
AcDbEntity
  8
0
100
AcDbLine
 10
802.14245
 20
573.200117
 30
0.0
 11
802.14245
 21
596.196923
 31
0.0
  0
ARC
  5
7BD
100
AcDbEntity
  8
0
100
AcDbCircle
 10
800.749987
 20
599.196923
 30
0.0
 40
2.0
100
AcDbArc
 50
192.528808
 51
270.0
  0
LINE
  5
7BE
100
AcDbEntity
  8
0
100
AcDbLine
 10
806.145644
 20
596.196923
 30
0.0
 11
806.145644
 21
597.196923
 31
0.0
  0
ARC
  5
7BF
100
AcDbEntity
  8
0
100
AcDbCircle
 10
805.14245
 20
629.838077
 30
0.0
 40
3.0
100
AcDbArc
 50
180.0
 51
302.400106
  0
ARC
  5
7C0
100
AcDbEntity
  8
0
100
AcDbCircle
 10
799.145644
 20
606.416467
 30
0.0
 40
2.0
100
AcDbArc
 50
180.0
 51
192.528808
  0
ARC
  5
7C1
100
AcDbEntity
  8
0
100
AcDbCircle
 10
799.145644
 20
613.196923
 30
0.0
 40
2.0
100
AcDbArc
 50
90.0
 51
180.0
  0
LINE
  5
7C2
100
AcDbEntity
  8
0
100
AcDbLine
 10
797.145644
 20
606.416467
 30
0.0
 11
797.145644
 21
613.196923
 31
0.0
  0
LINE
  5
7C3
100
AcDbEntity
  8
0
100
AcDbLine
 10
806.145644
 20
615.196923
 30
0.0
 11
806.145644
 21
626.909238
 31
0.0
  0
ARC
  5
7C4
100
AcDbEntity
  8
0
100
AcDbCircle
 10
820.145644
 20
606.196923
 30
0.0
 40
9.0
100
AcDbArc
 50
270.0
 51
360.0
  0
LINE
  5
7C5
100
AcDbEntity
  8
0
100
AcDbLine
 10
820.145644
 20
631.196923
 30
0.0
 11
835.14245
 21
631.196923
 31
0.0
  0
LINE
  5
7C6
100
AcDbEntity
  8
0
100
AcDbLine
 10
820.145644
 20
615.196923
 30
0.0
 11
826.970378
 21
627.186319
 31
0.0
  0
CIRCLE
  5
7C7
100
AcDbEntity
  8
SILK
100
AcDbCircle
 10
820.145644
 20
606.196923
 30
0.0
 40
3.464102
  0
LINE
  5
7C8
100
AcDbEntity
  8
SILK
100
AcDbLine
 10
822.145644
 20
609.661024
 30
0.0
 11
818.145644
 21
609.661024
 31
0.0
  0
LINE
  5
7C9
100
AcDbEntity
  8
SILK
100
AcDbLine
 10
824.145644
 20
606.196923
 30
0.0
 11
822.145644
 21
609.661024
 31
0.0
  0
LINE
  5
7CA
100
AcDbEntity
  8
SILK
100
AcDbLine
 10
822.145644
 20
602.732821
 30
0.0
 11
824.145644
 21
606.196923
 31
0.0
  0
LINE
  5
7CB
100
AcDbEntity
  8
SILK
100
AcDbLine
 10
818.145644
 20
602.732821
 30
0.0
 11
822.145644
 21
602.732821
 31
0.0
  0
LINE
  5
7CC
100
AcDbEntity
  8
SILK
100
AcDbLine
 10
816.145644
 20
606.196923
 30
0.0
 11
818.145644
 21
602.732821
 31
0.0
  0
LINE
  5
7CD
100
AcDbEntity
  8
SILK
100
AcDbLine
 10
818.145644
 20
609.661024
 30
0.0
 11
816.145644
 21
606.196923
 31
0.0
  0
ARC
  5
7CE
100
AcDbEntity
  8
0
100
AcDbCircle
 10
831.145644
 20
619.196923
 30
0.0
 40
2.0
100
AcDbArc
 50
90.0
 51
180.0
  0
ARC
  5
7CF
100
AcDbEntity
  8
0
100
AcDbCircle
 10
828.708507
 20
626.196923
 30
0.0
 40
2.0
100
AcDbArc
 50
90.0
 51
150.350136
  0
LINE
  5
7D0
100
AcDbEntity
  8
0
100
AcDbLine
 10
829.145644
 20
619.196923
 30
0.0
 11
829.145644
 21
606.196923
 31
0.0
  0
LINE
  5
7D1
100
AcDbEntity
  8
0
100
AcDbLine
 10
828.708507
 20
628.196923
 30
0.0
 11
834.145644
 21
628.196923
 31
0.0
  0
LINE
  5
7D2
100
AcDbEntity
  8
0
100
AcDbLine
 10
834.145644
 20
621.196923
 30
0.0
 11
834.145644
 21
628.196923
 31
0.0
  0
LINE
  5
7D3
100
AcDbEntity
  8
0
100
AcDbLine
 10
834.145644
 20
621.196923
 30
0.0
 11
831.145644
 21
621.196923
 31
0.0
  0
CIRCLE
  5
7D4
100
AcDbEntity
  8
SILK
100
AcDbCircle
 10
819.14245
 20
645.700117
 30
0.0
 40
4.1
  0
LINE
  5
7D5
100
AcDbEntity
  8
SILK
100
AcDbLine
 10
817.657526
 20
647.185041
 30
0.0
 11
820.627374
 21
644.215192
 31
0.0
  0
LINE
  5
7D6
100
AcDbEntity
  8
SILK
100
AcDbLine
 10
817.657526
 20
644.215192
 30
0.0
 11
820.627374
 21
647.185041
 31
0.0
  0
DIMENSION
  5
7D7
100
AcDbEntity
  8
SCALE
100
AcDbDimension
  2
*D13
 10
908.893214
 20
316.426118
 30
0.0
 11
939.690357
 21
329.626118
 31
0.0
  1
1.6
  3
STANDARD
100
AcDbAlignedDimension
 13
907.293214
 23
295.770161
 33
0.0
 14
908.893214
 24
295.770161
 34
0.0
100
AcDbRotatedDimension
1001
ACAD
1000
DSTYLE
1002
{
1070
   140
1040
2.2
1070
   145
1040
1.0
1070
    74
1070
     0
1070
   172
1070
     1
1070
    73
1070
     0
1070
    40
1040
6.0
1070
    42
1040
2.0
1070
    44
1040
1.5
1070
    43
1040
10.0
1070
     5
1000
YAZ3
1070
    41
1040
1.5
1002
}
  0
LINE
  5
7E7
100
AcDbEntity
  8
0
100
AcDbLine
 10
911.893214
 20
141.526411
 30
0.0
 11
911.893214
 21
288.670161
 31
0.0
  0
LINE
  5
7E8
100
AcDbEntity
  8
0
100
AcDbLine
 10
908.893214
 20
134.426411
 30
0.0
 11
908.893214
 21
295.770161
 31
0.0
  0
LINE
  5
7E9
100
AcDbEntity
  8
0
100
AcDbLine
 10
907.293214
 20
295.770161
 30
0.0
 11
907.293214
 21
134.426411
 31
0.0
  0
LINE
  5
7EA
100
AcDbEntity
  8
0
100
AcDbLine
 10
912.889505
 20
282.670161
 30
0.0
 11
912.889505
 21
147.526411
 31
0.0
  0
DIMENSION
  5
7EB
100
AcDbEntity
  8
SCALE
100
AcDbDimension
  2
*D14
 10
912.889505
 20
110.211585
 30
0.0
 11
944.94379
 21
123.411585
 31
0.0
  1
5.6
  3
STANDARD
100
AcDbAlignedDimension
 13
907.293214
 23
134.426411
 33
0.0
 14
912.889505
 24
147.526411
 34
0.0
100
AcDbRotatedDimension
1001
ACAD
1000
DSTYLE
1002
{
1070
   140
1040
2.2
1070
   145
1040
1.0
1070
    74
1070
     0
1070
   172
1070
     1
1070
    73
1070
     0
1070
    40
1040
6.0
1070
    42
1040
2.0
1070
    44
1040
1.5
1070
    43
1040
10.0
1070
     5
1000
YAZ3
1070
    41
1040
1.5
1002
}
  0
LINE
  5
7FA
100
AcDbEntity
  8
0
100
AcDbLine
 10
908.893214
 20
139.926411
 30
0.0
 11
910.293214
 21
139.926411
 31
0.0
  0
LINE
  5
7FB
100
AcDbEntity
  8
0
100
AcDbLine
 10
907.293214
 20
134.426411
 30
0.0
 11
908.893214
 21
134.426411
 31
0.0
  0
ARC
  5
7FC
100
AcDbEntity
  8
0
100
AcDbCircle
 10
910.293214
 20
141.526411
 30
0.0
 40
1.6
100
AcDbArc
 50
270.0
 51
360.0
  0
ARC
  5
7FD
100
AcDbEntity
  8
0
100
AcDbCircle
 10
911.289505
 20
147.526411
 30
0.0
 40
1.6
100
AcDbArc
 50
292.167688
 51
360.0
  0
LINE
  5
7FE
100
AcDbEntity
  8
0
100
AcDbLine
 10
910.293214
 20
290.270161
 30
0.0
 11
908.893214
 21
290.270161
 31
0.0
  0
LINE
  5
7FF
100
AcDbEntity
  8
0
100
AcDbLine
 10
908.893214
 20
295.770161
 30
0.0
 11
907.293214
 21
295.770161
 31
0.0
  0
ARC
  5
800
100
AcDbEntity
  8
0
100
AcDbCircle
 10
911.289505
 20
282.670161
 30
0.0
 40
1.6
100
AcDbArc
 50
0.0
 51
67.832312
  0
ARC
  5
801
100
AcDbEntity
  8
0
100
AcDbCircle
 10
910.293214
 20
288.670161
 30
0.0
 40
1.6
100
AcDbArc
 50
0.0
 51
90.0
  0
LINE
  5
802
100
AcDbEntity
  8
0
100
AcDbLine
 10
988.205839
 20
406.084469
 30
0.0
 11
988.205839
 21
687.700146
 31
0.0
  0
LINE
  5
803
100
AcDbEntity
  8
0
100
AcDbLine
 10
883.205839
 20
677.700146
 30
0.0
 11
883.205839
 21
547.700146
 31
0.0
  0
LINE
  5
804
100
AcDbEntity
  8
0
100
AcDbLine
 10
1012.205839
 20
400.048529
 30
0.0
 11
1012.205839
 21
717.700146
 31
0.0
  0
LINE
  5
805
100
AcDbEntity
  8
0
100
AcDbLine
 10
1012.205839
 20
712.40334
 30
0.0
 11
1012.205839
 21
557.700146
 31
0.0
  0
LINE
  5
806
100
AcDbEntity
  8
1
100
AcDbLine
 10
1012.205839
 20
737.700146
 30
0.0
 11
1012.205839
 21
380.048529
 31
0.0
  0
LINE
  5
807
100
AcDbEntity
  8
1
100
AcDbLine
 10
1012.205839
 20
555.877395
 30
0.0
 11
1028.080839
 21
571.752395
 31
0.0
  0
LINE
  5
808
100
AcDbEntity
  8
1
100
AcDbLine
 10
1012.205839
 20
566.483997
 30
0.0
 11
1028.080839
 21
582.358997
 31
0.0
  0
LINE
  5
809
100
AcDbEntity
  8
1
100
AcDbLine
 10
895.705839
 20
359.638863
 30
0.0
 11
999.705839
 21
359.638863
 31
0.0
  0
TEXT
  5
80A
100
AcDbEntity
  8
1
100
AcDbText
 10
898.277268
 20
365.638863
 30
0.0
 40
15.0
  1
Wall mount
 41
0.8
  7
UT7
 72
     1
 11
947.705839
 21
365.638863
 31
0.0
100
AcDbText
  0
LINE
  5
80B
100
AcDbEntity
  8
1
100
AcDbLine
 10
1012.205839
 20
428.598174
 30
0.0
 11
1028.080839
 21
444.473174
 31
0.0
  0
ARC
  5
80C
100
AcDbEntity
  8
0
100
AcDbCircle
 10
1032.205839
 20
547.700146
 30
0.0
 40
149.0
100
AcDbArc
 50
253.10968
 51
262.286008
  0
ARC
  5
80D
100
AcDbEntity
  8
0
100
AcDbCircle
 10
986.154238
 20
427.200146
 30
0.0
 40
20.0
100
AcDbArc
 50
249.084595
 51
270.0
  0
ARC
  5
80E
100
AcDbEntity
  8
0
100
AcDbCircle
 10
989.205839
 20
406.084469
 30
0.0
 40
1.0
100
AcDbArc
 50
180.0
 51
253.10968
  0
LINE
  5
80F
100
AcDbEntity
  8
0
100
AcDbLine
 10
986.154238
 20
407.200146
 30
0.0
 11
988.205839
 21
407.200146
 31
0.0
  0
LINE
  5
810
100
AcDbEntity
  8
1
100
AcDbLine
 10
1012.205839
 20
417.991573
 30
0.0
 11
1028.080839
 21
433.866573
 31
0.0
  0
LINE
  5
811
100
AcDbEntity
  8
1
100
AcDbLine
 10
1012.205839
 20
407.384971
 30
0.0
 11
1028.080839
 21
423.259971
 31
0.0
  0
LINE
  5
812
100
AcDbEntity
  8
1
100
AcDbLine
 10
1012.205839
 20
396.778369
 30
0.0
 11
1028.080839
 21
412.653369
 31
0.0
  0
LINE
  5
813
100
AcDbEntity
  8
1
100
AcDbLine
 10
1012.205839
 20
386.171767
 30
0.0
 11
1028.080839
 21
402.046767
 31
0.0
  0
LINE
  5
814
100
AcDbEntity
  8
1
100
AcDbLine
 10
1016.689203
 20
380.048529
 30
0.0
 11
1028.080839
 21
391.440166
 31
0.0
  0
LINE
  5
815
100
AcDbEntity
  8
1
100
AcDbLine
 10
1012.205839
 20
492.237785
 30
0.0
 11
1028.080839
 21
508.112785
 31
0.0
  0
LINE
  5
816
100
AcDbEntity
  8
1
100
AcDbLine
 10
1012.205839
 20
481.631183
 30
0.0
 11
1028.080839
 21
497.506183
 31
0.0
  0
LINE
  5
817
100
AcDbEntity
  8
1
100
AcDbLine
 10
1012.205839
 20
471.024581
 30
0.0
 11
1028.080839
 21
486.899581
 31
0.0
  0
LINE
  5
818
100
AcDbEntity
  8
1
100
AcDbLine
 10
1012.205839
 20
460.417979
 30
0.0
 11
1028.080839
 21
476.292979
 31
0.0
  0
LINE
  5
819
100
AcDbEntity
  8
1
100
AcDbLine
 10
1012.205839
 20
449.811378
 30
0.0
 11
1028.080839
 21
465.686378
 31
0.0
  0
LINE
  5
81A
100
AcDbEntity
  8
1
100
AcDbLine
 10
1012.205839
 20
439.204776
 30
0.0
 11
1028.080839
 21
455.079776
 31
0.0
  0
LINE
  5
81B
100
AcDbEntity
  8
1
100
AcDbLine
 10
1012.205839
 20
545.270793
 30
0.0
 11
1028.080839
 21
561.145793
 31
0.0
  0
LINE
  5
81C
100
AcDbEntity
  8
1
100
AcDbLine
 10
1012.205839
 20
534.664191
 30
0.0
 11
1028.080839
 21
550.539191
 31
0.0
  0
LINE
  5
81D
100
AcDbEntity
  8
1
100
AcDbLine
 10
1012.205839
 20
524.05759
 30
0.0
 11
1028.080839
 21
539.93259
 31
0.0
  0
LINE
  5
81E
100
AcDbEntity
  8
1
100
AcDbLine
 10
1012.205839
 20
513.450988
 30
0.0
 11
1028.080839
 21
529.325988
 31
0.0
  0
LINE
  5
81F
100
AcDbEntity
  8
1
100
AcDbLine
 10
1012.205839
 20
502.844386
 30
0.0
 11
1028.080839
 21
518.719386
 31
0.0
  0
LINE
  5
820
100
AcDbEntity
  8
0
100
AcDbLine
 10
1012.205839
 20
717.700146
 30
0.0
 11
923.205839
 21
717.700146
 31
0.0
  0
LINE
  5
821
100
AcDbEntity
  8
0
100
AcDbLine
 10
973.205839
 20
702.700146
 30
0.0
 11
893.205839
 21
702.700146
 31
0.0
  0
ARC
  5
822
100
AcDbEntity
  8
0
100
AcDbCircle
 10
923.205839
 20
677.700146
 30
0.0
 40
40.0
100
AcDbArc
 50
144.091927
 51
180.0
  0
ARC
  5
823
100
AcDbEntity
  8
0
100
AcDbCircle
 10
923.205839
 20
677.700146
 30
0.0
 40
40.0
100
AcDbArc
 50
90.0
 51
138.038111
  0
ARC
  5
824
100
AcDbEntity
  8
0
100
AcDbCircle
 10
894.205839
 20
703.776956
 30
0.0
 40
1.0
100
AcDbArc
 50
138.038111
 51
180.0
  0
ARC
  5
825
100
AcDbEntity
  8
0
100
AcDbCircle
 10
893.237356
 20
699.400146
 30
0.0
 40
3.0
100
AcDbArc
 50
90.0
 51
144.091927
  0
LINE
  5
826
100
AcDbEntity
  8
0
100
AcDbLine
 10
893.205839
 20
702.700146
 30
0.0
 11
893.205839
 21
703.776956
 31
0.0
  0
ARC
  5
827
100
AcDbEntity
  8
0
100
AcDbCircle
 10
973.205839
 20
687.700146
 30
0.0
 40
15.0
100
AcDbArc
 50
0.0
 51
90.0
  0
LINE
  5
828
100
AcDbEntity
  8
1
100
AcDbLine
 10
1012.205839
 20
683.156615
 30
0.0
 11
1028.080839
 21
699.031615
 31
0.0
  0
LINE
  5
829
100
AcDbEntity
  8
1
100
AcDbLine
 10
1012.205839
 20
693.763217
 30
0.0
 11
1028.080839
 21
709.638217
 31
0.0
  0
LINE
  5
82A
100
AcDbEntity
  8
1
100
AcDbLine
 10
1012.205839
 20
619.517005
 30
0.0
 11
1028.080839
 21
635.392005
 31
0.0
  0
LINE
  5
82B
100
AcDbEntity
  8
1
100
AcDbLine
 10
1012.205839
 20
630.123607
 30
0.0
 11
1028.080839
 21
645.998607
 31
0.0
  0
LINE
  5
82C
100
AcDbEntity
  8
1
100
AcDbLine
 10
1012.205839
 20
577.090598
 30
0.0
 11
1028.080839
 21
592.965598
 31
0.0
  0
LINE
  5
82D
100
AcDbEntity
  8
1
100
AcDbLine
 10
1012.205839
 20
587.6972
 30
0.0
 11
1028.080839
 21
603.5722
 31
0.0
  0
LINE
  5
82E
100
AcDbEntity
  8
1
100
AcDbLine
 10
1012.205839
 20
598.303802
 30
0.0
 11
1028.080839
 21
614.178802
 31
0.0
  0
LINE
  5
82F
100
AcDbEntity
  8
1
100
AcDbLine
 10
1012.205839
 20
608.910403
 30
0.0
 11
1028.080839
 21
624.785403
 31
0.0
  0
LINE
  5
830
100
AcDbEntity
  8
1
100
AcDbLine
 10
1012.205839
 20
640.730209
 30
0.0
 11
1028.080839
 21
656.605209
 31
0.0
  0
LINE
  5
831
100
AcDbEntity
  8
1
100
AcDbLine
 10
1012.205839
 20
651.33681
 30
0.0
 11
1028.080839
 21
667.21181
 31
0.0
  0
LINE
  5
832
100
AcDbEntity
  8
1
100
AcDbLine
 10
1012.205839
 20
661.943412
 30
0.0
 11
1028.080839
 21
677.818412
 31
0.0
  0
LINE
  5
833
100
AcDbEntity
  8
1
100
AcDbLine
 10
1012.205839
 20
672.550014
 30
0.0
 11
1028.080839
 21
688.425014
 31
0.0
  0
LINE
  5
834
100
AcDbEntity
  8
1
100
AcDbLine
 10
1012.205839
 20
704.369819
 30
0.0
 11
1028.080839
 21
720.244819
 31
0.0
  0
LINE
  5
835
100
AcDbEntity
  8
1
100
AcDbLine
 10
1012.205839
 20
714.976421
 30
0.0
 11
1028.080839
 21
730.851421
 31
0.0
  0
LINE
  5
836
100
AcDbEntity
  8
1
100
AcDbLine
 10
1012.205839
 20
725.583022
 30
0.0
 11
1024.322963
 21
737.700146
 31
0.0
  0
LINE
  5
837
100
AcDbEntity
  8
0
100
AcDbLine
 10
1012.205839
 20
715.563571
 30
0.0
 11
1012.205839
 21
712.40334
 31
0.0
  0
LINE
  5
838
100
AcDbEntity
  8
1
100
AcDbLine
 10
1012.205839
 20
736.189624
 30
0.0
 11
1013.716361
 21
737.700146
 31
0.0
  0
ENDSEC
  0
SECTION
  2
OBJECTS
  0
DICTIONARY
  5
D44
100
AcDbDictionary
  3
ACAD_GROUP
350
D45
  3
ACAD_MLINESTYLE
350
D46
  0
DICTIONARY
  5
D45
102
{ACAD_REACTORS
330
D44
102
}
100
AcDbDictionary
  0
DICTIONARY
  5
D46
102
{ACAD_REACTORS
330
D44
102
}
100
AcDbDictionary
  3
STANDARD
350
D47
  0
MLINESTYLE
  5
D47
102
{ACAD_REACTORS
330
D46
102
}
100
AcDbMlineStyle
  2
STANDARD
 70
     0
  3

 62
     0
 51
90.0
 52
90.0
 71
     2
 49
0.5
 62
   256
  6
BYLAYER
 49
-0.5
 62
   256
  6
BYLAYER
  0
ENDSEC
  0
EOF
