  0
SECTION
  2
HEADER
  9
$ACADVER
  1
AC1014
  9
$ACADMAINTVER
 70
     0
  9
$DWGCODEPAGE
  3
ANSI_1252
  9
$INSBASE
 10
0.0
 20
0.0
 30
0.0
  9
$EXTMIN
 10
21.01002
 20
52.16887
 30
0.0
  9
$EXTMAX
 10
847.615763
 20
776.745236
 30
0.0
  9
$LIMMIN
 10
0.0
 20
0.0
  9
$LIMMAX
 10
1.0
 20
1.0
  9
$ORTHOMODE
 70
     1
  9
$REGENMODE
 70
     0
  9
$FILLMODE
 70
     1
  9
$QTEXTMODE
 70
     0
  9
$MIRRTEXT
 70
     0
  9
$DRAGMODE
 70
     2
  9
$LTSCALE
 40
40.0
  9
$OSMODE
 70
     0
  9
$ATTMODE
 70
     1
  9
$TEXTSIZE
 40
3.0
  9
$TRACEWID
 40
0.05
  9
$TEXTSTYLE
  7
STANDARD
  9
$CLAYER
  8
SCALE
  9
$CELTYPE
  6
BYLAYER
  9
$CECOLOR
 62
   256
  9
$CELTSCALE
 40
1.0
  9
$DELOBJ
 70
     1
  9
$DISPSILH
 70
     0
  9
$DIMSCALE
 40
5.0
  9
$DIMASZ
 40
1.5
  9
$DIMEXO
 40
2.0
  9
$DIMDLI
 40
10.0
  9
$DIMRND
 40
0.0
  9
$DIMDLE
 40
0.0
  9
$DIMEXE
 40
1.5
  9
$DIMTP
 40
0.0
  9
$DIMTM
 40
0.0
  9
$DIMTXT
 40
2.2
  9
$DIMCEN
 40
0.09
  9
$DIMTSZ
 40
0.0
  9
$DIMTOL
 70
     0
  9
$DIMLIM
 70
     0
  9
$DIMTIH
 70
     0
  9
$DIMTOH
 70
     0
  9
$DIMSE1
 70
     0
  9
$DIMSE2
 70
     0
  9
$DIMTAD
 70
     0
  9
$DIMZIN
 70
     0
  9
$DIMBLK
  1
YAZ3
  9
$DIMASO
 70
     1
  9
$DIMSHO
 70
     0
  9
$DIMPOST
  1

  9
$DIMAPOST
  1

  9
$DIMALT
 70
     0
  9
$DIMALTD
 70
     2
  9
$DIMALTF
 40
25.4
  9
$DIMLFAC
 40
1.0
  9
$DIMTOFL
 70
     1
  9
$DIMTVP
 40
1.0
  9
$DIMTIX
 70
     0
  9
$DIMSOXD
 70
     0
  9
$DIMSAH
 70
     0
  9
$DIMBLK1
  1

  9
$DIMBLK2
  1

  9
$DIMSTYLE
  2
STANDARD
  9
$DIMCLRD
 70
     0
  9
$DIMCLRE
 70
     0
  9
$DIMCLRT
 70
     0
  9
$DIMTFAC
 40
1.0
  9
$DIMGAP
 40
0.09
  9
$DIMJUST
 70
     0
  9
$DIMSD1
 70
     0
  9
$DIMSD2
 70
     0
  9
$DIMTOLJ
 70
     1
  9
$DIMTZIN
 70
     0
  9
$DIMALTZ
 70
     0
  9
$DIMALTTZ
 70
     0
  9
$DIMFIT
 70
     3
  9
$DIMUPT
 70
     0
  9
$DIMUNIT
 70
     2
  9
$DIMDEC
 70
     4
  9
$DIMTDEC
 70
     4
  9
$DIMALTU
 70
     2
  9
$DIMALTTD
 70
     2
  9
$DIMTXSTY
  7
STANDARD
  9
$DIMAUNIT
 70
     0
  9
$LUNITS
 70
     2
  9
$LUPREC
 70
     3
  9
$SKETCHINC
 40
0.1
  9
$FILLETRAD
 40
0.0
  9
$AUNITS
 70
     0
  9
$AUPREC
 70
     0
  9
$MENU
  1
AMECEX
  9
$ELEVATION
 40
0.0
  9
$PELEVATION
 40
0.0
  9
$THICKNESS
 40
0.0
  9
$LIMCHECK
 70
     0
  9
$BLIPMODE
 70
     0
  9
$CHAMFERA
 40
0.0
  9
$CHAMFERB
 40
0.0
  9
$CHAMFERC
 40
0.0
  9
$CHAMFERD
 40
0.0
  9
$SKPOLY
 70
     0
  9
$TDCREATE
 40
2451557.573481250
  9
$TDUPDATE
 40
2452076.638356482
  9
$TDINDWG
 40
0.0016782176
  9
$TDUSRTIMER
 40
0.0016782176
  9
$USRTIMER
 70
     1
  9
$ANGBASE
 50
0.0
  9
$ANGDIR
 70
     0
  9
$PDMODE
 70
     0
  9
$PDSIZE
 40
0.0
  9
$PLINEWID
 40
0.0
  9
$COORDS
 70
     2
  9
$SPLFRAME
 70
     0
  9
$SPLINETYPE
 70
     6
  9
$SPLINESEGS
 70
     8
  9
$ATTDIA
 70
     0
  9
$ATTREQ
 70
     1
  9
$HANDLING
 70
     1
  9
$HANDSEED
  5
428
  9
$SURFTAB1
 70
     6
  9
$SURFTAB2
 70
     6
  9
$SURFTYPE
 70
     6
  9
$SURFU
 70
     6
  9
$SURFV
 70
     6
  9
$UCSNAME
  2

  9
$UCSORG
 10
0.0
 20
0.0
 30
0.0
  9
$UCSXDIR
 10
1.0
 20
0.0
 30
0.0
  9
$UCSYDIR
 10
0.0
 20
1.0
 30
0.0
  9
$PUCSNAME
  2

  9
$PUCSORG
 10
0.0
 20
0.0
 30
0.0
  9
$PUCSXDIR
 10
1.0
 20
0.0
 30
0.0
  9
$PUCSYDIR
 10
0.0
 20
1.0
 30
0.0
  9
$USERI1
 70
     0
  9
$USERI2
 70
     0
  9
$USERI3
 70
     0
  9
$USERI4
 70
     0
  9
$USERI5
 70
     0
  9
$USERR1
 40
30.0
  9
$USERR2
 40
0.0
  9
$USERR3
 40
0.0
  9
$USERR4
 40
0.0
  9
$USERR5
 40
0.0
  9
$WORLDVIEW
 70
     1
  9
$SHADEDGE
 70
     3
  9
$SHADEDIF
 70
    70
  9
$TILEMODE
 70
     1
  9
$MAXACTVP
 70
    16
  9
$PINSBASE
 10
0.0
 20
0.0
 30
0.0
  9
$PLIMCHECK
 70
     0
  9
$PEXTMIN
 10
1.000000E+20
 20
1.000000E+20
 30
1.000000E+20
  9
$PEXTMAX
 10
-1.000000E+20
 20
-1.000000E+20
 30
-1.000000E+20
  9
$PLIMMIN
 10
0.0
 20
0.0
  9
$PLIMMAX
 10
12.0
 20
9.0
  9
$UNITMODE
 70
     0
  9
$VISRETAIN
 70
     0
  9
$PLINEGEN
 70
     0
  9
$PSLTSCALE
 70
     0
  9
$TREEDEPTH
 70
  3020
  9
$PICKSTYLE
 70
     1
  9
$CMLSTYLE
  2
STANDARD
  9
$CMLJUST
 70
     0
  9
$CMLSCALE
 40
1.0
  9
$PROXYGRAPHICS
 70
     0
  9
$MEASUREMENT
 70
     0
  0
ENDSEC
  0
SECTION
  2
CLASSES
  0
CLASS
  1
LWPOLYLINE
  2
AcDbPolyline
  3
"AutoCAD"
 90
        0
280
     0
281
     1
  0
CLASS
  1
IMAGE
  2
AcDbRasterImage
  3
ISM
 90
      127
280
     0
281
     1
  0
CLASS
  1
OLE2FRAME
  2
AcDbOle2Frame
  3
""
 90
        0
280
     0
281
     1
  0
CLASS
  1
HATCH
  2
AcDbHatch
  3
"ACAD_SEDONA"
 90
        0
280
     0
281
     1
  0
CLASS
  1
DICTIONARYVAR
  2
AcDbDictionaryVar
  3
"AutoCAD"
 90
        0
280
     0
281
     0
  0
CLASS
  1
RASTERVARIABLES
  2
AcDbRasterVariables
  3
ISM
 90
        0
280
     0
281
     0
  0
CLASS
  1
IMAGEDEF
  2
AcDbRasterImageDef
  3
ISM
 90
        0
280
     0
281
     0
  0
CLASS
  1
IMAGEDEF_REACTOR
  2
AcDbRasterImageDefReactor
  3
ISM
 90
        1
280
     0
281
     0
  0
CLASS
  1
IDBUFFER
  2
AcDbIdBuffer
  3
"Acad"
 90
        0
280
     0
281
     0
  0
CLASS
  1
SPATIAL_FILTER
  2
AcDbSpatialFilter
  3
"Acad"
 90
        0
280
     0
281
     0
  0
CLASS
  1
XRECORD
  2
AcDbXrecord
  3
"<Built In>"
 90
        0
280
     0
281
     0
  0
CLASS
  1
SORTENTSTABLE
  2
AcDbSortentsTable
  3
"AutoCAD"
 90
        0
280
     0
281
     0
  0
CLASS
  1
LAYER_INDEX
  2
AcDbLayerIndex
  3
"Acad"
 90
        0
280
     0
281
     0
  0
CLASS
  1
SPATIAL_INDEX
  2
AcDbSpatialIndex
  3
"Acad"
 90
        0
280
     0
281
     0
  0
CLASS
  1
OBJECT_PTR
  2
CAseDLPNTableRecord
  3
"ASE-LPNTableRecord"
 90
        1
280
     0
281
     0
  0
CLASS
  1
LAYOUT
  2
AcDbLayout
  3
"AutoCAD 2000"
 90
        1
280
     0
281
     0
  0
CLASS
  1
PLOTSETTINGS
  2
AcDbPlotSettings
  3
"AutoCAD 2000"
 90
        1
280
     0
281
     0
  0
CLASS
  1
ACDBDICTIONARYWDFLT
  2
AcDbDictionaryWithDefault
  3
"AutoCAD 2000"
 90
        1
280
     0
281
     0
  0
CLASS
  1
ACDBPLACEHOLDER
  2
AcDbPlaceHolder
  3
"AutoCAD 2000"
 90
        1
280
     0
281
     0
  0
CLASS
  1
VBA_PROJECT
  2
AcDbVbaProject
  3
"acadvba"
 90
        1
280
     0
281
     0
  0
CLASS
  1
WIPEOUT
  2
AcDbWipeout
  3
WipeOut|AutoCAD Express Tool|expresstools@autodesk.com
 90
      127
280
     0
281
     1
  0
CLASS
  1
WIPEOUTVARIABLES
  2
AcDbWipeoutVariables
  3
WipeOut|AutoCAD Express Tool|expresstools@autodesk.com
 90
        0
280
     0
281
     0
  0
CLASS
  1
RTEXT
  2
RText
  3
RText|AutoCAD Express Tool|expresstools@autodesk.com
 90
        0
280
     0
281
     1
  0
CLASS
  1
ARCALIGNEDTEXT
  2
AcDbArcAlignedText
  3
ATEXT|AutoCAD Express Tool|expresstools@autodesk.com
 90
        0
280
     0
281
     1
  0
ENDSEC
  0
SECTION
  2
TABLES
  0
TABLE
  2
VPORT
  5
3F1
100
AcDbSymbolTable
 70
     1
  0
VPORT
  5
402
100
AcDbSymbolTableRecord
100
AcDbViewportTableRecord
  2
*ACTIVE
 70
     0
 10
0.0
 20
0.0
 11
1.0
 21
1.0
 12
434.312891
 22
414.457053
 13
0.0
 23
0.0
 14
1.0
 24
1.0
 15
0.0
 25
0.0
 16
0.0
 26
0.0
 36
1.0
 17
0.0
 27
0.0
 37
0.0
 40
739.067893
 41
1.646429
 42
50.0
 43
0.0
 44
0.0
 50
0.0
 51
0.0
 71
     0
 72
   100
 73
     1
 74
     0
 75
     0
 76
     0
 77
     0
 78
     0
  0
ENDTAB
  0
TABLE
  2
LTYPE
  5
3EE
100
AcDbSymbolTable
 70
     5
  0
LTYPE
  5
3F7
100
AcDbSymbolTableRecord
100
AcDbLinetypeTableRecord
  2
BYBLOCK
 70
    64
  3

 72
    65
 73
     0
 40
0.0
  0
LTYPE
  5
3F8
100
AcDbSymbolTableRecord
100
AcDbLinetypeTableRecord
  2
BYLAYER
 70
    64
  3

 72
    65
 73
     0
 40
0.0
  0
LTYPE
  5
3F9
100
AcDbSymbolTableRecord
100
AcDbLinetypeTableRecord
  2
CONTINUOUS
 70
    64
  3
Solid line
 72
    65
 73
     0
 40
0.0
  0
LTYPE
  5
3FA
100
AcDbSymbolTableRecord
100
AcDbLinetypeTableRecord
  2
CENTER
 70
    64
  3
____ _ ____ _ ____ _ ____ _ ____ _ ____ _ ____
 72
    65
 73
     4
 40
2.0
 49
1.25
 74
     0
 49
-0.25
 74
     0
 49
0.25
 74
     0
 49
-0.25
 74
     0
  0
LTYPE
  5
3FB
100
AcDbSymbolTableRecord
100
AcDbLinetypeTableRecord
  2
HIDDEN
 70
    64
  3
_ _ _ _ _ _ _ _ _ _ _ _ _ _ _ _ _ _ _ _ _ _ _
 72
    65
 73
     2
 40
0.375
 49
0.25
 74
     0
 49
-0.125
 74
     0
  0
ENDTAB
  0
TABLE
  2
LAYER
  5
3EC
100
AcDbSymbolTable
 70
     6
  0
LAYER
  5
3FC
100
AcDbSymbolTableRecord
100
AcDbLayerTableRecord
  2
0
 70
    64
 62
     7
  6
CONTINUOUS
  0
LAYER
  5
3FD
100
AcDbSymbolTableRecord
100
AcDbLayerTableRecord
  2
SCALE
 70
    64
 62
     4
  6
CONTINUOUS
  0
LAYER
  5
3FE
100
AcDbSymbolTableRecord
100
AcDbLayerTableRecord
  2
1
 70
    64
 62
     3
  6
CONTINUOUS
  0
LAYER
  5
3FF
100
AcDbSymbolTableRecord
100
AcDbLayerTableRecord
  2
DEFPOINTS
 70
    64
 62
     7
  6
CONTINUOUS
  0
LAYER
  5
400
100
AcDbSymbolTableRecord
100
AcDbLayerTableRecord
  2
SILK
 70
    64
 62
     5
  6
CONTINUOUS
  0
LAYER
  5
401
100
AcDbSymbolTableRecord
100
AcDbLayerTableRecord
  2
CENTER
 70
    64
 62
     1
  6
CENTER
  0
ENDTAB
  0
TABLE
  2
STYLE
  5
3ED
100
AcDbSymbolTable
 70
     3
  0
STYLE
  5
404
100
AcDbSymbolTableRecord
100
AcDbTextStyleTableRecord
  2
STANDARD
 70
    64
 40
0.0
 41
1.0
 50
0.0
 71
     0
 42
3.0
  3
SIMPLEX
  4

  0
STYLE
  5
405
100
AcDbSymbolTableRecord
100
AcDbTextStyleTableRecord
  2
UT7
 70
    64
 40
0.0
 41
0.8
 50
0.0
 71
     0
 42
12.5
  3
TOAFONT
  4

  0
STYLE
  5
406
100
AcDbSymbolTableRecord
100
AcDbTextStyleTableRecord
  2
TOALOGO
 70
    64
 40
3.0
 41
1.0
 50
0.0
 71
     0
 42
3.0
  3
SIMPLEX
  4
SLFONT
  0
ENDTAB
  0
TABLE
  2
VIEW
  5
3EF
100
AcDbSymbolTable
 70
     0
  0
ENDTAB
  0
TABLE
  2
UCS
  5
3F0
100
AcDbSymbolTable
 70
     0
  0
ENDTAB
  0
TABLE
  2
APPID
  5
3F2
100
AcDbSymbolTable
 70
     1
  0
APPID
  5
403
100
AcDbSymbolTableRecord
100
AcDbRegAppTableRecord
  2
ACAD
 70
    64
  0
ENDTAB
  0
TABLE
  2
DIMSTYLE
  5
3F3
100
AcDbSymbolTable
 70
     1
  0
DIMSTYLE
105
41C
100
AcDbSymbolTableRecord
100
AcDbDimStyleTableRecord
  2
STANDARD
 70
    64
  3

  4

  5

  6

  7

 40
1.0
 41
0.18
 42
0.0625
 43
0.38
 44
0.18
 45
0.0
 46
0.0
 47
0.0
 48
0.0
 71
     0
 72
     0
 73
     1
 74
     1
 75
     0
 76
     0
 77
     0
 78
     0
140
0.18
141
0.09
142
0.0
143
25.4
144
1.0
145
0.0
146
1.0
147
0.09
170
     0
171
     2
172
     0
173
     0
174
     0
175
     0
176
     0
177
     0
178
     0
270
     2
271
     4
272
     4
273
     2
274
     2
275
     0
280
     0
281
     0
282
     0
283
     1
284
     0
285
     0
286
     0
287
     0
288
     0
340
404
  0
ENDTAB
  0
TABLE
  2
BLOCK_RECORD
  5
417
100
AcDbSymbolTable
 70
    14
  0
BLOCK_RECORD
  5
415
100
AcDbSymbolTableRecord
100
AcDbBlockTableRecord
  2
*MODEL_SPACE
  0
BLOCK_RECORD
  5
416
100
AcDbSymbolTableRecord
100
AcDbBlockTableRecord
  2
*PAPER_SPACE
  0
BLOCK_RECORD
  5
407
100
AcDbSymbolTableRecord
100
AcDbBlockTableRecord
  2
YAZ3
  0
BLOCK_RECORD
  5
408
100
AcDbSymbolTableRecord
100
AcDbBlockTableRecord
  2
YAZ1
  0
BLOCK_RECORD
  5
409
100
AcDbSymbolTableRecord
100
AcDbBlockTableRecord
  2
*D2
  0
BLOCK_RECORD
  5
40A
100
AcDbSymbolTableRecord
100
AcDbBlockTableRecord
  2
*D3
  0
BLOCK_RECORD
  5
40B
100
AcDbSymbolTableRecord
100
AcDbBlockTableRecord
  2
*D4
  0
BLOCK_RECORD
  5
40C
100
AcDbSymbolTableRecord
100
AcDbBlockTableRecord
  2
*D5
  0
BLOCK_RECORD
  5
40D
100
AcDbSymbolTableRecord
100
AcDbBlockTableRecord
  2
*D6
  0
BLOCK_RECORD
  5
40E
100
AcDbSymbolTableRecord
100
AcDbBlockTableRecord
  2
*D7
  0
BLOCK_RECORD
  5
40F
100
AcDbSymbolTableRecord
100
AcDbBlockTableRecord
  2
*D8
  0
BLOCK_RECORD
  5
410
100
AcDbSymbolTableRecord
100
AcDbBlockTableRecord
  2
*D9
  0
BLOCK_RECORD
  5
411
100
AcDbSymbolTableRecord
100
AcDbBlockTableRecord
  2
*D10
  0
BLOCK_RECORD
  5
412
100
AcDbSymbolTableRecord
100
AcDbBlockTableRecord
  2
*D11
  0
BLOCK_RECORD
  5
413
100
AcDbSymbolTableRecord
100
AcDbBlockTableRecord
  2
*D12
  0
BLOCK_RECORD
  5
414
100
AcDbSymbolTableRecord
100
AcDbBlockTableRecord
  2
*D13
  0
ENDTAB
  0
ENDSEC
  0
SECTION
  2
BLOCKS
  0
BLOCK
  5
418
100
AcDbEntity
  8
0
100
AcDbBlockBegin
  2
*MODEL_SPACE
 70
     0
 10
0.0
 20
0.0
 30
0.0
  3
*MODEL_SPACE
  1

  0
ENDBLK
  5
419
100
AcDbEntity
  8
0
100
AcDbBlockEnd
  0
BLOCK
  5
41A
100
AcDbEntity
 67
     1
  8
0
100
AcDbBlockBegin
  2
*PAPER_SPACE
 70
     0
 10
0.0
 20
0.0
 30
0.0
  3
*PAPER_SPACE
  1

  0
ENDBLK
  5
41B
100
AcDbEntity
 67
     1
  8
0
100
AcDbBlockEnd
  0
BLOCK
  5
45
100
AcDbEntity
  8
0
100
AcDbBlockBegin
  2
YAZ3
 70
    64
 10
0.0
 20
0.0
 30
0.0
  3
YAZ3
  1

  0
INSERT
  5
46
100
AcDbEntity
  8
0
100
AcDbBlockReference
  2
YAZ1
 10
0.0
 20
0.0
 30
0.0
  0
LINE
  5
47
100
AcDbEntity
  8
0
100
AcDbLine
 10
-0.999365
 20
0.04706
 30
0.0
 11
-0.175629
 21
0.04706
 31
0.0
  0
LINE
  5
48
100
AcDbEntity
  8
0
100
AcDbLine
 10
-0.999365
 20
0.09706
 30
0.0
 11
-0.362232
 21
0.09706
 31
0.0
  0
LINE
  5
49
100
AcDbEntity
  8
0
100
AcDbLine
 10
-0.999365
 20
0.14706
 30
0.0
 11
-0.548834
 21
0.14706
 31
0.0
  0
LINE
  5
4A
100
AcDbEntity
  8
0
100
AcDbLine
 10
-0.999365
 20
0.19706
 30
0.0
 11
-0.735437
 21
0.19706
 31
0.0
  0
LINE
  5
4B
100
AcDbEntity
  8
0
100
AcDbLine
 10
-0.999365
 20
0.24706
 30
0.0
 11
-0.922039
 21
0.24706
 31
0.0
  0
LINE
  5
4C
100
AcDbEntity
  8
0
100
AcDbLine
 10
-0.999365
 20
-0.05294
 30
0.0
 11
-0.197576
 21
-0.05294
 31
0.0
  0
LINE
  5
4D
100
AcDbEntity
  8
0
100
AcDbLine
 10
-0.999365
 20
-0.10294
 30
0.0
 11
-0.384179
 21
-0.10294
 31
0.0
  0
LINE
  5
4E
100
AcDbEntity
  8
0
100
AcDbLine
 10
-0.999365
 20
-0.15294
 30
0.0
 11
-0.570781
 21
-0.15294
 31
0.0
  0
LINE
  5
4F
100
AcDbEntity
  8
0
100
AcDbLine
 10
-0.999365
 20
-0.20294
 30
0.0
 11
-0.757384
 21
-0.20294
 31
0.0
  0
LINE
  5
50
100
AcDbEntity
  8
0
100
AcDbLine
 10
-0.999365
 20
-0.25294
 30
0.0
 11
-0.943986
 21
-0.25294
 31
0.0
  0
SOLID
  5
51
100
AcDbEntity
  8
0
100
AcDbTrace
 10
0.0
 20
0.0
 30
0.0
 11
-1.0
 21
0.267949
 31
0.0
 12
-1.0
 22
-0.267949
 32
0.0
 13
-1.0
 23
-0.267949
 33
0.0
  0
ENDBLK
  5
52
100
AcDbEntity
  8
0
100
AcDbBlockEnd
  0
BLOCK
  5
53
100
AcDbEntity
  8
0
100
AcDbBlockBegin
  2
YAZ1
 70
    64
 10
184.0
 20
133.0
 30
0.0
  3
YAZ1
  1

  0
LINE
  5
54
100
AcDbEntity
  8
0
100
AcDbLine
 10
184.0
 20
133.0
 30
0.0
 11
183.0
 21
132.732051
 31
0.0
  0
LINE
  5
55
100
AcDbEntity
  8
0
100
AcDbLine
 10
184.0
 20
133.0
 30
0.0
 11
183.0
 21
133.267949
 31
0.0
  0
LINE
  5
56
100
AcDbEntity
  8
0
100
AcDbLine
 10
183.0
 20
133.0
 30
0.0
 11
184.0
 21
133.0
 31
0.0
  0
ENDBLK
  5
57
100
AcDbEntity
  8
0
100
AcDbBlockEnd
  0
BLOCK
  5
58
100
AcDbEntity
  8
SCALE
100
AcDbBlockBegin
  2
*D2
 70
    65
 10
0.0
 20
0.0
 30
0.0
  3
*D2
  1

  0
LINE
  5
59
100
AcDbEntity
  8
0
  6
BYBLOCK
 62
     0
100
AcDbLine
 10
512.861375
 20
710.247304
 30
0.0
 11
512.861375
 21
727.636618
 31
0.0
  0
LINE
  5
5A
100
AcDbEntity
  8
0
  6
BYBLOCK
 62
     0
100
AcDbLine
 10
684.393771
 20
653.39154
 30
0.0
 11
684.393771
 21
727.636618
 31
0.0
  0
LINE
  5
5B
100
AcDbEntity
  8
0
  6
BYBLOCK
 62
     0
100
AcDbLine
 10
520.361375
 20
720.136618
 30
0.0
 11
676.893771
 21
720.136618
 31
0.0
  0
INSERT
  5
5C
100
AcDbEntity
  8
0
  6
BYBLOCK
 62
     0
100
AcDbBlockReference
  2
YAZ3
 10
512.861375
 20
720.136618
 30
0.0
 41
7.5
 42
7.5
 43
7.5
 50
180.0
  0
INSERT
  5
5D
100
AcDbEntity
  8
0
  6
BYBLOCK
 62
     0
100
AcDbBlockReference
  2
YAZ3
 10
684.393771
 20
720.136618
 30
0.0
 41
7.5
 42
7.5
 43
7.5
  0
TEXT
  5
5E
100
AcDbEntity
  8
0
  6
BYBLOCK
 62
     0
100
AcDbText
 10
578.722812
 20
725.636618
 30
0.0
 40
11.0
  1
171.5
 72
     1
 11
598.627573
 21
731.136618
 31
0.0
100
AcDbText
 73
     2
  0
POINT
  5
5F
100
AcDbEntity
  8
DEFPOINTS
  6
BYBLOCK
 62
     0
100
AcDbPoint
 10
512.861375
 20
700.247304
 30
0.0
  0
POINT
  5
60
100
AcDbEntity
  8
DEFPOINTS
  6
BYBLOCK
 62
     0
100
AcDbPoint
 10
684.393771
 20
643.39154
 30
0.0
  0
POINT
  5
61
100
AcDbEntity
  8
DEFPOINTS
  6
BYBLOCK
 62
     0
100
AcDbPoint
 10
684.393771
 20
720.136618
 30
0.0
  0
ENDBLK
  5
62
100
AcDbEntity
  8
SCALE
100
AcDbBlockEnd
  0
BLOCK
  5
63
100
AcDbEntity
  8
SCALE
100
AcDbBlockBegin
  2
*D3
 70
    65
 10
0.0
 20
0.0
 30
0.0
  3
*D3
  1

  0
LINE
  5
64
100
AcDbEntity
  8
0
  6
BYBLOCK
 62
     0
100
AcDbLine
 10
79.009089
 20
699.224082
 30
0.0
 11
79.009089
 21
727.636618
 31
0.0
  0
LINE
  5
65
100
AcDbEntity
  8
0
  6
BYBLOCK
 62
     0
100
AcDbLine
 10
445.009089
 20
699.224082
 30
0.0
 11
445.009089
 21
727.636618
 31
0.0
  0
LINE
  5
66
100
AcDbEntity
  8
0
  6
BYBLOCK
 62
     0
100
AcDbLine
 10
86.509089
 20
720.136618
 30
0.0
 11
437.509089
 21
720.136618
 31
0.0
  0
INSERT
  5
67
100
AcDbEntity
  8
0
  6
BYBLOCK
 62
     0
100
AcDbBlockReference
  2
YAZ3
 10
79.009089
 20
720.136618
 30
0.0
 41
7.5
 42
7.5
 43
7.5
 50
180.0
  0
INSERT
  5
68
100
AcDbEntity
  8
0
  6
BYBLOCK
 62
     0
100
AcDbBlockReference
  2
YAZ3
 10
445.009089
 20
720.136618
 30
0.0
 41
7.5
 42
7.5
 43
7.5
  0
TEXT
  5
69
100
AcDbEntity
  8
0
  6
BYBLOCK
 62
     0
100
AcDbText
 10
248.128137
 20
725.636618
 30
0.0
 40
11.0
  1
366
 72
     1
 11
262.009089
 21
731.136618
 31
0.0
100
AcDbText
 73
     2
  0
POINT
  5
6A
100
AcDbEntity
  8
DEFPOINTS
  6
BYBLOCK
 62
     0
100
AcDbPoint
 10
79.009089
 20
689.224082
 30
0.0
  0
POINT
  5
6B
100
AcDbEntity
  8
DEFPOINTS
  6
BYBLOCK
 62
     0
100
AcDbPoint
 10
445.009089
 20
689.224082
 30
0.0
  0
POINT
  5
6C
100
AcDbEntity
  8
DEFPOINTS
  6
BYBLOCK
 62
     0
100
AcDbPoint
 10
445.009089
 20
720.136618
 30
0.0
  0
ENDBLK
  5
6D
100
AcDbEntity
  8
SCALE
100
AcDbBlockEnd
  0
BLOCK
  5
6E
100
AcDbEntity
  8
SCALE
100
AcDbBlockBegin
  2
*D4
 70
    65
 10
0.0
 20
0.0
 30
0.0
  3
*D4
  1

  0
LINE
  5
6F
100
AcDbEntity
  8
0
  6
BYBLOCK
 62
     0
100
AcDbLine
 10
252.009089
 20
704.89154
 30
0.0
 11
30.01002
 21
704.89154
 31
0.0
  0
LINE
  5
70
100
AcDbEntity
  8
0
  6
BYBLOCK
 62
     0
100
AcDbLine
 10
144.009089
 20
474.89154
 30
0.0
 11
30.01002
 21
474.89154
 31
0.0
  0
LINE
  5
71
100
AcDbEntity
  8
0
  6
BYBLOCK
 62
     0
100
AcDbLine
 10
37.51002
 20
697.39154
 30
0.0
 11
37.51002
 21
482.39154
 31
0.0
  0
INSERT
  5
72
100
AcDbEntity
  8
0
  6
BYBLOCK
 62
     0
100
AcDbBlockReference
  2
YAZ3
 10
37.51002
 20
704.89154
 30
0.0
 41
7.5
 42
7.5
 43
7.5
 50
90.0
  0
INSERT
  5
73
100
AcDbEntity
  8
0
  6
BYBLOCK
 62
     0
100
AcDbBlockReference
  2
YAZ3
 10
37.51002
 20
474.89154
 30
0.0
 41
7.5
 42
7.5
 43
7.5
 50
270.0
  0
TEXT
  5
74
100
AcDbEntity
  8
0
  6
BYBLOCK
 62
     0
100
AcDbText
 10
32.01002
 20
575.748683
 30
0.0
 40
11.0
  1
230
 50
90.0
 72
     1
 11
26.51002
 21
589.89154
 31
0.0
100
AcDbText
 73
     2
  0
POINT
  5
75
100
AcDbEntity
  8
DEFPOINTS
  6
BYBLOCK
 62
     0
100
AcDbPoint
 10
262.009089
 20
704.89154
 30
0.0
  0
POINT
  5
76
100
AcDbEntity
  8
DEFPOINTS
  6
BYBLOCK
 62
     0
100
AcDbPoint
 10
154.009089
 20
474.89154
 30
0.0
  0
POINT
  5
77
100
AcDbEntity
  8
DEFPOINTS
  6
BYBLOCK
 62
     0
100
AcDbPoint
 10
37.51002
 20
474.89154
 30
0.0
  0
ENDBLK
  5
78
100
AcDbEntity
  8
SCALE
100
AcDbBlockEnd
  0
BLOCK
  5
79
100
AcDbEntity
  8
SCALE
100
AcDbBlockBegin
  2
*D5
 70
    65
 10
0.0
 20
0.0
 30
0.0
  3
*D5
  1

  0
LINE
  5
7A
100
AcDbEntity
  8
0
  6
BYBLOCK
 62
     0
100
AcDbLine
 10
252.009089
 20
704.89154
 30
0.0
 11
57.929681
 21
704.89154
 31
0.0
  0
LINE
  5
7B
100
AcDbEntity
  8
0
  6
BYBLOCK
 62
     0
100
AcDbLine
 10
252.009089
 20
532.891541
 30
0.0
 11
57.929681
 21
532.891541
 31
0.0
  0
LINE
  5
7C
100
AcDbEntity
  8
0
  6
BYBLOCK
 62
     0
100
AcDbLine
 10
65.429681
 20
697.39154
 30
0.0
 11
65.429681
 21
540.391541
 31
0.0
  0
INSERT
  5
7D
100
AcDbEntity
  8
0
  6
BYBLOCK
 62
     0
100
AcDbBlockReference
  2
YAZ3
 10
65.429681
 20
704.89154
 30
0.0
 41
7.5
 42
7.5
 43
7.5
 50
90.0
  0
INSERT
  5
7E
100
AcDbEntity
  8
0
  6
BYBLOCK
 62
     0
100
AcDbBlockReference
  2
YAZ3
 10
65.429681
 20
532.891541
 30
0.0
 41
7.5
 42
7.5
 43
7.5
 50
270.0
  0
TEXT
  5
7F
100
AcDbEntity
  8
0
  6
BYBLOCK
 62
     0
100
AcDbText
 10
59.929681
 20
605.796302
 30
0.0
 40
11.0
  1
172
 50
90.0
 72
     1
 11
54.429681
 21
618.89154
 31
0.0
100
AcDbText
 73
     2
  0
POINT
  5
80
100
AcDbEntity
  8
DEFPOINTS
  6
BYBLOCK
 62
     0
100
AcDbPoint
 10
262.009089
 20
704.89154
 30
0.0
  0
POINT
  5
81
100
AcDbEntity
  8
DEFPOINTS
  6
BYBLOCK
 62
     0
100
AcDbPoint
 10
262.009089
 20
532.891541
 30
0.0
  0
POINT
  5
82
100
AcDbEntity
  8
DEFPOINTS
  6
BYBLOCK
 62
     0
100
AcDbPoint
 10
65.429681
 20
532.891541
 30
0.0
  0
ENDBLK
  5
83
100
AcDbEntity
  8
SCALE
100
AcDbBlockEnd
  0
BLOCK
  5
84
100
AcDbEntity
  8
SCALE
100
AcDbBlockBegin
  2
*D6
 70
    65
 10
0.0
 20
0.0
 30
0.0
  3
*D6
  1

  0
LINE
  5
85
100
AcDbEntity
  8
0
  6
BYBLOCK
 62
     0
100
AcDbLine
 10
134.009089
 20
274.886989
 30
0.0
 11
57.929681
 21
274.886989
 31
0.0
  0
LINE
  5
86
100
AcDbEntity
  8
0
  6
BYBLOCK
 62
     0
100
AcDbLine
 10
134.009089
 20
237.886989
 30
0.0
 11
57.929681
 21
237.886989
 31
0.0
  0
LINE
  5
87
100
AcDbEntity
  8
0
  6
BYBLOCK
 62
     0
100
AcDbLine
 10
65.429681
 20
267.386989
 30
0.0
 11
65.429681
 21
245.386989
 31
0.0
  0
INSERT
  5
88
100
AcDbEntity
  8
0
  6
BYBLOCK
 62
     0
100
AcDbBlockReference
  2
YAZ3
 10
65.429681
 20
274.886989
 30
0.0
 41
7.5
 42
7.5
 43
7.5
 50
90.0
  0
INSERT
  5
89
100
AcDbEntity
  8
0
  6
BYBLOCK
 62
     0
100
AcDbBlockReference
  2
YAZ3
 10
65.429681
 20
237.886989
 30
0.0
 41
7.5
 42
7.5
 43
7.5
 50
270.0
  0
TEXT
  5
8A
100
AcDbEntity
  8
0
  6
BYBLOCK
 62
     0
100
AcDbText
 10
59.929681
 20
247.482227
 30
0.0
 40
11.0
  1
37
 50
90.0
 72
     1
 11
54.429681
 21
256.386989
 31
0.0
100
AcDbText
 73
     2
  0
POINT
  5
8B
100
AcDbEntity
  8
DEFPOINTS
  6
BYBLOCK
 62
     0
100
AcDbPoint
 10
144.009089
 20
274.886989
 30
0.0
  0
POINT
  5
8C
100
AcDbEntity
  8
DEFPOINTS
  6
BYBLOCK
 62
     0
100
AcDbPoint
 10
144.009089
 20
237.886989
 30
0.0
  0
POINT
  5
8D
100
AcDbEntity
  8
DEFPOINTS
  6
BYBLOCK
 62
     0
100
AcDbPoint
 10
65.429681
 20
237.886989
 30
0.0
  0
ENDBLK
  5
8E
100
AcDbEntity
  8
SCALE
100
AcDbBlockEnd
  0
BLOCK
  5
8F
100
AcDbEntity
  8
SCALE
100
AcDbBlockBegin
  2
*D7
 70
    65
 10
0.0
 20
0.0
 30
0.0
  3
*D7
  1

  0
LINE
  5
90
100
AcDbEntity
  8
0
  6
BYBLOCK
 62
     0
100
AcDbLine
 10
712.893771
 20
490.418305
 30
0.0
 11
847.615763
 21
490.418305
 31
0.0
  0
LINE
  5
91
100
AcDbEntity
  8
0
  6
BYBLOCK
 62
     0
100
AcDbLine
 10
800.393771
 20
634.418305
 30
0.0
 11
847.615763
 21
634.418305
 31
0.0
  0
LINE
  5
92
100
AcDbEntity
  8
0
  6
BYBLOCK
 62
     0
100
AcDbLine
 10
840.115763
 20
497.918305
 30
0.0
 11
840.115763
 21
626.918305
 31
0.0
  0
INSERT
  5
93
100
AcDbEntity
  8
0
  6
BYBLOCK
 62
     0
100
AcDbBlockReference
  2
YAZ3
 10
840.115763
 20
490.418305
 30
0.0
 41
7.5
 42
7.5
 43
7.5
 50
270.0
  0
INSERT
  5
94
100
AcDbEntity
  8
0
  6
BYBLOCK
 62
     0
100
AcDbBlockReference
  2
YAZ3
 10
840.115763
 20
634.418305
 30
0.0
 41
7.5
 42
7.5
 43
7.5
 50
90.0
  0
TEXT
  5
95
100
AcDbEntity
  8
0
  6
BYBLOCK
 62
     0
100
AcDbText
 10
834.615763
 20
549.061163
 30
0.0
 40
11.0
  1
144
 50
90.0
 72
     1
 11
829.115763
 21
562.418305
 31
0.0
100
AcDbText
 73
     2
  0
POINT
  5
96
100
AcDbEntity
  8
DEFPOINTS
  6
BYBLOCK
 62
     0
100
AcDbPoint
 10
702.893771
 20
490.418305
 30
0.0
  0
POINT
  5
97
100
AcDbEntity
  8
DEFPOINTS
  6
BYBLOCK
 62
     0
100
AcDbPoint
 10
790.393771
 20
634.418305
 30
0.0
  0
POINT
  5
98
100
AcDbEntity
  8
DEFPOINTS
  6
BYBLOCK
 62
     0
100
AcDbPoint
 10
840.115763
 20
634.418305
 30
0.0
  0
ENDBLK
  5
99
100
AcDbEntity
  8
SCALE
100
AcDbBlockEnd
  0
BLOCK
  5
9A
100
AcDbEntity
  8
SCALE
100
AcDbBlockBegin
  2
*D8
 70
    65
 10
0.0
 20
0.0
 30
0.0
  3
*D8
  1

  0
LINE
  5
9B
100
AcDbEntity
  8
0
  6
BYBLOCK
 62
     0
100
AcDbLine
 10
512.861375
 20
725.774069
 30
0.0
 11
512.861375
 21
770.160392
 31
0.0
  0
LINE
  5
9C
100
AcDbEntity
  8
0
  6
BYBLOCK
 62
     0
100
AcDbLine
 10
784.393771
 20
694.382116
 30
0.0
 11
784.393771
 21
770.160392
 31
0.0
  0
LINE
  5
9D
100
AcDbEntity
  8
0
  6
BYBLOCK
 62
     0
100
AcDbLine
 10
520.361375
 20
762.660392
 30
0.0
 11
776.893771
 21
762.660392
 31
0.0
  0
INSERT
  5
9E
100
AcDbEntity
  8
0
  6
BYBLOCK
 62
     0
100
AcDbBlockReference
  2
YAZ3
 10
512.861375
 20
762.660392
 30
0.0
 41
7.5
 42
7.5
 43
7.5
 50
180.0
  0
INSERT
  5
9F
100
AcDbEntity
  8
0
  6
BYBLOCK
 62
     0
100
AcDbBlockReference
  2
YAZ3
 10
784.393771
 20
762.660392
 30
0.0
 41
7.5
 42
7.5
 43
7.5
  0
TEXT
  5
A0
100
AcDbEntity
  8
0
  6
BYBLOCK
 62
     0
100
AcDbText
 10
634.484716
 20
768.160392
 30
0.0
 40
11.0
  1
272
 72
     1
 11
648.627573
 21
773.660392
 31
0.0
100
AcDbText
 73
     2
  0
POINT
  5
A1
100
AcDbEntity
  8
DEFPOINTS
  6
BYBLOCK
 62
     0
100
AcDbPoint
 10
512.861375
 20
715.774069
 30
0.0
  0
POINT
  5
A2
100
AcDbEntity
  8
DEFPOINTS
  6
BYBLOCK
 62
     0
100
AcDbPoint
 10
784.393771
 20
684.382116
 30
0.0
  0
POINT
  5
A3
100
AcDbEntity
  8
DEFPOINTS
  6
BYBLOCK
 62
     0
100
AcDbPoint
 10
784.393771
 20
762.660392
 30
0.0
  0
ENDBLK
  5
A4
100
AcDbEntity
  8
SCALE
100
AcDbBlockEnd
  0
BLOCK
  5
A5
100
AcDbEntity
  8
SCALE
100
AcDbBlockBegin
  2
*D9
 70
    65
 10
0.0
 20
0.0
 30
0.0
  3
*D9
  1

  0
LINE
  5
A6
100
AcDbEntity
  8
0
  6
BYBLOCK
 62
     0
100
AcDbLine
 10
211.009089
 20
302.413754
 30
0.0
 11
211.009089
 21
335.261628
 31
0.0
  0
LINE
  5
A7
100
AcDbEntity
  8
0
  6
BYBLOCK
 62
     0
100
AcDbLine
 10
262.009089
 20
302.413754
 30
0.0
 11
262.009089
 21
335.261628
 31
0.0
  0
LINE
  5
A8
100
AcDbEntity
  8
0
  6
BYBLOCK
 62
     0
100
AcDbLine
 10
218.509089
 20
327.761628
 30
0.0
 11
254.509089
 21
327.761628
 31
0.0
  0
INSERT
  5
A9
100
AcDbEntity
  8
0
  6
BYBLOCK
 62
     0
100
AcDbBlockReference
  2
YAZ3
 10
211.009089
 20
327.761628
 30
0.0
 41
7.5
 42
7.5
 43
7.5
 50
180.0
  0
INSERT
  5
AA
100
AcDbEntity
  8
0
  6
BYBLOCK
 62
     0
100
AcDbBlockReference
  2
YAZ3
 10
262.009089
 20
327.761628
 30
0.0
 41
7.5
 42
7.5
 43
7.5
  0
TEXT
  5
AB
100
AcDbEntity
  8
0
  6
BYBLOCK
 62
     0
100
AcDbText
 10
229.96147
 20
333.261628
 30
0.0
 40
11.0
  1
51
 72
     1
 11
236.509089
 21
338.761628
 31
0.0
100
AcDbText
 73
     2
  0
POINT
  5
AC
100
AcDbEntity
  8
DEFPOINTS
  6
BYBLOCK
 62
     0
100
AcDbPoint
 10
211.009089
 20
292.413754
 30
0.0
  0
POINT
  5
AD
100
AcDbEntity
  8
DEFPOINTS
  6
BYBLOCK
 62
     0
100
AcDbPoint
 10
262.009089
 20
292.413754
 30
0.0
  0
POINT
  5
AE
100
AcDbEntity
  8
DEFPOINTS
  6
BYBLOCK
 62
     0
100
AcDbPoint
 10
262.009089
 20
327.761628
 30
0.0
  0
ENDBLK
  5
AF
100
AcDbEntity
  8
SCALE
100
AcDbBlockEnd
  0
BLOCK
  5
B0
100
AcDbEntity
  8
SCALE
100
AcDbBlockBegin
  2
*D10
 70
    65
 10
0.0
 20
0.0
 30
0.0
  3
*D10
  1

  0
LINE
  5
B1
100
AcDbEntity
  8
0
  6
BYBLOCK
 62
     0
100
AcDbLine
 10
262.009089
 20
302.413754
 30
0.0
 11
262.009089
 21
335.261628
 31
0.0
  0
LINE
  5
B2
100
AcDbEntity
  8
0
  6
BYBLOCK
 62
     0
100
AcDbLine
 10
313.009089
 20
302.413754
 30
0.0
 11
313.009089
 21
335.261628
 31
0.0
  0
LINE
  5
B3
100
AcDbEntity
  8
0
  6
BYBLOCK
 62
     0
100
AcDbLine
 10
269.509089
 20
327.761628
 30
0.0
 11
305.509089
 21
327.761628
 31
0.0
  0
INSERT
  5
B4
100
AcDbEntity
  8
0
  6
BYBLOCK
 62
     0
100
AcDbBlockReference
  2
YAZ3
 10
262.009089
 20
327.761628
 30
0.0
 41
7.5
 42
7.5
 43
7.5
 50
180.0
  0
INSERT
  5
B5
100
AcDbEntity
  8
0
  6
BYBLOCK
 62
     0
100
AcDbBlockReference
  2
YAZ3
 10
313.009089
 20
327.761628
 30
0.0
 41
7.5
 42
7.5
 43
7.5
  0
TEXT
  5
B6
100
AcDbEntity
  8
0
  6
BYBLOCK
 62
     0
100
AcDbText
 10
280.96147
 20
333.261628
 30
0.0
 40
11.0
  1
51
 72
     1
 11
287.509089
 21
338.761628
 31
0.0
100
AcDbText
 73
     2
  0
POINT
  5
B7
100
AcDbEntity
  8
DEFPOINTS
  6
BYBLOCK
 62
     0
100
AcDbPoint
 10
262.009089
 20
292.413754
 30
0.0
  0
POINT
  5
B8
100
AcDbEntity
  8
DEFPOINTS
  6
BYBLOCK
 62
     0
100
AcDbPoint
 10
313.009089
 20
292.413754
 30
0.0
  0
POINT
  5
B9
100
AcDbEntity
  8
DEFPOINTS
  6
BYBLOCK
 62
     0
100
AcDbPoint
 10
313.009089
 20
327.761628
 30
0.0
  0
ENDBLK
  5
BA
100
AcDbEntity
  8
SCALE
100
AcDbBlockEnd
  0
BLOCK
  5
BB
100
AcDbEntity
  8
SCALE
100
AcDbBlockBegin
  2
*D11
 70
    65
 10
0.0
 20
0.0
 30
0.0
  3
*D11
  1

  0
LINE
  5
BC
100
AcDbEntity
  8
0
  6
BYBLOCK
 62
     0
100
AcDbLine
 10
144.009089
 20
253.413754
 30
0.0
 11
144.009089
 21
143.772584
 31
0.0
  0
LINE
  5
BD
100
AcDbEntity
  8
0
  6
BYBLOCK
 62
     0
100
AcDbLine
 10
380.009089
 20
253.413754
 30
0.0
 11
380.009089
 21
143.772584
 31
0.0
  0
LINE
  5
BE
100
AcDbEntity
  8
0
  6
BYBLOCK
 62
     0
100
AcDbLine
 10
151.509089
 20
151.272584
 30
0.0
 11
372.509089
 21
151.272584
 31
0.0
  0
INSERT
  5
BF
100
AcDbEntity
  8
0
  6
BYBLOCK
 62
     0
100
AcDbBlockReference
  2
YAZ3
 10
144.009089
 20
151.272584
 30
0.0
 41
7.5
 42
7.5
 43
7.5
 50
180.0
  0
INSERT
  5
C0
100
AcDbEntity
  8
0
  6
BYBLOCK
 62
     0
100
AcDbBlockReference
  2
YAZ3
 10
380.009089
 20
151.272584
 30
0.0
 41
7.5
 42
7.5
 43
7.5
  0
TEXT
  5
C1
100
AcDbEntity
  8
0
  6
BYBLOCK
 62
     0
100
AcDbText
 10
248.128137
 20
156.772584
 30
0.0
 40
11.0
  1
236
 72
     1
 11
262.009089
 21
162.272584
 31
0.0
100
AcDbText
 73
     2
  0
POINT
  5
C2
100
AcDbEntity
  8
DEFPOINTS
  6
BYBLOCK
 62
     0
100
AcDbPoint
 10
144.009089
 20
263.413754
 30
0.0
  0
POINT
  5
C3
100
AcDbEntity
  8
DEFPOINTS
  6
BYBLOCK
 62
     0
100
AcDbPoint
 10
380.009089
 20
263.413754
 30
0.0
  0
POINT
  5
C4
100
AcDbEntity
  8
DEFPOINTS
  6
BYBLOCK
 62
     0
100
AcDbPoint
 10
380.009089
 20
151.272584
 30
0.0
  0
ENDBLK
  5
C5
100
AcDbEntity
  8
SCALE
100
AcDbBlockEnd
  0
BLOCK
  5
C6
100
AcDbEntity
  8
SCALE
100
AcDbBlockBegin
  2
*D12
 70
    65
 10
0.0
 20
0.0
 30
0.0
  3
*D12
  1

  0
LINE
  5
C7
100
AcDbEntity
  8
0
  6
BYBLOCK
 62
     0
100
AcDbLine
 10
133.509089
 20
264.413754
 30
0.0
 11
133.509089
 21
121.195828
 31
0.0
  0
LINE
  5
C8
100
AcDbEntity
  8
0
  6
BYBLOCK
 62
     0
100
AcDbLine
 10
390.509089
 20
264.413754
 30
0.0
 11
390.509089
 21
121.195828
 31
0.0
  0
LINE
  5
C9
100
AcDbEntity
  8
0
  6
BYBLOCK
 62
     0
100
AcDbLine
 10
141.009089
 20
128.695828
 30
0.0
 11
383.009089
 21
128.695828
 31
0.0
  0
INSERT
  5
CA
100
AcDbEntity
  8
0
  6
BYBLOCK
 62
     0
100
AcDbBlockReference
  2
YAZ3
 10
133.509089
 20
128.695828
 30
0.0
 41
7.5
 42
7.5
 43
7.5
 50
180.0
  0
INSERT
  5
CB
100
AcDbEntity
  8
0
  6
BYBLOCK
 62
     0
100
AcDbBlockReference
  2
YAZ3
 10
390.509089
 20
128.695828
 30
0.0
 41
7.5
 42
7.5
 43
7.5
  0
TEXT
  5
CC
100
AcDbEntity
  8
0
  6
BYBLOCK
 62
     0
100
AcDbText
 10
247.866232
 20
134.195828
 30
0.0
 40
11.0
  1
257
 72
     1
 11
262.009089
 21
139.695828
 31
0.0
100
AcDbText
 73
     2
  0
POINT
  5
CD
100
AcDbEntity
  8
DEFPOINTS
  6
BYBLOCK
 62
     0
100
AcDbPoint
 10
133.509089
 20
274.413754
 30
0.0
  0
POINT
  5
CE
100
AcDbEntity
  8
DEFPOINTS
  6
BYBLOCK
 62
     0
100
AcDbPoint
 10
390.509089
 20
274.413754
 30
0.0
  0
POINT
  5
CF
100
AcDbEntity
  8
DEFPOINTS
  6
BYBLOCK
 62
     0
100
AcDbPoint
 10
390.509089
 20
128.695828
 30
0.0
  0
ENDBLK
  5
D0
100
AcDbEntity
  8
SCALE
100
AcDbBlockEnd
  0
BLOCK
  5
D1
100
AcDbEntity
  8
SCALE
100
AcDbBlockBegin
  2
*D13
 70
    65
 10
0.0
 20
0.0
 30
0.0
  3
*D13
  1

  0
LINE
  5
D2
100
AcDbEntity
  8
0
  6
BYBLOCK
 62
     0
100
AcDbLine
 10
794.119626
 20
588.786456
 30
0.0
 11
815.249551
 21
588.786456
 31
0.0
  0
LINE
  5
D3
100
AcDbEntity
  8
0
  6
BYBLOCK
 62
     0
100
AcDbLine
 10
792.711991
 20
419.404534
 30
0.0
 11
815.249551
 21
419.404534
 31
0.0
  0
LINE
  5
D4
100
AcDbEntity
  8
0
  6
BYBLOCK
 62
     0
100
AcDbLine
 10
807.749551
 20
581.286456
 30
0.0
 11
807.749551
 21
426.904534
 31
0.0
  0
INSERT
  5
D5
100
AcDbEntity
  8
0
  6
BYBLOCK
 62
     0
100
AcDbBlockReference
  2
YAZ3
 10
807.749551
 20
588.786456
 30
0.0
 41
7.5
 42
7.5
 43
7.5
 50
90.0
  0
INSERT
  5
D6
100
AcDbEntity
  8
0
  6
BYBLOCK
 62
     0
100
AcDbBlockReference
  2
YAZ3
 10
807.749551
 20
419.404534
 30
0.0
 41
7.5
 42
7.5
 43
7.5
 50
270.0
  0
TEXT
  5
D7
100
AcDbEntity
  8
0
  6
BYBLOCK
 62
     0
100
AcDbText
 10
802.249551
 20
509.952638
 30
0.0
 40
11.0
  1
600
 50
90.0
 72
     1
 11
796.749551
 21
524.095495
 31
0.0
100
AcDbText
 73
     2
  0
POINT
  5
D8
100
AcDbEntity
  8
DEFPOINTS
  6
BYBLOCK
 62
     0
100
AcDbPoint
 10
784.119626
 20
588.786456
 30
0.0
  0
POINT
  5
D9
100
AcDbEntity
  8
DEFPOINTS
  6
BYBLOCK
 62
     0
100
AcDbPoint
 10
782.711991
 20
419.404534
 30
0.0
  0
POINT
  5
DA
100
AcDbEntity
  8
DEFPOINTS
  6
BYBLOCK
 62
     0
100
AcDbPoint
 10
807.749551
 20
419.404534
 30
0.0
  0
ENDBLK
  5
DB
100
AcDbEntity
  8
SCALE
100
AcDbBlockEnd
  0
ENDSEC
  0
SECTION
  2
ENTITIES
  0
DIMENSION
  5
DF
100
AcDbEntity
  8
SCALE
100
AcDbDimension
  2
*D7
 10
840.115763
 20
632.003149
 30
0.0
 11
829.115763
 21
560.003149
 31
0.0
 12
0.0
 22
-2.415156
 32
0.0
  1
144
  3
STANDARD
100
AcDbAlignedDimension
 13
702.893771
 23
488.003149
 33
0.0
 14
790.393771
 24
632.003149
 34
0.0
 50
90.0
100
AcDbRotatedDimension
  0
DIMENSION
  5
E0
100
AcDbEntity
  8
SCALE
100
AcDbDimension
  2
*D13
 10
807.749551
 20
419.404534
 30
0.0
 11
796.749551
 21
524.095495
 31
0.0
 70
   128
  1
600
  3
STANDARD
100
AcDbAlignedDimension
 13
784.119626
 23
588.786456
 33
0.0
 14
782.711991
 24
419.404534
 34
0.0
 50
90.0
100
AcDbRotatedDimension
  0
LINE
  5
E1
100
AcDbEntity
  8
SCALE
100
AcDbLine
 10
321.687203
 20
254.918337
 30
0.0
 11
399.743283
 21
151.146692
 31
0.0
  0
INSERT
  5
E2
100
AcDbEntity
  8
SCALE
100
AcDbBlockReference
  2
YAZ3
 10
317.178803
 20
260.912028
 30
0.0
 41
7.5
 42
7.5
 43
7.5
 50
126.95015
  0
DIMENSION
  5
E3
100
AcDbEntity
  8
SCALE
100
AcDbDimension
  2
*D12
 10
390.509089
 20
111.280672
 30
0.0
 11
262.009089
 21
122.280672
 31
0.0
 12
0.0
 22
-17.415156
 32
0.0
  1
257
  3
STANDARD
100
AcDbAlignedDimension
 13
133.509089
 23
256.998598
 33
0.0
 14
390.509089
 24
256.998598
 34
0.0
100
AcDbRotatedDimension
  0
DIMENSION
  5
E4
100
AcDbEntity
  8
SCALE
100
AcDbDimension
  2
*D11
 10
380.009089
 20
133.857428
 30
0.0
 11
262.009089
 21
144.857428
 31
0.0
 12
0.0
 22
-17.415156
 32
0.0
  1
236
  3
STANDARD
100
AcDbAlignedDimension
 13
144.009089
 23
245.998598
 33
0.0
 14
380.009089
 24
245.998598
 34
0.0
100
AcDbRotatedDimension
  0
DIMENSION
  5
E5
100
AcDbEntity
  8
SCALE
100
AcDbDimension
  2
*D6
 10
65.429681
 20
245.998598
 30
0.0
 11
54.429681
 21
264.498598
 31
0.0
 12
0.0
 22
8.11161
 32
0.0
  1
37
  3
STANDARD
100
AcDbAlignedDimension
 13
144.009089
 23
282.998598
 33
0.0
 14
144.009089
 24
245.998598
 34
0.0
 50
90.0
100
AcDbRotatedDimension
  0
DIMENSION
  5
E6
100
AcDbEntity
  8
SCALE
100
AcDbDimension
  2
*D4
 10
37.51002
 20
488.003149
 30
0.0
 11
26.51002
 21
603.003149
 31
0.0
 12
0.0
 22
13.11161
 32
0.0
  1
230
  3
STANDARD
100
AcDbAlignedDimension
 13
262.009089
 23
718.003149
 33
0.0
 14
154.009089
 24
488.003149
 34
0.0
 50
90.0
100
AcDbRotatedDimension
  0
DIMENSION
  5
E7
100
AcDbEntity
  8
SCALE
100
AcDbDimension
  2
*D5
 10
65.429681
 20
546.00315
 30
0.0
 11
54.429681
 21
632.00315
 31
0.0
 12
0.0
 22
13.11161
 32
0.0
  1
172
  3
STANDARD
100
AcDbAlignedDimension
 13
262.009089
 23
718.003149
 33
0.0
 14
262.009089
 24
546.00315
 34
0.0
 50
90.0
100
AcDbRotatedDimension
  0
DIMENSION
  5
E8
100
AcDbEntity
  8
SCALE
100
AcDbDimension
  2
*D3
 10
445.009089
 20
733.248227
 30
0.0
 11
262.009089
 21
744.248227
 31
0.0
 12
0.0
 22
13.11161
 32
0.0
  1
366
  3
STANDARD
100
AcDbAlignedDimension
 13
79.009089
 23
702.335691
 33
0.0
 14
445.009089
 24
702.335691
 34
0.0
100
AcDbRotatedDimension
  0
DIMENSION
  5
E9
100
AcDbEntity
  8
SCALE
100
AcDbDimension
  2
*D8
 10
784.393771
 20
760.245236
 30
0.0
 11
648.627573
 21
771.245236
 31
0.0
 12
0.0
 22
-2.415156
 32
0.0
  1
272
  3
STANDARD
100
AcDbAlignedDimension
 13
512.861375
 23
713.358913
 33
0.0
 14
784.393771
 24
681.96696
 34
0.0
100
AcDbRotatedDimension
  0
DIMENSION
  5
EA
100
AcDbEntity
  8
SCALE
100
AcDbDimension
  2
*D2
 10
684.393771
 20
733.248227
 30
0.0
 11
598.627573
 21
744.248227
 31
0.0
 12
0.0
 22
13.11161
 32
0.0
  1
171.5
  3
STANDARD
100
AcDbAlignedDimension
 13
512.861375
 23
713.358913
 33
0.0
 14
684.393771
 24
656.503149
 34
0.0
100
AcDbRotatedDimension
  0
LINE
  5
EB
100
AcDbEntity
  8
SILK
100
AcDbLine
 10
348.250115
 20
641.966843
 30
0.0
 11
370.802738
 21
650.175326
 31
0.0
  0
LINE
  5
EC
100
AcDbEntity
  8
SILK
100
AcDbLine
 10
343.123264
 20
644.357533
 30
0.0
 11
373.193428
 21
655.302177
 31
0.0
  0
LINE
  5
ED
100
AcDbEntity
  8
SILK
100
AcDbLine
 10
339.565416
 20
647.319293
 30
0.0
 11
374.015116
 21
659.857958
 31
0.0
  0
LINE
  5
EE
100
AcDbEntity
  8
SILK
100
AcDbLine
 10
337.008046
 20
650.645197
 30
0.0
 11
373.836325
 21
664.049594
 31
0.0
  0
LINE
  5
EF
100
AcDbEntity
  8
SILK
100
AcDbLine
 10
335.260252
 20
654.265763
 30
0.0
 11
372.847957
 21
667.946569
 31
0.0
  0
LINE
  5
F0
100
AcDbEntity
  8
SILK
100
AcDbLine
 10
334.271885
 20
658.162738
 30
0.0
 11
371.100164
 21
671.567135
 31
0.0
  0
LINE
  5
F1
100
AcDbEntity
  8
SILK
100
AcDbLine
 10
334.093093
 20
662.354374
 30
0.0
 11
368.542794
 21
674.89304
 31
0.0
  0
LINE
  5
F2
100
AcDbEntity
  8
SILK
100
AcDbLine
 10
334.914781
 20
666.910155
 30
0.0
 11
364.984945
 21
677.8548
 31
0.0
  0
LINE
  5
F3
100
AcDbEntity
  8
SILK
100
AcDbLine
 10
337.305471
 20
672.037007
 30
0.0
 11
359.858094
 21
680.24549
 31
0.0
  0
LINE
  5
F4
100
AcDbEntity
  8
SILK
100
AcDbLine
 10
348.250115
 20
680.24549
 30
0.0
 11
370.802738
 21
672.037007
 31
0.0
  0
LINE
  5
F5
100
AcDbEntity
  8
SILK
100
AcDbLine
 10
343.123264
 20
677.8548
 30
0.0
 11
373.193428
 21
666.910155
 31
0.0
  0
LINE
  5
F6
100
AcDbEntity
  8
SILK
100
AcDbLine
 10
339.565416
 20
674.89304
 30
0.0
 11
374.015116
 21
662.354374
 31
0.0
  0
LINE
  5
F7
100
AcDbEntity
  8
SILK
100
AcDbLine
 10
337.008046
 20
671.567135
 30
0.0
 11
373.836325
 21
658.162738
 31
0.0
  0
LINE
  5
F8
100
AcDbEntity
  8
SILK
100
AcDbLine
 10
335.260252
 20
667.946569
 30
0.0
 11
372.847957
 21
654.265763
 31
0.0
  0
LINE
  5
F9
100
AcDbEntity
  8
SILK
100
AcDbLine
 10
334.271885
 20
664.049594
 30
0.0
 11
371.100164
 21
650.645197
 31
0.0
  0
LINE
  5
FA
100
AcDbEntity
  8
SILK
100
AcDbLine
 10
334.093093
 20
659.857958
 30
0.0
 11
368.542794
 21
647.319293
 31
0.0
  0
LINE
  5
FB
100
AcDbEntity
  8
SILK
100
AcDbLine
 10
334.914781
 20
655.302177
 30
0.0
 11
364.984945
 21
644.357533
 31
0.0
  0
LINE
  5
FC
100
AcDbEntity
  8
SILK
100
AcDbLine
 10
337.305471
 20
650.175326
 30
0.0
 11
359.858094
 21
641.966843
 31
0.0
  0
LINE
  5
FD
100
AcDbEntity
  8
0
100
AcDbLine
 10
259.009089
 20
177.998598
 30
0.0
 11
259.009089
 21
158.053335
 31
0.0
  0
LINE
  5
FE
100
AcDbEntity
  8
0
100
AcDbLine
 10
265.009089
 20
177.998598
 30
0.0
 11
265.009089
 21
156.944419
 31
0.0
  0
ARC
  5
FF
100
AcDbEntity
  8
0
100
AcDbCircle
 10
263.659089
 20
158.033252
 30
0.0
 40
1.734375
100
AcDbArc
 50
197.945253
 51
342.054747
  0
ARC
  5
100
100
AcDbEntity
  8
0
100
AcDbCircle
 10
260.359089
 20
156.964502
 30
0.0
 40
1.734375
100
AcDbArc
 50
17.945253
 51
162.054747
  0
LINE
  5
101
100
AcDbEntity
  8
0
100
AcDbLine
 10
776.690385
 20
441.877475
 30
0.0
 11
773.213052
 21
440.945726
 31
0.0
  0
LINE
  5
102
100
AcDbEntity
  8
0
100
AcDbLine
 10
773.213052
 20
440.945726
 30
0.0
 11
768.666777
 21
457.912656
 31
0.0
  0
LINE
  5
103
100
AcDbEntity
  8
0
100
AcDbLine
 10
772.393771
 20
457.912656
 30
0.0
 11
776.690385
 21
441.877475
 31
0.0
  0
LINE
  5
104
100
AcDbEntity
  8
0
100
AcDbLine
 10
774.951718
 20
441.411601
 30
0.0
 11
778.057547
 21
429.820491
 31
0.0
  0
LINE
  5
105
100
AcDbEntity
  8
0
100
AcDbLine
 10
779.796214
 20
430.286365
 30
0.0
 11
782.711991
 21
419.404534
 31
0.0
  0
LINE
  5
106
100
AcDbEntity
  8
0
100
AcDbLine
 10
776.318881
 20
429.354616
 30
0.0
 11
779.796214
 21
430.286365
 31
0.0
  0
LINE
  5
107
100
AcDbEntity
  8
0
100
AcDbLine
 10
779.234658
 20
418.472785
 30
0.0
 11
776.318881
 21
429.354616
 31
0.0
  0
LINE
  5
108
100
AcDbEntity
  8
0
100
AcDbLine
 10
782.711991
 20
419.404534
 30
0.0
 11
779.234658
 21
418.472785
 31
0.0
  0
LINE
  5
109
100
AcDbEntity
  8
0
100
AcDbLine
 10
755.832445
 20
418.49725
 30
0.0
 11
759.309778
 21
417.565502
 31
0.0
  0
LINE
  5
10A
100
AcDbEntity
  8
0
100
AcDbLine
 10
759.309778
 20
417.565502
 30
0.0
 11
762.225556
 21
428.447333
 31
0.0
  0
LINE
  5
10B
100
AcDbEntity
  8
0
100
AcDbLine
 10
762.225556
 20
428.447333
 30
0.0
 11
758.748223
 21
429.379081
 31
0.0
  0
LINE
  5
10C
100
AcDbEntity
  8
0
100
AcDbLine
 10
758.748223
 20
429.379081
 30
0.0
 11
755.832445
 21
418.49725
 31
0.0
  0
LINE
  5
10D
100
AcDbEntity
  8
0
100
AcDbLine
 10
763.592718
 20
440.504317
 30
0.0
 11
760.486889
 21
428.913207
 31
0.0
  0
LINE
  5
10E
100
AcDbEntity
  8
0
100
AcDbLine
 10
766.393771
 20
457.912656
 30
0.0
 11
761.854051
 21
440.970191
 31
0.0
  0
LINE
  5
10F
100
AcDbEntity
  8
0
100
AcDbLine
 10
765.331384
 20
440.038443
 30
0.0
 11
769.393771
 21
455.199477
 31
0.0
  0
LINE
  5
110
100
AcDbEntity
  8
0
100
AcDbLine
 10
761.854051
 20
440.970191
 30
0.0
 11
765.331384
 21
440.038443
 31
0.0
  0
LINE
  5
111
100
AcDbEntity
  8
0
100
AcDbLine
 10
766.393771
 20
571.167036
 30
0.0
 11
766.393771
 21
529.869712
 31
0.0
  0
LINE
  5
112
100
AcDbEntity
  8
0
100
AcDbLine
 10
772.393771
 20
457.912656
 30
0.0
 11
766.393771
 21
457.912656
 31
0.0
  0
LINE
  5
113
100
AcDbEntity
  8
0
100
AcDbLine
 10
772.393771
 20
573.076634
 30
0.0
 11
772.393771
 21
525.095707
 31
0.0
  0
ARC
  5
114
100
AcDbEntity
  8
0
100
AcDbCircle
 10
766.093771
 20
522.813959
 30
0.0
 40
3.46875
100
AcDbArc
 50
17.945253
 51
162.054747
  0
ARC
  5
115
100
AcDbEntity
  8
0
100
AcDbCircle
 10
772.693771
 20
524.951459
 30
0.0
 40
3.46875
100
AcDbArc
 50
197.945253
 51
342.054747
  0
ARC
  5
116
100
AcDbEntity
  8
0
100
AcDbCircle
 10
772.693771
 20
528.551459
 30
0.0
 40
3.46875
100
AcDbArc
 50
197.945253
 51
342.054747
  0
ARC
  5
117
100
AcDbEntity
  8
0
100
AcDbCircle
 10
766.093771
 20
526.413959
 30
0.0
 40
3.46875
100
AcDbArc
 50
17.945253
 51
162.054747
  0
LINE
  5
118
100
AcDbEntity
  8
0
100
AcDbLine
 10
772.393771
 20
521.495707
 30
0.0
 11
772.393771
 21
457.912656
 31
0.0
  0
LINE
  5
119
100
AcDbEntity
  8
0
100
AcDbLine
 10
766.393771
 20
526.269712
 30
0.0
 11
766.393771
 21
457.912656
 31
0.0
  0
LINE
  5
11A
100
AcDbEntity
  8
1
100
AcDbLine
 10
535.178434
 20
571.003149
 30
0.0
 11
528.393771
 21
571.003149
 31
0.0
  0
LINE
  5
11B
100
AcDbEntity
  8
1
100
AcDbLine
 10
528.393771
 20
693.003149
 30
0.0
 11
535.178434
 21
693.003149
 31
0.0
  0
LINE
  5
11C
100
AcDbEntity
  8
1
100
AcDbLine
 10
525.293771
 20
574.103149
 30
0.0
 11
525.293771
 21
689.903149
 31
0.0
  0
LINE
  5
11D
100
AcDbEntity
  8
0
100
AcDbLine
 10
125.009089
 20
688.003149
 30
0.0
 11
125.009089
 21
576.003149
 31
0.0
  0
LINE
  5
11E
100
AcDbEntity
  8
0
100
AcDbLine
 10
130.009089
 20
571.003149
 30
0.0
 11
394.009089
 21
571.003149
 31
0.0
  0
LINE
  5
11F
100
AcDbEntity
  8
0
100
AcDbLine
 10
399.009089
 20
576.003149
 30
0.0
 11
399.009089
 21
688.003149
 31
0.0
  0
LINE
  5
120
100
AcDbEntity
  8
0
100
AcDbLine
 10
394.009089
 20
693.003149
 30
0.0
 11
130.009089
 21
693.003149
 31
0.0
  0
LINE
  5
121
100
AcDbEntity
  8
0
100
AcDbLine
 10
374.454122
 20
244.962961
 30
0.0
 11
366.149304
 21
243.498598
 31
0.0
  0
LINE
  5
122
100
AcDbEntity
  8
0
100
AcDbLine
 10
271.535979
 20
182.498598
 30
0.0
 11
264.697641
 21
182.498598
 31
0.0
  0
LINE
  5
123
100
AcDbEntity
  8
0
100
AcDbLine
 10
703.891589
 20
632.003149
 30
0.0
 11
703.891589
 21
617.107142
 31
0.0
  0
LINE
  5
124
100
AcDbEntity
  8
0
100
AcDbLine
 10
703.891589
 20
646.899156
 30
0.0
 11
703.891589
 21
632.003149
 31
0.0
  0
LINE
  5
125
100
AcDbEntity
  8
0
100
AcDbLine
 10
380.009089
 20
275.498598
 30
0.0
 11
380.009089
 21
282.998598
 31
0.0
  0
LINE
  5
126
100
AcDbEntity
  8
0
100
AcDbLine
 10
381.509089
 20
275.498598
 30
0.0
 11
380.009089
 21
275.498598
 31
0.0
  0
LINE
  5
127
100
AcDbEntity
  8
0
100
AcDbLine
 10
381.509089
 20
253.498598
 30
0.0
 11
381.509089
 21
275.498598
 31
0.0
  0
LINE
  5
128
100
AcDbEntity
  8
0
100
AcDbLine
 10
380.009089
 20
253.498598
 30
0.0
 11
380.009089
 21
275.498598
 31
0.0
  0
LINE
  5
129
100
AcDbEntity
  8
0
100
AcDbLine
 10
380.009089
 20
253.498598
 30
0.0
 11
381.509089
 21
253.498598
 31
0.0
  0
LINE
  5
12A
100
AcDbEntity
  8
0
100
AcDbLine
 10
144.009089
 20
253.498598
 30
0.0
 11
144.009089
 21
245.998598
 31
0.0
  0
LINE
  5
12B
100
AcDbEntity
  8
0
100
AcDbLine
 10
144.009089
 20
253.498598
 30
0.0
 11
142.509089
 21
253.498598
 31
0.0
  0
LINE
  5
12C
100
AcDbEntity
  8
0
100
AcDbLine
 10
144.009089
 20
275.498598
 30
0.0
 11
144.009089
 21
253.498598
 31
0.0
  0
LINE
  5
12D
100
AcDbEntity
  8
0
100
AcDbLine
 10
142.509089
 20
275.498598
 30
0.0
 11
144.009089
 21
275.498598
 31
0.0
  0
LINE
  5
12E
100
AcDbEntity
  8
0
100
AcDbLine
 10
142.509089
 20
253.498598
 30
0.0
 11
142.509089
 21
275.498598
 31
0.0
  0
LINE
  5
12F
100
AcDbEntity
  8
0
100
AcDbLine
 10
383.509089
 20
274.498598
 30
0.0
 11
389.509089
 21
274.498598
 31
0.0
  0
LINE
  5
130
100
AcDbEntity
  8
0
100
AcDbLine
 10
390.509089
 20
271.998598
 30
0.0
 11
390.509089
 21
256.998598
 31
0.0
  0
LINE
  5
131
100
AcDbEntity
  8
0
100
AcDbLine
 10
389.509089
 20
269.498598
 30
0.0
 11
383.509089
 21
269.498598
 31
0.0
  0
LINE
  5
132
100
AcDbEntity
  8
0
100
AcDbLine
 10
389.509089
 20
259.498598
 30
0.0
 11
383.509089
 21
259.498598
 31
0.0
  0
LINE
  5
133
100
AcDbEntity
  8
0
100
AcDbLine
 10
389.509089
 20
254.498598
 30
0.0
 11
383.509089
 21
254.498598
 31
0.0
  0
LINE
  5
134
100
AcDbEntity
  8
0
100
AcDbLine
 10
134.509089
 20
274.498598
 30
0.0
 11
140.509089
 21
274.498598
 31
0.0
  0
LINE
  5
135
100
AcDbEntity
  8
0
100
AcDbLine
 10
133.509089
 20
256.998598
 30
0.0
 11
133.509089
 21
271.998598
 31
0.0
  0
LINE
  5
136
100
AcDbEntity
  8
0
100
AcDbLine
 10
140.509089
 20
269.498598
 30
0.0
 11
134.509089
 21
269.498598
 31
0.0
  0
LINE
  5
137
100
AcDbEntity
  8
0
100
AcDbLine
 10
140.509089
 20
259.498598
 30
0.0
 11
134.509089
 21
259.498598
 31
0.0
  0
LINE
  5
138
100
AcDbEntity
  8
0
100
AcDbLine
 10
140.509089
 20
254.498598
 30
0.0
 11
134.509089
 21
254.498598
 31
0.0
  0
LINE
  5
139
100
AcDbEntity
  8
0
100
AcDbLine
 10
262.009089
 20
180.998598
 30
0.0
 11
262.009089
 21
177.998598
 31
0.0
  0
LINE
  5
13A
100
AcDbEntity
  8
0
100
AcDbLine
 10
268.009089
 20
181.498598
 30
0.0
 11
268.009089
 21
180.998598
 31
0.0
  0
LINE
  5
13B
100
AcDbEntity
  8
0
100
AcDbLine
 10
256.009089
 20
180.998598
 30
0.0
 11
256.009089
 21
181.498598
 31
0.0
  0
LINE
  5
13C
100
AcDbEntity
  8
0
100
AcDbLine
 10
253.509089
 20
177.998598
 30
0.0
 11
253.509089
 21
180.998598
 31
0.0
  0
LINE
  5
13D
100
AcDbEntity
  8
0
100
AcDbLine
 10
270.509089
 20
177.998598
 30
0.0
 11
253.509089
 21
177.998598
 31
0.0
  0
LINE
  5
13E
100
AcDbEntity
  8
0
100
AcDbLine
 10
270.509089
 20
180.998598
 30
0.0
 11
270.509089
 21
177.998598
 31
0.0
  0
LINE
  5
13F
100
AcDbEntity
  8
0
100
AcDbLine
 10
253.509089
 20
180.998598
 30
0.0
 11
270.509089
 21
180.998598
 31
0.0
  0
LINE
  5
140
100
AcDbEntity
  8
0
100
AcDbLine
 10
157.737855
 20
245.998598
 30
0.0
 11
159.935233
 21
204.070135
 31
0.0
  0
LINE
  5
141
100
AcDbEntity
  8
0
100
AcDbLine
 10
147.68617
 20
282.998598
 30
0.0
 11
147.057954
 21
318.989082
 31
0.0
  0
LINE
  5
142
100
AcDbEntity
  8
0
100
AcDbLine
 10
190.219411
 20
245.998598
 30
0.0
 11
191.720709
 21
217.35212
 31
0.0
  0
LINE
  5
143
100
AcDbEntity
  8
0
100
AcDbLine
 10
200.233134
 20
245.998598
 30
0.0
 11
200.707392
 21
236.94922
 31
0.0
  0
LINE
  5
144
100
AcDbEntity
  8
0
100
AcDbLine
 10
325.724132
 20
282.998598
 30
0.0
 11
330.047773
 21
365.498598
 31
0.0
  0
LINE
  5
145
100
AcDbEntity
  8
0
100
AcDbLine
 10
335.737855
 20
282.998598
 30
0.0
 11
340.009089
 21
364.498598
 31
0.0
  0
LINE
  5
146
100
AcDbEntity
  8
0
100
AcDbLine
 10
368.219411
 20
282.998598
 30
0.0
 11
368.802777
 21
294.129882
 31
0.0
  0
LINE
  5
147
100
AcDbEntity
  8
0
100
AcDbLine
 10
665.893771
 20
559.266149
 30
0.0
 11
583.324476
 21
554.938876
 31
0.0
  0
LINE
  5
148
100
AcDbEntity
  8
0
100
AcDbLine
 10
665.893771
 20
574.482416
 30
0.0
 11
587.743847
 21
570.386752
 31
0.0
  0
LINE
  5
149
100
AcDbEntity
  8
0
100
AcDbLine
 10
702.893771
 20
567.213471
 30
0.0
 11
744.826388
 21
569.411066
 31
0.0
  0
LINE
  5
14A
100
AcDbEntity
  8
0
100
AcDbLine
 10
665.893771
 20
610.813674
 30
0.0
 11
655.436583
 21
610.631143
 31
0.0
  0
LINE
  5
14B
100
AcDbEntity
  8
0
100
AcDbLine
 10
665.893771
 20
612.513099
 30
0.0
 11
629.903287
 21
611.884883
 31
0.0
  0
LINE
  5
14C
100
AcDbEntity
  8
1
100
AcDbLine
 10
390.009089
 20
577.503149
 30
0.0
 11
390.009089
 21
578.503149
 31
0.0
  0
LINE
  5
14D
100
AcDbEntity
  8
1
100
AcDbLine
 10
391.509089
 20
577.503149
 30
0.0
 11
390.009089
 21
577.503149
 31
0.0
  0
LINE
  5
14E
100
AcDbEntity
  8
1
100
AcDbLine
 10
391.509089
 20
576.003149
 30
0.0
 11
391.509089
 21
577.503149
 31
0.0
  0
LINE
  5
14F
100
AcDbEntity
  8
1
100
AcDbLine
 10
392.509089
 20
576.003149
 30
0.0
 11
391.509089
 21
576.003149
 31
0.0
  0
LINE
  5
150
100
AcDbEntity
  8
1
100
AcDbLine
 10
392.509089
 20
577.503149
 30
0.0
 11
392.509089
 21
576.003149
 31
0.0
  0
LINE
  5
151
100
AcDbEntity
  8
1
100
AcDbLine
 10
394.009089
 20
577.503149
 30
0.0
 11
392.509089
 21
577.503149
 31
0.0
  0
LINE
  5
152
100
AcDbEntity
  8
1
100
AcDbLine
 10
394.009089
 20
578.503149
 30
0.0
 11
394.009089
 21
577.503149
 31
0.0
  0
LINE
  5
153
100
AcDbEntity
  8
1
100
AcDbLine
 10
392.509089
 20
578.503149
 30
0.0
 11
394.009089
 21
578.503149
 31
0.0
  0
LINE
  5
154
100
AcDbEntity
  8
1
100
AcDbLine
 10
392.509089
 20
580.003149
 30
0.0
 11
392.509089
 21
578.503149
 31
0.0
  0
LINE
  5
155
100
AcDbEntity
  8
1
100
AcDbLine
 10
391.509089
 20
580.003149
 30
0.0
 11
392.509089
 21
580.003149
 31
0.0
  0
LINE
  5
156
100
AcDbEntity
  8
1
100
AcDbLine
 10
391.509089
 20
578.503149
 30
0.0
 11
391.509089
 21
580.003149
 31
0.0
  0
LINE
  5
157
100
AcDbEntity
  8
1
100
AcDbLine
 10
390.009089
 20
578.503149
 30
0.0
 11
391.509089
 21
578.503149
 31
0.0
  0
LINE
  5
158
100
AcDbEntity
  8
1
100
AcDbLine
 10
390.009089
 20
685.503149
 30
0.0
 11
390.009089
 21
686.503149
 31
0.0
  0
LINE
  5
159
100
AcDbEntity
  8
1
100
AcDbLine
 10
391.509089
 20
685.503149
 30
0.0
 11
390.009089
 21
685.503149
 31
0.0
  0
LINE
  5
15A
100
AcDbEntity
  8
1
100
AcDbLine
 10
391.509089
 20
684.003149
 30
0.0
 11
391.509089
 21
685.503149
 31
0.0
  0
LINE
  5
15B
100
AcDbEntity
  8
1
100
AcDbLine
 10
392.509089
 20
684.003149
 30
0.0
 11
391.509089
 21
684.003149
 31
0.0
  0
LINE
  5
15C
100
AcDbEntity
  8
1
100
AcDbLine
 10
392.509089
 20
685.503149
 30
0.0
 11
392.509089
 21
684.003149
 31
0.0
  0
LINE
  5
15D
100
AcDbEntity
  8
1
100
AcDbLine
 10
394.009089
 20
685.503149
 30
0.0
 11
392.509089
 21
685.503149
 31
0.0
  0
LINE
  5
15E
100
AcDbEntity
  8
1
100
AcDbLine
 10
394.009089
 20
686.503149
 30
0.0
 11
394.009089
 21
685.503149
 31
0.0
  0
LINE
  5
15F
100
AcDbEntity
  8
1
100
AcDbLine
 10
392.509089
 20
686.503149
 30
0.0
 11
394.009089
 21
686.503149
 31
0.0
  0
LINE
  5
160
100
AcDbEntity
  8
1
100
AcDbLine
 10
392.509089
 20
688.003149
 30
0.0
 11
392.509089
 21
686.503149
 31
0.0
  0
LINE
  5
161
100
AcDbEntity
  8
1
100
AcDbLine
 10
391.509089
 20
688.003149
 30
0.0
 11
392.509089
 21
688.003149
 31
0.0
  0
LINE
  5
162
100
AcDbEntity
  8
1
100
AcDbLine
 10
391.509089
 20
686.503149
 30
0.0
 11
391.509089
 21
688.003149
 31
0.0
  0
LINE
  5
163
100
AcDbEntity
  8
1
100
AcDbLine
 10
390.009089
 20
686.503149
 30
0.0
 11
391.509089
 21
686.503149
 31
0.0
  0
LINE
  5
164
100
AcDbEntity
  8
1
100
AcDbLine
 10
130.009089
 20
577.503149
 30
0.0
 11
130.009089
 21
578.503149
 31
0.0
  0
LINE
  5
165
100
AcDbEntity
  8
1
100
AcDbLine
 10
131.509089
 20
577.503149
 30
0.0
 11
130.009089
 21
577.503149
 31
0.0
  0
LINE
  5
166
100
AcDbEntity
  8
1
100
AcDbLine
 10
131.509089
 20
576.003149
 30
0.0
 11
131.509089
 21
577.503149
 31
0.0
  0
LINE
  5
167
100
AcDbEntity
  8
1
100
AcDbLine
 10
132.509089
 20
576.003149
 30
0.0
 11
131.509089
 21
576.003149
 31
0.0
  0
LINE
  5
168
100
AcDbEntity
  8
1
100
AcDbLine
 10
132.509089
 20
577.503149
 30
0.0
 11
132.509089
 21
576.003149
 31
0.0
  0
LINE
  5
169
100
AcDbEntity
  8
1
100
AcDbLine
 10
134.009089
 20
577.503149
 30
0.0
 11
132.509089
 21
577.503149
 31
0.0
  0
LINE
  5
16A
100
AcDbEntity
  8
1
100
AcDbLine
 10
134.009089
 20
578.503149
 30
0.0
 11
134.009089
 21
577.503149
 31
0.0
  0
LINE
  5
16B
100
AcDbEntity
  8
1
100
AcDbLine
 10
132.509089
 20
578.503149
 30
0.0
 11
134.009089
 21
578.503149
 31
0.0
  0
LINE
  5
16C
100
AcDbEntity
  8
1
100
AcDbLine
 10
132.509089
 20
580.003149
 30
0.0
 11
132.509089
 21
578.503149
 31
0.0
  0
LINE
  5
16D
100
AcDbEntity
  8
1
100
AcDbLine
 10
131.509089
 20
580.003149
 30
0.0
 11
132.509089
 21
580.003149
 31
0.0
  0
LINE
  5
16E
100
AcDbEntity
  8
1
100
AcDbLine
 10
131.509089
 20
578.503149
 30
0.0
 11
131.509089
 21
580.003149
 31
0.0
  0
LINE
  5
16F
100
AcDbEntity
  8
1
100
AcDbLine
 10
130.009089
 20
578.503149
 30
0.0
 11
131.509089
 21
578.503149
 31
0.0
  0
LINE
  5
170
100
AcDbEntity
  8
1
100
AcDbLine
 10
130.009089
 20
685.503149
 30
0.0
 11
130.009089
 21
686.503149
 31
0.0
  0
LINE
  5
171
100
AcDbEntity
  8
1
100
AcDbLine
 10
131.509089
 20
685.503149
 30
0.0
 11
130.009089
 21
685.503149
 31
0.0
  0
LINE
  5
172
100
AcDbEntity
  8
1
100
AcDbLine
 10
131.509089
 20
684.003149
 30
0.0
 11
131.509089
 21
685.503149
 31
0.0
  0
LINE
  5
173
100
AcDbEntity
  8
1
100
AcDbLine
 10
132.509089
 20
684.003149
 30
0.0
 11
131.509089
 21
684.003149
 31
0.0
  0
LINE
  5
174
100
AcDbEntity
  8
1
100
AcDbLine
 10
132.509089
 20
685.503149
 30
0.0
 11
132.509089
 21
684.003149
 31
0.0
  0
LINE
  5
175
100
AcDbEntity
  8
1
100
AcDbLine
 10
134.009089
 20
685.503149
 30
0.0
 11
132.509089
 21
685.503149
 31
0.0
  0
LINE
  5
176
100
AcDbEntity
  8
1
100
AcDbLine
 10
134.009089
 20
686.503149
 30
0.0
 11
134.009089
 21
685.503149
 31
0.0
  0
LINE
  5
177
100
AcDbEntity
  8
1
100
AcDbLine
 10
132.509089
 20
686.503149
 30
0.0
 11
134.009089
 21
686.503149
 31
0.0
  0
LINE
  5
178
100
AcDbEntity
  8
1
100
AcDbLine
 10
132.509089
 20
688.003149
 30
0.0
 11
132.509089
 21
686.503149
 31
0.0
  0
LINE
  5
179
100
AcDbEntity
  8
1
100
AcDbLine
 10
131.509089
 20
688.003149
 30
0.0
 11
132.509089
 21
688.003149
 31
0.0
  0
LINE
  5
17A
100
AcDbEntity
  8
1
100
AcDbLine
 10
131.509089
 20
686.503149
 30
0.0
 11
131.509089
 21
688.003149
 31
0.0
  0
LINE
  5
17B
100
AcDbEntity
  8
1
100
AcDbLine
 10
130.009089
 20
686.503149
 30
0.0
 11
131.509089
 21
686.503149
 31
0.0
  0
LINE
  5
17C
100
AcDbEntity
  8
0
100
AcDbLine
 10
689.393771
 20
640.663403
 30
0.0
 11
694.393771
 21
632.003149
 31
0.0
  0
LINE
  5
17D
100
AcDbEntity
  8
0
100
AcDbLine
 10
694.393771
 20
632.003149
 30
0.0
 11
689.393771
 21
623.342895
 31
0.0
  0
LINE
  5
17E
100
AcDbEntity
  8
0
100
AcDbLine
 10
689.393771
 20
623.342895
 30
0.0
 11
679.393771
 21
623.342895
 31
0.0
  0
LINE
  5
17F
100
AcDbEntity
  8
0
100
AcDbLine
 10
679.393771
 20
623.342895
 30
0.0
 11
674.393771
 21
632.003149
 31
0.0
  0
LINE
  5
180
100
AcDbEntity
  8
0
100
AcDbLine
 10
674.393771
 20
632.003149
 30
0.0
 11
679.393771
 21
640.663403
 31
0.0
  0
LINE
  5
181
100
AcDbEntity
  8
0
100
AcDbLine
 10
679.393771
 20
640.663403
 30
0.0
 11
689.393771
 21
640.663403
 31
0.0
  0
LINE
  5
182
100
AcDbEntity
  8
0
100
AcDbLine
 10
702.893771
 20
488.003149
 30
0.0
 11
665.893771
 21
488.003149
 31
0.0
  0
LINE
  5
183
100
AcDbEntity
  8
0
100
AcDbLine
 10
702.893771
 20
632.003149
 30
0.0
 11
702.893771
 21
488.003149
 31
0.0
  0
LINE
  5
184
100
AcDbEntity
  8
0
100
AcDbLine
 10
665.893771
 20
488.003149
 30
0.0
 11
665.893771
 21
632.003149
 31
0.0
  0
LINE
  5
185
100
AcDbEntity
  8
0
100
AcDbLine
 10
144.009089
 20
245.998598
 30
0.0
 11
380.009089
 21
245.998598
 31
0.0
  0
LINE
  5
186
100
AcDbEntity
  8
0
100
AcDbLine
 10
380.009089
 20
282.998598
 30
0.0
 11
144.009089
 21
282.998598
 31
0.0
  0
LINE
  5
187
100
AcDbEntity
  8
0
100
AcDbLine
 10
144.009089
 20
282.998598
 30
0.0
 11
144.009089
 21
275.498598
 31
0.0
  0
LINE
  5
188
100
AcDbEntity
  8
0
100
AcDbLine
 10
380.009089
 20
245.998598
 30
0.0
 11
380.009089
 21
253.498598
 31
0.0
  0
LINE
  5
189
100
AcDbEntity
  8
0
100
AcDbLine
 10
380.009089
 20
546.332197
 30
0.0
 11
380.009089
 21
498.003149
 31
0.0
  0
LINE
  5
18A
100
AcDbEntity
  8
0
100
AcDbLine
 10
370.009089
 20
488.003149
 30
0.0
 11
154.009089
 21
488.003149
 31
0.0
  0
LINE
  5
18B
100
AcDbEntity
  8
0
100
AcDbLine
 10
144.009089
 20
498.003149
 30
0.0
 11
144.009089
 21
546.332197
 31
0.0
  0
LINE
  5
18C
100
AcDbEntity
  8
0
100
AcDbLine
 10
147.009089
 20
546.315678
 30
0.0
 11
147.009089
 21
498.003149
 31
0.0
  0
LINE
  5
18D
100
AcDbEntity
  8
0
100
AcDbLine
 10
154.009089
 20
491.003149
 30
0.0
 11
370.009089
 21
491.003149
 31
0.0
  0
LINE
  5
18E
100
AcDbEntity
  8
0
100
AcDbLine
 10
377.009089
 20
498.003149
 30
0.0
 11
377.009089
 21
546.315678
 31
0.0
  0
LINE
  5
18F
100
AcDbEntity
  8
0
100
AcDbLine
 10
562.893771
 20
546.781347
 30
0.0
 11
537.652078
 21
547.662806
 31
0.0
  0
LINE
  5
190
100
AcDbEntity
  8
0
100
AcDbLine
 10
562.893771
 20
546.003149
 30
0.0
 11
515.756676
 21
547.649213
 31
0.0
  0
LINE
  5
191
100
AcDbEntity
  8
0
100
AcDbLine
 10
445.009089
 20
385.998598
 30
0.0
 11
79.009089
 21
385.998598
 31
0.0
  0
LINE
  5
192
100
AcDbEntity
  8
0
100
AcDbLine
 10
80.328645
 20
411.177217
 30
0.0
 11
79.009089
 21
385.998598
 31
0.0
  0
LINE
  5
193
100
AcDbEntity
  8
0
100
AcDbLine
 10
537.652078
 20
716.343492
 30
0.0
 11
562.893771
 21
717.224952
 31
0.0
  0
LINE
  5
194
100
AcDbEntity
  8
0
100
AcDbLine
 10
535.178434
 20
713.781959
 30
0.0
 11
535.178434
 21
550.224339
 31
0.0
  0
LINE
  5
195
100
AcDbEntity
  8
0
100
AcDbLine
 10
562.893771
 20
546.003149
 30
0.0
 11
562.893771
 21
718.003149
 31
0.0
  0
LINE
  5
196
100
AcDbEntity
  8
0
100
AcDbLine
 10
562.893771
 20
716.003149
 30
0.0
 11
564.393771
 21
716.003149
 31
0.0
  0
LINE
  5
197
100
AcDbEntity
  8
0
100
AcDbLine
 10
515.756676
 20
716.357086
 30
0.0
 11
562.893771
 21
718.003149
 31
0.0
  0
LINE
  5
198
100
AcDbEntity
  8
0
100
AcDbLine
 10
445.009089
 20
385.998598
 30
0.0
 11
443.689534
 21
411.177217
 31
0.0
  0
LINE
  5
199
100
AcDbEntity
  8
1
100
AcDbLine
 10
392.609089
 20
583.653149
 30
0.0
 11
392.609089
 21
581.701337
 31
0.0
  0
LINE
  5
19A
100
AcDbEntity
  8
1
100
AcDbLine
 10
391.409089
 20
581.701337
 30
0.0
 11
391.409089
 21
583.653149
 31
0.0
  0
LINE
  5
19B
100
AcDbEntity
  8
1
100
AcDbLine
 10
386.359089
 20
578.603149
 30
0.0
 11
388.310901
 21
578.603149
 31
0.0
  0
LINE
  5
19C
100
AcDbEntity
  8
1
100
AcDbLine
 10
388.310901
 20
577.403149
 30
0.0
 11
386.359089
 21
577.403149
 31
0.0
  0
LINE
  5
19D
100
AcDbEntity
  8
1
  6
HIDDEN
100
AcDbLine
 10
292.009089
 20
676.225756
 30
0.0
 11
292.009089
 21
587.840666
 31
0.0
  0
LINE
  5
19E
100
AcDbEntity
  8
0
100
AcDbLine
 10
445.009089
 20
561.670608
 30
0.0
 11
445.009089
 21
702.335691
 31
0.0
  0
LINE
  5
19F
100
AcDbEntity
  8
1
100
AcDbLine
 10
392.609089
 20
682.304961
 30
0.0
 11
392.609089
 21
680.353149
 31
0.0
  0
LINE
  5
1A0
100
AcDbEntity
  8
1
100
AcDbLine
 10
391.409089
 20
680.353149
 30
0.0
 11
391.409089
 21
682.304961
 31
0.0
  0
LINE
  5
1A1
100
AcDbEntity
  8
1
100
AcDbLine
 10
388.310901
 20
685.403149
 30
0.0
 11
386.359089
 21
685.403149
 31
0.0
  0
LINE
  5
1A2
100
AcDbEntity
  8
1
100
AcDbLine
 10
386.359089
 20
686.603149
 30
0.0
 11
388.310901
 21
686.603149
 31
0.0
  0
LINE
  5
1A3
100
AcDbEntity
  8
1
100
AcDbLine
 10
131.409089
 20
581.701337
 30
0.0
 11
131.409089
 21
583.653149
 31
0.0
  0
LINE
  5
1A4
100
AcDbEntity
  8
1
100
AcDbLine
 10
132.609089
 20
583.653149
 30
0.0
 11
132.609089
 21
581.701337
 31
0.0
  0
LINE
  5
1A5
100
AcDbEntity
  8
1
100
AcDbLine
 10
135.707277
 20
578.603149
 30
0.0
 11
137.659089
 21
578.603149
 31
0.0
  0
LINE
  5
1A6
100
AcDbEntity
  8
1
100
AcDbLine
 10
137.659089
 20
577.403149
 30
0.0
 11
135.707277
 21
577.403149
 31
0.0
  0
LINE
  5
1A7
100
AcDbEntity
  8
1
  6
HIDDEN
100
AcDbLine
 10
232.009089
 20
587.840666
 30
0.0
 11
232.009089
 21
676.225756
 31
0.0
  0
LINE
  5
1A8
100
AcDbEntity
  8
0
100
AcDbLine
 10
79.009089
 20
702.335691
 30
0.0
 11
79.009089
 21
561.670608
 31
0.0
  0
LINE
  5
1A9
100
AcDbEntity
  8
1
100
AcDbLine
 10
131.409089
 20
680.353149
 30
0.0
 11
131.409089
 21
682.304961
 31
0.0
  0
LINE
  5
1AA
100
AcDbEntity
  8
1
100
AcDbLine
 10
132.609089
 20
682.304961
 30
0.0
 11
132.609089
 21
680.353149
 31
0.0
  0
LINE
  5
1AB
100
AcDbEntity
  8
1
100
AcDbLine
 10
137.659089
 20
685.403149
 30
0.0
 11
135.707277
 21
685.403149
 31
0.0
  0
LINE
  5
1AC
100
AcDbEntity
  8
1
100
AcDbLine
 10
135.707277
 20
686.603149
 30
0.0
 11
137.659089
 21
686.603149
 31
0.0
  0
LINE
  5
1AD
100
AcDbEntity
  8
0
100
AcDbLine
 10
784.393771
 20
582.039339
 30
0.0
 11
784.393771
 21
681.96696
 31
0.0
  0
LINE
  5
1AE
100
AcDbEntity
  8
0
100
AcDbLine
 10
759.393771
 20
693.831788
 30
0.0
 11
744.826388
 21
694.595232
 31
0.0
  0
LINE
  5
1AF
100
AcDbEntity
  8
0
100
AcDbLine
 10
724.8023
 20
701.530157
 30
0.0
 11
743.985242
 21
694.762042
 31
0.0
  0
LINE
  5
1B0
100
AcDbEntity
  8
0
100
AcDbLine
 10
583.324476
 20
709.067423
 30
0.0
 11
723.961154
 21
701.696967
 31
0.0
  0
LINE
  5
1B1
100
AcDbEntity
  8
0
100
AcDbLine
 10
580.357905
 20
714.733359
 30
0.0
 11
571.393771
 21
715.203149
 31
0.0
  0
LINE
  5
1B2
100
AcDbEntity
  8
0
100
AcDbLine
 10
582.689085
 20
712.670905
 30
0.0
 11
584.393771
 21
703.003149
 31
0.0
  0
LINE
  5
1B3
100
AcDbEntity
  8
0
100
AcDbLine
 10
744.826388
 20
694.595232
 30
0.0
 11
584.393771
 21
703.003149
 31
0.0
  0
LINE
  5
1B4
100
AcDbEntity
  8
0
100
AcDbLine
 10
582.34377
 20
550.439264
 30
0.0
 11
582.34377
 21
713.567034
 31
0.0
  0
LINE
  5
1B5
100
AcDbEntity
  8
0
100
AcDbLine
 10
571.393771
 20
715.424221
 30
0.0
 11
571.393771
 21
715.203149
 31
0.0
  0
LINE
  5
1B6
100
AcDbEntity
  8
0
100
AcDbLine
 10
568.937402
 20
717.92384
 30
0.0
 11
564.393771
 21
718.003149
 31
0.0
  0
LINE
  5
1B7
100
AcDbEntity
  8
0
100
AcDbLine
 10
564.393771
 20
546.003149
 30
0.0
 11
564.393771
 21
718.003149
 31
0.0
  0
LINE
  5
1B8
100
AcDbEntity
  8
0
100
AcDbLine
 10
571.393771
 20
548.803149
 30
0.0
 11
571.393771
 21
715.203149
 31
0.0
  0
LINE
  5
1B9
100
AcDbEntity
  8
0
100
AcDbLine
 10
705.393771
 20
647.098314
 30
0.0
 11
705.393771
 21
632.003149
 31
0.0
  0
LINE
  5
1BA
100
AcDbEntity
  8
0
100
AcDbLine
 10
655.436583
 20
653.375155
 30
0.0
 11
699.989759
 21
652.597477
 31
0.0
  0
LINE
  5
1BB
100
AcDbEntity
  8
0
100
AcDbLine
 10
629.903287
 20
652.121416
 30
0.0
 11
699.961399
 21
650.898547
 31
0.0
  0
LINE
  5
1BC
100
AcDbEntity
  8
0
100
AcDbLine
 10
586.032539
 20
693.709232
 30
0.0
 11
584.393771
 21
703.003149
 31
0.0
  0
LINE
  5
1BD
100
AcDbEntity
  8
0
100
AcDbLine
 10
586.032539
 20
570.297067
 30
0.0
 11
586.032539
 21
693.709232
 31
0.0
  0
LINE
  5
1BE
100
AcDbEntity
  8
0
100
AcDbLine
 10
629.903287
 20
632.003149
 30
0.0
 11
629.903287
 21
652.121416
 31
0.0
  0
LINE
  5
1BF
100
AcDbEntity
  8
0
100
AcDbLine
 10
587.743847
 20
693.619546
 30
0.0
 11
781.865611
 21
683.446055
 31
0.0
  0
LINE
  5
1C0
100
AcDbEntity
  8
0
100
AcDbLine
 10
744.826388
 20
569.411066
 30
0.0
 11
759.393771
 21
570.174511
 31
0.0
  0
LINE
  5
1C1
100
AcDbEntity
  8
0
100
AcDbLine
 10
743.985242
 20
569.244257
 30
0.0
 11
724.8023
 21
562.476141
 31
0.0
  0
LINE
  5
1C2
100
AcDbEntity
  8
0
100
AcDbLine
 10
723.961154
 20
562.309332
 30
0.0
 11
702.893771
 21
561.205237
 31
0.0
  0
LINE
  5
1C3
100
AcDbEntity
  8
0
100
AcDbLine
 10
571.393771
 20
548.803149
 30
0.0
 11
580.357905
 21
549.27294
 31
0.0
  0
LINE
  5
1C4
100
AcDbEntity
  8
0
100
AcDbLine
 10
584.393771
 20
561.003149
 30
0.0
 11
582.689085
 21
551.335393
 31
0.0
  0
LINE
  5
1C5
100
AcDbEntity
  8
0
100
AcDbLine
 10
584.393771
 20
561.003149
 30
0.0
 11
665.893771
 21
565.274383
 31
0.0
  0
LINE
  5
1C6
100
AcDbEntity
  8
0
100
AcDbLine
 10
571.393771
 20
548.803149
 30
0.0
 11
571.393771
 21
548.582078
 31
0.0
  0
LINE
  5
1C7
100
AcDbEntity
  8
0
100
AcDbLine
 10
564.393771
 20
546.003149
 30
0.0
 11
568.937402
 21
546.082459
 31
0.0
  0
LINE
  5
1C8
100
AcDbEntity
  8
0
100
AcDbLine
 10
705.393771
 20
632.003149
 30
0.0
 11
705.393771
 21
616.907984
 31
0.0
  0
LINE
  5
1C9
100
AcDbEntity
  8
0
100
AcDbLine
 10
584.393771
 20
561.003149
 30
0.0
 11
586.032539
 21
570.297067
 31
0.0
  0
LINE
  5
1CA
100
AcDbEntity
  8
0
100
AcDbLine
 10
629.903287
 20
611.884883
 30
0.0
 11
629.903287
 21
632.003149
 31
0.0
  0
LINE
  5
1CB
100
AcDbEntity
  8
0
100
AcDbLine
 10
781.865611
 20
580.560243
 30
0.0
 11
702.893771
 21
576.421504
 31
0.0
  0
LINE
  5
1CC
100
AcDbEntity
  8
0
100
AcDbLine
 10
283.999206
 20
180.534791
 30
0.0
 11
289.0448
 21
166.834117
 31
0.0
  0
LINE
  5
1CD
100
AcDbEntity
  8
0
100
AcDbLine
 10
271.828121
 20
182.498598
 30
0.0
 11
281.183836
 21
182.498598
 31
0.0
  0
LINE
  5
1CE
100
AcDbEntity
  8
0
100
AcDbLine
 10
419.370321
 20
362.859829
 30
0.0
 11
439.652456
 21
366.220101
 31
0.0
  0
LINE
  5
1CF
100
AcDbEntity
  8
0
100
AcDbLine
 10
441.740409
 20
368.555641
 30
0.0
 11
442.209089
 21
377.498598
 31
0.0
  0
LINE
  5
1D0
100
AcDbEntity
  8
0
100
AcDbLine
 10
323.310786
 20
236.94922
 30
0.0
 11
323.785044
 21
245.998598
 31
0.0
  0
LINE
  5
1D1
100
AcDbEntity
  8
0
100
AcDbLine
 10
419.370321
 20
362.859829
 30
0.0
 11
383.378914
 21
326.868423
 31
0.0
  0
LINE
  5
1D2
100
AcDbEntity
  8
0
100
AcDbLine
 10
376.960224
 20
318.989082
 30
0.0
 11
376.332008
 21
282.998598
 31
0.0
  0
LINE
  5
1D3
100
AcDbEntity
  8
0
100
AcDbLine
 10
332.297469
 20
217.35212
 30
0.0
 11
333.798767
 21
245.998598
 31
0.0
  0
LINE
  5
1D4
100
AcDbEntity
  8
0
100
AcDbLine
 10
271.828121
 20
182.498598
 30
0.0
 11
271.535979
 21
182.498598
 31
0.0
  0
LINE
  5
1D5
100
AcDbEntity
  8
0
100
AcDbLine
 10
271.036664
 20
182.024766
 30
0.0
 11
271.009089
 21
181.498598
 31
0.0
  0
LINE
  5
1D6
100
AcDbEntity
  8
0
100
AcDbLine
 10
271.009089
 20
181.498598
 30
0.0
 11
262.009089
 21
181.498598
 31
0.0
  0
LINE
  5
1D7
100
AcDbEntity
  8
0
100
AcDbLine
 10
442.43016
 20
377.498598
 30
0.0
 11
442.209089
 21
377.498598
 31
0.0
  0
LINE
  5
1D8
100
AcDbEntity
  8
0
100
AcDbLine
 10
444.92978
 20
379.954967
 30
0.0
 11
445.009089
 21
384.498598
 31
0.0
  0
LINE
  5
1D9
100
AcDbEntity
  8
0
100
AcDbLine
 10
385.65375
 20
364.498598
 30
0.0
 11
340.009089
 21
364.498598
 31
0.0
  0
LINE
  5
1DA
100
AcDbEntity
  8
0
100
AcDbLine
 10
340.009089
 20
364.498598
 30
0.0
 11
330.047773
 21
365.498598
 31
0.0
  0
LINE
  5
1DB
100
AcDbEntity
  8
0
100
AcDbLine
 10
364.082945
 20
204.070135
 30
0.0
 11
366.280323
 21
245.998598
 31
0.0
  0
LINE
  5
1DC
100
AcDbEntity
  8
0
100
AcDbLine
 10
234.973378
 20
166.834117
 30
0.0
 11
240.018973
 21
180.534791
 31
0.0
  0
LINE
  5
1DD
100
AcDbEntity
  8
0
100
AcDbLine
 10
242.834342
 20
182.498598
 30
0.0
 11
252.190057
 21
182.498598
 31
0.0
  0
LINE
  5
1DE
100
AcDbEntity
  8
0
100
AcDbLine
 10
84.365722
 20
366.220101
 30
0.0
 11
104.647857
 21
362.859829
 31
0.0
  0
LINE
  5
1DF
100
AcDbEntity
  8
0
100
AcDbLine
 10
81.809089
 20
377.498598
 30
0.0
 11
82.27777
 21
368.555641
 31
0.0
  0
LINE
  5
1E0
100
AcDbEntity
  8
0
100
AcDbLine
 10
193.970405
 20
365.498598
 30
0.0
 11
198.294047
 21
282.998598
 31
0.0
  0
LINE
  5
1E1
100
AcDbEntity
  8
0
100
AcDbLine
 10
140.639264
 20
326.868423
 30
0.0
 11
104.647857
 21
362.859829
 31
0.0
  0
LINE
  5
1E2
100
AcDbEntity
  8
0
100
AcDbLine
 10
157.868874
 20
243.498598
 30
0.0
 11
149.564056
 21
244.962961
 31
0.0
  0
LINE
  5
1E3
100
AcDbEntity
  8
0
100
AcDbLine
 10
193.970405
 20
365.498598
 30
0.0
 11
330.047773
 21
365.498598
 31
0.0
  0
LINE
  5
1E4
100
AcDbEntity
  8
0
100
AcDbLine
 10
184.009089
 20
364.498598
 30
0.0
 11
188.280323
 21
282.998598
 31
0.0
  0
LINE
  5
1E5
100
AcDbEntity
  8
0
100
AcDbLine
 10
252.482199
 20
182.498598
 30
0.0
 11
252.190057
 21
182.498598
 31
0.0
  0
LINE
  5
1E6
100
AcDbEntity
  8
0
100
AcDbLine
 10
253.009089
 20
181.498598
 30
0.0
 11
252.981514
 21
182.024766
 31
0.0
  0
LINE
  5
1E7
100
AcDbEntity
  8
0
100
AcDbLine
 10
262.009089
 20
181.498598
 30
0.0
 11
253.009089
 21
181.498598
 31
0.0
  0
LINE
  5
1E8
100
AcDbEntity
  8
0
100
AcDbLine
 10
81.809089
 20
377.498598
 30
0.0
 11
81.588018
 21
377.498598
 31
0.0
  0
LINE
  5
1E9
100
AcDbEntity
  8
0
100
AcDbLine
 10
79.009089
 20
384.498598
 30
0.0
 11
79.088398
 21
379.954967
 31
0.0
  0
LINE
  5
1EA
100
AcDbEntity
  8
0
100
AcDbLine
 10
79.009089
 20
384.498598
 30
0.0
 11
445.009089
 21
384.498598
 31
0.0
  0
LINE
  5
1EB
100
AcDbEntity
  8
0
100
AcDbLine
 10
442.209089
 20
377.498598
 30
0.0
 11
81.809089
 21
377.498598
 31
0.0
  0
LINE
  5
1EC
100
AcDbEntity
  8
0
100
AcDbLine
 10
184.009089
 20
364.498598
 30
0.0
 11
138.364428
 21
364.498598
 31
0.0
  0
LINE
  5
1ED
100
AcDbEntity
  8
0
100
AcDbLine
 10
193.970405
 20
365.498598
 30
0.0
 11
184.009089
 21
364.498598
 31
0.0
  0
LINE
  5
1EE
100
AcDbEntity
  8
0
100
AcDbLine
 10
440.539775
 20
366.548599
 30
0.0
 11
83.478403
 21
366.548599
 31
0.0
  0
LINE
  5
1EF
100
AcDbEntity
  8
0
100
AcDbLine
 10
155.215401
 20
294.129882
 30
0.0
 11
155.798767
 21
282.998598
 31
0.0
  0
LINE
  5
1F0
100
AcDbEntity
  8
0
100
AcDbLine
 10
443.009089
 20
384.498598
 30
0.0
 11
443.009089
 21
385.998598
 31
0.0
  0
LINE
  5
1F1
100
AcDbEntity
  8
0
100
AcDbLine
 10
81.009089
 20
385.998598
 30
0.0
 11
81.009089
 21
384.498598
 31
0.0
  0
LINE
  5
1F2
100
AcDbEntity
  8
0
100
AcDbLine
 10
564.393771
 20
548.003149
 30
0.0
 11
562.893771
 21
548.003149
 31
0.0
  0
LINE
  5
1F3
100
AcDbEntity
  8
0
100
AcDbLine
 10
259.320537
 20
182.498598
 30
0.0
 11
252.482199
 21
182.498598
 31
0.0
  0
LINE
  5
1F4
100
AcDbEntity
  8
0
100
AcDbLine
 10
259.320537
 20
182.498598
 30
0.0
 11
259.320537
 21
181.498598
 31
0.0
  0
LINE
  5
1F5
100
AcDbEntity
  8
0
100
AcDbLine
 10
264.697641
 20
182.498598
 30
0.0
 11
264.697641
 21
181.498598
 31
0.0
  0
LINE
  5
1F6
100
AcDbEntity
  8
0
100
AcDbLine
 10
383.509089
 20
254.498598
 30
0.0
 11
383.509089
 21
274.498598
 31
0.0
  0
LINE
  5
1F7
100
AcDbEntity
  8
0
100
AcDbLine
 10
383.509089
 20
254.498598
 30
0.0
 11
381.509089
 21
254.498598
 31
0.0
  0
LINE
  5
1F8
100
AcDbEntity
  8
0
100
AcDbLine
 10
383.509089
 20
274.498598
 30
0.0
 11
381.509089
 21
274.498598
 31
0.0
  0
LINE
  5
1F9
100
AcDbEntity
  8
0
100
AcDbLine
 10
140.509089
 20
254.498598
 30
0.0
 11
140.509089
 21
274.498598
 31
0.0
  0
LINE
  5
1FA
100
AcDbEntity
  8
0
100
AcDbLine
 10
140.509089
 20
254.498598
 30
0.0
 11
142.509089
 21
254.498598
 31
0.0
  0
LINE
  5
1FB
100
AcDbEntity
  8
0
100
AcDbLine
 10
140.509089
 20
274.498598
 30
0.0
 11
142.509089
 21
274.498598
 31
0.0
  0
ARC
  5
1FC
100
AcDbEntity
  8
0
100
AcDbCircle
 10
377.509089
 20
264.498598
 30
0.0
 40
13.0
100
AcDbArc
 50
337.380135
 51
382.619865
  0
ARC
  5
1FD
100
AcDbEntity
  8
0
100
AcDbCircle
 10
146.509089
 20
264.498598
 30
0.0
 40
13.0
100
AcDbArc
 50
157.380135
 51
202.619865
  0
ARC
  5
1FE
100
AcDbEntity
  8
0
100
AcDbCircle
 10
257.759089
 20
187.529848
 30
0.0
 40
9.53125
100
AcDbArc
 50
243.51896
 51
296.48104
  0
ARC
  5
1FF
100
AcDbEntity
  8
0
100
AcDbCircle
 10
266.259089
 20
187.529848
 30
0.0
 40
9.53125
100
AcDbArc
 50
243.51896
 51
296.48104
  0
ARC
  5
200
100
AcDbEntity
  8
0
100
AcDbCircle
 10
684.393771
 20
632.003149
 30
0.0
 40
18.5
100
AcDbArc
 50
0.0
 51
180.0
  0
ARC
  5
201
100
AcDbEntity
  8
0
100
AcDbCircle
 10
515.861375
 20
550.647385
 30
0.0
 40
3.0
100
AcDbArc
 50
143.076623
 51
268.0
  0
ARC
  5
202
100
AcDbEntity
  8
0
100
AcDbCircle
 10
565.426631
 20
513.401105
 30
0.0
 40
65.0
100
AcDbArc
 50
117.733321
 51
143.076623
  0
ARC
  5
203
100
AcDbEntity
  8
0
100
AcDbCircle
 10
537.741529
 20
550.224339
 30
0.0
 40
2.563094
100
AcDbArc
 50
180.0
 51
268.0
  0
ARC
  5
204
100
AcDbEntity
  8
0
100
AcDbCircle
 10
262.009089
 20
-314.001402
 30
0.0
 40
750.0
100
AcDbArc
 50
90.0
 51
103.815491
  0
ARC
  5
205
100
AcDbEntity
  8
0
100
AcDbCircle
 10
515.861375
 20
713.358913
 30
0.0
 40
3.0
100
AcDbArc
 50
92.0
 51
216.923377
  0
ARC
  5
206
100
AcDbEntity
  8
0
100
AcDbCircle
 10
565.426631
 20
750.605193
 30
0.0
 40
65.0
100
AcDbArc
 50
216.923377
 51
242.266679
  0
ARC
  5
207
100
AcDbEntity
  8
0
100
AcDbCircle
 10
537.741529
 20
713.781959
 30
0.0
 40
2.563094
100
AcDbArc
 50
92.0
 51
180.0
  0
ARC
  5
208
100
AcDbEntity
  8
0
100
AcDbCircle
 10
262.009089
 20
-314.001402
 30
0.0
 40
750.0
100
AcDbArc
 50
76.184509
 51
90.0
  0
ARC
  5
209
100
AcDbEntity
  8
1
  6
HIDDEN
100
AcDbCircle
 10
262.009089
 20
631.003149
 30
0.0
 40
53.0
100
AcDbArc
 50
270.0
 51
303.896355
  0
ARC
  5
20A
100
AcDbEntity
  8
0
100
AcDbCircle
 10
262.009089
 20
21704.217796
 30
0.0
 40
21158.214646
100
AcDbArc
 50
270.0
 51
270.455266
  0
ARC
  5
20B
100
AcDbEntity
  8
1
  6
HIDDEN
100
AcDbCircle
 10
262.009089
 20
633.003149
 30
0.0
 40
53.0
100
AcDbArc
 50
56.103645
 51
90.0
  0
ARC
  5
20C
100
AcDbEntity
  8
0
100
AcDbCircle
 10
262.009089
 20
-20440.211497
 30
0.0
 40
21158.214646
100
AcDbArc
 50
89.544734
 51
90.0
  0
ARC
  5
20D
100
AcDbEntity
  8
1
  6
HIDDEN
100
AcDbCircle
 10
262.009089
 20
631.003149
 30
0.0
 40
53.0
100
AcDbArc
 50
236.103645
 51
270.0
  0
ARC
  5
20E
100
AcDbEntity
  8
0
100
AcDbCircle
 10
262.009089
 20
21704.217796
 30
0.0
 40
21158.214646
100
AcDbArc
 50
269.544734
 51
270.0
  0
ARC
  5
20F
100
AcDbEntity
  8
1
  6
HIDDEN
100
AcDbCircle
 10
262.009089
 20
633.003149
 30
0.0
 40
53.0
100
AcDbArc
 50
90.0
 51
123.896355
  0
ARC
  5
210
100
AcDbEntity
  8
0
100
AcDbCircle
 10
262.009089
 20
-20440.211497
 30
0.0
 40
21158.214646
100
AcDbArc
 50
90.0
 51
90.455266
  0
ARC
  5
211
100
AcDbEntity
  8
1
  6
HIDDEN
100
AcDbCircle
 10
262.009089
 20
632.003149
 30
0.0
 40
53.0
100
AcDbArc
 50
90.0
 51
124.474385
  0
ARC
  5
212
100
AcDbEntity
  8
1
  6
HIDDEN
100
AcDbCircle
 10
262.009089
 20
632.003149
 30
0.0
 40
51.0
100
AcDbArc
 50
90.0
 51
126.031879
  0
ARC
  5
213
100
AcDbEntity
  8
1
  6
HIDDEN
100
AcDbCircle
 10
262.009089
 20
632.003149
 30
0.0
 40
49.0
100
AcDbArc
 50
90.0
 51
127.752001
  0
ARC
  5
214
100
AcDbEntity
  8
1
  6
HIDDEN
100
AcDbCircle
 10
262.009089
 20
632.003149
 30
0.0
 40
49.0
100
AcDbArc
 50
52.247999
 51
90.0
  0
ARC
  5
215
100
AcDbEntity
  8
1
  6
HIDDEN
100
AcDbCircle
 10
262.009089
 20
632.003149
 30
0.0
 40
51.0
100
AcDbArc
 50
53.968121
 51
90.0
  0
ARC
  5
216
100
AcDbEntity
  8
1
  6
HIDDEN
100
AcDbCircle
 10
262.009089
 20
632.003149
 30
0.0
 40
53.0
100
AcDbArc
 50
55.525615
 51
90.0
  0
ARC
  5
217
100
AcDbEntity
  8
1
  6
HIDDEN
100
AcDbCircle
 10
262.009089
 20
632.003149
 30
0.0
 40
53.0
100
AcDbArc
 50
235.525615
 51
270.0
  0
ARC
  5
218
100
AcDbEntity
  8
1
  6
HIDDEN
100
AcDbCircle
 10
262.009089
 20
632.003149
 30
0.0
 40
51.0
100
AcDbArc
 50
233.968121
 51
270.0
  0
ARC
  5
219
100
AcDbEntity
  8
1
  6
HIDDEN
100
AcDbCircle
 10
262.009089
 20
632.003149
 30
0.0
 40
49.0
100
AcDbArc
 50
232.247999
 51
270.0
  0
ARC
  5
21A
100
AcDbEntity
  8
1
  6
HIDDEN
100
AcDbCircle
 10
262.009089
 20
632.003149
 30
0.0
 40
49.0
100
AcDbArc
 50
270.0
 51
307.752001
  0
ARC
  5
21B
100
AcDbEntity
  8
1
  6
HIDDEN
100
AcDbCircle
 10
262.009089
 20
632.003149
 30
0.0
 40
51.0
100
AcDbArc
 50
270.0
 51
306.031879
  0
ARC
  5
21C
100
AcDbEntity
  8
1
  6
HIDDEN
100
AcDbCircle
 10
262.009089
 20
632.003149
 30
0.0
 40
53.0
100
AcDbArc
 50
270.0
 51
304.474385
  0
ARC
  5
21D
100
AcDbEntity
  8
0
100
AcDbCircle
 10
757.300333
 20
653.886606
 30
0.0
 40
40.0
100
AcDbArc
 50
49.369824
 51
87.0
  0
ARC
  5
21E
100
AcDbEntity
  8
0
100
AcDbCircle
 10
757.300333
 20
610.119692
 30
0.0
 40
40.0
100
AcDbArc
 50
273.0
 51
310.630176
  0
ARC
  5
21F
100
AcDbEntity
  8
0
100
AcDbCircle
 10
262.009089
 20
1364.498598
 30
0.0
 40
1160.0
100
AcDbArc
 50
270.0
 51
272.911201
  0
ARC
  5
220
100
AcDbEntity
  8
0
100
AcDbCircle
 10
262.009089
 20
1364.498598
 30
0.0
 40
1140.0
100
AcDbArc
 50
270.0
 51
272.505871
  0
ARC
  5
221
100
AcDbEntity
  8
0
100
AcDbCircle
 10
260.960377
 20
1403.95098
 30
0.0
 40
1239.452382
100
AcDbArc
 50
270.187159
 51
273.020915
  0
ARC
  5
222
100
AcDbEntity
  8
0
100
AcDbCircle
 10
262.009089
 20
1364.498598
 30
0.0
 40
1160.0
100
AcDbArc
 50
267.088799
 51
270.0
  0
ARC
  5
223
100
AcDbEntity
  8
0
100
AcDbCircle
 10
262.009089
 20
1364.498598
 30
0.0
 40
1140.0
100
AcDbArc
 50
267.494129
 51
270.0
  0
ARC
  5
224
100
AcDbEntity
  8
0
100
AcDbCircle
 10
263.057801
 20
1403.95098
 30
0.0
 40
1239.452382
100
AcDbArc
 50
266.979085
 51
269.812841
  0
ARC
  5
225
100
AcDbEntity
  8
0
100
AcDbCircle
 10
757.300333
 20
610.119692
 30
0.0
 40
40.0
100
AcDbArc
 50
273.0
 51
281.19864
  0
CIRCLE
  5
226
100
AcDbEntity
  8
1
  6
HIDDEN
100
AcDbCircle
 10
262.009089
 20
632.003149
 30
0.0
 40
12.0
  0
CIRCLE
  5
227
100
AcDbEntity
  8
0
100
AcDbCircle
 10
684.393771
 20
632.003149
 30
0.0
 40
11.0
  0
CIRCLE
  5
228
100
AcDbEntity
  8
0
100
AcDbCircle
 10
684.393771
 20
632.003149
 30
0.0
 40
8.660254
  0
CIRCLE
  5
229
100
AcDbEntity
  8
1
100
AcDbCircle
 10
132.009089
 20
686.003149
 30
0.0
 40
2.8
  0
CIRCLE
  5
22A
100
AcDbEntity
  8
1
100
AcDbCircle
 10
132.009089
 20
578.003149
 30
0.0
 40
2.8
  0
CIRCLE
  5
22B
100
AcDbEntity
  8
1
100
AcDbCircle
 10
392.009089
 20
578.003149
 30
0.0
 40
2.8
  0
CIRCLE
  5
22C
100
AcDbEntity
  8
1
100
AcDbCircle
 10
392.009089
 20
686.003149
 30
0.0
 40
2.8
  0
CIRCLE
  5
22D
100
AcDbEntity
  8
1
100
AcDbCircle
 10
392.009089
 20
578.003149
 30
0.0
 40
3.5
  0
CIRCLE
  5
22E
100
AcDbEntity
  8
1
100
AcDbCircle
 10
392.009089
 20
686.003149
 30
0.0
 40
3.5
  0
CIRCLE
  5
22F
100
AcDbEntity
  8
1
100
AcDbCircle
 10
132.009089
 20
578.003149
 30
0.0
 40
3.5
  0
CIRCLE
  5
230
100
AcDbEntity
  8
1
100
AcDbCircle
 10
132.009089
 20
686.003149
 30
0.0
 40
3.5
  0
CIRCLE
  5
231
100
AcDbEntity
  8
0
100
AcDbCircle
 10
313.009089
 20
264.498598
 30
0.0
 40
5.5
  0
CIRCLE
  5
232
100
AcDbEntity
  8
0
100
AcDbCircle
 10
211.009089
 20
264.498598
 30
0.0
 40
5.5
  0
CIRCLE
  5
233
100
AcDbEntity
  8
0
100
AcDbCircle
 10
262.009089
 20
264.498598
 30
0.0
 40
5.5
  0
CIRCLE
  5
234
100
AcDbEntity
  8
1
100
AcDbCircle
 10
392.009089
 20
578.003149
 30
0.0
 40
3.75
  0
CIRCLE
  5
235
100
AcDbEntity
  8
1
100
AcDbCircle
 10
392.009089
 20
686.003149
 30
0.0
 40
3.75
  0
CIRCLE
  5
236
100
AcDbEntity
  8
1
100
AcDbCircle
 10
132.009089
 20
578.003149
 30
0.0
 40
3.75
  0
CIRCLE
  5
237
100
AcDbEntity
  8
1
100
AcDbCircle
 10
132.009089
 20
686.003149
 30
0.0
 40
3.75
  0
ARC
  5
238
100
AcDbEntity
  8
1
100
AcDbCircle
 10
528.393771
 20
574.103149
 30
0.0
 40
3.1
100
AcDbArc
 50
180.0
 51
270.0
  0
ARC
  5
239
100
AcDbEntity
  8
1
100
AcDbCircle
 10
528.393771
 20
689.903149
 30
0.0
 40
3.1
100
AcDbArc
 50
90.0
 51
180.0
  0
ARC
  5
23A
100
AcDbEntity
  8
0
100
AcDbCircle
 10
130.009089
 20
576.003149
 30
0.0
 40
5.0
100
AcDbArc
 50
180.0
 51
270.0
  0
ARC
  5
23B
100
AcDbEntity
  8
0
100
AcDbCircle
 10
394.009089
 20
576.003149
 30
0.0
 40
5.0
100
AcDbArc
 50
270.0
 51
360.0
  0
ARC
  5
23C
100
AcDbEntity
  8
0
100
AcDbCircle
 10
394.009089
 20
688.003149
 30
0.0
 40
5.0
100
AcDbArc
 50
0.0
 51
90.0
  0
ARC
  5
23D
100
AcDbEntity
  8
0
100
AcDbCircle
 10
130.009089
 20
688.003149
 30
0.0
 40
5.0
100
AcDbArc
 50
90.0
 51
180.0
  0
ARC
  5
23E
100
AcDbEntity
  8
0
100
AcDbCircle
 10
374.19365
 20
246.440173
 30
0.0
 40
1.5
100
AcDbArc
 50
280.0
 51
342.879431
  0
ARC
  5
23F
100
AcDbEntity
  8
0
100
AcDbCircle
 10
149.824529
 20
246.440173
 30
0.0
 40
1.5
100
AcDbArc
 50
197.120569
 51
260.0
  0
ARC
  5
240
100
AcDbEntity
  8
0
100
AcDbCircle
 10
699.891589
 20
617.107142
 30
0.0
 40
4.0
100
AcDbArc
 50
318.637653
 51
360.0
  0
ARC
  5
241
100
AcDbEntity
  8
0
100
AcDbCircle
 10
699.891589
 20
646.899156
 30
0.0
 40
4.0
100
AcDbArc
 50
0.0
 51
89.0
  0
ARC
  5
242
100
AcDbEntity
  8
0
100
AcDbCircle
 10
370.009089
 20
498.003149
 30
0.0
 40
7.0
100
AcDbArc
 50
270.0
 51
360.0
  0
ARC
  5
243
100
AcDbEntity
  8
0
100
AcDbCircle
 10
370.009089
 20
498.003149
 30
0.0
 40
10.0
100
AcDbArc
 50
270.0
 51
360.0
  0
ARC
  5
244
100
AcDbEntity
  8
0
100
AcDbCircle
 10
154.009089
 20
498.003149
 30
0.0
 40
10.0
100
AcDbArc
 50
180.0
 51
270.0
  0
ARC
  5
245
100
AcDbEntity
  8
0
100
AcDbCircle
 10
154.009089
 20
498.003149
 30
0.0
 40
7.0
100
AcDbArc
 50
180.0
 51
270.0
  0
ARC
  5
246
100
AcDbEntity
  8
0
100
AcDbCircle
 10
83.723985
 20
410.999275
 30
0.0
 40
3.4
100
AcDbArc
 50
103.815491
 51
177.0
  0
ARC
  5
247
100
AcDbEntity
  8
0
100
AcDbCircle
 10
440.294193
 20
410.999275
 30
0.0
 40
3.4
100
AcDbArc
 50
3.0
 51
76.184509
  0
ARC
  5
248
100
AcDbEntity
  8
1
  6
HIDDEN
100
AcDbCircle
 10
291.009089
 20
587.840666
 30
0.0
 40
1.0
100
AcDbArc
 50
303.896355
 51
360.0
  0
ARC
  5
249
100
AcDbEntity
  8
1
100
AcDbCircle
 10
392.009089
 20
583.653149
 30
0.0
 40
0.6
100
AcDbArc
 50
0.0
 51
90.0
  0
ARC
  5
24A
100
AcDbEntity
  8
1
100
AcDbCircle
 10
392.009089
 20
583.653149
 30
0.0
 40
0.6
100
AcDbArc
 50
90.0
 51
180.0
  0
ARC
  5
24B
100
AcDbEntity
  8
1
100
AcDbCircle
 10
386.359089
 20
578.003149
 30
0.0
 40
0.6
100
AcDbArc
 50
90.0
 51
180.0
  0
ARC
  5
24C
100
AcDbEntity
  8
1
100
AcDbCircle
 10
386.359089
 20
578.003149
 30
0.0
 40
0.6
100
AcDbArc
 50
180.0
 51
270.0
  0
ARC
  5
24D
100
AcDbEntity
  8
0
100
AcDbCircle
 10
430.009089
 20
561.670608
 30
0.0
 40
15.0
100
AcDbArc
 50
270.455266
 51
360.0
  0
ARC
  5
24E
100
AcDbEntity
  8
1
  6
HIDDEN
100
AcDbCircle
 10
291.009089
 20
676.165633
 30
0.0
 40
1.0
100
AcDbArc
 50
0.0
 51
56.103645
  0
ARC
  5
24F
100
AcDbEntity
  8
1
100
AcDbCircle
 10
392.009089
 20
680.353149
 30
0.0
 40
0.6
100
AcDbArc
 50
270.0
 51
360.0
  0
ARC
  5
250
100
AcDbEntity
  8
1
100
AcDbCircle
 10
392.009089
 20
680.353149
 30
0.0
 40
0.6
100
AcDbArc
 50
180.0
 51
270.0
  0
ARC
  5
251
100
AcDbEntity
  8
1
100
AcDbCircle
 10
386.359089
 20
686.003149
 30
0.0
 40
0.6
100
AcDbArc
 50
180.0
 51
270.0
  0
ARC
  5
252
100
AcDbEntity
  8
1
100
AcDbCircle
 10
386.359089
 20
686.003149
 30
0.0
 40
0.6
100
AcDbArc
 50
90.0
 51
180.0
  0
ARC
  5
253
100
AcDbEntity
  8
0
100
AcDbCircle
 10
430.009089
 20
702.335691
 30
0.0
 40
15.0
100
AcDbArc
 50
0.0
 51
89.544734
  0
ARC
  5
254
100
AcDbEntity
  8
1
  6
HIDDEN
100
AcDbCircle
 10
233.009089
 20
587.840666
 30
0.0
 40
1.0
100
AcDbArc
 50
180.0
 51
236.103645
  0
ARC
  5
255
100
AcDbEntity
  8
1
100
AcDbCircle
 10
132.009089
 20
583.653149
 30
0.0
 40
0.6
100
AcDbArc
 50
90.0
 51
180.0
  0
ARC
  5
256
100
AcDbEntity
  8
1
100
AcDbCircle
 10
132.009089
 20
583.653149
 30
0.0
 40
0.6
100
AcDbArc
 50
0.0
 51
90.0
  0
ARC
  5
257
100
AcDbEntity
  8
1
100
AcDbCircle
 10
137.659089
 20
578.003149
 30
0.0
 40
0.6
100
AcDbArc
 50
0.0
 51
90.0
  0
ARC
  5
258
100
AcDbEntity
  8
1
100
AcDbCircle
 10
137.659089
 20
578.003149
 30
0.0
 40
0.6
100
AcDbArc
 50
270.0
 51
360.0
  0
ARC
  5
259
100
AcDbEntity
  8
0
100
AcDbCircle
 10
94.009089
 20
561.670608
 30
0.0
 40
15.0
100
AcDbArc
 50
180.0
 51
269.544734
  0
ARC
  5
25A
100
AcDbEntity
  8
1
  6
HIDDEN
100
AcDbCircle
 10
233.009089
 20
676.165633
 30
0.0
 40
1.0
100
AcDbArc
 50
123.896355
 51
180.0
  0
ARC
  5
25B
100
AcDbEntity
  8
1
100
AcDbCircle
 10
132.009089
 20
680.353149
 30
0.0
 40
0.6
100
AcDbArc
 50
180.0
 51
270.0
  0
ARC
  5
25C
100
AcDbEntity
  8
1
100
AcDbCircle
 10
132.009089
 20
680.353149
 30
0.0
 40
0.6
100
AcDbArc
 50
270.0
 51
360.0
  0
ARC
  5
25D
100
AcDbEntity
  8
1
100
AcDbCircle
 10
137.659089
 20
686.003149
 30
0.0
 40
0.6
100
AcDbArc
 50
270.0
 51
360.0
  0
ARC
  5
25E
100
AcDbEntity
  8
1
100
AcDbCircle
 10
137.659089
 20
686.003149
 30
0.0
 40
0.6
100
AcDbArc
 50
0.0
 51
90.0
  0
ARC
  5
25F
100
AcDbEntity
  8
0
100
AcDbCircle
 10
94.009089
 20
702.335691
 30
0.0
 40
15.0
100
AcDbArc
 50
90.455266
 51
180.0
  0
ARC
  5
260
100
AcDbEntity
  8
0
100
AcDbCircle
 10
744.983396
 20
697.591121
 30
0.0
 40
3.0
100
AcDbArc
 50
250.566166
 51
267.0
  0
ARC
  5
261
100
AcDbEntity
  8
0
100
AcDbCircle
 10
723.804146
 20
698.701078
 30
0.0
 40
3.0
100
AcDbArc
 50
70.566166
 51
87.0
  0
ARC
  5
262
100
AcDbEntity
  8
0
100
AcDbCircle
 10
781.393771
 20
681.96696
 30
0.0
 40
3.0
100
AcDbArc
 50
0.0
 51
49.369824
  0
ARC
  5
263
100
AcDbEntity
  8
0
100
AcDbCircle
 10
580.227065
 20
712.236785
 30
0.0
 40
2.5
100
AcDbArc
 50
10.0
 51
32.147428
  0
ARC
  5
264
100
AcDbEntity
  8
0
100
AcDbCircle
 10
580.227065
 20
712.236785
 30
0.0
 40
2.5
100
AcDbArc
 50
32.147428
 51
87.0
  0
ARC
  5
265
100
AcDbEntity
  8
0
100
AcDbCircle
 10
568.893771
 20
715.424221
 30
0.0
 40
2.5
100
AcDbArc
 50
0.0
 51
89.0
  0
ARC
  5
266
100
AcDbEntity
  8
0
100
AcDbCircle
 10
699.893771
 20
647.098314
 30
0.0
 40
5.5
100
AcDbArc
 50
0.0
 51
89.0
  0
ARC
  5
267
100
AcDbEntity
  8
0
100
AcDbCircle
 10
744.983396
 20
566.415178
 30
0.0
 40
3.0
100
AcDbArc
 50
93.0
 51
109.433834
  0
ARC
  5
268
100
AcDbEntity
  8
0
100
AcDbCircle
 10
723.804146
 20
565.30522
 30
0.0
 40
3.0
100
AcDbArc
 50
273.0
 51
289.433834
  0
ARC
  5
269
100
AcDbEntity
  8
0
100
AcDbCircle
 10
781.393771
 20
582.039339
 30
0.0
 40
3.0
100
AcDbArc
 50
310.630176
 51
360.0
  0
ARC
  5
26A
100
AcDbEntity
  8
0
100
AcDbCircle
 10
580.227065
 20
551.769513
 30
0.0
 40
2.5
100
AcDbArc
 50
327.852572
 51
350.0
  0
ARC
  5
26B
100
AcDbEntity
  8
0
100
AcDbCircle
 10
580.227065
 20
551.769513
 30
0.0
 40
2.5
100
AcDbArc
 50
273.0
 51
327.852572
  0
ARC
  5
26C
100
AcDbEntity
  8
0
100
AcDbCircle
 10
568.893771
 20
548.582078
 30
0.0
 40
2.5
100
AcDbArc
 50
271.0
 51
360.0
  0
ARC
  5
26D
100
AcDbEntity
  8
0
100
AcDbCircle
 10
699.893771
 20
616.907984
 30
0.0
 40
5.5
100
AcDbArc
 50
303.055731
 51
360.0
  0
ARC
  5
26E
100
AcDbEntity
  8
0
100
AcDbCircle
 10
291.859964
 20
167.870867
 30
0.0
 40
3.0
100
AcDbArc
 50
200.217414
 51
271.428995
  0
ARC
  5
26F
100
AcDbEntity
  8
0
100
AcDbCircle
 10
281.183836
 20
179.498598
 30
0.0
 40
3.0
100
AcDbArc
 50
20.206083
 51
90.0
  0
ARC
  5
270
100
AcDbEntity
  8
0
100
AcDbCircle
 10
439.243835
 20
368.686481
 30
0.0
 40
2.5
100
AcDbArc
 50
279.40711
 51
357.0
  0
ARC
  5
271
100
AcDbEntity
  8
0
100
AcDbCircle
 10
311.327232
 20
237.577251
 30
0.0
 40
12.0
100
AcDbArc
 50
272.505871
 51
357.0
  0
ARC
  5
272
100
AcDbEntity
  8
0
100
AcDbCircle
 10
418.734254
 20
291.513084
 30
0.0
 40
50.0
100
AcDbArc
 50
135.0
 51
177.0
  0
ARC
  5
273
100
AcDbEntity
  8
0
100
AcDbCircle
 10
324.137764
 20
206.163574
 30
0.0
 40
40.0
100
AcDbArc
 50
273.070185
 51
357.0
  0
ARC
  5
274
100
AcDbEntity
  8
0
100
AcDbCircle
 10
320.313915
 20
217.980152
 30
0.0
 40
12.0
100
AcDbArc
 50
272.911201
 51
357.0
  0
ARC
  5
275
100
AcDbEntity
  8
0
100
AcDbCircle
 10
271.535979
 20
181.998598
 30
0.0
 40
0.5
100
AcDbArc
 50
90.0
 51
177.0
  0
ARC
  5
276
100
AcDbEntity
  8
0
100
AcDbCircle
 10
442.43016
 20
379.998598
 30
0.0
 40
2.5
100
AcDbArc
 50
270.0
 51
359.0
  0
ARC
  5
277
100
AcDbEntity
  8
0
100
AcDbCircle
 10
232.158214
 20
167.870867
 30
0.0
 40
3.0
100
AcDbArc
 50
268.571005
 51
339.782586
  0
ARC
  5
278
100
AcDbEntity
  8
0
100
AcDbCircle
 10
242.834342
 20
179.498598
 30
0.0
 40
3.0
100
AcDbArc
 50
90.0
 51
159.793917
  0
ARC
  5
279
100
AcDbEntity
  8
0
100
AcDbCircle
 10
84.774343
 20
368.686481
 30
0.0
 40
2.5
100
AcDbArc
 50
183.0
 51
260.59289
  0
ARC
  5
27A
100
AcDbEntity
  8
0
100
AcDbCircle
 10
212.690947
 20
237.577251
 30
0.0
 40
12.0
100
AcDbArc
 50
183.0
 51
267.494129
  0
ARC
  5
27B
100
AcDbEntity
  8
0
100
AcDbCircle
 10
105.283925
 20
291.513084
 30
0.0
 40
50.0
100
AcDbArc
 50
3.0
 51
45.0
  0
ARC
  5
27C
100
AcDbEntity
  8
0
100
AcDbCircle
 10
199.880414
 20
206.163574
 30
0.0
 40
40.0
100
AcDbArc
 50
183.0
 51
266.929815
  0
ARC
  5
27D
100
AcDbEntity
  8
0
100
AcDbCircle
 10
203.704264
 20
217.980152
 30
0.0
 40
12.0
100
AcDbArc
 50
183.0
 51
267.088799
  0
ARC
  5
27E
100
AcDbEntity
  8
0
100
AcDbCircle
 10
252.482199
 20
181.998598
 30
0.0
 40
0.5
100
AcDbArc
 50
3.0
 51
90.0
  0
ARC
  5
27F
100
AcDbEntity
  8
0
100
AcDbCircle
 10
81.588018
 20
379.998598
 30
0.0
 40
2.5
100
AcDbArc
 50
181.0
 51
270.0
  0
LINE
  5
280
100
AcDbEntity
  8
SILK
100
AcDbLine
 10
526.461676
 20
571.679044
 30
0.0
 11
525.293771
 21
578.302564
 31
0.0
  0
LINE
  5
281
100
AcDbEntity
  8
SILK
100
AcDbLine
 10
528.10154
 20
571.017069
 30
0.0
 11
525.293771
 21
586.94072
 31
0.0
  0
LINE
  5
282
100
AcDbEntity
  8
SILK
100
AcDbLine
 10
529.627135
 20
571.003149
 30
0.0
 11
525.293771
 21
595.578876
 31
0.0
  0
LINE
  5
283
100
AcDbEntity
  8
SILK
100
AcDbLine
 10
531.150275
 20
571.003149
 30
0.0
 11
525.293771
 21
604.217031
 31
0.0
  0
LINE
  5
284
100
AcDbEntity
  8
SILK
100
AcDbLine
 10
532.673415
 20
571.003149
 30
0.0
 11
525.293771
 21
612.855187
 31
0.0
  0
LINE
  5
285
100
AcDbEntity
  8
SILK
100
AcDbLine
 10
534.196554
 20
571.003149
 30
0.0
 11
525.293771
 21
621.493343
 31
0.0
  0
LINE
  5
286
100
AcDbEntity
  8
SILK
100
AcDbLine
 10
535.178434
 20
574.072787
 30
0.0
 11
525.293771
 21
630.131499
 31
0.0
  0
LINE
  5
287
100
AcDbEntity
  8
SILK
100
AcDbLine
 10
535.178434
 20
582.710943
 30
0.0
 11
525.293771
 21
638.769654
 31
0.0
  0
LINE
  5
288
100
AcDbEntity
  8
SILK
100
AcDbLine
 10
535.178434
 20
591.349099
 30
0.0
 11
525.293771
 21
647.40781
 31
0.0
  0
LINE
  5
289
100
AcDbEntity
  8
SILK
100
AcDbLine
 10
535.178434
 20
599.987254
 30
0.0
 11
525.293771
 21
656.045966
 31
0.0
  0
LINE
  5
28A
100
AcDbEntity
  8
SILK
100
AcDbLine
 10
535.178434
 20
608.62541
 30
0.0
 11
525.293771
 21
664.684122
 31
0.0
  0
LINE
  5
28B
100
AcDbEntity
  8
SILK
100
AcDbLine
 10
535.178434
 20
617.263566
 30
0.0
 11
525.293771
 21
673.322277
 31
0.0
  0
LINE
  5
28C
100
AcDbEntity
  8
SILK
100
AcDbLine
 10
535.178434
 20
625.901722
 30
0.0
 11
525.293771
 21
681.960433
 31
0.0
  0
LINE
  5
28D
100
AcDbEntity
  8
SILK
100
AcDbLine
 10
535.178434
 20
634.539877
 30
0.0
 11
525.331455
 21
690.384871
 31
0.0
  0
LINE
  5
28E
100
AcDbEntity
  8
SILK
100
AcDbLine
 10
535.178434
 20
643.178033
 30
0.0
 11
526.505988
 21
692.361918
 31
0.0
  0
LINE
  5
28F
100
AcDbEntity
  8
SILK
100
AcDbLine
 10
535.178434
 20
651.816189
 30
0.0
 11
527.922433
 21
692.967017
 31
0.0
  0
LINE
  5
290
100
AcDbEntity
  8
SILK
100
AcDbLine
 10
535.178434
 20
660.454344
 30
0.0
 11
529.439202
 21
693.003149
 31
0.0
  0
LINE
  5
291
100
AcDbEntity
  8
SILK
100
AcDbLine
 10
535.178434
 20
669.0925
 30
0.0
 11
530.962342
 21
693.003149
 31
0.0
  0
LINE
  5
292
100
AcDbEntity
  8
SILK
100
AcDbLine
 10
535.178434
 20
677.730656
 30
0.0
 11
532.485482
 21
693.003149
 31
0.0
  0
LINE
  5
293
100
AcDbEntity
  8
SILK
100
AcDbLine
 10
535.178434
 20
686.368812
 30
0.0
 11
534.008622
 21
693.003149
 31
0.0
  0
LINE
  5
294
100
AcDbEntity
  8
SILK
100
AcDbLine
 10
525.293771
 20
687.685595
 30
0.0
 11
526.040593
 21
691.921034
 31
0.0
  0
LINE
  5
295
100
AcDbEntity
  8
SILK
100
AcDbLine
 10
525.293771
 20
679.04744
 30
0.0
 11
527.742324
 21
692.933872
 31
0.0
  0
LINE
  5
296
100
AcDbEntity
  8
SILK
100
AcDbLine
 10
525.293771
 20
670.409284
 30
0.0
 11
529.277679
 21
693.003149
 31
0.0
  0
LINE
  5
297
100
AcDbEntity
  8
SILK
100
AcDbLine
 10
525.293771
 20
661.771128
 30
0.0
 11
530.800819
 21
693.003149
 31
0.0
  0
LINE
  5
298
100
AcDbEntity
  8
SILK
100
AcDbLine
 10
525.293771
 20
653.132973
 30
0.0
 11
532.323959
 21
693.003149
 31
0.0
  0
LINE
  5
299
100
AcDbEntity
  8
SILK
100
AcDbLine
 10
525.293771
 20
644.494817
 30
0.0
 11
533.847099
 21
693.003149
 31
0.0
  0
LINE
  5
29A
100
AcDbEntity
  8
SILK
100
AcDbLine
 10
525.293771
 20
635.856661
 30
0.0
 11
535.178434
 21
691.915373
 31
0.0
  0
LINE
  5
29B
100
AcDbEntity
  8
SILK
100
AcDbLine
 10
525.293771
 20
627.218505
 30
0.0
 11
535.178434
 21
683.277217
 31
0.0
  0
LINE
  5
29C
100
AcDbEntity
  8
SILK
100
AcDbLine
 10
525.293771
 20
618.58035
 30
0.0
 11
535.178434
 21
674.639061
 31
0.0
  0
LINE
  5
29D
100
AcDbEntity
  8
SILK
100
AcDbLine
 10
525.293771
 20
609.942194
 30
0.0
 11
535.178434
 21
666.000905
 31
0.0
  0
LINE
  5
29E
100
AcDbEntity
  8
SILK
100
AcDbLine
 10
525.293771
 20
601.304038
 30
0.0
 11
535.178434
 21
657.36275
 31
0.0
  0
LINE
  5
29F
100
AcDbEntity
  8
SILK
100
AcDbLine
 10
525.293771
 20
592.665882
 30
0.0
 11
535.178434
 21
648.724594
 31
0.0
  0
LINE
  5
2A0
100
AcDbEntity
  8
SILK
100
AcDbLine
 10
525.293771
 20
584.027727
 30
0.0
 11
535.178434
 21
640.086438
 31
0.0
  0
LINE
  5
2A1
100
AcDbEntity
  8
SILK
100
AcDbLine
 10
525.293771
 20
575.389571
 30
0.0
 11
535.178434
 21
631.448282
 31
0.0
  0
LINE
  5
2A2
100
AcDbEntity
  8
SILK
100
AcDbLine
 10
526.203296
 20
571.909589
 30
0.0
 11
535.178434
 21
622.810127
 31
0.0
  0
LINE
  5
2A3
100
AcDbEntity
  8
SILK
100
AcDbLine
 10
527.585521
 20
571.110418
 30
0.0
 11
535.178434
 21
614.171971
 31
0.0
  0
LINE
  5
2A4
100
AcDbEntity
  8
SILK
100
AcDbLine
 10
529.089746
 20
571.003149
 30
0.0
 11
535.178434
 21
605.533815
 31
0.0
  0
LINE
  5
2A5
100
AcDbEntity
  8
SILK
100
AcDbLine
 10
530.612886
 20
571.003149
 30
0.0
 11
535.178434
 21
596.89566
 31
0.0
  0
LINE
  5
2A6
100
AcDbEntity
  8
SILK
100
AcDbLine
 10
532.136026
 20
571.003149
 30
0.0
 11
535.178434
 21
588.257504
 31
0.0
  0
LINE
  5
2A7
100
AcDbEntity
  8
SILK
100
AcDbLine
 10
533.659166
 20
571.003149
 30
0.0
 11
535.178434
 21
579.619348
 31
0.0
  0
ARC
  5
2A8
100
AcDbEntity
  8
0
100
AcDbCircle
 10
385.544382
 20
271.187066
 30
0.0
 40
5.165767
100
AcDbArc
 50
31.607914
 51
39.870408
  0
ARC
  5
2A9
100
AcDbEntity
  8
0
100
AcDbCircle
 10
386.331855
 20
271.686057
 30
0.0
 40
4.233607
100
AcDbArc
 50
22.019827
 51
31.44211
  0
ARC
  5
2AA
100
AcDbEntity
  8
0
100
AcDbCircle
 10
386.896347
 20
271.925696
 30
0.0
 40
3.62046
100
AcDbArc
 50
11.376738
 51
21.853434
  0
ARC
  5
2AB
100
AcDbEntity
  8
0
100
AcDbCircle
 10
387.20207
 20
271.995313
 30
0.0
 40
3.307021
100
AcDbArc
 50
0.056907
 51
11.239124
  0
ARC
  5
2AC
100
AcDbEntity
  8
0
100
AcDbCircle
 10
387.21982
 20
272.000127
 30
0.0
 40
3.289269
100
AcDbArc
 50
348.730605
 51
359.973364
  0
ARC
  5
2AD
100
AcDbEntity
  8
0
100
AcDbCircle
 10
386.963661
 20
272.051413
 30
0.0
 40
3.550512
100
AcDbArc
 50
338.043068
 51
348.72676
  0
ARC
  5
2AE
100
AcDbEntity
  8
0
100
AcDbCircle
 10
386.444421
 20
272.254447
 30
0.0
 40
4.108009
100
AcDbArc
 50
328.413511
 51
338.124552
  0
ARC
  5
2AF
100
AcDbEntity
  8
0
100
AcDbCircle
 10
385.696275
 20
272.700826
 30
0.0
 40
4.979138
100
AcDbArc
 50
319.97446
 51
328.547218
  0
ARC
  5
2B0
100
AcDbEntity
  8
0
100
AcDbCircle
 10
385.544382
 20
256.187066
 30
0.0
 40
5.165767
100
AcDbArc
 50
31.607914
 51
39.870408
  0
ARC
  5
2B1
100
AcDbEntity
  8
0
100
AcDbCircle
 10
386.331855
 20
256.686057
 30
0.0
 40
4.233607
100
AcDbArc
 50
22.019827
 51
31.44211
  0
ARC
  5
2B2
100
AcDbEntity
  8
0
100
AcDbCircle
 10
386.896347
 20
256.925696
 30
0.0
 40
3.62046
100
AcDbArc
 50
11.376738
 51
21.853434
  0
ARC
  5
2B3
100
AcDbEntity
  8
0
100
AcDbCircle
 10
387.20207
 20
256.995313
 30
0.0
 40
3.307021
100
AcDbArc
 50
0.056907
 51
11.239124
  0
ARC
  5
2B4
100
AcDbEntity
  8
0
100
AcDbCircle
 10
387.21982
 20
257.000127
 30
0.0
 40
3.289269
100
AcDbArc
 50
348.730605
 51
359.973364
  0
ARC
  5
2B5
100
AcDbEntity
  8
0
100
AcDbCircle
 10
386.963661
 20
257.051413
 30
0.0
 40
3.550512
100
AcDbArc
 50
338.043068
 51
348.72676
  0
ARC
  5
2B6
100
AcDbEntity
  8
0
100
AcDbCircle
 10
386.444421
 20
257.254447
 30
0.0
 40
4.108009
100
AcDbArc
 50
328.413511
 51
338.124552
  0
ARC
  5
2B7
100
AcDbEntity
  8
0
100
AcDbCircle
 10
385.696275
 20
257.700826
 30
0.0
 40
4.979138
100
AcDbArc
 50
319.97446
 51
328.547218
  0
ARC
  5
2B8
100
AcDbEntity
  8
0
100
AcDbCircle
 10
138.473796
 20
271.187066
 30
0.0
 40
5.165767
100
AcDbArc
 50
140.129592
 51
148.392086
  0
ARC
  5
2B9
100
AcDbEntity
  8
0
100
AcDbCircle
 10
137.686324
 20
271.686057
 30
0.0
 40
4.233607
100
AcDbArc
 50
148.55789
 51
157.980173
  0
ARC
  5
2BA
100
AcDbEntity
  8
0
100
AcDbCircle
 10
137.121832
 20
271.925696
 30
0.0
 40
3.62046
100
AcDbArc
 50
158.146566
 51
168.623262
  0
ARC
  5
2BB
100
AcDbEntity
  8
0
100
AcDbCircle
 10
136.816108
 20
271.995313
 30
0.0
 40
3.307021
100
AcDbArc
 50
168.760876
 51
179.943093
  0
ARC
  5
2BC
100
AcDbEntity
  8
0
100
AcDbCircle
 10
136.798358
 20
272.000127
 30
0.0
 40
3.289269
100
AcDbArc
 50
180.026636
 51
191.269395
  0
ARC
  5
2BD
100
AcDbEntity
  8
0
100
AcDbCircle
 10
137.054517
 20
272.051413
 30
0.0
 40
3.550512
100
AcDbArc
 50
191.27324
 51
201.956932
  0
ARC
  5
2BE
100
AcDbEntity
  8
0
100
AcDbCircle
 10
137.573757
 20
272.254447
 30
0.0
 40
4.108009
100
AcDbArc
 50
201.875448
 51
211.586489
  0
ARC
  5
2BF
100
AcDbEntity
  8
0
100
AcDbCircle
 10
138.321903
 20
272.700826
 30
0.0
 40
4.979138
100
AcDbArc
 50
211.452782
 51
220.02554
  0
ARC
  5
2C0
100
AcDbEntity
  8
0
100
AcDbCircle
 10
138.473796
 20
256.187066
 30
0.0
 40
5.165767
100
AcDbArc
 50
140.129592
 51
148.392086
  0
ARC
  5
2C1
100
AcDbEntity
  8
0
100
AcDbCircle
 10
137.686324
 20
256.686057
 30
0.0
 40
4.233607
100
AcDbArc
 50
148.55789
 51
157.980173
  0
ARC
  5
2C2
100
AcDbEntity
  8
0
100
AcDbCircle
 10
137.121832
 20
256.925696
 30
0.0
 40
3.62046
100
AcDbArc
 50
158.146566
 51
168.623262
  0
ARC
  5
2C3
100
AcDbEntity
  8
0
100
AcDbCircle
 10
136.816108
 20
256.995313
 30
0.0
 40
3.307021
100
AcDbArc
 50
168.760876
 51
179.943093
  0
ARC
  5
2C4
100
AcDbEntity
  8
0
100
AcDbCircle
 10
136.798358
 20
257.000127
 30
0.0
 40
3.289269
100
AcDbArc
 50
180.026636
 51
191.269395
  0
ARC
  5
2C5
100
AcDbEntity
  8
0
100
AcDbCircle
 10
137.054517
 20
257.051413
 30
0.0
 40
3.550512
100
AcDbArc
 50
191.27324
 51
201.956932
  0
ARC
  5
2C6
100
AcDbEntity
  8
0
100
AcDbCircle
 10
137.573757
 20
257.254447
 30
0.0
 40
4.108009
100
AcDbArc
 50
201.875448
 51
211.586489
  0
ARC
  5
2C7
100
AcDbEntity
  8
0
100
AcDbCircle
 10
138.321903
 20
257.700826
 30
0.0
 40
4.979138
100
AcDbArc
 50
211.452782
 51
220.02554
  0
ARC
  5
2C8
100
AcDbEntity
  8
1
  6
HIDDEN
100
AcDbCircle
 10
262.020615
 20
622.082425
 30
0.0
 40
45.703595
100
AcDbArc
 50
269.985551
 51
277.785715
  0
ARC
  5
2C9
100
AcDbEntity
  8
1
  6
HIDDEN
100
AcDbCircle
 10
262.102068
 20
621.227521
 30
0.0
 40
44.845551
100
AcDbArc
 50
283.190844
 51
285.74241
  0
ARC
  5
2CA
100
AcDbEntity
  8
1
  6
HIDDEN
100
AcDbCircle
 10
261.630126
 20
622.880704
 30
0.0
 40
46.564769
100
AcDbArc
 50
285.749437
 51
293.477194
  0
ARC
  5
2CB
100
AcDbEntity
  8
1
  6
HIDDEN
100
AcDbCircle
 10
259.905569
 20
626.921031
 30
0.0
 40
50.957677
100
AcDbArc
 50
293.44593
 51
295.529617
  0
ARC
  5
2CC
100
AcDbEntity
  8
1
  6
HIDDEN
100
AcDbCircle
 10
256.229233
 20
633.22752
 30
0.0
 40
58.257252
100
AcDbArc
 50
300.670918
 51
307.342456
  0
ARC
  5
2CD
100
AcDbEntity
  8
1
  6
HIDDEN
100
AcDbCircle
 10
290.932237
 20
587.779745
 30
0.0
 40
1.076852
100
AcDbArc
 50
350.547294
 51
360.04244
  0
ARC
  5
2CE
100
AcDbEntity
  8
1
  6
HIDDEN
100
AcDbCircle
 10
291.004838
 20
587.769734
 30
0.0
 40
1.003595
100
AcDbArc
 50
340.45452
 51
350.430381
  0
ARC
  5
2CF
100
AcDbEntity
  8
1
  6
HIDDEN
100
AcDbCircle
 10
290.987022
 20
587.77701
 30
0.0
 40
1.022819
100
AcDbArc
 50
330.529035
 51
340.404322
  0
ARC
  5
2D0
100
AcDbEntity
  8
1
  6
HIDDEN
100
AcDbCircle
 10
290.887967
 20
587.832288
 30
0.0
 40
1.136253
100
AcDbArc
 50
321.33289
 51
330.559651
  0
ARC
  5
2D1
100
AcDbEntity
  8
1
  6
HIDDEN
100
AcDbCircle
 10
290.716858
 20
587.96628
 30
0.0
 40
1.353573
100
AcDbArc
 50
313.206
 51
321.429761
  0
LINE
  5
2D2
100
AcDbEntity
  8
1
  6
HIDDEN
100
AcDbLine
 10
291.643545
 20
586.979665
 30
0.0
 11
291.566781
 21
586.911593
 31
0.0
  0
ARC
  5
2D3
100
AcDbEntity
  8
1
  6
HIDDEN
100
AcDbCircle
 10
262.020615
 20
641.923873
 30
0.0
 40
45.703595
100
AcDbArc
 50
82.214285
 51
90.014449
  0
ARC
  5
2D4
100
AcDbEntity
  8
1
  6
HIDDEN
100
AcDbCircle
 10
262.102068
 20
642.778778
 30
0.0
 40
44.845551
100
AcDbArc
 50
74.25759
 51
76.809156
  0
ARC
  5
2D5
100
AcDbEntity
  8
1
  6
HIDDEN
100
AcDbCircle
 10
261.630126
 20
641.125595
 30
0.0
 40
46.564769
100
AcDbArc
 50
66.522806
 51
74.250563
  0
ARC
  5
2D6
100
AcDbEntity
  8
1
  6
HIDDEN
100
AcDbCircle
 10
259.905569
 20
637.085267
 30
0.0
 40
50.957677
100
AcDbArc
 50
64.470383
 51
66.55407
  0
ARC
  5
2D7
100
AcDbEntity
  8
1
  6
HIDDEN
100
AcDbCircle
 10
256.229233
 20
630.778779
 30
0.0
 40
58.257252
100
AcDbArc
 50
52.657544
 51
59.329082
  0
ARC
  5
2D8
100
AcDbEntity
  8
1
  6
HIDDEN
100
AcDbCircle
 10
290.932237
 20
676.226553
 30
0.0
 40
1.076852
100
AcDbArc
 50
359.95756
 51
369.452706
  0
ARC
  5
2D9
100
AcDbEntity
  8
1
  6
HIDDEN
100
AcDbCircle
 10
291.004838
 20
676.236565
 30
0.0
 40
1.003595
100
AcDbArc
 50
9.569619
 51
19.54548
  0
ARC
  5
2DA
100
AcDbEntity
  8
1
  6
HIDDEN
100
AcDbCircle
 10
290.987022
 20
676.229289
 30
0.0
 40
1.022819
100
AcDbArc
 50
19.595678
 51
29.470965
  0
ARC
  5
2DB
100
AcDbEntity
  8
1
  6
HIDDEN
100
AcDbCircle
 10
290.887967
 20
676.17401
 30
0.0
 40
1.136253
100
AcDbArc
 50
29.440349
 51
38.66711
  0
ARC
  5
2DC
100
AcDbEntity
  8
1
  6
HIDDEN
100
AcDbCircle
 10
290.716858
 20
676.040018
 30
0.0
 40
1.353573
100
AcDbArc
 50
38.570239
 51
46.794
  0
LINE
  5
2DD
100
AcDbEntity
  8
1
  6
HIDDEN
100
AcDbLine
 10
291.643545
 20
677.026633
 30
0.0
 11
291.566781
 21
677.094705
 31
0.0
  0
ARC
  5
2DE
100
AcDbEntity
  8
1
  6
HIDDEN
100
AcDbCircle
 10
261.997563
 20
622.082425
 30
0.0
 40
45.703595
100
AcDbArc
 50
262.214285
 51
270.014449
  0
ARC
  5
2DF
100
AcDbEntity
  8
1
  6
HIDDEN
100
AcDbCircle
 10
261.91611
 20
621.227521
 30
0.0
 40
44.845551
100
AcDbArc
 50
254.25759
 51
256.735863
  0
ARC
  5
2E0
100
AcDbEntity
  8
1
  6
HIDDEN
100
AcDbCircle
 10
262.388052
 20
622.880704
 30
0.0
 40
46.564769
100
AcDbArc
 50
246.522806
 51
254.250563
  0
ARC
  5
2E1
100
AcDbEntity
  8
1
  6
HIDDEN
100
AcDbCircle
 10
264.112609
 20
626.921031
 30
0.0
 40
50.957677
100
AcDbArc
 50
243.972539
 51
246.55407
  0
ARC
  5
2E2
100
AcDbEntity
  8
1
  6
HIDDEN
100
AcDbCircle
 10
267.788945
 20
633.22752
 30
0.0
 40
58.257252
100
AcDbArc
 50
232.657544
 51
239.329082
  0
ARC
  5
2E3
100
AcDbEntity
  8
1
  6
HIDDEN
100
AcDbCircle
 10
233.085941
 20
587.779745
 30
0.0
 40
1.076852
100
AcDbArc
 50
179.95756
 51
189.452706
  0
ARC
  5
2E4
100
AcDbEntity
  8
1
  6
HIDDEN
100
AcDbCircle
 10
233.01334
 20
587.769734
 30
0.0
 40
1.003595
100
AcDbArc
 50
189.569619
 51
199.54548
  0
ARC
  5
2E5
100
AcDbEntity
  8
1
  6
HIDDEN
100
AcDbCircle
 10
233.031157
 20
587.77701
 30
0.0
 40
1.022819
100
AcDbArc
 50
199.595678
 51
209.470965
  0
ARC
  5
2E6
100
AcDbEntity
  8
1
  6
HIDDEN
100
AcDbCircle
 10
233.130211
 20
587.832288
 30
0.0
 40
1.136253
100
AcDbArc
 50
209.440349
 51
218.66711
  0
ARC
  5
2E7
100
AcDbEntity
  8
1
  6
HIDDEN
100
AcDbCircle
 10
233.30132
 20
587.96628
 30
0.0
 40
1.353573
100
AcDbArc
 50
218.570239
 51
226.794
  0
LINE
  5
2E8
100
AcDbEntity
  8
1
  6
HIDDEN
100
AcDbLine
 10
232.374633
 20
586.979665
 30
0.0
 11
232.451397
 21
586.911593
 31
0.0
  0
ARC
  5
2E9
100
AcDbEntity
  8
1
  6
HIDDEN
100
AcDbCircle
 10
261.997563
 20
641.923873
 30
0.0
 40
45.703595
100
AcDbArc
 50
89.985551
 51
97.785715
  0
ARC
  5
2EA
100
AcDbEntity
  8
1
  6
HIDDEN
100
AcDbCircle
 10
261.91611
 20
642.778778
 30
0.0
 40
44.845551
100
AcDbArc
 50
103.264137
 51
105.74241
  0
ARC
  5
2EB
100
AcDbEntity
  8
1
  6
HIDDEN
100
AcDbCircle
 10
262.388052
 20
641.125595
 30
0.0
 40
46.564769
100
AcDbArc
 50
105.749437
 51
113.477194
  0
ARC
  5
2EC
100
AcDbEntity
  8
1
  6
HIDDEN
100
AcDbCircle
 10
264.112609
 20
637.085267
 30
0.0
 40
50.957677
100
AcDbArc
 50
113.44593
 51
116.027461
  0
ARC
  5
2ED
100
AcDbEntity
  8
1
  6
HIDDEN
100
AcDbCircle
 10
267.788945
 20
630.778779
 30
0.0
 40
58.257252
100
AcDbArc
 50
120.670918
 51
127.342456
  0
ARC
  5
2EE
100
AcDbEntity
  8
1
  6
HIDDEN
100
AcDbCircle
 10
233.085941
 20
676.226553
 30
0.0
 40
1.076852
100
AcDbArc
 50
170.547294
 51
180.04244
  0
ARC
  5
2EF
100
AcDbEntity
  8
1
  6
HIDDEN
100
AcDbCircle
 10
233.01334
 20
676.236565
 30
0.0
 40
1.003595
100
AcDbArc
 50
160.45452
 51
170.430381
  0
ARC
  5
2F0
100
AcDbEntity
  8
1
  6
HIDDEN
100
AcDbCircle
 10
233.031157
 20
676.229289
 30
0.0
 40
1.022819
100
AcDbArc
 50
150.529035
 51
160.404322
  0
ARC
  5
2F1
100
AcDbEntity
  8
1
  6
HIDDEN
100
AcDbCircle
 10
233.130211
 20
676.17401
 30
0.0
 40
1.136253
100
AcDbArc
 50
141.33289
 51
150.559651
  0
ARC
  5
2F2
100
AcDbEntity
  8
1
  6
HIDDEN
100
AcDbCircle
 10
233.30132
 20
676.040018
 30
0.0
 40
1.353573
100
AcDbArc
 50
133.206
 51
141.429761
  0
LINE
  5
2F3
100
AcDbEntity
  8
1
  6
HIDDEN
100
AcDbLine
 10
232.374633
 20
677.026633
 30
0.0
 11
232.451397
 21
677.094705
 31
0.0
  0
ARC
  5
2F4
100
AcDbEntity
  8
0
100
AcDbCircle
 10
652.192392
 20
466.074646
 30
0.0
 40
187.328603
100
AcDbArc
 50
89.007691
 51
92.087218
  0
ARC
  5
2F5
100
AcDbEntity
  8
0
100
AcDbCircle
 10
652.582972
 20
453.966766
 30
0.0
 40
199.442681
100
AcDbArc
 50
92.072666
 51
95.026762
  0
LINE
  5
2F6
100
AcDbEntity
  8
0
100
AcDbLine
 10
635.107595
 20
652.642367
 30
0.0
 11
629.903287
 21
652.121416
 31
0.0
  0
ARC
  5
2F7
100
AcDbEntity
  8
0
100
AcDbCircle
 10
652.192392
 20
797.931652
 30
0.0
 40
187.328603
100
AcDbArc
 50
267.912782
 51
270.992309
  0
ARC
  5
2F8
100
AcDbEntity
  8
0
100
AcDbCircle
 10
652.582972
 20
810.039532
 30
0.0
 40
199.442681
100
AcDbArc
 50
264.973238
 51
267.927334
  0
LINE
  5
2F9
100
AcDbEntity
  8
0
100
AcDbLine
 10
635.107595
 20
611.363931
 30
0.0
 11
629.903287
 21
611.884883
 31
0.0
  0
ARC
  5
2FA
100
AcDbEntity
  8
0
100
AcDbCircle
 10
-2518.575887
 20
465.697429
 30
0.0
 40
2876.86434
100
AcDbArc
 50
357.581338
 51
357.984103
  0
ARC
  5
2FB
100
AcDbEntity
  8
0
100
AcDbCircle
 10
-1187.134717
 20
409.884913
 30
0.0
 40
1544.254012
100
AcDbArc
 50
356.9579
 51
357.565552
  0
ARC
  5
2FC
100
AcDbEntity
  8
0
100
AcDbCircle
 10
-348.030598
 20
365.619779
 30
0.0
 40
703.983288
100
AcDbArc
 50
355.911042
 51
356.931184
  0
ARC
  5
2FD
100
AcDbEntity
  8
0
100
AcDbCircle
 10
112.352973
 20
332.901967
 30
0.0
 40
242.43873
100
AcDbArc
 50
353.810175
 51
355.865379
  0
ARC
  5
2FE
100
AcDbEntity
  8
0
100
AcDbCircle
 10
307.633034
 20
311.731143
 30
0.0
 40
46.01443
100
AcDbArc
 50
347.727335
 51
353.79991
  0
ARC
  5
2FF
100
AcDbEntity
  8
0
100
AcDbCircle
 10
351.426876
 20
302.101407
 30
0.0
 40
1.178773
100
AcDbArc
 50
289.145956
 51
352.626206
  0
ARC
  5
300
100
AcDbEntity
  8
0
100
AcDbCircle
 10
357.320751
 20
304.029909
 30
0.0
 40
6.291596
100
AcDbArc
 50
181.413687
 51
208.915138
  0
ARC
  5
301
100
AcDbEntity
  8
0
100
AcDbCircle
 10
438.991213
 20
317.50509
 30
0.0
 40
89.00997
100
AcDbArc
 50
184.442387
 51
188.808557
  0
ARC
  5
302
100
AcDbEntity
  8
0
100
AcDbCircle
 10
710.015498
 20
342.524862
 30
0.0
 40
361.17959
100
AcDbArc
 50
183.385508
 51
185.069323
  0
ARC
  5
303
100
AcDbEntity
  8
0
100
AcDbCircle
 10
1284.015357
 20
379.091778
 30
0.0
 40
936.340749
100
AcDbArc
 50
182.660428
 51
183.544983
  0
ARC
  5
304
100
AcDbEntity
  8
0
100
AcDbCircle
 10
2274.607857
 20
427.206039
 30
0.0
 40
1928.099983
100
AcDbArc
 50
182.178501
 51
182.722313
  0
LINE
  5
305
100
AcDbEntity
  8
0
100
AcDbLine
 10
347.901408
 20
353.913471
 30
0.0
 11
347.5102
 21
364.498598
 31
0.0
  0
ARC
  5
306
100
AcDbEntity
  8
0
100
AcDbCircle
 10
385.631143
 20
19.837426
 30
0.0
 40
344.661172
100
AcDbArc
 50
87.206082
 51
89.996242
  0
ARC
  5
307
100
AcDbEntity
  8
0
100
AcDbCircle
 10
385.072175
 20
7.505268
 30
0.0
 40
357.00592
100
AcDbArc
 50
84.486997
 51
87.212953
  0
ARC
  5
308
100
AcDbEntity
  8
0
100
AcDbCircle
 10
3042.594065
 20
465.697429
 30
0.0
 40
2876.86434
100
AcDbArc
 50
182.015897
 51
182.418662
  0
ARC
  5
309
100
AcDbEntity
  8
0
100
AcDbCircle
 10
1711.152895
 20
409.884913
 30
0.0
 40
1544.254012
100
AcDbArc
 50
182.434448
 51
183.0421
  0
ARC
  5
30A
100
AcDbEntity
  8
0
100
AcDbCircle
 10
872.048776
 20
365.619779
 30
0.0
 40
703.983288
100
AcDbArc
 50
183.068816
 51
184.088958
  0
ARC
  5
30B
100
AcDbEntity
  8
0
100
AcDbCircle
 10
411.665205
 20
332.901967
 30
0.0
 40
242.43873
100
AcDbArc
 50
184.134621
 51
186.189825
  0
ARC
  5
30C
100
AcDbEntity
  8
0
100
AcDbCircle
 10
216.385144
 20
311.731143
 30
0.0
 40
46.01443
100
AcDbArc
 50
186.20009
 51
192.272665
  0
ARC
  5
30D
100
AcDbEntity
  8
0
100
AcDbCircle
 10
172.591302
 20
302.101407
 30
0.0
 40
1.178773
100
AcDbArc
 50
187.373794
 51
250.854044
  0
ARC
  5
30E
100
AcDbEntity
  8
0
100
AcDbCircle
 10
166.697427
 20
304.029909
 30
0.0
 40
6.291596
100
AcDbArc
 50
331.084862
 51
358.586313
  0
ARC
  5
30F
100
AcDbEntity
  8
0
100
AcDbCircle
 10
85.026965
 20
317.50509
 30
0.0
 40
89.00997
100
AcDbArc
 50
351.191443
 51
355.557613
  0
ARC
  5
310
100
AcDbEntity
  8
0
100
AcDbCircle
 10
-185.99732
 20
342.524862
 30
0.0
 40
361.17959
100
AcDbArc
 50
354.930677
 51
356.614492
  0
ARC
  5
311
100
AcDbEntity
  8
0
100
AcDbCircle
 10
-759.997179
 20
379.091778
 30
0.0
 40
936.340749
100
AcDbArc
 50
356.455017
 51
357.339572
  0
ARC
  5
312
100
AcDbEntity
  8
0
100
AcDbCircle
 10
-1750.589679
 20
427.206039
 30
0.0
 40
1928.099983
100
AcDbArc
 50
357.277687
 51
357.821499
  0
LINE
  5
313
100
AcDbEntity
  8
0
100
AcDbLine
 10
176.11677
 20
353.913471
 30
0.0
 11
176.507978
 21
364.498598
 31
0.0
  0
ARC
  5
314
100
AcDbEntity
  8
0
100
AcDbCircle
 10
138.387035
 20
19.837426
 30
0.0
 40
344.661172
100
AcDbArc
 50
90.003758
 51
92.793918
  0
ARC
  5
315
100
AcDbEntity
  8
0
100
AcDbCircle
 10
138.946003
 20
7.505268
 30
0.0
 40
357.00592
100
AcDbArc
 50
92.787047
 51
95.513003
  0
LINE
  5
316
100
AcDbEntity
  8
CENTER
100
AcDbLine
 10
519.293771
 20
632.003149
 30
0.0
 11
790.393771
 21
632.003149
 31
0.0
  0
LINE
  5
317
100
AcDbEntity
  8
CENTER
100
AcDbLine
 10
262.009089
 20
274.998598
 30
0.0
 11
262.009089
 21
253.998598
 31
0.0
  0
LINE
  5
318
100
AcDbEntity
  8
CENTER
100
AcDbLine
 10
127.509089
 20
264.498598
 30
0.0
 11
396.509089
 21
264.498598
 31
0.0
  0
LINE
  5
319
100
AcDbEntity
  8
CENTER
100
AcDbLine
 10
684.393771
 20
656.503149
 30
0.0
 11
684.393771
 21
482.003149
 31
0.0
  0
LINE
  5
31A
100
AcDbEntity
  8
CENTER
100
AcDbLine
 10
211.009089
 20
274.998598
 30
0.0
 11
211.009089
 21
253.998598
 31
0.0
  0
LINE
  5
31B
100
AcDbEntity
  8
CENTER
100
AcDbLine
 10
313.009089
 20
274.998598
 30
0.0
 11
313.009089
 21
253.998598
 31
0.0
  0
TEXT
  5
31C
100
AcDbEntity
  8
1
100
AcDbText
 10
184.918078
 20
86.440808
 30
0.0
 40
12.5
  1
Dimensional Diagram
 41
0.8
  7
UT7
 72
     4
 11
262.537126
 21
90.607474
 31
0.0
100
AcDbText
  0
LINE
  5
31D
100
AcDbEntity
  8
1
100
AcDbLine
 10
182.537126
 20
78.107474
 30
0.0
 11
342.537126
 21
78.107474
 31
0.0
  0
TEXT
  5
31E
100
AcDbEntity
  8
1
100
AcDbText
 10
591.475669
 20
459.590506
 30
0.0
 40
12.5
  1
Side View
 41
0.8
  7
UT7
 72
     4
 11
626.237573
 21
465.840506
 31
0.0
100
AcDbText
  0
LINE
  5
31F
100
AcDbEntity
  8
1
100
AcDbLine
 10
588.737573
 20
453.340506
 30
0.0
 11
663.737573
 21
453.340506
 31
0.0
  0
LINE
  5
320
100
AcDbEntity
  8
1
100
AcDbLine
 10
222.537126
 20
453.340506
 30
0.0
 11
302.537126
 21
453.340506
 31
0.0
  0
TEXT
  5
321
100
AcDbEntity
  8
1
100
AcDbText
 10
223.489507
 20
459.590506
 30
0.0
 40
12.5
  1
Front View
 41
0.8
  7
UT7
 72
     4
 11
262.537126
 21
465.840506
 31
0.0
100
AcDbText
  0
LINE
  5
322
100
AcDbEntity
  8
SCALE
100
AcDbLine
 10
399.743283
 20
151.146692
 30
0.0
 11
448.018311
 21
151.146692
 31
0.0
  0
TEXT
  5
323
100
AcDbEntity
  8
SCALE
100
AcDbText
 10
399.743283
 20
154.896692
 30
0.0
 40
11.0
  1
3-%%C11
  7
UT7
100
AcDbText
  0
TEXT
  5
324
100
AcDbEntity
  8
SCALE
100
AcDbText
 10
776.893771
 20
397.947442
 30
0.0
 40
11.0
  1
White
100
AcDbText
  0
TEXT
  5
325
100
AcDbEntity
  8
SCALE
100
AcDbText
 10
721.560438
 20
397.947442
 30
0.0
 40
11.0
  1
Black
 72
     2
 11
761.893771
 21
397.947442
 31
0.0
100
AcDbText
  0
TEXT
  5
35B
100
AcDbEntity
  8
1
100
AcDbText
 10
34.184505
 20
52.16887
 30
0.0
 40
12.5
  1
UNIT:mm
 41
0.8
  7
UT7
100
AcDbText
  0
TEXT
  5
35C
100
AcDbEntity
  8
1
100
AcDbText
 10
134.13921
 20
52.92887
 30
0.0
 40
12.5
  1
SCALE:1/4
 41
0.8
  7
UT7
100
AcDbText
  0
CIRCLE
  5
35D
100
AcDbEntity
  8
SCALE
100
AcDbCircle
 10
741.131161
 20
386.356262
 30
0.0
 40
7.526376
  0
TEXT
  5
35E
100
AcDbEntity
  8
SCALE
100
AcDbText
 10
736.515707
 20
381.874247
 30
0.0
 40
11.0
  1
+
100
AcDbText
  0
TEXT
  5
35F
100
AcDbEntity
  8
SCALE
100
AcDbText
 10
792.765614
 20
381.962701
 30
0.0
 40
11.0
  1
-
100
AcDbText
  0
CIRCLE
  5
360
100
AcDbEntity
  8
SCALE
100
AcDbCircle
 10
797.656382
 20
386.444716
 30
0.0
 40
7.526376
  0
DIMENSION
  5
39C
100
AcDbEntity
  8
SCALE
100
AcDbDimension
  2
*D9
 10
262.009089
 20
310.346472
 30
0.0
 11
236.509089
 21
321.346472
 31
0.0
 12
0.0
 22
-17.415156
 32
0.0
  1
51
  3
STANDARD
100
AcDbAlignedDimension
 13
211.009089
 23
274.998598
 33
0.0
 14
262.009089
 24
274.998598
 34
0.0
100
AcDbRotatedDimension
  0
DIMENSION
  5
39D
100
AcDbEntity
  8
SCALE
100
AcDbDimension
  2
*D10
 10
313.009089
 20
310.346472
 30
0.0
 11
287.509089
 21
321.346472
 31
0.0
 12
0.0
 22
-17.415156
 32
0.0
  1
51
  3
STANDARD
100
AcDbAlignedDimension
 13
262.009089
 23
274.998598
 33
0.0
 14
313.009089
 24
274.998598
 34
0.0
100
AcDbRotatedDimension
  0
ENDSEC
  0
SECTION
  2
OBJECTS
  0
DICTIONARY
  5
41D
100
AcDbDictionary
  3
ACAD_GROUP
350
41E
  3
ACAD_MLINESTYLE
350
41F
  0
DICTIONARY
  5
41E
102
{ACAD_REACTORS
330
41D
102
}
100
AcDbDictionary
  0
DICTIONARY
  5
41F
102
{ACAD_REACTORS
330
41D
102
}
100
AcDbDictionary
  3
STANDARD
350
420
  0
MLINESTYLE
  5
420
102
{ACAD_REACTORS
330
41F
102
}
100
AcDbMlineStyle
  2
STANDARD
 70
     0
  3

 62
     0
 51
90.0
 52
90.0
 71
     2
 49
0.5
 62
   256
  6
BYLAYER
 49
-0.5
 62
   256
  6
BYLAYER
  0
ENDSEC
  0
EOF
